osu file format v14

[General]
AudioFilename: audio.mp3
AudioLeadIn: 0
PreviewTime: 19247
Countdown: 0
SampleSet: None
StackLeniency: 0.7
Mode: 0
LetterboxInBreaks: 0
WidescreenStoryboard: 1

[Editor]
DistanceSpacing: 1
BeatDivisor: 4
GridSize: 8
TimelineZoom: 1

[Metadata]
Title:Parom & Polom
TitleUnicode:パロム・ポロムのテーマ
Artist:Nobuo Uematsu
ArtistUnicode:植松伸夫
Creator:MoodyRPG
Version:Easy
Source:ファイナルファンタジーIV
Tags:ffiv ff4 squaresoft snes famicom super nintendo FINAL FANTASY SQUARE ENIX
BeatmapID:1103291
BeatmapSetID:519321

[Difficulty]
HPDrainRate:3
CircleSize:3
OverallDifficulty:3
ApproachRate:3
SliderMultiplier:0.8
SliderTickRate:2

[Events]
//Background and Video events
0,0,"PP.jpg",0,0
//Break Periods
//Storyboard Layer 0 (Background)
//Storyboard Layer 1 (Fail)
//Storyboard Layer 2 (Pass)
//Storyboard Layer 3 (Foreground)
//Storyboard Sound Samples

[TimingPoints]
355,524.796641301496,4,3,0,45,1,0

[Colours]
Combo1 : 255,192,0
Combo2 : 64,255,255
Combo3 : 255,128,0
Combo4 : 255,13,13

[HitObjects]
338,30,355,6,0,P|300:41|262:71,1,80,0|0,3:0|0:0,0:0:0:0:
208,120,1404,2,0,P|175:143|137:154,1,80,0|0,3:0|0:0,0:0:0:0:
66,123,2454,1,2,0:0:0:0:
16,186,2978,1,0,0:0:0:0:
46,259,3503,2,0,L|68:339,1,80,2|0,3:0|0:0,0:0:0:0:
147,337,4553,6,0,P|187:335|229:352,1,80,2|0,3:0|0:0,0:0:0:0:
302,366,5602,2,0,P|342:371|381:360,1,80,2|0,3:0|0:0,0:0:0:0:
448,319,6652,2,0,L|487:146,1,160,2|2,3:0|3:0,0:0:0:0:
411,128,8226,1,0,0:0:0:0:
332,141,8751,6,0,P|256:126|205:56,2,160,2|2|2,3:0|0:0|0:0,0:0:0:0:
411,128,11375,2,0,P|426:91|426:45,2,80,0|2|0,0:0|0:0|0:0,0:0:0:0:
446,199,12950,6,0,B|446:251|464:276|464:276|447:301|447:359,1,160,2|2,0:0|0:0,0:0:0:0:
367,361,14524,1,0,0:0:0:0:
291,335,15049,2,0,B|221:335|221:335|157:335|135:287,1,160,2|0,0:0|0:0,0:0:0:0:
177,227,16623,1,0,0:0:0:0:
158,149,17148,6,0,P|133:100|145:32,2,120,2|0|2,2:0|2:0|2:0,2:0:0:0:
230,115,19247,6,0,P|266:104|311:108,1,80
384,112,20297,2,0,L|409:201,1,80
461,246,21346,1,2,0:0:0:0:
411,308,21871,1,0,0:0:0:0:
340,269,22396,2,0,P|303:259|256:263,1,80,2|0,0:0|0:0,0:0:0:0:
220,330,23446,6,0,P|253:257|218:176,1,160,2|2,0:0|0:0,0:0:0:0:
179,121,25020,1,0,0:0:0:0:
123,177,25545,2,0,P|90:247|115:321,1,160,2|2,0:0|0:0,0:0:0:0:
187,285,27119,1,0,0:0:0:0:
238,346,27644,6,0,B|283:305|283:305|334:305|390:305,1,160,2|2,0:0|0:0,0:0:0:0:
449,350,29218,1,0,0:0:0:0:
490,282,29743,2,0,B|502:242|502:242|485:199,1,80,2|0,0:0|0:0,0:0:0:0:
431,149,30793,2,0,B|393:134|393:134|352:151,1,80,2|0,0:0|0:0,0:0:0:0:
303,208,31842,6,0,B|230:208|230:208|181:208|154:244,1,160,2|2,0:0|0:0,0:0:0:0:
110,310,33417,1,0,0:0:0:0:
38,273,33941,2,0,L|18:184,1,80,2|0,0:0|0:0,0:0:0:0:
55,122,34991,2,0,P|93:109|141:116,1,80
209,134,36041,6,0,L|225:1,2,120,2|0|2,2:0|2:0|2:0,2:0:0:0:
286,164,38140,6,0,P|277:243|285:322,1,160
362,347,39714,1,0,0:0:0:0:
427,300,40239,2,0,P|455:272|466:233,1,80,2|0,0:0|0:0,0:0:0:0:
465,153,41289,2,0,P|453:114|425:86,1,80,2|0,0:0|0:0,0:0:0:0:
347,68,42338,6,0,L|184:84,1,160,2|2,0:0|0:0,0:0:0:0:
158,158,43913,1,0,0:0:0:0:
208,220,44437,2,0,L|306:212,2,80,2|0|2,0:0|0:0|0:0,0:0:0:0:
128,231,46012,1,0,0:0:0:0:
176,296,46537,6,0,P|99:307|49:241,1,160,2|2,3:0|0:0,0:0:0:0:
16,176,48111,1,0,0:0:0:0:
28,96,48636,2,0,P|59:69|111:57,1,80,2|0,0:0|0:0,0:0:0:0:
175,55,49685,2,0,P|212:67|242:93,1,80,2|0,0:0|0:0,0:0:0:0:
253,172,50735,6,0,P|192:223|118:204,1,160,2|2,3:0|0:0,0:0:0:0:
69,267,52309,1,0,0:0:0:0:
108,336,52834,2,0,L|281:345,1,160,2|0,0:0|0:0,0:0:0:0:
328,295,54409,1,0,0:0:0:0:
256,192,54933,12,0,57033,0:0:0:0:
