osu file format v14

[General]
AudioFilename: Final Fantasy VII OST - Fiddle de Chocobo.mp3
AudioLeadIn: 0
PreviewTime: 3769
Countdown: 1
SampleSet: Soft
StackLeniency: 0.7
Mode: 1
LetterboxInBreaks: 1
WidescreenStoryboard: 1

[Editor]
Bookmarks: 3885,59122,62266
DistanceSpacing: 0.9
BeatDivisor: 4
GridSize: 8
TimelineZoom: 1.6

[Metadata]
Title:Fiddle de Chocobo
TitleUnicode:Fiddle de Chocobo
Artist:Nobuo Uematsu
ArtistUnicode:Nobuo Uematsu
Creator:Dytrus
Version:Oni
Source:Final Fantasy VII
Tags:ff7 ffvii rpg ska country fastmoving gold saucer chocobo racing
BeatmapID:1611596
BeatmapSetID:766647

[Difficulty]
HPDrainRate:6.5
CircleSize:5
OverallDifficulty:6
ApproachRate:8
SliderMultiplier:2
SliderTickRate:1

[Events]
//Background and Video events
0,0,"Chocobo FanArt.jpg",0,0
//Break Periods
//Storyboard Layer 0 (Background)
//Storyboard Layer 1 (Fail)
//Storyboard Layer 2 (Pass)
//Storyboard Layer 3 (Foreground)
//Storyboard Sound Samples

[TimingPoints]
2246,406.2288422478,4,2,0,65,1,0

[Colours]
Combo1 : 240,5,5
Combo2 : 5,240,5
Combo3 : 5,5,240

[HitObjects]
256,192,621,5,8,0:0:0:0:
256,192,824,1,0,0:0:0:0:
256,192,925,1,0,0:0:0:0:
256,192,1027,1,0,0:0:0:0:
256,192,1230,1,0,0:0:0:0:
256,192,1332,1,0,0:0:0:0:
256,192,1433,1,8,0:0:0:0:
256,192,1636,1,0,0:0:0:0:
256,192,1738,1,0,0:0:0:0:
256,192,1839,1,0,0:0:0:0:
256,192,2042,1,0,0:0:0:0:
256,192,2144,1,0,0:0:0:0:
256,192,2246,1,8,0:0:0:0:
256,192,2449,1,0,0:0:0:0:
256,192,2550,1,0,0:0:0:0:
256,192,2653,1,0,0:0:0:0:
256,192,2855,1,0,0:0:0:0:
256,192,2956,1,0,0:0:0:0:
256,192,3059,1,8,0:0:0:0:
256,192,3261,1,0,0:0:0:0:
256,192,3464,1,0,0:0:0:0:
256,192,3667,1,0,0:0:0:0:
256,192,3870,5,12,0:0:0:0:
256,192,4277,1,0,0:0:0:0:
256,192,4480,1,8,0:0:0:0:
256,192,4581,1,8,0:0:0:0:
256,192,4683,1,8,0:0:0:0:
256,192,4886,1,8,0:0:0:0:
256,192,5089,1,0,0:0:0:0:
256,192,5191,1,0,0:0:0:0:
256,192,5292,1,8,0:0:0:0:
256,192,5495,1,8,0:0:0:0:
256,192,5902,1,0,0:0:0:0:
256,192,6308,1,8,0:0:0:0:
256,192,6511,1,0,0:0:0:0:
256,192,6612,1,0,0:0:0:0:
256,192,6714,1,0,0:0:0:0:
256,192,6917,1,8,0:0:0:0:
256,192,7120,1,0,0:0:0:0:
256,192,7323,1,8,0:0:0:0:
256,192,7425,1,0,0:0:0:0:
256,192,7526,1,0,0:0:0:0:
256,192,7730,1,0,0:0:0:0:
256,192,7933,1,0,0:0:0:0:
256,192,8136,1,8,0:0:0:0:
256,192,8204,1,8,0:0:0:0:
256,192,8271,1,8,0:0:0:0:
256,192,8339,1,0,0:0:0:0:
256,192,8440,1,0,0:0:0:0:
256,192,8542,1,8,0:0:0:0:
256,192,8644,1,0,0:0:0:0:
256,192,8745,1,8,0:0:0:0:
256,192,8949,1,8,0:0:0:0:
256,192,9051,1,8,0:0:0:0:
256,192,9152,1,8,0:0:0:0:
256,192,9355,1,0,0:0:0:0:
256,192,9558,1,0,0:0:0:0:
256,192,9761,1,8,0:0:0:0:
256,192,9862,1,8,0:0:0:0:
256,192,9964,1,0,0:0:0:0:
256,192,10167,1,0,0:0:0:0:
256,192,10269,1,0,0:0:0:0:
256,192,10370,1,12,0:0:0:0:
256,192,10776,1,0,0:0:0:0:
256,192,10979,1,8,0:0:0:0:
256,192,11081,1,8,0:0:0:0:
256,192,11182,1,0,0:0:0:0:
256,192,11386,1,8,0:0:0:0:
256,192,11589,1,0,0:0:0:0:
256,192,11690,1,0,0:0:0:0:
256,192,11792,1,8,0:0:0:0:
256,192,11893,1,0,0:0:0:0:
256,192,11995,1,8,0:0:0:0:
256,192,12401,1,8,0:0:0:0:
256,192,12807,1,8,0:0:0:0:
256,192,13011,1,8,0:0:0:0:
256,192,13112,1,0,0:0:0:0:
256,192,13214,1,8,0:0:0:0:
256,192,13417,1,8,0:0:0:0:
256,192,13518,1,0,0:0:0:0:
256,192,13620,1,8,0:0:0:0:
256,192,13823,1,0,0:0:0:0:
256,192,13924,1,8,0:0:0:0:
256,192,14026,1,8,0:0:0:0:
256,192,14229,1,0,0:0:0:0:
256,192,14432,1,8,0:0:0:0:
256,192,14635,1,8,0:0:0:0:
256,192,14703,1,8,0:0:0:0:
256,192,14770,1,8,0:0:0:0:
256,192,14838,1,0,0:0:0:0:
256,192,14939,1,0,0:0:0:0:
256,192,15041,1,8,0:0:0:0:
256,192,15143,1,0,0:0:0:0:
256,192,15244,1,8,0:0:0:0:
256,192,15448,1,8,0:0:0:0:
256,192,15550,1,8,0:0:0:0:
256,192,15651,1,8,0:0:0:0:
256,192,15854,1,0,0:0:0:0:
256,192,16057,5,0,0:0:0:0:
256,192,16260,1,8,0:0:0:0:
256,192,16361,1,8,0:0:0:0:
256,192,16463,1,0,0:0:0:0:
256,192,16666,1,8,0:0:0:0:
256,192,16768,1,0,0:0:0:0:
256,192,16870,1,2,0:0:0:0:
256,192,17276,5,0,0:0:0:0:
256,192,17479,5,8,0:0:0:0:
256,192,17682,5,0,0:0:0:0:
256,192,17885,1,0,0:0:0:0:
256,192,18088,1,8,0:0:0:0:
256,192,18292,1,0,0:0:0:0:
256,192,18495,1,8,0:0:0:0:
256,192,18901,1,0,0:0:0:0:
256,192,19307,2,0,L|320:192,4,50
256,192,19916,5,8,0:0:0:0:
256,192,20120,1,0,0:0:0:0:
256,192,20526,5,8,0:0:0:0:
256,192,20729,5,8,0:0:0:0:
256,192,20932,5,0,0:0:0:0:
256,192,21135,1,8,0:0:0:0:
256,192,21338,1,0,0:0:0:0:
256,192,21542,1,0,0:0:0:0:
256,192,21745,1,8,0:0:0:0:
256,192,21948,1,0,0:0:0:0:
256,192,22049,1,8,0:0:0:0:
256,192,22151,1,0,0:0:0:0:
256,192,22354,1,8,0:0:0:0:
256,192,22557,1,0,0:0:0:0:
256,192,22658,1,8,0:0:0:0:
256,192,22760,1,8,0:0:0:0:
256,192,22862,1,0,0:0:0:0:
256,192,22963,1,0,0:0:0:0:
256,192,23065,1,8,0:0:0:0:
256,192,23166,1,8,0:0:0:0:
256,192,23268,1,0,0:0:0:0:
256,192,23369,1,8,0:0:0:0:
256,192,23572,5,8,0:0:0:0:
256,192,23674,1,8,0:0:0:0:
256,192,23775,1,0,0:0:0:0:
256,192,23978,1,0,0:0:0:0:
256,192,24181,1,8,0:0:0:0:
256,192,24384,1,0,0:0:0:0:
256,192,24588,1,0,0:0:0:0:
256,192,24791,1,8,0:0:0:0:
256,192,24994,1,0,0:0:0:0:
256,192,25401,1,8,0:0:0:0:
256,192,25807,2,0,L|320:192,4,50
256,192,26416,5,0,0:0:0:0:
256,192,26619,5,8,0:0:0:0:
256,192,26720,1,0,0:0:0:0:
256,192,26822,1,8,0:0:0:0:
256,192,26924,1,8,0:0:0:0:
256,192,27025,1,0,0:0:0:0:
256,192,27127,1,8,0:0:0:0:
256,192,27229,1,0,0:0:0:0:
256,192,27330,1,8,0:0:0:0:
256,192,27432,1,8,0:0:0:0:
256,192,27533,1,0,0:0:0:0:
256,192,27634,5,8,0:0:0:0:
256,192,27735,1,0,0:0:0:0:
256,192,27837,1,8,0:0:0:0:
256,192,27939,1,8,0:0:0:0:
256,192,28040,1,0,0:0:0:0:
256,192,28142,1,8,0:0:0:0:
256,192,28244,1,0,0:0:0:0:
256,192,28345,1,8,0:0:0:0:
256,192,28447,1,8,0:0:0:0:
256,192,28548,1,0,0:0:0:0:
256,192,28650,5,8,0:0:0:0:
256,192,28751,1,0,0:0:0:0:
256,192,28853,1,8,0:0:0:0:
256,192,28955,1,8,0:0:0:0:
256,192,29056,1,0,0:0:0:0:
256,192,29462,1,8,0:0:0:0:
256,192,29869,5,12,0:0:0:0:
256,192,30276,1,0,0:0:0:0:
256,192,30479,1,8,0:0:0:0:
256,192,30580,1,8,0:0:0:0:
256,192,30682,1,8,0:0:0:0:
256,192,30885,1,8,0:0:0:0:
256,192,31088,1,0,0:0:0:0:
256,192,31190,1,0,0:0:0:0:
256,192,31291,1,8,0:0:0:0:
256,192,31494,1,8,0:0:0:0:
256,192,31901,1,0,0:0:0:0:
256,192,32307,1,8,0:0:0:0:
256,192,32510,1,0,0:0:0:0:
256,192,32611,1,0,0:0:0:0:
256,192,32713,1,0,0:0:0:0:
256,192,32916,1,8,0:0:0:0:
256,192,33119,1,0,0:0:0:0:
256,192,33322,1,8,0:0:0:0:
256,192,33424,1,0,0:0:0:0:
256,192,33525,1,0,0:0:0:0:
256,192,33729,1,0,0:0:0:0:
256,192,33932,1,0,0:0:0:0:
256,192,34135,1,8,0:0:0:0:
256,192,34203,1,8,0:0:0:0:
256,192,34270,1,8,0:0:0:0:
256,192,34338,1,0,0:0:0:0:
256,192,34439,1,0,0:0:0:0:
256,192,34541,1,8,0:0:0:0:
256,192,34643,1,0,0:0:0:0:
256,192,34744,1,8,0:0:0:0:
256,192,34947,1,8,0:0:0:0:
256,192,35049,1,8,0:0:0:0:
256,192,35150,1,8,0:0:0:0:
256,192,35353,1,8,0:0:0:0:
256,192,35556,1,0,0:0:0:0:
256,192,35759,1,8,0:0:0:0:
256,192,35860,1,8,0:0:0:0:
256,192,35962,1,0,0:0:0:0:
256,192,36165,1,0,0:0:0:0:
256,192,36267,1,8,0:0:0:0:
256,192,36369,1,12,0:0:0:0:
256,192,36775,1,0,0:0:0:0:
256,192,36978,1,8,0:0:0:0:
256,192,37080,1,8,0:0:0:0:
256,192,37181,1,0,0:0:0:0:
256,192,37385,1,8,0:0:0:0:
256,192,37588,1,0,0:0:0:0:
256,192,37689,1,0,0:0:0:0:
256,192,37791,1,8,0:0:0:0:
256,192,37892,1,0,0:0:0:0:
256,192,37994,1,8,0:0:0:0:
256,192,38400,1,8,0:0:0:0:
256,192,38806,1,8,0:0:0:0:
256,192,39010,1,8,0:0:0:0:
256,192,39111,1,0,0:0:0:0:
256,192,39213,1,8,0:0:0:0:
256,192,39416,1,8,0:0:0:0:
256,192,39517,1,0,0:0:0:0:
256,192,39619,1,8,0:0:0:0:
256,192,39822,1,0,0:0:0:0:
256,192,39923,1,8,0:0:0:0:
256,192,40025,1,8,0:0:0:0:
256,192,40228,1,0,0:0:0:0:
256,192,40431,1,8,0:0:0:0:
256,192,40634,1,8,0:0:0:0:
256,192,40702,1,8,0:0:0:0:
256,192,40769,1,8,0:0:0:0:
256,192,40837,1,0,0:0:0:0:
256,192,40938,1,0,0:0:0:0:
256,192,41040,1,8,0:0:0:0:
256,192,41142,1,0,0:0:0:0:
256,192,41243,1,8,0:0:0:0:
256,192,41447,1,8,0:0:0:0:
256,192,41549,1,8,0:0:0:0:
256,192,41650,1,8,0:0:0:0:
256,192,41853,1,0,0:0:0:0:
256,192,42056,5,0,0:0:0:0:
256,192,42259,1,8,0:0:0:0:
256,192,42360,1,8,0:0:0:0:
256,192,42462,1,0,0:0:0:0:
256,192,42665,1,8,0:0:0:0:
256,192,42767,1,0,0:0:0:0:
256,192,42868,1,12,0:0:0:0:
256,192,43275,5,0,0:0:0:0:
256,192,43478,5,8,0:0:0:0:
256,192,43681,5,0,0:0:0:0:
256,192,43884,1,0,0:0:0:0:
256,192,44087,1,8,0:0:0:0:
256,192,44291,1,0,0:0:0:0:
256,192,44494,1,8,0:0:0:0:
256,192,44900,1,0,0:0:0:0:
256,192,45306,2,0,L|320:192,4,50
256,192,45915,5,0,0:0:0:0:
256,192,46118,1,8,0:0:0:0:
256,192,46524,1,8,0:0:0:0:
256,192,46727,1,0,0:0:0:0:
256,192,46930,1,8,0:0:0:0:
256,192,47032,1,8,0:0:0:0:
256,192,47133,1,0,0:0:0:0:
256,192,47235,1,8,0:0:0:0:
256,192,47337,1,8,0:0:0:0:
256,192,47438,1,0,0:0:0:0:
256,192,47540,1,8,0:0:0:0:
256,192,47642,1,8,0:0:0:0:
256,192,47743,1,8,0:0:0:0:
256,192,47946,1,8,0:0:0:0:
256,192,48048,1,8,0:0:0:0:
256,192,48149,1,8,0:0:0:0:
256,192,48352,1,8,0:0:0:0:
256,192,48556,1,8,0:0:0:0:
256,192,48658,1,0,0:0:0:0:
256,192,48759,1,8,0:0:0:0:
256,192,48860,1,0,0:0:0:0:
256,192,48962,1,8,0:0:0:0:
256,192,49063,1,0,0:0:0:0:
256,192,49165,1,0,0:0:0:0:
256,192,49266,1,8,0:0:0:0:
256,192,49368,1,8,0:0:0:0:
256,192,49571,1,8,0:0:0:0:
256,192,49673,1,8,0:0:0:0:
256,192,49775,1,8,0:0:0:0:
256,192,49977,5,8,0:0:0:0:
256,192,50180,5,0,0:0:0:0:
256,192,50383,1,0,0:0:0:0:
256,192,50586,1,0,0:0:0:0:
256,192,50688,1,8,0:0:0:0:
256,192,50790,1,8,0:0:0:0:
256,192,50891,1,0,0:0:0:0:
256,192,50993,1,0,0:0:0:0:
256,192,51399,1,0,0:0:0:0:
256,192,51805,2,0,L|320:192,4,50
256,192,52415,5,0,0:0:0:0:
256,192,52618,5,8,0:0:0:0:
256,192,52719,1,0,0:0:0:0:
256,192,52821,1,8,0:0:0:0:
256,192,52923,1,8,0:0:0:0:
256,192,53024,1,0,0:0:0:0:
256,192,53126,1,8,0:0:0:0:
256,192,53228,1,0,0:0:0:0:
256,192,53329,1,8,0:0:0:0:
256,192,53431,1,8,0:0:0:0:
256,192,53532,1,0,0:0:0:0:
256,192,53633,5,8,0:0:0:0:
256,192,53734,1,0,0:0:0:0:
256,192,53836,1,8,0:0:0:0:
256,192,53938,1,8,0:0:0:0:
256,192,54039,1,0,0:0:0:0:
256,192,54141,1,8,0:0:0:0:
256,192,54243,1,0,0:0:0:0:
256,192,54344,1,8,0:0:0:0:
256,192,54446,1,8,0:0:0:0:
256,192,54547,1,0,0:0:0:0:
256,192,54649,5,8,0:0:0:0:
256,192,54750,1,0,0:0:0:0:
256,192,54852,1,8,0:0:0:0:
256,192,54954,1,8,0:0:0:0:
256,192,55055,1,0,0:0:0:0:
256,192,55461,1,8,0:0:0:0:
256,192,55868,1,4,0:0:0:0:
256,192,56680,1,0,0:0:0:0:
256,192,57493,1,12,0:0:0:0:
256,192,57696,1,12,0:0:0:0:
256,192,59118,5,8,0:0:0:0:
256,192,59321,1,0,0:0:0:0:
256,192,59422,1,8,0:0:0:0:
256,192,59524,1,8,0:0:0:0:
256,192,59727,1,8,0:0:0:0:
256,192,59828,1,0,0:0:0:0:
256,192,59930,1,0,0:0:0:0:
256,192,60133,1,0,0:0:0:0:
256,192,60234,1,8,0:0:0:0:
256,192,60336,1,0,0:0:0:0:
256,192,60438,1,0,0:0:0:0:
256,192,60539,1,8,0:0:0:0:
256,192,60742,1,8,0:0:0:0:
256,192,61047,1,8,0:0:0:0:
256,192,61149,1,0,0:0:0:0:
256,192,61555,1,8,0:0:0:0:
256,192,61758,1,8,0:0:0:0:
256,192,61860,1,8,0:0:0:0:
256,192,61961,1,8,0:0:0:0:
256,192,62164,5,0,0:0:0:0:
256,192,62265,1,0,0:0:0:0:
256,192,62367,1,0,0:0:0:0:
256,192,62570,1,0,0:0:0:0:
256,192,62672,1,0,0:0:0:0:
256,192,62773,1,8,0:0:0:0:
256,192,62976,1,0,0:0:0:0:
256,192,63078,1,0,0:0:0:0:
256,192,63179,1,0,0:0:0:0:
256,192,63382,1,0,0:0:0:0:
256,192,63484,1,0,0:0:0:0:
256,192,63586,1,8,0:0:0:0:
256,192,63789,1,0,0:0:0:0:
256,192,63891,1,0,0:0:0:0:
256,192,63992,1,8,0:0:0:0:
256,192,64195,1,8,0:0:0:0:
256,192,64398,1,0,0:0:0:0:
256,192,64805,1,8,0:0:0:0:
256,192,65617,5,8,0:0:0:0:
256,192,65820,1,0,0:0:0:0:
256,192,65922,1,0,0:0:0:0:
256,192,66023,1,0,0:0:0:0:
256,192,66227,1,0,0:0:0:0:
256,192,66430,1,8,0:0:0:0:
256,192,66633,1,8,0:0:0:0:
256,192,66701,1,8,0:0:0:0:
256,192,66768,1,8,0:0:0:0:
256,192,66836,1,0,0:0:0:0:
256,192,66937,1,0,0:0:0:0:
256,192,67039,1,8,0:0:0:0:
256,192,67141,1,0,0:0:0:0:
256,192,67242,1,8,0:0:0:0:
256,192,67446,1,8,0:0:0:0:
256,192,67548,1,8,0:0:0:0:
256,192,67649,1,8,0:0:0:0:
256,192,67851,1,0,0:0:0:0:
256,192,68055,1,8,0:0:0:0:
256,192,68258,1,8,0:0:0:0:
256,192,68359,1,8,0:0:0:0:
256,192,68461,1,8,0:0:0:0:
256,192,68664,1,8,0:0:0:0:
256,192,68765,1,8,0:0:0:0:
256,192,68867,5,0,0:0:0:0:
256,192,69070,1,0,0:0:0:0:
256,192,69172,1,0,0:0:0:0:
256,192,69273,1,8,0:0:0:0:
256,192,69476,1,8,0:0:0:0:
256,192,69679,2,0,L|320:192,4,50
256,192,70289,1,8,0:0:0:0:
256,192,70492,2,4,L|320:192,4,50
256,192,71101,1,8,0:0:0:0:
256,192,71304,12,0,71812,0:0:0:0:
256,192,72117,5,0,0:0:0:0:
256,192,72320,1,8,0:0:0:0:
256,192,72421,1,8,0:0:0:0:
256,192,72523,1,8,0:0:0:0:
256,192,72726,1,0,0:0:0:0:
256,192,72929,1,0,0:0:0:0:
256,192,73132,1,8,0:0:0:0:
256,192,73336,1,8,0:0:0:0:
256,192,73539,1,0,0:0:0:0:
256,192,73742,1,8,0:0:0:0:
256,192,73945,1,0,0:0:0:0:
256,192,74046,1,8,0:0:0:0:
256,192,74148,1,8,0:0:0:0:
256,192,74250,1,8,0:0:0:0:
256,192,74351,1,8,0:0:0:0:
256,192,74554,1,12,0:0:0:0:
