osu file format v14

[General]
AudioFilename: audio.mp3
AudioLeadIn: 1000
PreviewTime: 2001
Countdown: 0
SampleSet: Soft
StackLeniency: 0.7
Mode: 0
LetterboxInBreaks: 0
WidescreenStoryboard: 0

[Editor]
DistanceSpacing: 1
BeatDivisor: 4
GridSize: 4
TimelineZoom: 1

[Metadata]
Title:Faerie Battle
TitleUnicode:フェアリーバトル
Artist:Nobuo Uematsu
ArtistUnicode:植松伸夫
Creator:MoodyRPG
Version:Hard
Source:ファイナルファンタジーIX
Tags:Gabe Veus ffix ff9 FINAL FANTASY squaresoft square enix ps1 playstation
BeatmapID:1356400
BeatmapSetID:639562

[Difficulty]
HPDrainRate:7
CircleSize:4
OverallDifficulty:7
ApproachRate:7
SliderMultiplier:1.7
SliderTickRate:1

[Events]
//Background and Video events
0,0,"ZidaneGarnet.jpg",0,0
//Break Periods
//Storyboard Layer 0 (Background)
//Storyboard Layer 1 (Fail)
//Storyboard Layer 2 (Pass)
//Storyboard Layer 3 (Foreground)
//Storyboard Sound Samples

[TimingPoints]
2001,444.444444444444,3,2,1,50,1,0
49112,-100,3,2,2,50,0,0
50000,-100,3,2,1,40,0,0

[Colours]
Combo1 : 128,128,255
Combo2 : 255,128,64
Combo3 : 0,255,255
Combo4 : 0,0,160

[HitObjects]
42,324,2001,6,0,L|51:229,1,85,0|2,0:0|0:0,0:0:0:0:
132,115,2445,2,0,L|125:200,1,85,0|2,0:0|0:0,0:0:0:0:
177,266,2889,2,0,P|257:252|335:309,1,170
406,331,3556,1,2,0:0:0:0:
446,256,3778,2,0,P|435:213|440:167,1,85,0|2,0:0|0:0,0:0:0:0:
510,126,4223,2,0,P|446:163|349:145,1,170
273,122,4889,5,2,0:0:0:0:
273,122,5112,2,0,P|259:80|265:33,1,85,0|2,0:0|0:0,0:0:0:0:
346,28,5556,2,0,L|163:39,1,170
89,22,6223,1,2,0:0:0:0:
48,92,6445,2,0,P|31:130|34:182,2,85,0|2|0,0:0|0:0|0:0,0:0:0:0:
145,230,7334,6,0,P|162:192|161:150,1,85,0|2,0:0|0:0,0:0:0:0:
55,265,7778,2,0,P|38:303|41:355,1,85,0|2,0:0|0:0,0:0:0:0:
121,364,8223,2,0,L|299:360,1,170
334,287,8889,1,2,0:0:0:0:
318,203,9112,2,0,P|282:220|253:259,2,85,0|2|0,0:0|0:0|0:0,0:0:0:0:
356,26,10000,6,0,P|330:59|292:78,1,85,0|2,0:0|0:0,0:0:0:0:
218,37,10445,2,0,P|145:32|48:86,2,170,0|2|2,0:0|0:0|0:0,0:0:0:0:
403,346,12667,6,0,P|446:339|479:311,2,85,0|2|0,0:0|0:0|0:0,0:0:0:0:
408,260,13334,1,2,0:0:0:0:
408,260,13556,2,0,L|331:103,1,170
254,74,14223,1,2,0:0:0:0:
226,154,14445,2,0,L|265:247,1,85,0|2,0:0|0:0,0:0:0:0:
210,302,14889,2,0,P|130:327|50:301,1,170
13,224,15556,6,0,P|0:185|10:141,1,85,2|0,0:0|0:0,0:0:0:0:
84,182,16000,1,2,0:0:0:0:
161,146,16223,2,0,B|201:124|243:146|292:173|326:143,1,170
378,78,16889,1,2,0:0:0:0:
447,127,17112,1,0,0:0:0:0:
440,211,17334,1,2,0:0:0:0:
356,224,17556,2,0,P|346:276|450:345,1,170
497,302,18223,5,2,0:0:0:0:
497,302,18445,2,0,P|504:258|492:216,1,85,0|2,0:0|0:0,0:0:0:0:
435,157,18889,2,0,P|363:141|342:45,1,170
421,74,19556,2,0,L|519:74,2,85,2|0|2,0:0|0:0|0:0,0:0:0:0:
337,56,20223,2,0,B|263:56|263:56|243:45|243:45|170:45,1,170,0|2,0:0|0:0,0:0:0:0:
96,2,20889,5,0,0:0:0:0:
43,69,21112,2,0,P|59:110|50:153,1,85,0|2,0:0|0:0,0:0:0:0:
10,222,21556,2,0,P|2:263|18:303,1,85,0|2,0:0|0:0,0:0:0:0:
92,343,22000,1,2,0:0:0:0:
443,307,23334,5,0,0:0:0:0:
443,307,23556,1,0,0:0:0:0:
443,307,23778,2,0,P|431:231|442:132,1,170,0|2,0:0|0:0,0:0:0:0:
308,30,24667,1,0,0:0:0:0:
308,30,24889,1,0,0:0:0:0:
308,30,25112,2,0,P|317:114|305:198,1,170,0|2,0:0|0:0,0:0:0:0:
214,341,26000,5,0,0:0:0:0:
128,335,26223,1,0,0:0:0:0:
43,329,26445,2,0,P|32:245|46:157,1,170,2|0,0:0|0:0,0:0:0:0:
114,112,27112,1,0,0:0:0:0:
179,166,27334,2,0,B|219:184|257:151|257:151|298:184|337:166,2,170,2|0|2,0:0|0:0|0:0,0:0:0:0:
316,65,28667,6,0,P|255:14|199:66,2,170,0|2|0,0:0|0:0|0:0,0:0:0:0:
396,37,29778,1,0,0:0:0:0:
460,90,30000,2,0,B|434:170|434:170|460:255,1,170,2|0,0:0|0:0,0:0:0:0:
400,314,30667,1,0,0:0:0:0:
400,314,30889,1,2,0:0:0:0:
322,120,31334,6,0,P|330:81|360:44,1,85
255,168,31778,2,0,L|255:259,1,85,2|0,0:0|0:0,0:0:0:0:
190,120,32223,2,0,P|182:81|152:44,1,85,2|0,0:0|0:0,0:0:0:0:
70,36,32667,1,0,0:0:0:0:
70,36,32889,1,0,0:0:0:0:
21,105,33112,2,0,P|29:144|59:181,1,85,2|0,0:0|0:0,0:0:0:0:
151,304,33556,2,0,P|142:262|116:230,1,85,2|0,0:0|0:0,0:0:0:0:
139,154,34000,5,0,0:0:0:0:
139,154,34223,1,0,0:0:0:0:
139,154,34445,2,0,P|224:156|315:143,1,170,0|2,0:0|0:0,0:0:0:0:
474,244,35334,1,0,0:0:0:0:
474,244,35556,1,0,0:0:0:0:
474,244,35778,2,0,P|389:242|298:255,1,170,0|2,0:0|0:0,0:0:0:0:
332,85,36667,6,0,P|377:79|429:80,1,85
465,9,37112,2,0,P|418:82|458:171,1,170,2|0,0:0|0:0,0:0:0:0:
395,227,37778,1,0,0:0:0:0:
323,273,38000,6,0,P|394:313|466:273,2,170,2|0|2,0:0|0:0|0:0,0:0:0:0:
46,273,39334,2,0,P|118:312|189:273,2,170,0|2|0,0:0|0:0|0:0,0:0:0:0:
14,192,40445,1,0,0:0:0:0:
44,111,40667,2,0,P|116:73|189:111,1,170,2|0,0:0|0:0,0:0:0:0:
259,158,41334,1,0,0:0:0:0:
259,158,41556,1,2,0:0:0:0:
341,9,42000,5,0,0:0:0:0:
341,9,42223,1,0,0:0:0:0:
398,71,42445,1,2,0:0:0:0:
398,71,42667,1,0,0:0:0:0:
451,138,42889,2,0,P|474:175|482:219,1,85,2|0,0:0|0:0,0:0:0:0:
463,298,43334,6,0,L|363:312,1,85,2|0,0:0|0:0,0:0:0:0:
308,262,43778,2,0,L|217:273,1,85,2|0,0:0|0:0,0:0:0:0:
172,203,44223,2,0,L|81:212,1,85,2|0,0:0|0:0,0:0:0:0:
37,279,44667,5,2,0:0:0:0:
82,350,44889,1,0,0:0:0:0:
37,279,45112,1,2,0:0:0:0:
59,121,45556,2,0,P|118:68|185:111,1,170,2|2,3:0|3:0,0:0:0:0:
495,144,47334,5,2,0:0:0:0:
455,69,47556,1,0,0:0:0:0:
396,130,47778,1,2,0:0:0:0:
411,369,48223,2,0,L|437:195,1,170,2|2,3:0|3:0,0:0:0:0:
436,200,49112,1,2,0:0:0:0:
134,355,50000,5,2,0:0:0:0:
214,327,50223,1,0,0:0:0:0:
149,271,50445,1,2,3:0:0:0:
16,164,50889,2,0,L|26:73,1,85,2|0,3:0|0:0,0:0:0:0:
25,79,51334,1,4,3:0:0:0:
182,15,51778,2,0,L|173:101,1,85,2|0,3:0|0:0,0:0:0:0:
173,99,52223,1,2,3:0:0:0:
247,252,52667,5,4,3:0:0:0:
274,332,52889,1,0,0:0:0:0:
331,268,53112,2,0,P|409:221|493:233,2,170,2|2|4,3:0|3:0|3:0,0:0:0:0:
183,353,54445,2,0,P|142:352|95:329,1,85,2|0,3:0|0:0,0:0:0:0:
45,271,54889,2,0,P|26:233|20:174,1,85,2|0,3:0|0:0,0:0:0:0:
14,106,55334,5,2,0:0:0:0:
50,29,55556,1,0,0:0:0:0:
111,87,55778,1,2,0:0:0:0:
256,192,56223,2,0,B|283:244|255:278|230:308|259:355,1,170,2|2,3:0|3:0,0:0:0:0:
496,269,58000,5,2,0:0:0:0:
460,346,58222,1,0,0:0:0:0:
399,288,58444,1,2,0:0:0:0:
256,192,58889,2,0,B|229:140|257:106|282:76|249:23,1,170,2|2,3:0|3:0,0:0:0:0:
252,28,59778,1,4,3:0:0:0:
193,362,60667,5,2,0:0:0:0:
169,280,60889,1,0,0:0:0:0:
118,340,61112,2,0,P|45:343|9:250,1,170,2|2,3:0|3:0,0:0:0:0:
93,119,62000,2,0,P|166:116|202:209,1,170,4|2,3:0|3:0,0:0:0:0:
146,255,62667,1,0,0:0:0:0:
74,208,62889,1,2,3:0:0:0:
256,192,63334,12,0,64667,3:0:0:0:
