osu file format v14

[General]
AudioFilename: audio.mp3
AudioLeadIn: 1000
PreviewTime: 2001
Countdown: 0
SampleSet: Soft
StackLeniency: 0.7
Mode: 0
LetterboxInBreaks: 0
WidescreenStoryboard: 1

[Editor]
DistanceSpacing: 1.2
BeatDivisor: 4
GridSize: 4
TimelineZoom: 1

[Metadata]
Title:Faerie Battle
TitleUnicode:フェアリーバトル
Artist:Nobuo Uematsu
ArtistUnicode:植松伸夫
Creator:MoodyRPG
Version:Gabe's Easy
Source:ファイナルファンタジーIX
Tags:Gabe Veus ffix ff9 FINAL FANTASY squaresoft square enix ps1 playstation
BeatmapID:1356704
BeatmapSetID:639562

[Difficulty]
HPDrainRate:2
CircleSize:3
OverallDifficulty:2
ApproachRate:2
SliderMultiplier:0.8
SliderTickRate:2

[Events]
//Background and Video events
0,0,"ZidaneGarnet.jpg",0,0
//Break Periods
//Storyboard Layer 0 (Background)
//Storyboard Layer 1 (Fail)
//Storyboard Layer 2 (Pass)
//Storyboard Layer 3 (Foreground)
//Storyboard Sound Samples

[TimingPoints]
2001,444.444444444444,3,2,1,50,1,0
49112,-100,3,2,2,50,0,0
50000,-100,3,2,1,40,0,0

[Colours]
Combo1 : 128,128,255
Combo2 : 255,128,64
Combo3 : 0,255,255
Combo4 : 0,0,160

[HitObjects]
121,36,2001,5,0,0:0:0:0:
189,104,2445,2,0,P|225:119|264:115,1,80,0|0,0:0|0:0,0:0:0:0:
357,139,3334,1,0,0:0:0:0:
288,207,3778,2,0,P|252:222|213:218,1,80
123,183,4667,5,0,0:0:0:0:
67,261,5112,2,0,L|56:345,1,80
146,373,6000,2,0,L|156:293,2,80
239,348,7334,5,0,0:0:0:0:
324,300,7778,2,0,L|422:309,1,80
474,241,8667,1,0,0:0:0:0:
389,193,9112,2,0,L|291:202,1,80
239,134,10000,5,0,0:0:0:0:
325,84,10445,2,0,L|423:93,1,80
475,25,11333,1,0,0:0:0:0:
186,26,12667,6,0,P|106:38|34:78,1,160,0|2,0:0|0:0,0:0:0:0:
12,168,14000,1,0,0:0:0:0:
64,248,14445,2,0,P|59:287|47:325,1,80,2|2,0:0|0:0,0:0:0:0:
123,383,15334,6,0,P|147:306|157:227,1,160,0|2,0:0|0:0,0:0:0:0:
134,134,16667,1,0,0:0:0:0:
408,32,18000,6,0,B|372:88|448:128|408:184,1,160,0|2,0:0|0:0,0:0:0:0:
380,276,19334,1,0,0:0:0:0:
304,216,19778,2,0,P|300:168|312:132,1,80,2|2,0:0|0:0,0:0:0:0:
240,72,20667,6,0,L|156:68,2,80,0|2|0,0:0|0:0|0:0,0:0:0:0:
320,20,22000,1,2,0:0:0:0:
88,192,23334,6,0,L|4:188,1,80,0|2,0:0|0:0,0:0:0:0:
140,328,24667,2,0,L|219:331,1,80,0|2,0:0|0:0,0:0:0:0:
372,212,26000,6,0,L|376:128,2,80,0|2|0,0:0|0:0|0:0,0:0:0:0:
432,288,27334,2,0,L|516:292,2,80,2|0|2,0:0|0:0|0:0,0:0:0:0:
356,348,28667,6,0,L|272:352,1,80,0|2,0:0|0:0,0:0:0:0:
188,316,29556,1,0,0:0:0:0:
100,276,30000,2,0,L|20:272,2,80,2|0|2,0:0|0:0|0:0,0:0:0:0:
176,220,31334,6,0,P|196:184|200:144,1,80,0|2,0:0|0:0,0:0:0:0:
164,56,32223,1,2,0:0:0:0:
258,70,32667,2,0,B|302:70|302:70|362:106|362:106|414:106,1,160,0|2,0:0|0:0,0:0:0:0:
478,171,34000,6,0,P|478:223|466:255,1,80,0|2,0:0|0:0,0:0:0:0:
280,286,35334,2,0,P|255:331|229:354,1,80,0|2,0:0|0:0,0:0:0:0:
84,232,36667,6,0,P|40:261|7:269,2,80,0|2|0,0:0|0:0|0:0,0:0:0:0:
108,140,38000,2,0,L|88:56,2,80,2|0|2,0:0|0:0|0:0,0:0:0:0:
192,188,39334,6,0,L|271:184,1,80,0|2,0:0|0:0,0:0:0:0:
348,240,40223,1,0,0:0:0:0:
428,292,40667,2,0,L|507:295,2,80,2|0|2,0:0|0:0|0:0,0:0:0:0:
344,340,42000,6,0,L|169:348,1,160
96,308,43334,1,2,0:0:0:0:
28,28,44667,6,0,L|116:40,2,80,2|2|2,0:0|0:0|3:0,0:0:0:0:
0,120,46000,1,2,3:0:0:0:
176,348,47334,6,0,L|255:358,1,80,2|2,0:0|0:0,0:0:0:0:
304,276,48223,2,0,L|224:265,1,80,2|2,3:0|3:0,0:0:0:0:
180,180,49112,1,2,0:0:0:0:
360,116,50000,6,0,P|384:72|384:40,1,80,2|2,0:0|0:0,0:0:0:0:
288,50,50889,1,2,3:0:0:0:
192,59,51334,2,0,L|96:55,2,80,4|2|2,3:0|3:0|3:0,0:0:0:0:
232,146,52667,6,0,B|128:142|128:142|82:172,1,160,4|2,3:0|3:0,0:0:0:0:
160,227,54000,2,0,L|239:230,1,80,4|2,3:0|3:0,0:0:0:0:
399,337,55334,6,0,L|320:334,2,80,2|2|2,0:0|0:0|3:0,0:0:0:0:
475,279,56667,1,2,3:0:0:0:
256,91,58000,6,0,L|177:94,1,80,2|2,0:0|0:0,0:0:0:0:
142,184,58889,2,0,L|221:181,1,80,2|2,3:0|3:0,0:0:0:0:
272,262,59778,1,4,3:0:0:0:
444,346,60667,6,0,P|445:306|434:267,1,80,2|2,0:0|0:0,0:0:0:0:
357,209,61556,1,2,3:0:0:0:
275,157,62000,2,0,L|291:77,2,80,4|2|2,3:0|3:0|3:0,0:0:0:0:
182,184,63334,6,0,L|197:262,2,80,4|2|6,3:0|3:0|3:0,0:0:0:0:
107,123,64666,1,4,3:0:0:0:
