osu file format v14

[General]
AudioFilename: audio.mp3
AudioLeadIn: 0
PreviewTime: 31055
Countdown: 1
SampleSet: Normal
StackLeniency: 1
Mode: 0
LetterboxInBreaks: 0
WidescreenStoryboard: 0

[Editor]
DistanceSpacing: 1.2
BeatDivisor: 8
GridSize: 16
TimelineZoom: 2.4

[Metadata]
Title:Clash on the Big Bridge (danooct1 8-Bit Remake)
TitleUnicode:ビッグブリッジの死闘 (danooct1 8-Bit Remake)
Artist:Nobuo Uematsu
ArtistUnicode:Nobuo Uematsu
Creator:FruityEnLoops
Version:Gilgamesh
Source:Final Fantasy V
Tags:8bit chiptune famitracker remake
BeatmapID:1595537
BeatmapSetID:588544

[Difficulty]
HPDrainRate:5
CircleSize:4.2
OverallDifficulty:8
ApproachRate:9.3
SliderMultiplier:1.4
SliderTickRate:1

[Events]
//Background and Video events
0,0,"599080.jpg",0,0
//Break Periods
2,30922,31835
//Storyboard Layer 0 (Background)
//Storyboard Layer 1 (Fail)
//Storyboard Layer 2 (Pass)
//Storyboard Layer 3 (Foreground)
//Storyboard Sound Samples

[TimingPoints]
56,333.333333333333,4,1,0,100,1,0
16389,-66.6666666666667,4,1,0,100,0,0
18931,-100,4,1,0,100,0,0
32055,-100,4,3,0,100,0,0
42972,-100,4,1,0,100,0,0
72389,-50,4,1,0,100,0,0
73889,-100,4,1,0,100,0,0

[HitObjects]
256,192,56,5,0,0:0:0:0:
256,192,139,12,0,1722,0:0:0:0:
256,192,2055,5,0,0:0:0:0:
256,192,2139,12,0,3722,0:0:0:0:
256,192,4056,5,0,0:0:0:0:
256,192,4139,12,0,5722,0:0:0:0:
256,192,6056,5,0,0:0:0:0:
256,192,6139,12,0,7722,0:0:0:0:
128,224,8055,5,0,0:0:0:0:
208,192,8222,1,0,0:0:0:0:
208,192,8305,1,0,0:0:0:0:
208,192,8389,1,0,0:0:0:0:
256,112,8555,2,0,L|304:112,2,35
272,192,8889,5,0,0:0:0:0:
272,192,8972,1,0,0:0:0:0:
272,192,9055,1,0,0:0:0:0:
272,272,9222,2,0,L|226:276,2,35
352,320,9555,5,0,0:0:0:0:
352,320,9639,1,0,0:0:0:0:
352,320,9722,1,0,0:0:0:0:
416,256,9889,2,0,L|368:240,2,35
464,176,10222,5,0,0:0:0:0:
464,176,10305,1,0,0:0:0:0:
464,176,10389,1,0,0:0:0:0:
464,96,10555,2,0,L|477:48,2,35
384,80,10889,5,0,0:0:0:0:
384,80,10972,1,0,0:0:0:0:
384,80,11056,1,0,0:0:0:0:
304,80,11222,2,0,L|277:37,2,35
240,144,11555,5,0,0:0:0:0:
240,144,11638,1,0,0:0:0:0:
240,144,11722,1,0,0:0:0:0:
192,208,11888,2,0,L|216:253,2,35
272,208,12222,5,0,0:0:0:0:
272,208,12305,1,0,0:0:0:0:
272,208,12389,1,0,0:0:0:0:
352,224,12555,2,0,L|400:224,2,35
320,304,12889,5,0,0:0:0:0:
320,304,12972,1,0,0:0:0:0:
320,304,13055,1,0,0:0:0:0:
256,240,13222,2,0,L|256:192,2,35
192,304,13555,5,0,0:0:0:0:
192,304,13639,1,0,0:0:0:0:
192,304,13722,1,0,0:0:0:0:
128,256,13889,2,0,L|80:256,2,35
160,176,14222,5,0,0:0:0:0:
160,176,14305,1,0,0:0:0:0:
160,176,14389,1,0,0:0:0:0:
96,112,14555,2,0,L|49:121,2,35
160,48,14889,5,0,0:0:0:0:
160,48,14972,1,0,0:0:0:0:
160,48,15055,1,0,0:0:0:0:
192,128,15222,2,0,L|176:160,2,35
272,144,15556,5,0,0:0:0:0:
276,189,15639,1,0,0:0:0:0:
321,184,15722,1,0,0:0:0:0:
326,229,15806,1,0,0:0:0:0:
371,224,15889,1,0,0:0:0:0:
376,269,15972,1,0,0:0:0:0:
408,254,16055,1,0,0:0:0:0:
400,64,16389,6,0,L|176:144,1,210.000008010865
288,144,17055,1,0,0:0:0:0:
400,176,17389,2,0,L|176:256,1,210.000008010865
320,272,18055,1,0,0:0:0:0:
400,288,18389,2,0,L|176:368,1,210.000008010865
48,304,19055,5,0,0:0:0:0:
48,224,19222,1,0,0:0:0:0:
48,224,19305,1,0,0:0:0:0:
48,224,19389,1,0,0:0:0:0:
112,176,19555,2,0,L|160:176,2,35
48,112,19889,5,0,0:0:0:0:
48,112,19972,1,0,0:0:0:0:
48,112,20055,1,0,0:0:0:0:
128,80,20222,2,0,L|128:33,2,35
208,96,20555,5,0,0:0:0:0:
208,96,20639,1,0,0:0:0:0:
208,96,20722,1,0,0:0:0:0:
288,96,20889,2,0,L|320:64,2,35
320,176,21222,5,0,0:0:0:0:
320,176,21305,1,0,0:0:0:0:
320,176,21389,1,0,0:0:0:0:
384,224,21555,2,0,L|371:272,2,35
464,176,21889,5,0,0:0:0:0:
464,176,21972,1,0,0:0:0:0:
464,176,22056,1,0,0:0:0:0:
432,96,22222,2,0,L|403:54,2,35
352,128,22556,5,0,0:0:0:0:
352,128,22639,1,0,0:0:0:0:
352,128,22722,1,0,0:0:0:0:
352,128,22805,1,0,0:0:0:0:
352,128,22889,1,0,0:0:0:0:
352,128,22972,1,0,0:0:0:0:
352,128,23055,1,0,0:0:0:0:
448,304,23389,6,0,L|448:160,1,140
448,164,24055,1,0,0:0:0:0:
368,304,24389,2,0,L|368:160,1,140
368,164,25055,1,0,0:0:0:0:
288,304,25389,2,0,L|288:160,1,140
288,164,26055,1,0,0:0:0:0:
208,304,26389,2,0,L|208:160,1,140
208,164,27055,5,0,0:0:0:0:
208,164,27222,1,0,0:0:0:0:
128,192,27597,2,0,L|64:144,2,70
160,128,28222,2,0,L|176:48,2,70
272,128,28722,1,0,0:0:0:0:
272,128,28847,1,0,0:0:0:0:
384,112,29055,2,0,L|352:176,2,70
464,64,29555,1,0,0:0:0:0:
432,144,29722,2,0,L|384:208,1,70
256,304,30222,5,0,0:0:0:0:
176,272,30389,2,0,P|160:240|240:208,1,140
144,288,32389,5,0,0:0:0:0:
384,288,32555,1,0,0:0:0:0:
160,192,32722,1,0,0:0:0:0:
400,192,32889,1,0,0:0:0:0:
176,96,33055,1,0,0:0:0:0:
416,112,33222,1,0,0:0:0:0:
176,176,33389,1,0,0:0:0:0:
416,192,33555,1,0,0:0:0:0:
192,288,33722,5,0,0:0:0:0:
432,304,33889,1,0,0:0:0:0:
416,64,34055,1,0,0:0:0:0:
352,304,34222,1,0,0:0:0:0:
272,64,34389,1,0,0:0:0:0:
192,288,34555,1,0,0:0:0:0:
192,288,34888,5,0,0:0:0:0:
416,176,35055,1,0,0:0:0:0:
176,144,35222,1,0,0:0:0:0:
416,112,35389,1,0,0:0:0:0:
192,208,35556,1,0,0:0:0:0:
384,48,35723,1,0,0:0:0:0:
240,256,35889,1,0,0:0:0:0:
112,128,36222,5,0,0:0:0:0:
352,208,36389,1,0,0:0:0:0:
128,320,36556,1,0,0:0:0:0:
272,128,36723,1,0,0:0:0:0:
272,368,36890,1,0,0:0:0:0:
160,64,37055,1,0,0:0:0:0:
224,304,37223,1,0,0:0:0:0:
64,128,37389,1,0,0:0:0:0:
400,320,37556,1,0,0:0:0:0:
240,144,37723,5,0,0:0:0:0:
480,208,37890,1,0,0:0:0:0:
256,112,38055,1,0,0:0:0:0:
368,336,38222,1,0,0:0:0:0:
160,208,38390,1,0,0:0:0:0:
368,80,38555,1,0,0:0:0:0:
416,320,38722,1,0,0:0:0:0:
256,144,38889,1,0,0:0:0:0:
496,208,39056,1,0,0:0:0:0:
272,112,39223,1,0,0:0:0:0:
384,336,39390,1,0,0:0:0:0:
224,160,39556,1,0,0:0:0:0:
48,336,39722,1,0,0:0:0:0:
144,112,39889,1,0,0:0:0:0:
176,192,40222,5,0,0:0:0:0:
400,80,40389,1,0,0:0:0:0:
384,320,40556,1,0,0:0:0:0:
272,96,40723,1,0,0:0:0:0:
224,336,40890,1,0,0:0:0:0:
400,176,41056,1,0,0:0:0:0:
160,160,41221,1,0,0:0:0:0:
208,240,41555,5,0,0:0:0:0:
416,112,41722,1,0,0:0:0:0:
176,112,41889,1,0,0:0:0:0:
352,288,42056,1,0,0:0:0:0:
272,48,42222,1,0,0:0:0:0:
144,256,42389,1,0,0:0:0:0:
368,144,42556,1,0,0:0:0:0:
128,128,42723,1,0,0:0:0:0:
320,272,42890,1,0,0:0:0:0:
208,64,43055,6,0,B|128:96|112:96|112:96|112:144|112:144|160:208|208:160|208:160|272:128|304:80|304:80|336:96,1,420
416,160,44389,1,0,0:0:0:0:
400,240,44722,2,0,P|432:256|464:240,2,70
320,272,45389,1,0,0:0:0:0:
240,304,45722,6,0,B|160:288|128:224|128:224|96:144|96:128|96:128|144:64|256:64,1,420
400,64,47055,1,0,0:0:0:0:
352,192,47389,1,0,0:0:0:0:
208,176,47722,1,0,0:0:0:0:
80,208,48055,6,0,L|112:208,8,17.5
48,304,48555,1,0,0:0:0:0:
160,304,48722,2,0,L|208:240,1,70
448,48,49389,1,0,0:0:0:0:
448,256,49722,1,0,0:0:0:0:
192,80,50222,1,0,0:0:0:0:
496,192,50722,1,0,0:0:0:0:
320,288,51055,6,0,B|240:320|240:320|176:288|176:256|176:256|208:224,2,210
384,96,52389,1,0,0:0:0:0:
64,48,52889,1,0,0:0:0:0:
192,336,53389,1,0,0:0:0:0:
96,144,53722,1,0,0:0:0:0:
304,176,54055,2,0,L|288:96,1,70
80,48,54555,1,0,0:0:0:0:
80,48,54722,2,0,B|176:96|96:176|96:224|256:224,1,280
432,128,55722,1,0,0:0:0:0:
432,128,56055,1,0,0:0:0:0:
432,128,56389,1,0,0:0:0:0:
224,64,56722,2,0,L|304:80,1,70
224,64,57222,1,0,0:0:0:0:
224,64,57389,2,0,B|128:80|115:148|120:178|120:178|132:211|158:266|158:266|193:179|267:233|267:233|301:317|338:161,1,560
137,99,59055,1,0,0:0:0:0:
249,276,59389,1,0,0:0:0:0:
256,171,59555,1,0,0:0:0:0:
162,219,59722,1,0,0:0:0:0:
243,285,59889,1,0,0:0:0:0:
282,188,60055,1,0,0:0:0:0:
177,196,60222,2,0,B|139:162|119:150|119:150|129:108|142:82|142:82|210:60,1,210
307,49,60889,2,0,L|393:61,1,87.5
432,240,61389,1,0,0:0:0:0:
246,338,61722,1,0,0:0:0:0:
145,305,61889,1,0,0:0:0:0:
124,276,61972,1,0,0:0:0:0:
110,244,62055,1,0,0:0:0:0:
104,210,62139,1,0,0:0:0:0:
105,175,62222,1,0,0:0:0:0:
115,141,62305,1,0,0:0:0:0:
132,111,62389,1,0,0:0:0:0:
155,85,62472,1,0,0:0:0:0:
184,65,62555,1,0,0:0:0:0:
216,52,62639,1,0,0:0:0:0:
251,46,62722,1,0,0:0:0:0:
285,49,62805,1,0,0:0:0:0:
319,59,62889,1,0,0:0:0:0:
349,76,62972,1,0,0:0:0:0:
375,100,63055,1,0,0:0:0:0:
400,64,64389,6,0,L|260:114,1,140
414,158,65055,6,0,L|274:208,1,140
461,314,65722,1,0,0:0:0:0:
426,321,65805,1,0,0:0:0:0:
392,325,65888,1,0,0:0:0:0:
357,327,65971,1,0,0:0:0:0:
322,326,66055,1,0,0:0:0:0:
287,322,66138,1,0,0:0:0:0:
253,315,66221,1,0,0:0:0:0:
219,306,66305,1,0,0:0:0:0:
186,293,66388,1,0,0:0:0:0:
154,279,66471,1,0,0:0:0:0:
124,261,66555,1,0,0:0:0:0:
95,242,66638,1,0,0:0:0:0:
68,220,66721,1,0,0:0:0:0:
133,178,67055,5,0,0:0:0:0:
140,162,67138,1,0,0:0:0:0:
149,147,67221,1,0,0:0:0:0:
160,133,67304,1,0,0:0:0:0:
172,120,67388,1,0,0:0:0:0:
185,109,67471,1,0,0:0:0:0:
200,100,67554,1,0,0:0:0:0:
216,92,67638,1,0,0:0:0:0:
233,87,67721,1,0,0:0:0:0:
250,83,67804,1,0,0:0:0:0:
263,74,67888,1,0,0:0:0:0:
279,67,67971,1,0,0:0:0:0:
296,65,68054,5,0,0:0:0:0:
314,66,68138,1,0,0:0:0:0:
331,68,68221,1,0,0:0:0:0:
348,71,68304,1,0,0:0:0:0:
365,75,68388,1,0,0:0:0:0:
382,80,68471,1,0,0:0:0:0:
398,87,68554,1,0,0:0:0:0:
414,94,68638,1,0,0:0:0:0:
428,105,68721,1,0,0:0:0:0:
428,116,68804,1,0,0:0:0:0:
412,124,68888,1,0,0:0:0:0:
397,132,68971,1,0,0:0:0:0:
382,141,69054,1,0,0:0:0:0:
366,149,69138,1,0,0:0:0:0:
351,158,69221,1,0,0:0:0:0:
336,167,69304,1,0,0:0:0:0:
322,177,69388,5,0,0:0:0:0:
308,188,69471,1,0,0:0:0:0:
294,199,69554,1,0,0:0:0:0:
282,212,69638,1,0,0:0:0:0:
271,227,69722,2,0,L|236:240,2,35
126,173,70222,6,0,L|61:216,2,70
201,142,70889,2,0,L|279:119,2,70
167,211,71389,2,0,L|170:275,1,52.5
261,292,71722,5,0,0:0:0:0:
305,229,71889,1,0,0:0:0:0:
377,255,72055,1,0,0:0:0:0:
361,179,72222,1,0,0:0:0:0:
276,180,72389,6,0,B|193:146|200:103|225:41|225:41|312:105,1,280
369,165,72889,2,0,B|412:123|467:194|467:194|484:51,1,245
376,61,73389,2,0,B|179:48|173:56|173:56|134:126,1,280
94,285,74055,2,0,P|169:281|202:210,1,140
180,149,74722,5,0,0:0:0:0:
256,192,75055,1,0,0:0:0:0:
