osu file format v14

[General]
AudioFilename: audio.mp3
AudioLeadIn: 0
PreviewTime: 267
Countdown: 0
SampleSet: Soft
StackLeniency: 0.7
Mode: 0
LetterboxInBreaks: 0
WidescreenStoryboard: 1

[Editor]
DistanceSpacing: 1.7
BeatDivisor: 4
GridSize: 8
TimelineZoom: 2.5

[Metadata]
Title:Shinkai Shoujo
TitleUnicode:深海少女
Artist:Nobunaga
ArtistUnicode:のぶなが
Creator:Lunala
Version:Tears
Source:
Tags:Japanese Novelty Vocaloid ゆうゆ Yuuyu-P 初音ミク hatsune miku voices in a bottle ~海を越え届いた歌声~ deep sea girl wyrio Misure
BeatmapID:2584823
BeatmapSetID:1240218

[Difficulty]
HPDrainRate:5
CircleSize:4
OverallDifficulty:8
ApproachRate:8.7
SliderMultiplier:1.7
SliderTickRate:1

[Events]
//Background and Video events
0,0,"bg.jpg",0,0
//Break Periods
2,151573,159567
//Storyboard Layer 0 (Background)
//Storyboard Layer 1 (Fail)
//Storyboard Layer 2 (Pass)
//Storyboard Layer 3 (Foreground)
//Storyboard Layer 4 (Overlay)
//Storyboard Sound Samples

[TimingPoints]
-6182,437.956204379562,4,2,1,40,1,0
387,-125,4,2,1,40,0,0
825,-125,4,2,1,40,0,0
14182,-125,4,2,1,50,0,0
14839,-100,4,2,1,55,0,0
28854,-100,4,2,1,60,0,0
35861,-90.9090909090909,4,2,1,65,0,0
42869,-71.4285714285714,4,2,1,70,0,1
49219,-71.4285714285714,4,2,1,50,0,1
49876,-71.4285714285714,4,2,1,70,0,1
53379,-83.3333333333333,4,2,1,70,0,1
60387,-133.333333333333,4,2,1,50,0,1
64328,-100,4,2,1,55,0,0
75715,-100,4,2,1,60,0,0
84912,-90.9090909090909,4,2,1,65,0,0
91920,-71.4285714285714,4,2,1,70,0,1
98270,-71.4285714285714,4,2,1,50,0,1
98927,-71.4285714285714,4,2,1,70,0,1
102430,-83.3333333333333,4,2,1,70,0,1
109438,-76.9230769230769,4,2,1,65,0,0
137467,-111.111111111111,4,2,1,50,0,0
149730,-153.846153846154,4,2,1,40,0,0
164182,-133.333333333333,4,2,1,50,0,0
165277,-117.647058823529,4,2,1,55,0,0
169000,-76.9230769230769,4,2,1,70,0,0
170314,-100,4,2,1,70,0,0
170752,-66.6666666666667,4,2,1,70,0,1
177102,-66.6666666666667,4,2,1,50,0,1
177759,-66.6666666666667,4,2,1,70,0,1
187832,-76.9230769230769,4,2,1,70,0,1
188270,-76.9230769230769,4,2,1,70,0,0
193525,-76.9230769230769,4,2,1,55,0,0
194401,-76.9230769230769,4,2,1,70,0,0
195277,-83.3333333333333,4,2,1,70,0,0
201408,-76.9230769230769,4,2,1,70,0,0

[Colours]
Combo1 : 179,109,255
Combo2 : 81,255,239

[HitObjects]
269,68,388,6,0,P|287:161|284:171,1,68
240,216,826,6,0,P|282:170|377:180,2,136,2|0|0,0:0|0:0|0:0,0:0:0:0:
130,342,2139,1,0,0:0:0:0:
138,329,2577,2,0,P|146:184|146:169,1,136,2|0,0:0|0:0,0:0:0:0:
62,126,3234,2,0,P|29:141|-30:159,2,68
161,39,4110,5,0,0:0:0:0:
163,45,4329,2,0,P|206:70|300:37,1,136,2|0,0:0|0:0,0:0:0:0:
448,33,5205,2,0,P|406:90|401:112,1,68
420,177,5643,2,0,P|449:225|450:265,1,68
426,362,6081,1,2,0:0:0:0:
502,355,6519,2,0,B|484:317|434:314|434:314|428:356|403:381,1,136
286,368,7395,1,0,0:0:0:0:
107,286,7833,6,0,P|101:250|96:202,1,68,2|0,0:0|0:0,0:0:0:0:
205,200,8271,2,0,P|203:162|206:115,1,68
264,30,8709,2,0,P|315:102|386:106,1,136,2|0,0:0|0:0,0:0:0:0:
466,184,9585,6,0,P|513:136|516:112,2,68,2|0|0,0:0|0:3|0:3,0:3:0:0:
365,228,10242,1,0,0:0:0:0:
266,177,10461,2,0,L|115:201,1,136,2|0,0:0|0:0,0:0:0:0:
34,256,11117,1,0,0:0:0:0:
44,248,11336,6,0,P|144:264|161:357,1,204,2|0,0:0|0:0,0:0:0:0:
123,376,12212,2,0,P|217:309|295:347,1,204,2|0,0:0|0:0,0:0:0:0:
405,372,13088,6,0,P|449:304|389:195,1,204,2|0,0:0|0:0,0:0:0:0:
246,76,14183,1,0,3:0:0:0:
351,9,14402,2,0,L|338:133,1,102,8|0,0:0|0:0,0:0:0:0:
256,182,14840,6,0,P|277:315|280:345,1,85,6|0,3:2|0:0,0:0:0:0:
329,384,15278,1,10,0:0:0:0:
376,251,15497,1,2,0:0:0:0:
491,310,15716,2,0,L|382:327,1,85,2|0,3:0|0:0,0:0:0:0:
260,302,16154,2,0,P|238:345|134:338,1,127.5,10|0,0:0|0:0,0:0:0:0:
84,330,16592,6,0,P|94:237|97:211,1,85,2|0,3:2|0:0,0:0:0:0:
3,141,17030,2,0,P|44:170|103:168,1,85,10|0,0:0|0:0,0:0:0:0:
212,201,17468,1,2,3:2:0:0:
277,99,17687,1,0,3:0:0:0:
126,18,17906,2,0,L|150:128,1,85,8|0,0:0|0:0,0:0:0:0:
239,175,18344,6,0,P|331:168|366:95,1,170,2|8,3:2|0:0,0:0:0:0:
437,2,19001,1,0,0:0:0:0:
512,94,19220,2,0,P|499:221|499:227,1,85,2|0,3:2|0:0,0:0:0:0:
432,249,19548,1,0,0:0:0:0:
431,265,19658,2,0,P|451:349|464:386,1,85,10|0,0:0|0:0,0:0:0:0:
316,383,20096,6,0,P|220:347|200:343,2,85,2|0|8,3:2|0:0|0:0,0:0:0:0:
242,247,20753,1,2,0:0:0:0:
99,311,20971,2,0,L|126:114,1,170,2|8,3:2|0:0,0:0:0:0:
154,27,21628,1,6,0:0:0:0:
296,0,21847,6,0,P|284:51|305:107,1,85,2|0,3:2|0:0,0:0:0:0:
371,202,22285,1,10,0:0:0:0:
404,91,22504,1,2,0:0:0:0:
282,218,22723,2,0,B|398:216|398:216|460:183,1,170,2|8,3:2|0:0,0:0:0:0:
512,254,23380,1,2,0:0:0:0:
474,384,23599,6,0,P|439:316|328:319,1,170,2|8,3:2|0:0,0:0:0:0:
255,368,24256,1,2,0:0:0:0:
200,250,24475,2,0,L|184:162,1,85,2|0,3:2|0:0,0:0:0:0:
93,70,24913,2,8,L|87:112,2,42.5
0,227,25351,6,0,P|84:226|127:328,1,170,2|8,3:2|0:0,0:0:0:0:
240,384,26008,1,0,0:0:0:0:
246,375,26117,1,0,0:0:0:0:
251,367,26227,2,0,L|266:260,1,85,2|0,3:2|0:0,0:0:0:0:
318,140,26665,1,10,0:0:0:0:
322,163,26774,1,8,0:0:0:0:
328,190,26884,1,8,0:0:0:0:
472,309,27103,6,0,L|355:288,1,85,6|0,3:2|0:0,0:0:0:0:
182,286,27541,2,0,L|272:262,1,85,10|0,0:0|0:0,0:0:0:0:
142,162,27979,5,2,3:0:0:0:
150,137,28088,1,0,3:0:0:0:
156,114,28198,1,0,3:0:0:0:
217,1,28417,1,8,0:0:0:0:
239,166,28636,1,0,3:0:0:0:
84,73,28855,6,0,B|194:48|151:123|268:85,1,170,6|0,0:0|0:0,0:0:0:0:
354,22,29512,1,2,3:2:0:0:
464,124,29731,2,0,P|454:227|447:336,1,170,10|0,0:0|0:0,0:0:0:0:
267,366,30607,2,0,P|236:280|302:216,1,170,2|0,3:2|0:0,0:0:0:0:
376,147,31263,1,2,3:2:0:0:
385,152,31373,2,0,P|382:78|306:51,1,127.5,2|0,0:0|3:0,0:0:0:0:
230,22,31920,1,8,0:0:0:0:
45,72,32358,6,0,P|67:163|70:183,1,85,2|0,3:2|0:0,0:0:0:0:
189,205,32796,2,0,P|171:305|170:309,1,85,2|0,0:2|3:0,0:0:0:0:
92,381,33234,2,0,P|214:318|264:333,1,170,10|0,0:0|0:0,0:0:0:0:
340,359,33891,1,2,3:2:0:0:
400,221,34110,1,2,0:0:0:0:
500,315,34329,2,0,L|383:298,1,85,2|0,3:2|0:0,0:0:0:0:
293,257,34767,1,2,3:2:0:0:
186,165,34986,2,8,L|205:102,2,42.5,10|8|8,0:0|0:0|0:0,0:0:0:0:
304,54,35424,5,8,0:0:0:0:
337,64,35534,1,8,0:0:0:0:
357,88,35643,1,8,0:0:0:0:
364,121,35753,1,8,0:0:0:0:
363,149,35862,6,0,P|344:203|353:243,1,93.5000028533936,6|0,3:2|0:0,0:0:0:0:
419,331,36190,2,0,P|367:276|296:274,1,140.25000428009,2|0,3:2|0:0,0:0:0:0:
106,357,36738,2,0,L|133:209,1,140.25000428009,2|0,3:2|0:0,0:0:0:0:
149,132,37176,2,0,P|104:132|28:144,1,93.5000028533936,10|0,0:0|0:0,0:0:0:0:
253,0,37614,2,0,P|233:63|229:112,1,93.5000028533936,6|0,3:2|0:0,0:0:0:0:
331,172,38052,2,0,P|412:250|402:299,1,140.25000428009,2|0,3:2|0:0,0:0:0:0:
488,340,38489,2,0,L|502:228,1,93.5000028533936,0|8,3:0|0:0,0:0:0:0:
302,199,38927,1,8,0:0:0:0:
307,235,39036,1,8,0:0:0:0:
312,272,39147,5,2,3:2:0:0:
153,107,39366,2,0,P|171:209|172:215,1,93.5000028533936,6|0,0:0|0:0,0:0:0:0:
177,326,39694,1,0,3:0:0:0:
191,337,39804,2,0,L|209:286,1,46.7500014266968,10|0,0:0|0:0,0:0:0:0:
299,85,40023,2,0,P|284:172|281:251,1,140.25000428009,6|0,0:2|0:0,0:0:0:0:
343,268,40461,2,0,L|402:251,1,46.7500014266968,2|0,3:2|0:0,0:0:0:0:
490,293,40680,5,2,0:0:0:0:
292,381,40898,5,6,3:2:0:0:
283,356,41008,1,0,3:0:0:0:
274,331,41117,1,8,0:0:0:0:
400,148,41336,5,0,3:3:0:0:
360,170,41446,1,0,3:3:0:0:
313,167,41555,1,0,3:3:0:0:
271,145,41665,1,0,3:3:0:0:
250,102,41774,1,0,3:3:0:0:
213,80,41884,1,0,3:3:0:0:
168,86,41993,1,2,3:3:0:0:
225,0,42869,6,0,P|206:61|126:77,1,118.999996368408,6|0,3:2|0:0,0:0:0:0:
51,141,43198,1,0,0:0:0:0:
80,156,43307,2,0,P|121:269|106:295,1,118.999996368408,10|0,0:0|0:0,0:0:0:0:
43,355,43636,1,0,0:0:0:0:
6,379,43745,2,0,L|222:339,1,178.499994552612,2|0,3:2|0:0,0:0:0:0:
277,253,44183,5,10,0:0:0:0:
391,369,44402,1,2,0:0:0:0:
397,339,44512,1,0,0:0:0:0:
406,306,44621,1,2,3:2:0:0:
366,155,44840,1,2,0:0:0:0:
193,87,45059,6,0,P|209:149|219:232,1,118.999996368408,10|0,0:2|0:0,0:0:0:0:
216,315,45388,1,0,0:0:0:0:
297,312,45497,2,0,P|241:243|142:281,1,178.499994552612,2|0,3:2|0:0,0:0:0:0:
19,287,45935,5,10,0:0:0:0:
28,252,46044,1,8,0:0:0:0:
39,215,46154,1,10,0:0:0:0:
103,29,46373,6,0,P|167:135|215:141,1,178.499994552612,6|0,3:2|0:0,0:0:0:0:
238,141,46811,1,10,0:0:0:0:
230,131,47030,5,2,0:0:0:0:
423,49,47249,5,2,3:2:0:0:
226,26,47468,1,2,0:0:0:0:
331,200,47687,1,8,0:0:0:0:
335,0,47906,1,2,0:0:0:0:
111,156,48125,5,6,0:2:0:0:
115,188,48234,1,8,0:0:0:0:
118,218,48344,1,10,0:0:0:0:
288,81,48563,6,0,L|268:165,1,59.4999981842042,10|0,0:0|0:0,0:0:0:0:
103,7,48782,2,0,L|124:98,1,59.4999981842042,2|0,0:0|0:0,0:0:0:0:
190,356,49001,2,0,L|203:273,1,59.4999981842042,6|0,0:0|0:0,0:0:0:0:
134,173,49220,2,8,L|141:128,3,29.7499990921021
258,165,49439,5,10,0:0:0:0:
328,140,49548,1,8,0:0:0:0:
327,65,49658,1,8,0:0:0:0:
256,45,49767,1,8,0:0:0:0:
209,103,49877,6,0,L|250:252,1,118.999996368408,6|0,0:0|0:0,0:0:0:0:
234,350,50205,1,0,0:0:0:0:
264,373,50315,2,0,P|324:382|356:315,1,118.999996368408,10|0,0:0|0:0,0:0:0:0:
476,266,50643,1,0,0:0:0:0:
506,247,50753,2,0,B|436:236|436:236|395:259|395:259|299:245,1,178.499994552612,2|0,3:2|0:0,0:0:0:0:
146,200,51190,5,10,0:0:0:0:
269,77,51409,1,2,0:0:0:0:
276,105,51519,1,8,0:0:0:0:
283,134,51628,1,2,3:2:0:0:
225,285,51847,1,2,0:0:0:0:
11,176,52066,6,0,P|21:80|24:33,1,118.999996368408,10|0,0:0|0:0,0:0:0:0:
107,0,52395,1,0,0:0:0:0:
176,64,52504,2,0,P|145:236|139:270,1,178.499994552612,6|0,0:0|0:0,0:0:0:0:
142,376,52942,5,10,0:0:0:0:
299,267,53161,1,2,0:0:0:0:
275,259,53271,1,8,0:0:0:0:
256,253,53380,2,0,L|139:274,1,101.999996887207,6|0,3:2|0:0,0:0:0:0:
49,59,53818,6,0,P|70:141|77:187,1,101.999996887207,2|0,0:0|0:0,0:0:0:0:
50,320,54256,1,2,3:2:0:0:
181,201,54475,1,0,3:0:0:0:
0,168,54694,2,0,B|65:143|65:143|180:191,1,152.999995330811,10|0,0:0|0:0,0:0:0:0:
227,283,55132,5,2,3:2:0:0:
338,201,55351,1,2,3:2:0:0:
222,95,55570,1,2,3:2:0:0:
118,257,55789,1,2,3:2:0:0:
309,341,56008,5,6,3:2:0:0:
451,171,56227,1,2,0:0:0:0:
447,202,56336,1,0,0:0:0:0:
443,229,56446,1,10,0:0:0:0:
283,152,56665,2,0,P|262:76|261:72,1,50.9999984436036,2|0,0:0|0:0,0:0:0:0:
320,1,56884,6,0,P|276:73|222:73,1,101.999996887207,6|8,3:2|0:0,0:0:0:0:
231,78,57212,1,0,0:0:0:0:
198,71,57322,1,0,3:0:0:0:
0,9,57541,2,0,P|29:143|32:154,1,101.999996887207,6|8,3:2|0:0,0:0:0:0:
29,139,57869,1,0,0:0:0:0:
39,177,57979,1,0,3:0:0:0:
144,335,58198,2,0,P|148:259|148:239,1,50.9999984436036,12|0,0:0|0:0,0:0:0:0:
209,166,58417,2,0,L|231:261,1,50.9999984436036,2|0,0:0|0:0,0:0:0:0:
297,364,58636,6,0,L|299:284,1,50.9999984436036,2|0,0:0|0:0,0:0:0:0:
445,242,58855,5,8,0:0:0:0:
431,212,58964,1,8,0:0:0:0:
400,195,59074,1,8,0:0:0:0:
364,194,59183,1,8,0:0:0:0:
337,210,59293,6,0,L|355:288,1,50.9999984436036,0|0,3:0|0:0,0:0:0:0:
246,136,59512,2,0,L|232:218,1,50.9999984436036,0|0,3:0|0:0,0:0:0:0:
173,65,59731,2,0,L|144:135,1,50.9999984436036,0|0,3:0|0:0,0:0:0:0:
79,272,59950,5,8,0:0:0:0:
90,241,60059,1,8,0:0:0:0:
83,205,60169,1,8,0:0:0:0:
58,175,60278,1,8,0:0:0:0:
18,163,60388,6,0,B|139:138|88:230|226:183,2,191.250007295609,4|0|0,0:0|3:0|3:0,0:0:0:0:
256,21,62358,6,0,P|272:110|279:163,1,127.500004863739,0|0,3:0|0:0,0:0:0:0:
401,140,63015,2,0,L|374:303,1,127.500004863739,0|0,3:0|0:0,0:0:0:0:
274,355,63672,1,10,0:0:0:0:
306,220,63891,5,6,0:0:0:0:
365,335,64110,1,2,0:0:0:0:
204,289,64329,2,0,L|218:166,1,85,10|0,0:3|0:0,0:0:0:0:
114,50,64767,2,0,L|125:167,1,85,2|0,3:2|0:0,0:0:0:0:
11,233,65205,2,0,B|75:213|75:213|171:231,1,127.5,10|0,0:0|0:0,0:0:0:0:
179,238,65643,5,2,3:2:0:0:
184,249,65862,1,2,0:0:0:0:
296,282,66081,1,10,0:3:0:0:
357,180,66300,1,2,3:2:0:0:
270,109,66519,2,0,L|253:215,1,85,2|8,0:0|0:0,0:0:0:0:
382,305,66957,2,0,P|423:299|469:252,1,85,10|0,0:0|0:0,0:0:0:0:
256,366,67395,6,0,P|204:308|99:337,1,170,2|8,3:2|0:3,0:0:0:0:
0,384,68052,1,2,3:2:0:0:
34,257,68271,2,0,P|24:168|17:144,1,85,2|0,0:0|0:0,0:0:0:0:
52,51,68709,1,10,0:0:0:0:
247,70,68928,2,0,L|231:25,1,42.5,6|0,0:0|0:0,0:0:0:0:
209,5,69147,6,0,L|189:119,1,85,0|8,3:0|0:0,0:0:0:0:
155,169,69475,1,0,0:0:0:0:
136,176,69585,2,0,L|162:237,1,42.5,2|0,3:2|0:0,0:0:0:0:
239,262,69804,2,0,L|223:314,1,42.5,10|0,0:2|0:0,0:0:0:0:
116,358,70023,6,0,P|47:330|44:330,2,63.75,2|8|0,3:2|0:0|3:0,0:0:0:0:
260,384,70461,1,2,3:2:0:0:
367,297,70680,1,6,0:0:0:0:
244,163,70898,5,8,0:0:0:0:
255,178,71008,1,0,0:0:0:0:
266,192,71117,1,8,0:0:0:0:
421,230,71336,1,10,0:0:0:0:
492,129,71555,1,2,3:2:0:0:
308,48,71774,2,0,L|341:252,1,170,0|8,0:0|0:0,0:0:0:0:
312,358,72431,1,2,0:0:0:0:
462,350,72650,6,0,P|386:266|313:275,1,170,2|8,3:2|0:0,0:0:0:0:
224,338,73307,1,2,3:2:0:0:
68,293,73526,2,0,L|101:401,1,85,2|0,3:2|0:0,0:0:0:0:
203,219,73964,2,0,L|243:231,2,42.5,8|0|0,0:0|0:0|0:0,0:0:0:0:
27,139,74402,6,0,P|-9:82|57:14,1,170,2|8,3:2|0:0,0:0:0:0:
216,47,75059,1,2,0:0:0:0:
220,61,75169,1,0,0:0:0:0:
222,74,75278,2,0,L|213:182,1,85,10|0,0:0|0:0,0:0:0:0:
332,318,75716,1,10,0:0:0:0:
328,291,75825,1,8,0:0:0:0:
325,266,75935,1,8,0:0:0:0:
90,223,76154,6,0,B|199:253|199:253|308:206,1,170,6|0,3:2|0:0,0:0:0:0:
391,161,76811,1,2,0:0:0:0:
297,15,77030,1,2,3:2:0:0:
294,28,77139,1,0,3:0:0:0:
292,42,77249,1,0,3:0:0:0:
205,140,77468,2,0,P|228:215|235:236,1,85,0|0,3:0|0:0,0:0:0:0:
238,305,77796,1,2,0:0:0:0:
167,328,77906,6,0,B|279:303|236:385|363:337,1,170,6|0,3:2|0:0,0:0:0:0:
451,279,78563,1,2,3:2:0:0:
441,149,78782,2,0,B|423:78|340:86|340:86|357:160,1,170,10|0,0:0|0:0,0:0:0:0:
230,352,79658,6,0,B|244:253|244:253|217:171,1,170,2|0,3:2|0:0,0:0:0:0:
150,76,80315,1,2,3:2:0:0:
133,68,80424,2,0,P|69:121|101:199,1,170,2|0,0:0|0:0,0:0:0:0:
167,267,80971,1,8,0:0:0:0:
335,359,81409,6,0,P|330:321|321:274,1,85,2|0,3:2|0:0,0:0:0:0:
446,147,81847,2,0,P|435:223|434:242,1,85,2|0,0:0|0:0,0:0:0:0:
509,352,82285,2,0,L|309:307,1,170,10|0,0:0|0:0,0:0:0:0:
223,267,82942,1,2,3:2:0:0:
94,330,83161,2,0,P|104:230|105:206,1,85,2|8,0:0|0:0,0:0:0:0:
241,81,83599,1,10,0:0:0:0:
239,104,83709,1,0,0:0:0:0:
239,131,83818,1,0,0:0:0:0:
208,302,84037,2,8,L|219:351,2,42.5,10|8|8,0:0|0:0|0:0,0:0:0:0:
40,151,84475,5,8,0:0:0:0:
76,174,84585,1,8,0:0:0:0:
113,172,84694,1,10,0:0:0:0:
145,159,84804,1,8,0:0:0:0:
175,134,84913,6,0,L|164:65,2,46.7500014266968,6|0|0,3:2|0:0|0:0,0:0:0:0:
249,45,85242,2,0,P|308:86|380:64,1,140.25000428009,2|0,3:2|0:0,0:0:0:0:
481,28,85680,1,2,0:0:0:0:
509,0,85789,2,0,L|494:119,1,93.5000028533936,2|0,3:2|0:0,0:0:0:0:
412,214,86227,1,10,0:0:0:0:
297,105,86446,5,0,0:0:0:0:
294,95,86555,1,0,0:0:0:0:
290,86,86665,2,0,L|278:194,1,93.5000028533936,6|0,0:0|0:0,0:0:0:0:
170,208,86993,2,0,L|195:300,1,93.5000028533936,2|0,3:2|0:0,0:0:0:0:
267,384,87322,1,10,0:0:0:0:
282,374,87431,1,0,0:0:0:0:
298,371,87541,2,0,P|244:320|126:360,1,187.000005706787,2|8,3:2|0:0,0:0:0:0:
16,299,88198,5,2,3:2:0:0:
120,216,88417,2,0,P|122:120|118:94,1,93.5000028533936,6|0,3:2|0:0,0:0:0:0:
207,37,88745,1,0,0:0:0:0:
197,29,88855,2,0,P|209:90|214:105,1,46.7500014266968,10|0,0:0|0:0,0:0:0:0:
325,133,89074,2,0,P|236:189|237:232,1,140.25000428009,6|0,3:2|0:0,0:0:0:0:
213,294,89512,2,0,L|236:347,1,46.7500014266968,10|0,0:0|0:0,0:0:0:0:
358,368,89731,5,2,3:2:0:0:
485,261,89950,5,4,3:2:0:0:
492,226,90059,1,0,3:0:0:0:
500,193,90169,1,8,0:0:0:0:
264,120,90388,5,0,3:3:0:0:
303,143,90496,1,0,3:3:0:0:
349,140,90606,1,0,3:3:0:0:
390,117,90715,1,0,3:3:0:0:
412,75,90825,1,0,3:3:0:0:
448,53,90934,1,0,3:3:0:0:
494,59,91044,1,2,3:3:0:0:
270,226,91920,6,0,P|330:143|301:97,1,118.999996368408,6|0,3:2|0:0,0:0:0:0:
262,9,92249,1,0,0:0:0:0:
234,32,92358,2,0,L|244:185,1,118.999996368408,10|0,0:0|0:0,0:0:0:0:
318,301,92687,1,0,0:0:0:0:
350,271,92796,2,0,B|290:243|290:243|150:253,1,178.499994552612,2|0,3:2|0:0,0:0:0:0:
83,293,93234,5,10,0:0:0:0:
16,169,93453,1,10,0:0:0:0:
24,135,93563,1,8,0:0:0:0:
31,104,93672,1,2,3:2:0:0:
144,9,93891,1,2,0:0:0:0:
261,103,94110,6,0,P|224:176|168:182,1,118.999996368408,10|0,0:0|0:0,0:0:0:0:
88,255,94439,1,0,0:0:0:0:
115,275,94548,2,0,P|205:271|257:371,1,178.499994552612,2|0,3:2|0:0,0:0:0:0:
409,361,94986,5,10,0:0:0:0:
402,325,95096,1,8,0:0:0:0:
394,288,95205,1,8,0:0:0:0:
476,134,95424,6,0,B|379:168|379:168|302:112,1,178.499994552612,6|0,3:2|0:0,0:0:0:0:
293,102,95862,1,10,0:0:0:0:
312,104,96081,5,2,0:0:0:0:
192,197,96300,5,2,3:2:0:0:
211,31,96519,1,2,0:0:0:0:
314,210,96738,1,10,0:0:0:0:
112,81,96957,1,2,0:0:0:0:
15,208,97176,5,6,0:2:0:0:
19,242,97286,1,8,0:0:0:0:
24,281,97395,1,10,0:0:0:0:
183,306,97614,6,0,L|172:375,1,59.4999981842042,10|0,0:0|0:0,0:0:0:0:
300,169,97833,2,0,L|310:240,1,59.4999981842042,2|0,0:0|0:0,0:0:0:0:
458,338,98052,2,0,L|434:248,1,59.4999981842042,6|0,0:2|0:0,0:0:0:0:
430,133,98271,2,8,L|475:140,3,29.7499990921021
300,169,98490,5,10,0:0:0:0:
235,135,98599,1,8,0:0:0:0:
245,61,98709,1,8,0:0:0:0:
318,53,98818,1,8,0:0:0:0:
357,117,98928,6,0,L|317:266,1,118.999996368408,6|0,3:2|0:0,0:0:0:0:
242,352,99256,1,0,0:0:0:0:
208,357,99366,2,0,P|156:305|194:215,1,178.499994552612,10|0,0:0|0:0,0:0:0:0:
260,159,99804,5,2,3:2:0:0:
310,290,100023,1,2,0:0:0:0:
178,130,100242,1,10,0:0:0:0:
341,33,100461,5,2,0:0:0:0:
348,63,100570,1,8,0:0:0:0:
355,91,100680,1,2,3:2:0:0:
425,254,100898,1,2,0:0:0:0:
510,172,101117,2,0,L|385:161,1,118.999996368408,10|0,0:0|0:0,0:0:0:0:
293,356,101555,2,0,B|316:243|316:243|267:161,1,178.499994552612,6|0,3:2|0:0,0:0:0:0:
265,154,101993,5,10,0:0:0:0:
97,78,102212,1,10,0:0:0:0:
102,109,102322,1,0,0:0:0:0:
108,142,102431,2,0,P|175:46|150:6,1,152.999995330811,6|0,3:2|0:0,0:0:0:0:
0,137,102869,6,0,L|33:311,1,152.999995330811,2|0,3:2|0:0,0:0:0:0:
135,384,103307,2,0,P|160:286|163:274,1,101.999996887207,2|0,0:0|3:0,0:0:0:0:
332,180,103745,2,0,B|273:157|273:157|139:177,1,152.999995330811,10|0,0:0|0:0,0:0:0:0:
103,195,104183,5,2,3:2:0:0:
155,56,104402,1,2,3:2:0:0:
300,147,104621,1,2,3:2:0:0:
207,289,104840,1,2,3:2:0:0:
41,116,105059,5,14,0:2:0:0:
303,72,105278,1,2,0:0:0:0:
308,104,105388,1,0,0:0:0:0:
311,136,105497,1,10,0:0:0:0:
420,295,105716,2,0,L|359:284,1,50.9999984436036,2|0,0:0|0:0,0:0:0:0:
222,354,105935,6,0,P|220:259|218:211,1,101.999996887207,6|8,3:2|0:0,0:0:0:0:
144,184,106263,2,0,P|130:132|129:129,1,50.9999984436036,4|0,3:2|0:0,0:0:0:0:
236,55,106482,1,8,0:0:0:0:
219,43,106592,2,0,P|261:89|363:75,1,152.999995330811,4|0,3:2|0:0,0:0:0:0:
434,25,107030,1,8,0:0:0:0:
406,150,107249,5,12,0:0:0:0:
491,240,107467,1,0,0:0:0:0:
493,262,107577,1,0,0:0:0:0:
494,281,107687,2,0,P|474:352|467:365,1,50.9999984436036,10|0,0:0|0:0,0:0:0:0:
358,366,107906,5,8,0:0:0:0:
336,328,108015,1,8,0:0:0:0:
302,307,108125,1,8,0:0:0:0:
264,311,108234,1,8,0:0:0:0:
227,337,108344,2,0,L|249:395,1,50.9999984436036,0|0,3:0|0:0,0:0:0:0:
126,273,108563,2,0,L|132:196,1,50.9999984436036,0|0,3:0|0:0,0:0:0:0:
227,158,108782,2,0,L|217:59,1,50.9999984436036,0|0,3:0|0:0,0:0:0:0:
153,74,109001,6,0,P|251:36|296:90,1,152.999995330811,2|0,3:2|0:0,0:0:0:0:
358,138,109439,6,0,P|353:198|354:261,1,110.499994941712,6|0,3:2|0:0,0:0:0:0:
240,364,109767,1,8,0:0:0:0:
251,348,109877,2,0,P|240:227|233:197,1,110.499994941712,2|0,3:2|0:0,0:0:0:0:
164,165,110205,2,0,L|19:191,1,110.499994941712,2|0,3:2|0:0,0:0:0:0:
25,208,110534,1,8,0:0:0:0:
32,14,110753,1,10,0:0:0:0:
39,38,110862,1,8,0:0:0:0:
47,60,110971,1,10,0:0:0:0:
173,272,111190,5,10,0:0:0:0:
252,87,111409,1,2,0:0:0:0:
256,112,111519,1,0,0:0:0:0:
259,134,111628,1,10,0:0:0:0:
363,259,111847,2,0,L|235:239,1,110.499994941712,14|0,0:0|0:0,0:0:0:0:
83,187,112176,1,8,0:0:0:0:
98,173,112285,2,0,P|140:243|135:310,1,110.499994941712,2|8,3:2|0:0,0:0:0:0:
39,326,112559,2,8,L|46:292,3,27.6249987354279
116,367,112833,1,0,0:0:0:0:
135,377,112942,6,0,P|212:363|275:357,1,110.499994941712,6|0,3:2|0:0,0:0:0:0:
320,274,113271,1,8,0:0:0:0:
304,262,113380,2,0,P|354:311|432:273,1,110.499994941712,2|4,3:2|0:0,0:0:0:0:
512,212,113818,1,2,3:2:0:0:
502,333,114037,1,10,0:2:0:0:
400,164,114256,1,10,0:0:0:0:
398,135,114366,1,8,0:0:0:0:
397,109,114475,1,10,0:0:0:0:
188,32,114694,6,0,P|208:123|272:155,1,165.749992412568,6|0,3:2|0:0,0:0:0:0:
302,136,115132,1,10,0:0:0:0:
440,238,115351,2,0,P|360:317|380:363,1,110.499994941712,14|0,0:0|0:0,0:0:0:0:
369,349,115680,1,8,0:0:0:0:
378,368,115789,2,0,P|311:324|249:349,1,110.499994941712,2|8,3:2|0:0,0:0:0:0:
186,345,116063,2,8,L|201:393,3,27.6249987354279
118,248,116336,1,8,0:0:0:0:
105,233,116446,6,0,P|117:125|120:73,1,110.499994941712,6|0,3:2|0:0,0:0:0:0:
203,46,116774,1,0,0:0:0:0:
219,43,116884,1,10,0:0:0:0:
314,126,117103,2,0,P|317:210|304:324,1,165.749992412568,2|0,3:2|0:0,0:0:0:0:
224,347,117541,1,2,3:2:0:0:
177,184,117760,1,10,0:0:0:0:
312,306,117979,1,2,3:2:0:0:
356,165,118198,5,10,0:0:0:0:
168,282,118417,1,10,0:0:0:0:
148,291,118526,1,8,0:0:0:0:
127,300,118636,1,10,0:0:0:0:
21,192,118855,2,0,P|27:73|52:59,1,110.499994941712,2|12,3:2|0:2,0:3:0:0:
200,42,119293,5,2,0:0:0:0:
111,165,119512,1,2,0:0:0:0:
85,6,119731,1,2,0:0:0:0:
266,146,119950,5,2,3:2:0:0:
145,276,120169,1,0,3:0:0:0:
176,69,120388,1,0,3:0:0:0:
324,228,120607,1,0,3:0:0:0:
93,162,120825,1,0,3:0:0:0:
328,69,121044,1,0,3:0:0:0:
227,292,121263,6,0,P|135:317|110:257,1,165.749992412568,2|0,3:2|0:0,0:0:0:0:
55,43,121701,6,0,P|117:145|112:169,1,110.499994941712,14|0,0:0|0:0,0:0:0:0:
15,209,122030,1,8,0:0:0:0:
3,233,122139,2,0,L|70:205,1,55.2499974708558,10|0,0:0|0:0,0:0:0:0:
295,221,122358,2,0,P|267:175|163:226,1,165.749992412568,10|8,0:0|0:0,0:0:0:0:
111,272,122796,2,0,P|132:324|136:354,1,55.2499974708558,10|0,0:0|0:0,0:0:0:0:
248,315,123015,2,0,P|224:387|221:396,1,55.2499974708558,10|0,0:0|0:0,0:0:0:0:
372,364,123234,1,10,0:0:0:0:
397,347,123344,1,8,0:0:0:0:
411,326,123453,6,0,P|404:212|385:177,1,110.499994941712,4|0,3:2|0:0,0:0:0:0:
316,101,123782,1,0,0:0:0:0:
301,118,123891,2,0,P|308:232|327:267,1,110.499994941712,10|0,0:0|0:0,0:0:0:0:
217,371,124329,2,0,P|150:301|93:309,2,110.499994941712,0|0|8,3:2|0:0|0:0,0:0:0:0:
25,240,124986,5,10,0:0:0:0:
28,210,125096,1,0,0:0:0:0:
32,179,125205,2,0,L|171:218,1,110.499994941712,0|0,3:2|0:0,0:0:0:0:
255,227,125534,1,0,0:0:0:0:
271,244,125643,2,0,P|288:149|233:91,1,165.749992412568,10|0,0:0|0:0,0:0:0:0:
151,46,126081,5,0,3:0:0:0:
180,183,126300,1,0,3:0:0:0:
303,66,126519,1,10,0:0:0:0:
313,44,126628,1,8,0:0:0:0:
323,21,126738,1,8,0:0:0:0:
414,101,126957,5,4,3:2:0:0:
400,266,127176,1,2,0:0:0:0:
507,145,127395,1,8,0:0:0:0:
334,200,127614,2,0,P|226:191|177:80,1,220.999989883423,2|0,3:2|0:0,0:0:0:0:
34,35,128271,2,0,P|50:115|52:170,1,110.499994941712,10|0,0:0|0:0,0:0:0:0:
71,283,128709,5,0,3:0:0:0:
181,207,128928,1,0,3:0:0:0:
15,135,129147,2,0,L|148:138,1,110.499994941712,10|0,0:2|0:0,0:0:0:0:
280,80,129585,2,0,B|256:73|222:46|222:46|246:166,1,165.749992412568,0|0,3:2|0:0,0:0:0:0:
348,240,130023,5,8,0:0:0:0:
393,232,130132,1,8,0:0:0:0:
399,181,130242,1,8,0:0:0:0:
360,163,130351,1,8,0:0:0:0:
322,197,130461,6,0,L|350:329,1,110.499994941712,4|0,3:2|0:3,0:3:0:0:
257,372,130789,1,0,0:0:0:0:
241,364,130898,2,0,L|218:243,1,110.499994941712,10|0,0:0|0:0,0:0:0:0:
105,140,131336,2,0,B|-55:191|-44:183,2,110.499994941712,0|0|8,3:0|0:0|0:0,0:0:0:0:
270,146,131994,5,10,0:0:0:0:
292,154,132103,1,0,0:0:0:0:
315,163,132212,2,0,B|330:61|330:61|278:22,1,165.749992412568,0|0,3:0|0:0,0:0:0:0:
179,132,132650,2,0,P|144:198|215:272,1,165.749992412568,8|0,0:0|0:0,0:0:0:0:
288,348,133088,5,2,3:2:0:0:
400,240,133307,1,0,3:0:0:0:
245,195,133526,1,10,0:0:0:0:
224,206,133635,1,8,0:0:0:0:
200,217,133745,1,8,0:0:0:0:
60,315,133964,6,0,P|29:272|56:195,1,110.499994941712,4|0,3:2|0:0,0:0:0:0:
104,63,134293,1,8,0:0:0:0:
133,53,134402,2,0,P|157:107|131:168,1,110.499994941712,4|0,3:2|0:0,0:0:0:0:
109,268,134731,1,8,0:0:0:0:
91,297,134840,2,0,L|229:276,1,110.499994941712,4|0,3:2|0:0,0:0:0:0:
409,347,135169,5,8,0:0:0:0:
398,307,135278,1,8,0:0:0:0:
368,279,135388,1,8,0:0:0:0:
318,280,135497,1,8,0:0:0:0:
287,305,135607,1,8,0:0:0:0:
273,343,135716,6,0,P|235:306|252:207,1,110.499994941712,0|8,3:0|0:0,0:0:0:0:
306,175,136044,2,0,P|361:102|333:46,1,110.499994941712,0|8,3:0|0:0,0:0:0:0:
296,16,136373,1,0,3:0:0:0:
210,193,136591,5,0,3:0:0:0:
210,193,136737,2,0,P|232:245|234:294,1,73.6666632944744,8|8,0:0|0:0,0:0:0:0:
132,120,137029,1,0,3:0:0:0:
131,119,137176,2,0,P|96:107|60:106,1,73.6666632944744,8|8,0:0|0:0,0:0:0:0:
228,84,137468,6,0,P|268:22|267:-6,2,76.4999976654053,6|0|0,0:2|0:0|0:0,0:0:0:0:
132,120,138125,1,0,0:0:0:0:
54,196,138344,2,0,P|85:275|87:281,1,76.4999976654053
191,256,138782,2,0,P|179:318|167:354,1,76.4999976654053,0|0,0:0|3:0,0:0:0:0:
91,384,139220,2,0,P|125:351|239:383,1,152.999995330811,2|0,3:2|0:0,0:0:0:0:
326,383,139877,1,0,0:0:0:0:
446,306,140096,2,0,B|424:224|424:224|403:249|348:261,1,152.999995330811,2|0,0:0|0:0,0:0:0:0:
131,225,140971,6,0,P|106:158|175:74,1,152.999995330811,2|0,3:2|0:0,0:0:0:0:
287,7,141628,2,0,P|261:55|212:73,1,76.4999976654053
141,89,142066,1,0,0:0:0:0:
224,152,142285,2,0,P|257:191|258:243,2,76.4999976654053,0|0|0,0:0|3:0|3:0,0:0:0:0:
424,173,144037,5,0,0:2:0:0:
431,189,144147,1,8,0:2:0:0:
436,202,144256,1,8,3:2:0:0:
500,95,144475,6,0,P|512:17|507:-4,2,76.4999976654053,6|0|0,0:2|0:0|0:0,0:0:0:0:
424,173,145132,1,0,0:0:0:0:
320,143,145351,2,0,P|248:135|225:132,1,76.4999976654053
184,212,145789,2,0,P|91:236|85:237,1,76.4999976654053,0|0,0:0|3:0,0:0:0:0:
0,103,146227,2,0,B|48:127|48:127|25:243,1,152.999995330811,2|0,3:2|0:0,0:0:0:0:
0,310,146884,1,0,0:0:0:0:
94,381,147103,2,0,P|134:319|216:324,1,152.999995330811,2|0,0:0|0:0,0:0:0:0:
333,261,147979,6,0,B|270:215|270:215|296:121,1,152.999995330811,2|0,3:2|0:0,0:0:0:0:
366,55,148636,2,0,B|428:105|428:105|403:195,1,152.999995330811
389,296,149293,2,0,L|484:272,1,76.4999976654053
497,275,149621,1,0,0:0:0:0:
506,277,149731,2,0,B|411:311|365:228|344:190|344:190|371:325|244:359,1,414.374981031419,2|0,3:2|0:0,0:0:0:0:
124,79,160242,6,0,L|145:154,1,55.2499974708558,0|0,3:2|0:0,0:0:0:0:
223,180,160680,2,0,L|200:267,1,55.2499974708558,2|0,3:0|0:0,0:0:0:0:
128,300,161117,1,0,3:0:0:0:
128,300,161555,5,0,3:0:0:0:
128,300,161775,1,0,0:0:0:0:
217,349,161993,2,0,L|283:332,1,55.2499974708558,0|0,3:2|0:0,0:0:0:0:
348,276,162431,2,0,L|425:294,1,55.2499974708558,0|0,3:0|0:0,0:0:0:0:
504,336,162869,2,0,L|480:211,1,110.499994941712,8|0,0:0|0:0,0:0:0:0:
458,126,163526,1,0,0:0:0:0:
446,132,163745,1,6,3:2:0:0:
238,2,164183,6,0,P|250:32|256:64,1,63.7500024318696,2|0,0:0|0:0,0:0:0:0:
192,208,164621,2,0,P|198:136|205:125,1,63.7500024318696,0|0,0:0|0:3,0:0:0:0:
293,141,165059,1,8,0:3:0:0:
476,110,165497,6,0,P|505:78|507:37,2,72.2500013780594,2|0|0,3:2|0:0|0:0,0:0:0:0:
380,169,166154,1,0,0:0:0:0:
340,305,166373,2,0,L|364:390,1,72.2500013780594,2|0,0:0|3:0,0:0:0:0:
271,196,166811,1,8,0:0:0:0:
226,363,167030,1,0,3:0:0:0:
27,274,167249,6,0,B|83:268|96:211|96:211|156:251|150:321|150:321|210:261|210:261|265:312|354:258,1,433.500008268356,2|0,0:0|0:0,0:0:0:0:
425,179,168782,1,2,0:0:0:0:
268,63,169001,6,0,P|249:115|298:179,1,110.499994941712,6|8,3:2|0:0,0:0:0:0:
269,346,169329,2,0,P|279:328|241:241,1,110.499994941712,4|8,3:2|0:0,0:0:0:0:
94,196,169658,2,0,P|149:218|201:184,1,110.499994941712,4|8,3:2|0:0,0:0:0:0:
385,125,169931,2,0,L|372:157,5,27.6249987354279,2|2|2|2|2|2,0:3|0:3|0:3|0:3|0:3|0:3,0:3:0:0:
303,284,170315,5,10,0:0:0:0:
299,241,170424,1,8,0:0:0:0:
274,204,170534,1,8,0:0:0:0:
235,185,170643,1,8,0:0:0:0:
182,189,170753,6,0,P|205:103|283:83,1,127.500004863739,6|0,3:2|0:0,0:0:0:0:
367,46,171081,1,0,0:0:0:0:
382,73,171190,2,0,B|370:205|380:264|370:229,1,127.500004863739,10|0,0:0|0:0,0:0:0:0:
395,349,171519,1,0,0:0:0:0:
421,335,171628,2,0,P|334:304|240:386,1,191.250007295609,2|0,3:2|0:0,0:0:0:0:
138,356,172066,5,10,0:0:0:0:
44,239,172285,1,2,0:0:0:0:
48,205,172395,1,0,0:0:0:0:
54,175,172504,1,2,3:2:0:0:
226,97,172723,1,2,0:0:0:0:
161,216,172942,6,0,L|138:72,1,127.500004863739,10|0,0:0|0:0,0:0:0:0:
60,38,173271,1,0,0:0:0:0:
42,10,173380,2,0,P|148:56|200:10,1,191.250007295609,2|0,3:2|0:0,0:0:0:0:
354,42,173818,5,10,0:0:0:0:
345,68,173928,1,8,0:0:0:0:
338,95,174037,1,10,0:0:0:0:
211,238,174256,6,0,B|158:146|158:146|257:164,1,191.250007295609,6|0,3:2|0:0,0:0:0:0:
281,172,174694,1,10,0:0:0:0:
277,186,174913,5,2,0:0:0:0:
240,372,175132,5,2,3:2:0:0:
155,226,175351,1,2,0:2:0:0:
348,254,175570,1,10,0:2:0:0:
145,368,175789,1,2,0:2:0:0:
30,213,176008,5,6,0:0:0:0:
38,242,176117,1,8,0:0:0:0:
46,274,176227,1,10,0:0:0:0:
144,94,176446,6,0,P|145:21|129:-17,1,63.7500024318696,10|0,0:0|0:0,0:0:0:0:
288,59,176665,2,0,P|283:28|269:0,1,63.7500024318696,2|0,0:0|0:0,0:0:0:0:
413,127,176884,2,0,P|464:72|471:34,1,63.7500024318696,6|0,3:2|0:0,0:0:0:0:
335,231,177103,2,8,L|349:288,3,31.8750012159348
228,160,177322,5,10,0:0:0:0:
150,150,177432,1,8,0:0:0:0:
118,221,177541,1,8,0:0:0:0:
176,274,177651,1,8,0:0:0:0:
244,236,177760,6,0,P|263:108|264:73,1,127.500004863739,6|0,3:2|0:0,0:0:0:0:
333,9,178088,1,0,0:0:0:0:
347,37,178198,2,0,P|434:96|494:71,1,127.500004863739,10|0,0:0|0:0,0:0:0:0:
512,206,178526,1,0,0:0:0:0:
485,197,178636,2,0,P|417:188|331:324,1,191.250007295609,2|0,3:2|0:0,0:0:0:0:
351,360,179074,5,10,0:0:0:0:
193,313,179293,1,2,0:0:0:0:
168,303,179402,1,8,0:0:0:0:
145,294,179512,1,10,0:0:0:0:
281,187,179731,1,0,0:0:0:0:
49,207,179950,6,0,B|32:134|32:134|74:70,1,127.500004863739,10|0,0:2|0:0,0:0:0:0:
139,9,180278,1,0,0:0:0:0:
201,77,180388,2,0,P|89:80|37:-17,1,191.250007295609,6|0,3:2|0:0,0:0:0:0:
215,201,180825,5,10,0:0:0:0:
425,278,181044,1,2,0:0:0:0:
433,253,181154,1,8,0:0:0:0:
444,227,181263,2,0,L|277:264,1,127.500004863739,6|0,3:2|0:0,0:0:0:0:
157,92,181701,6,0,B|203:81|286:55|286:55|257:85|258:120,1,191.250007295609,10|0,0:0|0:0,0:0:0:0:
195,235,182139,1,2,3:2:0:0:
59,168,182358,1,2,3:2:0:0:
287,256,182577,2,0,P|301:358|205:354,1,191.250007295609,14|0,0:0|0:0,0:0:0:0:
119,317,183015,5,2,3:2:0:0:
187,140,183234,1,2,3:2:0:0:
200,354,183453,1,2,3:2:0:0:
82,123,183672,1,2,3:2:0:0:
287,256,183891,5,6,3:2:0:0:
372,55,184110,1,2,0:0:0:0:
376,83,184220,1,8,0:0:0:0:
383,117,184329,1,10,0:0:0:0:
414,306,184548,2,0,P|396:212|396:190,1,63.7500024318696,2|0,0:0|0:0,0:0:0:0:
482,106,184767,6,0,P|432:201|334:193,1,191.250007295609,6|0,3:2|0:0,0:0:0:0:
320,186,185205,1,8,0:0:0:0:
165,76,185424,2,0,P|181:164|190:239,1,127.500004863739,6|0,0:2|0:0,0:0:0:0:
73,304,185753,1,8,0:0:0:0:
73,304,185862,2,0,P|77:236|81:212,1,63.7500024318696,8|0,0:0|0:0,0:0:0:0:
202,369,186081,2,0,P|202:299|202:272,1,63.7500024318696,8|0,0:0|0:0,0:0:0:0:
328,200,186300,5,10,0:0:0:0:
347,228,186409,1,8,0:0:0:0:
352,260,186519,1,10,0:0:0:0:
473,79,186738,5,8,0:0:0:0:
445,41,186847,1,8,0:0:0:0:
399,29,186957,1,8,0:0:0:0:
356,52,187066,1,8,0:0:0:0:
341,97,187176,1,0,3:0:0:0:
174,152,187395,5,8,0:2:0:0:
126,131,187504,1,8,0:2:0:0:
133,78,187614,1,8,0:2:0:0:
186,65,187723,1,8,0:2:0:0:
212,113,187833,1,8,0:2:0:0:
162,243,188052,5,8,0:0:0:0:
141,232,188161,1,0,0:0:0:0:
126,223,188271,2,0,L|16:237,1,110.499994941712,6|0,3:2|0:0,0:0:0:0:
0,328,188599,1,0,0:0:0:0:
23,346,188709,2,0,L|170:329,1,110.499994941712,10|0,0:0|0:0,0:0:0:0:
212,290,189037,1,0,0:3:0:0:
217,370,189147,2,0,P|299:379|346:278,1,165.749992412568,2|0,3:2|0:3,0:3:0:0:
477,183,189585,6,0,P|390:241|397:282,1,110.499994941712,10|0,0:0|0:0,0:0:0:0:
458,294,189913,1,8,0:0:0:0:
501,285,190023,2,0,L|514:83,1,165.749992412568,2|0,3:2|0:0,0:0:0:0:
512,73,190461,1,8,0:0:0:0:
381,5,190680,1,2,0:0:0:0:
292,104,190898,6,0,P|302:175|308:222,1,110.499994941712,0|0,3:0|0:0,0:0:0:0:
166,274,191336,1,10,0:0:0:0:
145,239,191446,1,8,0:0:0:0:
147,202,191555,1,8,0:0:0:0:
286,214,191774,5,6,3:2:0:0:
234,358,191993,1,2,0:0:0:0:
410,322,192212,2,0,L|285:296,1,110.499994941712,10|0,0:0|0:0,0:0:0:0:
147,194,192650,5,2,3:2:0:0:
26,301,192869,1,2,0:0:0:0:
29,325,192979,1,2,0:0:0:0:
33,348,193088,1,10,0:0:0:0:
66,140,193307,1,2,0:0:0:0:
262,165,193526,6,8,L|291:125,6,27.6249987354279,12|8|8|8|8|8|8,0:0|0:0|0:0|0:0|0:0|0:0|0:0,0:0:0:0:
333,359,193964,2,8,L|351:408,6,27.6249987354279,12|8|8|8|8|8|8,0:0|0:0|0:0|0:0|0:0|0:0|0:0,0:0:0:0:
421,277,194402,2,0,P|460:239|439:156,1,110.499994941712,4|0,3:2|0:0,0:0:0:0:
404,67,194731,1,8,0:0:0:0:
357,70,194840,5,10,0:0:0:0:
397,94,194950,1,8,0:0:0:0:
439,84,195059,1,8,0:0:0:0:
465,50,195169,1,8,0:0:0:0:
480,6,195278,6,0,B|272:47,1,203.999993774414,6|8,3:2|0:0,0:0:0:0:
140,152,195935,1,2,3:2:0:0:
293,174,196154,1,8,0:0:0:0:
175,8,196373,1,0,3:0:0:0:
36,145,196592,2,0,P|58:277|65:345,1,101.999996887207,10|0,0:0|0:0,0:0:0:0:
8,356,196920,1,8,0:0:0:0:
11,328,197030,6,0,P|79:273|183:313,1,203.999993774414,2|8,3:2|0:0,0:0:0:0:
343,359,197687,1,2,3:2:0:0:
348,171,197906,2,0,P|385:266|380:310,1,101.999996887207,4|8,3:2|0:0,0:0:0:0:
339,337,198234,1,8,0:0:0:0:
343,359,198344,2,0,P|388:295|494:316,1,152.999995330811,2|0,3:2|0:0,0:0:0:0:
509,384,198782,6,0,L|491:167,1,203.999993774414,2|0,3:2|0:0,0:0:0:0:
370,56,199439,1,2,0:0:0:0:
244,188,199658,1,0,3:0:0:0:
376,167,199877,1,0,3:0:0:0:
142,99,200096,2,0,P|165:279|167:300,1,152.999995330811,8|0,0:0|0:0,0:0:0:0:
246,371,200534,6,0,P|249:345|254:320,1,50.9999984436036,8|0,0:0|0:0,0:0:0:0:
302,248,200752,1,0,0:0:0:0:
309,239,200862,1,0,0:0:0:0:
313,227,200971,2,0,P|305:144|305:143,1,50.9999984436036,8|0,0:0|0:0,0:0:0:0:
263,92,201190,1,10,0:0:0:0:
130,21,201409,6,0,P|76:78|95:149,1,110.499994941712,14|0,0:0|0:0,0:0:0:0:
130,183,201738,1,2,0:0:0:0:
145,196,201847,2,0,P|160:249|145:288,1,55.2499974708558,8|0,0:0|0:0,0:0:0:0:
5,306,202066,2,0,L|85:316,1,55.2499974708558,2|0,0:0|0:0,0:0:0:0:
158,346,202285,6,0,L|312:321,1,110.499994941712,6|8,0:0|0:0,0:0:0:0:
465,274,202614,2,0,L|311:249,1,110.499994941712,4|8,0:0|0:0,0:0:0:0:
144,146,202942,2,0,L|325:174,1,165.749992412568,4|8,0:0|0:0,0:0:0:0:
428,151,203380,1,8,0:0:0:0:
257,23,203599,6,0,P|273:124|275:140,1,110.499994941712,12|0,0:0|0:0,0:0:0:0:
279,220,203928,1,0,3:0:0:0:
268,237,204037,1,0,3:0:0:0:
108,335,204256,5,8,0:0:0:0:
149,305,204366,1,8,0:0:0:0:
200,304,204475,1,8,0:0:0:0:
242,334,204585,1,8,0:0:0:0:
256,374,204694,6,0,L|253:269,1,55.2499974708558,0|0,3:0|0:0,0:0:0:0:
361,265,204913,2,0,B|350:190|350:167,1,55.2499974708558,0|0,3:0|0:0,0:0:0:0:
251,156,205132,2,0,L|254:55,1,55.2499974708558,0|0,3:0|0:0,0:0:0:0:
328,13,205351,1,4,3:0:0:0:
80,29,205789,6,4,P|101:80|135:120,1,55.2499974708558,14|4,0:0|0:0,0:0:0:0:
229,116,206008,2,0,P|213:176|209:181,1,55.2499974708558,8|0,0:0|0:0,0:0:0:0:
46,183,206227,2,0,P|75:229|115:263,1,55.2499974708558,8|0,0:0|0:0,0:0:0:0:
217,268,206446,2,0,P|190:324|186:328,1,55.2499974708558,12|0,0:0|0:0,0:0:0:0:
26,384,206665,5,8,0:0:0:0:
13,351,206774,1,8,0:0:0:0:
12,313,206884,1,8,0:0:0:0:
101,148,207103,5,4,0:0:0:0:
149,307,207322,1,0,3:0:0:0:
165,286,207431,1,0,3:0:0:0:
189,271,207541,6,0,P|208:332|212:356,1,55.2499974708558,0|0,3:0|0:0,0:0:0:0:
296,233,207760,2,0,P|294:310|293:322,1,55.2499974708558,0|0,3:0|0:0,0:0:0:0:
410,243,207979,2,0,P|399:278|381:331,1,55.2499974708558,0|0,3:0|0:0,0:0:0:0:
509,302,208198,2,0,P|493:330|462:381,1,55.2499974708558,0|0,3:0|0:0,0:0:0:0:
505,143,208417,6,0,P|511:115|517:88,1,55.2499974708558,0|0,3:0|0:0,0:0:0:0:
388,115,208636,2,0,P|388:88|388:60,1,55.2499974708558,0|0,3:0|0:0,0:0:0:0:
265,126,208855,2,0,P|256:98|248:71,1,55.2499974708558,0|0,3:0|0:0,0:0:0:0:
161,185,209074,2,0,P|146:161|129:139,1,55.2499974708558,0|0,3:0|0:0,0:0:0:0:
