osu file format v14

[General]
AudioFilename: audio.mp3
AudioLeadIn: 0
PreviewTime: 267
Countdown: 0
SampleSet: Soft
StackLeniency: 0.7
Mode: 0
LetterboxInBreaks: 0
WidescreenStoryboard: 1

[Editor]
DistanceSpacing: 1.7
BeatDivisor: 2
GridSize: 8
TimelineZoom: 1.6

[Metadata]
Title:Shinkai Shoujo
TitleUnicode:深海少女
Artist:Nobunaga
ArtistUnicode:のぶなが
Creator:Lunala
Version:Normal
Source:
Tags:Japanese Novelty Vocaloid ゆうゆ Yuuyu-P 初音ミク hatsune miku voices in a bottle ~海を越え届いた歌声~ deep sea girl wyrio Misure
BeatmapID:2604199
BeatmapSetID:1240218

[Difficulty]
HPDrainRate:3
CircleSize:3.5
OverallDifficulty:5
ApproachRate:5.7
SliderMultiplier:1.2
SliderTickRate:1

[Events]
//Background and Video events
0,0,"bg.jpg",0,0
//Break Periods
2,60588,62358
2,151573,159147
//Storyboard Layer 0 (Background)
//Storyboard Layer 1 (Fail)
//Storyboard Layer 2 (Pass)
//Storyboard Layer 3 (Foreground)
//Storyboard Layer 4 (Overlay)
//Storyboard Sound Samples

[TimingPoints]
-6182,437.956204379562,4,2,1,40,1,0
387,-100,4,2,1,40,0,0
825,-100,4,2,1,40,0,0
14182,-100,4,2,1,50,0,0
14839,-100,4,2,1,55,0,0
28854,-100,4,2,1,60,0,0
35861,-100,4,2,1,65,0,0
42869,-100,4,2,1,70,0,1
49219,-100,4,2,1,50,0,1
49876,-100,4,2,1,70,0,1
53379,-100,4,2,1,70,0,1
60387,-100,4,2,1,50,0,0
64328,-100,4,2,1,55,0,0
75715,-100,4,2,1,60,0,0
84912,-100,4,2,1,65,0,0
91920,-100,4,2,1,70,0,1
98270,-100,4,2,1,50,0,1
98927,-100,4,2,1,70,0,1
102430,-100,4,2,1,70,0,1
109438,-100,4,2,1,65,0,0
137467,-100,4,2,1,50,0,0
149730,-133.333333333333,4,2,1,40,0,0
160241,-100,4,2,1,40,0,0
164182,-100,4,2,1,50,0,0
165277,-100,4,2,1,55,0,0
169000,-100,4,2,1,70,0,0
170314,-100,4,2,1,70,0,0
170752,-100,4,2,1,70,0,1
177102,-100,4,2,1,50,0,1
177759,-100,4,2,1,70,0,1
187832,-100,4,2,1,70,0,1
188270,-100,4,2,1,70,0,0
193525,-100,4,2,1,55,0,0
194401,-100,4,2,1,70,0,0
195277,-100,4,2,1,70,0,0
201408,-100,4,2,1,70,0,0

[Colours]
Combo1 : 179,109,255
Combo2 : 81,255,239

[HitObjects]
66,44,388,6,0,P|96:106|100:131,1,60,0|0,0:0|0:0,0:0:0:0:
109,148,825,2,0,P|180:83|240:98,2,120,2|0|0,0:0|0:0|0:0,0:0:0:0:
61,245,2139,1,0,0:0:0:0:
138,319,2577,2,0,L|288:295,1,120,2|0,0:0|0:0,0:0:0:0:
306,320,3234,2,0,L|290:393,2,60,0|0|0,0:0|0:0|0:0,0:0:0:0:
372,235,4110,5,0,0:0:0:0:
372,235,4329,2,0,L|350:81,1,120,2|0,0:0|0:0,0:0:0:0:
451,66,5205,2,0,L|444:145,2,60,0|0|0,0:0|0:0|0:0,0:0:0:0:
428,16,5862,1,0,0:0:0:0:
377,33,6081,2,0,P|324:38|270:-11,2,120,2|0|0,0:0|0:0|0:0,0:0:0:0:
333,132,7395,1,0,0:0:0:0:
261,212,7833,6,0,L|160:193,1,60,2|0,0:0|0:0,0:0:0:0:
150,216,8271,2,0,P|122:283|107:292,1,60,0|0,0:0|0:0,0:0:0:0:
80,282,8709,2,0,L|68:118,1,120,2|0,0:0|0:0,0:0:0:0:
147,85,9585,2,0,P|139:11|134:6,2,60,2|0|0,0:0|0:3|0:3,0:0:0:0:
148,139,10242,1,0,0:0:0:0:
185,178,10461,2,0,L|352:162,1,120,2|0,0:0|0:0,0:0:0:0:
389,100,11336,6,0,P|417:160|354:256,1,180,2|0,0:0|0:0,0:0:0:0:
315,269,12212,2,0,P|386:254|438:361,1,180,2|0,0:0|0:0,0:0:0:0:
415,378,13088,2,0,L|442:166,1,180,2|0,0:0|0:0,0:0:0:0:
356,128,14183,1,0,3:0:0:0:
356,128,14402,2,0,L|357:12,1,60,8|0,0:0|0:0,0:0:0:0:
371,16,14840,6,0,P|316:61|250:33,1,120,6|10,3:2|0:0,0:0:0:0:
224,27,15497,1,2,0:0:0:0:
180,59,15716,2,0,L|197:144,1,60,2|0,3:0|0:0,0:0:0:0:
233,152,16154,1,10,0:0:0:0:
139,205,16592,2,0,P|102:301|131:328,1,120,2|10,3:2|0:0,0:0:0:0:
135,346,17249,1,0,0:0:0:0:
188,341,17468,2,0,L|209:264,2,60,2|0|8,3:2|3:0|0:0,0:0:0:0:
295,337,18344,6,0,L|442:316,1,120,2|8,3:2|0:0,0:0:0:0:
464,300,19001,1,0,0:0:0:0:
491,253,19220,2,0,L|472:175,1,60,2|0,3:2|0:0,0:0:0:0:
430,165,19658,2,0,L|431:98,1,60,10|0,0:0|0:0,0:0:0:0:
454,56,20096,2,0,P|413:103|320:83,1,120,2|8,3:2|0:0,0:0:0:0:
308,87,20753,1,2,0:0:0:0:
308,87,20971,1,2,3:2:0:0:
221,151,21409,6,0,L|129:142,1,60,8|6,0:0|0:0,0:0:0:0:
110,125,21847,2,0,P|143:203|119:256,1,120,2|10,3:2|0:0,0:0:0:0:
105,279,22504,1,2,0:0:0:0:
88,330,22723,2,0,L|259:298,1,120,2|8,3:2|0:0,0:0:0:0:
300,360,23599,2,0,P|385:289|411:297,1,120,2|8,3:2|0:0,0:0:0:0:
431,309,24256,1,2,0:0:0:0:
480,286,24475,2,0,L|454:127,1,120,2|8,3:2|0:0,0:0:0:0:
451,114,25132,5,8,0:0:0:0:
451,114,25351,2,0,L|516:124,2,60,2|0|8,3:2|0:0|0:0,0:0:0:0:
357,59,26227,2,0,L|364:-21,2,60,2|0|10,3:2|0:0|0:0,0:0:0:0:
346,112,26884,1,8,0:0:0:0:
334,164,27103,2,0,P|285:193|229:161,2,120,6|10|2,3:2|0:0|3:0,0:0:0:0:
486,234,28636,5,0,3:0:0:0:
486,234,28855,2,0,P|414:247|391:381,1,180,6|2,0:0|3:2,0:0:0:0:
367,384,29731,2,0,P|309:326|206:342,1,180,10|0,0:0|0:0,0:0:0:0:
178,371,30607,6,0,L|188:221,1,120,2|0,3:2|0:0,0:0:0:0:
190,197,31263,1,2,3:2:0:0:
247,105,31701,2,0,L|239:33,1,60,0|8,3:0|0:0,0:0:0:0:
345,21,32358,6,0,L|340:102,1,60,2|0,3:2|0:0,0:0:0:0:
332,134,32796,2,0,L|355:204,1,60,2|0,0:2|3:0,0:0:0:0:
389,223,33234,2,0,B|315:200|315:200|215:228,1,180,10|2,0:0|3:2,0:0:0:0:
162,237,34110,1,2,0:0:0:0:
119,269,34329,2,0,P|137:190|101:158,1,120,2|2,3:2|3:2,0:0:0:0:
79,125,34986,2,0,P|53:83|99:35,1,120,10|8,0:0|0:0,0:0:0:0:
201,28,35862,6,0,B|256:61|256:61|357:39,1,120,6|0,3:2|0:0,0:0:0:0:
363,36,36519,1,0,0:0:0:0:
410,61,36738,2,0,L|393:233,1,120,2|10,3:2|0:0,0:0:0:0:
386,233,37395,1,0,0:0:0:0:
386,233,37614,2,0,L|410:303,1,60,6|0,3:2|0:0,0:0:0:0:
431,337,38052,2,0,L|343:311,1,60,2|0,3:2|0:0,0:0:0:0:
322,302,38490,2,0,P|289:366|215:363,1,120,2|8,3:2|0:0,0:0:0:0:
141,348,39366,6,0,L|161:208,1,120,6|10,0:0|0:0,0:0:0:0:
205,202,40023,2,0,L|183:58,1,120,6|2,0:2|3:2,0:0:0:0:
166,38,40680,1,2,0:0:0:0:
166,38,40898,2,0,B|258:108|352:20|352:20|331:95|402:124|402:124,1,300,6|2,3:2|3:3,0:0:0:0:
491,239,42869,6,0,L|406:219,1,60,6|0,3:2|0:0,0:0:0:0:
378,227,43307,2,0,P|402:283|408:338,1,60,10|0,0:0|0:0,0:0:0:0:
415,334,43745,2,0,P|368:311|297:344,1,120,2|10,3:2|0:0,0:0:0:0:
203,362,44621,2,0,L|99:340,1,60,2|2,3:2|0:0,0:0:0:0:
90,342,45059,2,0,P|109:267|109:243,1,60,10|0,0:2|0:0,0:0:0:0:
119,231,45497,2,0,P|71:186|110:108,1,120,2|10,3:2|0:0,0:0:0:0:
113,97,46154,1,10,0:0:0:0:
113,97,46373,1,6,3:2:0:0:
198,30,46811,6,0,P|220:91|218:104,1,60,10|2,0:0|0:0,0:0:0:0:
227,137,47249,2,0,P|177:178|169:202,2,60,2|2|8,3:2|0:0|0:0,0:0:0:0:
281,134,47906,1,2,0:0:0:0:
320,171,48125,2,0,L|305:243,1,60,6|10,0:2|0:0,0:0:0:0:
265,264,48563,2,0,L|294:348,1,60,10|2,0:0|0:0,0:0:0:0:
323,358,49001,1,6,0:0:0:0:
428,333,49439,1,10,0:0:0:0:
476,238,49877,6,0,L|456:149,1,60,6|0,0:0|0:0,0:0:0:0:
452,126,50315,2,0,P|479:65|471:41,1,60,10|0,0:0|0:0,0:0:0:0:
501,25,50753,2,0,L|352:45,1,120,2|10,3:2|0:0,0:0:0:0:
277,15,51628,2,0,P|280:43|297:97,1,60,2|2,3:2|0:0,0:0:0:0:
301,126,52066,2,0,L|223:105,1,60,10|0,0:0|0:0,0:0:0:0:
190,96,52504,2,0,P|160:145|88:129,1,120,6|10,0:0|0:0,0:0:0:0:
60,108,53161,1,2,0:0:0:0:
60,108,53380,1,6,3:2:0:0:
8,202,53818,6,0,P|17:294|21:336,1,120,2|2,0:0|3:2,0:0:0:0:
30,379,54475,1,0,3:0:0:0:
30,379,54694,1,10,0:0:0:0:
131,342,55132,6,0,L|207:326,1,60,2|2,3:2|3:2,0:0:0:0:
238,305,55570,2,0,L|317:325,1,60,2|2,3:2|3:2,0:0:0:0:
350,325,56008,2,0,L|335:392,2,60,6|2|10,3:2|0:0|0:0,0:0:0:0:
393,292,56665,1,2,0:0:0:0:
428,249,56884,6,0,P|459:172|435:135,1,120,6|0,3:2|3:0,0:0:0:0:
415,99,57541,2,0,L|276:119,1,120,6|0,3:2|3:0,0:0:0:0:
242,121,58198,1,12,0:0:0:0:
141,77,58636,6,0,P|159:151|181:164,1,60,2|8,0:0|0:0,0:0:0:0:
166,185,59074,2,0,P|169:223|153:262,1,60,8|0,0:0|3:0,0:0:0:0:
133,288,59512,2,0,B|246:257|193:355|322:311,1,180,0|8,3:0|0:0,0:0:0:0:
353,306,60388,1,4,0:0:0:0:
399,168,63453,6,0,L|408:98,1,60,0|10,0:0|0:0,0:0:0:0:
418,55,63891,2,0,L|492:81,2,60,6|2|10,0:0|0:0|0:3,0:0:0:0:
366,39,64548,1,0,0:0:0:0:
327,77,64767,2,0,P|286:107|220:93,1,120,2|10,3:2|0:0,0:0:0:0:
113,83,65643,2,0,L|89:22,2,60,2|2|10,3:2|0:0|0:3,0:0:0:0:
95,134,66300,1,2,3:2:0:0:
57,172,66519,2,0,L|213:144,1,120,2|10,0:0|0:0,0:0:0:0:
283,143,67395,6,0,P|306:216|277:252,1,120,2|8,3:2|0:3,0:0:0:0:
210,326,68271,2,0,L|225:401,2,60,2|0|10,0:0|0:0|0:0,0:0:0:0:
170,288,68927,1,6,3:2:0:0:
134,247,69147,2,0,L|144:176,1,60,0|8,3:0|0:0,0:0:0:0:
182,151,69585,2,0,L|167:90,1,60,2|10,3:2|0:2,0:0:0:0:
148,41,70023,2,0,P|227:93|267:80,1,120,2|2,3:2|3:2,0:0:0:0:
341,39,70898,6,0,L|411:62,1,60,8|8,0:0|0:0,0:0:0:0:
448,77,71336,2,0,P|416:126|412:140,1,60,10|2,0:0|3:2,0:0:0:0:
418,173,71774,2,0,P|467:204|470:284,1,120,0|8,0:0|0:0,0:0:0:0:
412,342,72650,2,0,L|276:317,1,120,2|8,3:2|0:0,0:0:0:0:
239,321,73307,1,2,3:2:0:0:
193,349,73526,2,0,P|214:291|170:231,1,120,2|8,3:2|0:0,0:0:0:0:
148,214,74183,5,0,0:0:0:0:
148,214,74402,2,0,L|64:238,2,60,2|0|8,3:2|0:0|0:0,0:0:0:0:
190,114,75278,2,0,L|175:39,2,60,10|0|10,0:0|0:0|0:0,0:0:0:0:
217,160,75935,1,8,0:0:0:0:
263,186,76154,6,0,P|364:154|361:110,1,120,6|0,3:2|0:0,0:0:0:0:
399,118,76811,1,2,0:0:0:0:
445,91,77030,2,0,L|436:247,1,120,2|0,3:2|3:0,0:0:0:0:
440,319,77906,6,0,P|371:292|302:369,1,180,6|2,3:2|3:2,0:0:0:0:
254,383,78782,2,0,B|258:321|258:321|230:283|230:283|236:178,1,180,10|0,0:0|0:0,0:0:0:0:
259,164,79658,2,0,P|290:127|253:52,1,120,2|0,3:2|0:0,0:0:0:0:
236,21,80315,1,2,3:2:0:0:
182,24,80534,2,0,L|25:46,1,120,0|8,0:0|0:0,0:0:0:0:
42,146,81409,6,0,L|59:230,1,60,2|0,3:2|0:0,0:0:0:0:
92,243,81847,2,0,L|77:319,1,60,2|0,0:0|0:0,0:0:0:0:
57,351,82285,1,10,0:0:0:0:
162,374,82723,2,0,L|252:357,1,60,0|2,0:0|3:2,0:0:0:0:
274,351,83161,2,0,P|358:327|382:383,2,120,2|10|10,0:0|0:0|0:0,0:0:0:0:
171,225,84694,5,10,0:0:0:0:
171,225,84913,2,0,B|203:193|203:193|184:86,1,120,6|0,3:2|0:0,0:0:0:0:
158,75,85570,1,0,0:0:0:0:
188,30,85789,2,0,L|333:42,1,120,2|10,3:2|0:0,0:0:0:0:
357,62,86446,1,0,0:0:0:0:
409,75,86665,2,0,P|474:40|478:29,2,90,6|2|10,0:0|3:2|0:0,0:0:0:0:
375,117,87541,2,0,L|374:263,1,120,2|8,3:2|0:0,0:0:0:0:
425,332,88417,6,0,B|290:313|291:313,1,120,6|10,3:2|0:0,0:0:0:0:
257,291,89074,2,0,L|119:322,1,120,6|10,3:2|0:0,0:0:0:0:
86,329,89731,1,2,3:2:0:0:
47,290,89950,2,0,B|79:200|16:130|16:130|63:191|135:181,1,300,4|2,3:2|3:3,0:0:0:0:
336,132,91920,6,0,L|350:64,1,60,6|0,3:2|0:0,0:0:0:0:
382,31,92358,2,0,P|424:58|455:61,1,60,10|0,0:0|0:0,0:0:0:0:
485,74,92796,2,0,P|506:147|474:194,1,120,2|10,3:2|0:0,0:0:0:0:
385,218,93672,2,0,L|402:292,1,60,2|2,3:2|0:0,0:0:0:0:
426,322,94110,2,0,L|347:300,1,60,10|0,0:0|0:0,0:0:0:0:
314,303,94548,2,0,P|236:350|193:333,1,120,2|10,3:2|0:0,0:0:0:0:
163,324,95205,1,8,0:0:0:0:
163,324,95424,1,6,3:2:0:0:
105,232,95862,6,0,L|118:165,1,60,10|2,0:0|0:0,0:0:0:0:
124,119,96300,2,0,L|58:135,2,60,2|2|10,3:2|0:0|0:0,0:0:0:0:
169,89,96957,1,2,0:0:0:0:
212,56,97176,2,0,L|279:72,1,60,6|10,0:2|0:0,0:0:0:0:
320,90,97614,2,0,L|395:79,1,60,10|2,0:0|0:0,0:0:0:0:
432,70,98052,1,6,0:2:0:0:
503,151,98490,1,10,0:0:0:0:
421,221,98928,6,0,P|425:295|427:305,1,60,6|0,3:2|0:0,0:0:0:0:
420,335,99366,2,0,P|482:333|500:346,1,60,10|0,0:0|0:0,0:0:0:0:
500,380,99804,2,0,L|355:359,1,120,2|10,3:2|0:0,0:0:0:0:
329,356,100461,1,2,0:0:0:0:
291,316,100680,2,0,L|301:245,1,60,2|2,3:2|0:0,0:0:0:0:
346,230,101117,2,0,L|338:165,1,60,10|0,0:0|0:0,0:0:0:0:
316,120,101555,1,6,3:2:0:0:
269,22,101993,6,0,P|235:56|225:93,1,60,10|10,0:0|0:0,0:0:0:0:
218,118,102431,1,6,3:2:0:0:
181,219,102869,2,0,L|322:200,1,120,2|2,3:2|0:0,0:0:0:0:
357,198,103526,1,0,3:0:0:0:
357,198,103745,1,10,0:0:0:0:
442,264,104183,6,0,P|467:201|462:179,2,60,2|2|2,3:2|3:2|3:2,0:0:0:0:
403,302,104840,1,2,3:2:0:0:
356,329,105059,2,0,L|208:300,1,120,14|10,0:2|0:0,0:0:0:0:
130,302,105935,6,0,B|177:256|177:256|152:162,1,120,6|0,3:2|0:0,0:0:0:0:
119,170,106592,2,0,B|75:136|75:136|102:36,1,120,4|8,3:2|0:0,0:0:0:0:
127,33,107249,2,0,L|250:53,1,120,12|10,0:0|0:0,0:0:0:0:
299,58,107906,2,0,L|290:-12,2,60,8|8|0,0:0|0:0|3:0,0:0:0:0:
322,106,108563,2,0,L|308:201,2,60,0|0|2,3:0|3:0|3:2,0:0:0:0:
424,140,109439,6,0,P|472:177|451:264,1,120,6|2,3:2|3:2,0:0:0:0:
454,282,110096,2,0,L|305:260,1,120,12|8,0:0|0:0,0:0:0:0:
282,253,110753,1,10,0:0:0:0:
197,320,111190,2,0,L|213:409,2,60,10|2|10,0:0|0:0|0:0,0:0:0:0:
158,281,111847,2,0,B|134:252|134:252|168:144,1,120,14|2,0:0|3:2,0:0:0:0:
180,123,112504,1,8,0:0:0:0:
241,33,112942,6,0,P|293:103|276:141,1,120,6|2,3:2|3:2,0:0:0:0:
277,179,113599,1,4,0:0:0:0:
307,223,113818,2,0,L|405:198,2,60,2|10|10,3:2|0:2|0:0,0:0:0:0:
268,261,114475,1,10,0:0:0:0:
222,289,114694,2,0,L|90:274,1,120,6|10,3:2|0:0,0:0:0:0:
48,275,115351,2,0,P|74:216|10:141,1,120,14|2,0:0|3:2,0:0:0:0:
27,120,116008,1,8,0:0:0:0:
114,56,116446,6,0,B|167:88|167:88|258:71,1,120,6|10,3:2|0:0,0:0:0:0:
277,85,117103,2,0,P|236:126|252:249,1,120,2|2,3:2|3:2,0:0:0:0:
232,238,117760,2,0,L|304:216,1,60,10|2,0:0|3:2,0:0:0:0:
343,222,118198,2,0,L|333:323,2,60,10|10|10,0:0|0:0|0:0,0:0:0:0:
384,186,118855,1,2,3:2:0:0:
444,96,119293,6,0,L|420:11,2,60,2|2|2,0:0|0:0|0:0,0:0:0:0:
467,144,119950,2,0,P|376:98|296:213,1,240,2|0,3:2|3:0,0:0:0:0:
317,292,121263,1,2,3:2:0:0:
241,369,121701,6,0,B|203:340|203:340|227:238,1,120,14|10,0:0|0:0,0:0:0:0:
240,219,122358,2,0,L|65:244,1,120,10|10,0:0|0:0,0:0:0:0:
69,246,123015,2,0,L|84:161,1,60,10|10,0:0|0:0,0:0:0:0:
75,132,123453,6,0,L|-7:149,2,60,4|0|10,3:2|0:0|0:0,0:0:0:0:
155,59,124329,2,0,L|143:-19,2,60,0|0|8,3:2|0:0|0:0,0:0:0:0:
218,146,125205,2,0,L|211:222,1,60,0|0,3:2|0:0,0:0:0:0:
179,248,125643,2,0,L|196:320,1,60,10|0,0:0|0:0,0:0:0:0:
190,360,126081,2,0,P|238:322|337:339,1,120,0|10,3:0|0:0,0:0:0:0:
400,294,126957,6,0,L|464:334,2,60,4|2|8,3:2|0:0|0:0,0:0:0:0:
363,253,127614,2,0,P|383:114|380:90,1,120,2|0,3:2|0:0,0:0:0:0:
385,81,128271,1,10,0:0:0:0:
283,42,128709,2,0,L|187:67,1,60,0|0,3:0|3:0,0:0:0:0:
170,60,129147,2,0,P|188:87|203:131,1,60,10|0,0:2|0:0,0:0:0:0:
209,165,129585,2,0,L|50:150,1,120,0|8,3:2|0:0,0:0:0:0:
58,257,130461,6,0,L|167:271,1,60,4|0,3:2|0:3,0:0:0:0:
152,305,130898,2,0,L|228:284,1,60,10|0,0:0|0:0,0:0:0:0:
263,295,131336,2,0,L|245:374,2,60,0|0|8,3:0|0:0|0:0,0:0:0:0:
339,218,132212,2,0,L|322:85,1,120,0|8,3:0|0:0,0:0:0:0:
334,45,132869,1,0,0:0:0:0:
374,8,133088,2,0,L|204:40,1,120,2|10,3:2|0:0,0:0:0:0:
202,40,133745,1,8,0:0:0:0:
149,51,133964,6,0,L|102:-24,2,60,4|0|4,3:2|0:0|3:2,0:0:0:0:
136,103,134621,2,0,P|69:138|83:217,1,120,0|0,0:0|0:0,0:0:0:0:
146,243,135497,1,8,0:0:0:0:
146,243,135716,2,0,B|252:210|211:307|357:245,1,180,0|0,3:0|3:0,0:0:0:0:
368,248,136592,2,0,P|448:272|472:240,1,120,0|8,3:0|0:0,0:0:0:0:
440,144,137468,6,0,P|384:120|304:200,1,180,6|0,0:2|0:0,0:0:0:0:
320,240,138344,2,0,P|293:185|174:206,1,180,0|0,0:0|3:0,0:0:0:0:
152,232,139220,2,0,P|216:217|194:77,1,240,2|2,3:2|0:0,0:0:0:0:
88,64,140534,1,0,0:0:0:0:
6,133,140971,2,0,B|36:194|36:194|31:316,1,180,2|0,3:2|0:0,0:0:0:0:
119,372,142066,1,0,0:0:0:0:
158,335,142285,2,0,L|176:249,2,60,0|0|0,0:0|3:0|3:0,0:0:0:0:
442,246,144256,5,8,3:2:0:0:
442,246,144475,2,0,B|343:228|381:314|257:277,1,180,6|0,0:2|0:0,0:0:0:0:
220,266,145351,2,0,P|288:216|228:124,1,180,0|0,0:0|3:0,0:0:0:0:
234,89,146227,2,0,P|354:181|430:121,1,240,2|2,3:2|0:0,0:0:0:0:
451,45,147541,1,0,0:0:0:0:
346,18,147979,6,0,L|224:39,1,120,2|0,3:2|0:0,0:0:0:0:
174,47,148636,2,0,P|208:94|195:161,1,120,0|0,0:0|0:0,0:0:0:0:
163,192,149293,2,0,P|175:230|186:259,1,60,0|0,0:0|0:0,0:0:0:0:
180,289,149731,2,0,P|308:238|443:377,1,337.500012874604,2|0,3:2|0:0,0:0:0:0:
98,98,160242,6,0,L|118:185,1,60,0|0,3:2|0:0,0:0:0:0:
149,195,160680,2,0,L|136:257,1,60,2|0,3:0|0:0,0:0:0:0:
112,302,161117,2,0,P|153:334|223:306,1,120,0|0,3:0|3:0,0:0:0:0:
317,282,161993,6,0,L|388:296,1,60,0|0,3:2|0:0,0:0:0:0:
429,298,162431,2,0,L|418:211,1,60,0|0,3:0|0:0,0:0:0:0:
412,184,162869,1,8,0:0:0:0:
353,93,163307,6,0,L|364:16,2,60,0|0|6,0:0|0:0|3:2,0:0:0:0:
286,178,164183,2,0,L|305:298,1,120,2|0,0:0|0:0,0:0:0:0:
312,350,164840,1,0,0:3:0:0:
312,350,165059,1,8,0:3:0:0:
206,325,165497,6,0,L|125:313,2,60,2|0|0,3:2|0:0|0:0,0:0:0:0:
151,231,166373,2,0,L|74:252,2,60,2|0|8,0:0|3:0|0:0,0:0:0:0:
203,216,167030,1,0,3:0:0:0:
244,249,167249,6,0,B|326:267|358:220|358:220|401:274|401:274|435:226|514:233,1,300,2|0,0:0|0:0,0:0:0:0:
508,128,168782,5,2,0:0:0:0:
508,128,169001,2,0,L|377:101,1,120,6|0,3:2|0:0,0:0:0:0:
337,90,169658,1,4,3:2:0:0:
310,42,169877,2,0,P|279:106|160:110,1,180,8|8,0:0|0:0,0:0:0:0:
124,111,170753,6,0,L|144:185,1,60,6|0,3:2|0:0,0:0:0:0:
174,210,171190,2,0,L|156:295,1,60,10|0,0:0|0:0,0:0:0:0:
136,317,171628,1,2,3:2:0:0:
235,359,172066,2,0,L|318:335,1,60,10|2,0:0|0:0,0:0:0:0:
332,305,172504,2,0,L|338:217,2,60,2|2|10,3:2|0:0|0:0,0:0:0:0:
362,349,173161,1,0,0:0:0:0:
414,361,173380,2,0,P|472:311|477:258,1,120,2|10,3:2|0:0,0:0:0:0:
466,218,174037,1,10,0:0:0:0:
466,218,174256,1,6,3:2:0:0:
379,153,174694,6,0,L|296:167,1,60,10|2,0:0|0:0,0:0:0:0:
273,134,175132,2,0,P|284:106|290:68,2,60,2|2|10,3:2|0:2|0:2,0:0:0:0:
234,172,175789,1,2,0:2:0:0:
202,216,176008,2,0,L|220:276,1,60,6|10,0:0|0:0,0:0:0:0:
240,323,176446,2,0,L|154:310,1,60,10|2,0:0|0:0,0:0:0:0:
127,304,176884,1,6,3:2:0:0:
48,230,177322,1,10,0:0:0:0:
144,180,177760,6,0,P|173:122|171:112,1,60,6|0,3:2|0:0,0:0:0:0:
137,89,178198,2,0,P|120:51|127:25,1,60,10|0,0:0|0:0,0:0:0:0:
165,0,178636,2,0,L|294:14,1,120,2|10,3:2|0:0,0:0:0:0:
338,12,179293,1,2,0:0:0:0:
383,41,179512,2,0,L|367:120,1,60,10|0,0:0|0:0,0:0:0:0:
334,140,179950,2,0,L|364:220,1,60,10|0,0:2|0:0,0:0:0:0:
377,245,180388,1,6,3:2:0:0:
321,337,180825,6,0,L|245:318,1,60,10|2,0:0|0:0,0:0:0:0:
210,307,181263,1,6,3:2:0:0:
255,209,181701,2,0,L|122:226,1,120,10|2,0:0|3:2,0:0:0:0:
85,230,182358,1,2,3:2:0:0:
85,230,182577,1,14,0:0:0:0:
21,142,183015,6,0,L|36:54,1,60,2|2,3:2|3:2,0:0:0:0:
59,36,183453,2,0,P|109:68|134:74,1,60,2|2,3:2|3:2,0:0:0:0:
163,72,183891,2,0,P|190:-10|189:-18,2,60,6|2|10,3:2|0:0|0:0,0:0:0:0:
174,124,184548,1,2,0:0:0:0:
215,158,184767,6,0,B|376:147,1,120,6|8,3:2|0:0,0:0:0:0:
388,159,185424,2,0,P|421:213|392:289,1,120,6|8,0:2|0:0,0:0:0:0:
379,309,186081,1,8,0:0:0:0:
273,284,186519,2,0,L|246:171,2,60,10|8|8,0:0|0:0|0:0,0:0:0:0:
274,338,187176,1,0,3:0:0:0:
227,365,187395,2,0,L|115:346,1,60,8|8,0:2|0:2,0:0:0:0:
124,322,187833,2,0,L|47:341,1,60,8|8,0:2|0:0,0:0:0:0:
13,351,188271,6,0,L|44:210,1,120,6|10,3:2|0:0,0:0:0:0:
56,185,188928,1,0,0:0:0:0:
56,185,189147,1,2,3:2:0:0:
112,93,189585,1,10,0:0:0:0:
199,29,190023,2,0,P|219:116|175:173,1,120,2|8,3:2|0:0,0:0:0:0:
174,182,190680,1,2,0:0:0:0:
189,233,190898,2,0,L|324:210,1,120,0|10,3:0|0:0,0:0:0:0:
412,188,191774,6,0,L|431:111,2,60,6|2|10,3:2|0:0|0:0,0:0:0:0:
372,224,192431,1,0,0:0:0:0:
336,264,192650,2,0,L|357:348,2,60,2|2|10,3:2|0:0|0:0,0:0:0:0:
279,171,193526,5,12,0:0:0:0:
196,100,193964,1,12,0:0:0:0:
93,134,194402,1,4,3:2:0:0:
76,240,194840,1,10,0:0:0:0:
153,314,195278,6,0,L|314:290,1,120,6|8,3:2|0:0,0:0:0:0:
325,288,195935,2,0,P|378:330|455:301,1,120,2|0,3:2|3:0,0:0:0:0:
471,294,196592,2,0,L|483:207,1,60,10|0,0:0|0:0,0:0:0:0:
504,186,197030,2,0,P|429:138|453:76,1,120,2|8,3:2|0:0,0:0:0:0:
429,63,197687,2,0,P|362:151|319:134,1,120,2|8,3:2|0:0,0:0:0:0:
317,156,198344,1,2,3:2:0:0:
218,111,198782,6,0,B|56:88,1,120,2|0,3:2|0:0,0:0:0:0:
46,82,199439,1,2,0:0:0:0:
17,128,199658,2,0,L|35:217,2,60,0|0|8,3:0|3:0|0:0,0:0:0:0:
110,183,200534,2,0,L|90:287,2,60,8|0|8,0:0|0:0|0:0,0:0:0:0:
159,162,201190,1,10,0:0:0:0:
192,204,201409,2,0,P|249:229|320:166,1,120,14|8,0:0|0:0,0:0:0:0:
396,160,202285,6,0,L|421:310,1,120,6|0,0:0|0:0,0:0:0:0:
439,327,202942,2,0,P|348:327|319:382,1,120,4|8,0:0|0:0,0:0:0:0:
286,371,203599,2,0,B|306:317|306:317|263:242,1,120,12|0,0:0|3:0,0:0:0:0:
245,217,204256,2,0,L|99:234,1,120,8|0,0:0|3:0,0:0:0:0:
71,236,204913,1,0,3:0:0:0:
71,236,205132,1,0,3:0:0:0:
120,81,205789,6,0,L|107:-5,2,60,14|8|8,0:0|0:0|0:0,0:0:0:0:
155,122,206446,1,12,0:0:0:0:
180,169,206665,2,0,L|164:246,2,60,8|8|4,0:0|0:0|0:0,0:0:0:0:
231,73,207541,6,0,L|309:87,1,60,0|0,3:0|3:0,0:0:0:0:
339,104,207979,2,0,L|405:89,1,60,0|0,3:0|3:0,0:0:0:0:
449,74,208417,2,0,L|439:171,1,60,0|0,3:0|3:0,0:0:0:0:
430,186,208855,2,0,L|451:271,1,60,0|0,3:0|3:0,0:0:0:0:
