osu file format v14

[General]
AudioFilename: audio.mp3
AudioLeadIn: 0
PreviewTime: 119653
Countdown: 0
SampleSet: None
StackLeniency: 0.3
Mode: 0
LetterboxInBreaks: 0
WidescreenStoryboard: 1

[Editor]
DistanceSpacing: 1.1
BeatDivisor: 4
GridSize: 32
TimelineZoom: 3.299999

[Metadata]
Title:Shiroi Yuki no Princess wa
TitleUnicode:白い雪のプリンセスは
Artist:Noboru ft. Mitani Nana
ArtistUnicode:のぼる↑ feat.実谷なな
Creator:Marcuddles
Version:remap
Source:
Tags:
BeatmapID:1689962
BeatmapSetID:784309

[Difficulty]
HPDrainRate:6
CircleSize:4.5
OverallDifficulty:8
ApproachRate:9.1
SliderMultiplier:1.9
SliderTickRate:1

[Events]
//Background and Video events
0,0,"cropped-1920-1080-670950.jpg",0,0
//Break Periods
//Storyboard Layer 0 (Background)
//Storyboard Layer 1 (Fail)
//Storyboard Layer 2 (Pass)
//Storyboard Layer 3 (Foreground)
//Storyboard Sound Samples

[TimingPoints]
5578,300,4,2,1,90,1,0
5578,-100,4,2,1,90,0,0
18778,-76.9230769230769,4,2,1,90,0,0
19828,-250,4,2,1,90,0,0
20128,-105.263157894737,4,2,1,90,0,0

[HitObjects]
501,191,5578,6,0,B|408:164|408:164|363:193,1,142.5
358,200,5878,1,0,0:0:0:0:
397,341,6028,2,0,P|404:294|426:248,1,95
254,285,6328,1,0,0:0:0:0:
245,169,6478,2,0,P|264:211|271:258,1,95
14,252,6778,6,0,B|69:239|69:239|96:253|96:253|153:241,1,142.5
170,240,7078,1,0,0:0:0:0:
143,67,7228,2,0,P|132:114|124:186,1,95
44,56,7528,1,0,0:0:0:0:
137,40,7678,1,0,0:0:0:0:
231,24,7828,1,0,0:0:0:0:
317,246,7978,6,0,P|263:214|177:227,1,142.5
170,240,8278,1,0,0:0:0:0:
338,341,8428,2,0,P|379:322|408:276,1,95
345,139,8728,1,0,0:0:0:0:
248,186,8878,2,0,P|273:225|316:245,1,95
376,51,9178,6,0,B|276:23|295:104|192:82,1,190
151,20,9553,1,0,0:0:0:0:
151,20,9628,1,0,0:0:0:0:
82,237,9778,2,0,P|149:181|257:190,1,190
247,337,10228,1,0,0:0:0:0:
247,337,10303,1,0,0:0:0:0:
247,337,10378,6,0,B|217:375|217:375|195:281,1,142.5
191,262,10678,1,0,0:0:0:0:
343,144,10828,2,0,P|335:233|331:273,1,95
284,76,11128,1,0,0:0:0:0:
196,142,11278,2,0,P|191:94|187:47,1,95
38,252,11578,6,0,B|114:237|101:290|179:278,1,142.5
191,262,11878,1,0,0:0:0:0:
245,146,12028,2,0,P|196:171|131:169,1,95
274,226,12328,1,0,0:0:0:0:
282,131,12478,1,0,0:0:0:0:
294,35,12628,1,0,0:0:0:0:
386,233,12778,6,0,L|369:91,1,142.5
378,69,13078,1,0,0:0:0:0:
465,282,13228,2,0,P|428:320|380:328,1,95
244,262,13528,1,0,0:0:0:0:
310,186,13678,2,0,P|355:197|386:232,1,95
139,342,13978,6,0,L|156:148,1,190
169,75,14353,1,0,0:0:0:0:
169,75,14428,1,0,0:0:0:0:
37,228,14578,2,0,B|139:202|118:281|219:263,1,190
350,137,15028,1,0,0:0:0:0:
350,137,15103,1,0,0:0:0:0:
350,137,15178,6,0,P|314:174|227:184,1,142.5
207,171,15478,1,0,0:0:0:0:
362,344,15628,2,0,P|370:297|392:249,1,95
262,303,15928,1,0,0:0:0:0:
377,227,16078,2,0,P|369:180|347:132,1,95
289,88,16303,1,0,0:0:0:0:
289,88,16378,1,0,0:0:0:0:
143,228,16528,6,0,P|186:208|233:204,1,95
250,212,16753,1,0,0:0:0:0:
265,222,16828,1,0,0:0:0:0:
98,357,16978,1,0,0:0:0:0:
124,267,17128,1,0,0:0:0:0:
85,183,17278,1,0,0:0:0:0:
3,144,17428,2,0,P|38:175|85:183,1,95
199,54,17728,5,0,0:0:0:0:
241,310,17878,1,0,0:0:0:0:
303,248,18028,1,0,0:0:0:0:
272,229,18328,1,0,0:0:0:0:
238,222,18628,1,0,0:0:0:0:
322,330,18778,6,0,B|422:308|402:382|496:368,1,185.249991519928
512,358,19078,1,0,0:0:0:0:
508,95,19228,1,0,0:0:0:0:
492,186,19378,1,0,0:0:0:0:
477,277,19528,1,0,0:0:0:0:
464,154,19678,1,0,0:0:0:0:
450,32,19828,2,0,P|416:32|386:18,1,57
370,26,20128,5,0,0:0:0:0:
296,233,20278,1,0,0:0:0:0:
296,233,20428,2,0,P|260:215|199:212,1,90.2499975900651
299,115,20728,1,0,0:0:0:0:
319,225,20878,1,0,0:0:0:0:
339,336,21028,2,0,P|375:318|436:315,1,90.2499975900651
230,310,21328,5,0,0:0:0:0:
385,157,21478,1,0,0:0:0:0:
203,71,21628,1,0,0:0:0:0:
177,168,21778,2,0,B|221:176|221:176|260:152,1,90.2499975900651
321,16,22078,6,0,L|309:79,1,45.1249987950325
274,244,22228,1,0,0:0:0:0:
274,244,22378,6,0,L|261:58,1,180.49999518013
