osu file format v14

[General]
AudioFilename: audio.mp3
AudioLeadIn: 0
PreviewTime: 60501
Countdown: 0
SampleSet: Soft
StackLeniency: 0.7
Mode: 0
LetterboxInBreaks: 0
WidescreenStoryboard: 1

[Editor]
Bookmarks: 102651
DistanceSpacing: 1.6
BeatDivisor: 4
GridSize: 32
TimelineZoom: 3.299999

[Metadata]
Title:Shiroi Yuki No Princess Wa
TitleUnicode:白い雪のプリンセスは
Artist:Hatsune Miku vs. Mitani Nana
ArtistUnicode:初音ミク vs. 実谷なな
Creator:Hokichi
Version:ShiraHoki's Light Insane
Source:初音ミク Project DIVA Arcade Future Tone
Tags:yamicchi yami lanturn chocola [-chocola-] bara zerss hikan cassu cassu2 the snow white princess is SOUND VOLTEX II -infinite infection- 初音ミク Project DIVA Future Tone DX BeatStream jubeat prop
BeatmapID:1464433
BeatmapSetID:547883

[Difficulty]
HPDrainRate:6
CircleSize:3.5
OverallDifficulty:7
ApproachRate:9
SliderMultiplier:1.5
SliderTickRate:1

[Events]
//Background and Video events
0,0,"cute-hatsune-miku-wallpaper-wallpaper-3.jpg",0,0
//Break Periods
2,121851,138051
//Storyboard Layer 0 (Background)
//Storyboard Layer 1 (Fail)
//Storyboard Layer 2 (Pass)
//Storyboard Layer 3 (Foreground)
Sprite,Foreground,Centre,"cre\shira.png",320,240 M,0,1701,,516,416 S,0,1701,,0.5 P,0,1701,,A F,0,1701,1851,0,0.5 F,0,102651,102801,0.5,0
Sprite,Foreground,Centre,"cre\hoki.png",320,240 M,0,102651,,124,416 S,0,102651,,0.3 P,0,102651,,A F,0,102651,102801,0,1 F,0,189651,190251,1,0 F,0,189651,190251,1,0
//Storyboard Sound Samples

[TimingPoints]
651,300,4,2,1,40,1,0
1701,-142.857142857143,4,2,1,40,0,0
6501,-111.111111111111,4,2,1,40,0,0
21051,-125,4,2,1,40,0,0
37851,-111.111111111111,4,2,1,40,0,0
42651,-125,4,2,1,40,0,0
59451,-142.857142857143,4,2,1,40,0,0
60651,-166.666666666667,4,2,1,40,0,0
61851,-100,4,2,1,40,0,1
70101,-100,4,2,1,40,0,0
71451,-100,4,2,1,40,0,1
80901,-111.111111111111,4,2,1,40,0,0
101451,-200,4,2,1,60,0,0
102651,-133.333333333333,4,3,1,60,0,0
111051,-100,4,3,1,75,0,0
112251,-100,4,2,1,75,0,0
119451,-133.333333333333,4,2,1,75,0,0
120051,-100,4,2,1,75,0,0
138651,-200,4,3,1,75,0,0
139176,-200,4,3,1,5,0,0
139251,-200,4,3,1,75,0,0
139851,-151.515151515152,4,3,1,75,0,0
140451,-130.548302872063,4,3,1,75,0,0
141051,-100,4,3,1,75,0,0
141951,-166.666666666667,4,3,1,75,0,0
143376,-166.666666666667,4,3,1,5,0,0
143451,-100,4,2,1,75,0,1
152001,-100,4,3,1,60,0,1
153013,-100,4,3,1,60,0,0
153051,-100,4,2,1,75,0,1
162613,-100,4,2,1,75,0,0
162651,-100,4,2,1,75,0,1
162688,-100,4,2,1,75,0,0

[Colours]
Combo1 : 255,55,105
Combo2 : 100,226,253
Combo3 : 113,255,223
Combo4 : 255,74,165

[HitObjects]
138,50,1701,6,0,L|145:168,1,104.999996795654,2|0,0:0|0:0,0:0:0:0:
239,275,2151,2,0,L|245:170,2,104.999996795654,0|0|0,0:0|0:0|0:0,0:0:0:0:
339,55,2901,6,0,L|346:173,1,104.999996795654,2|0,0:0|0:0,0:0:0:0:
440,280,3351,2,0,L|446:175,2,104.999996795654,0|0|0,0:0|0:0|0:0,0:0:0:0:
199,267,4101,6,0,P|139:252|77:271,1,104.999996795654,2|0,0:0|0:0,0:0:0:0:
2,140,4551,2,0,P|62:155|124:136,2,104.999996795654,0|0|0,0:0|0:0|0:0,0:0:0:0:
223,55,5301,6,0,P|205:105|219:176,1,104.999996795654,2|0,0:0|0:0,0:0:0:0:
296,311,5751,2,0,P|300:259|283:210,2,104.999996795654,0|0|0,0:0|0:0|0:0,0:0:0:0:
383,204,6501,6,0,L|479:195,1,67.4999979400635,4|0,0:0|0:0,0:0:0:0:
482,94,6801,1,0,0:0:0:0:
374,69,6951,2,0,L|383:220,1,134.999995880127,8|0,0:0|0:0,0:0:0:0:
336,312,7401,1,0,0:0:0:0:
271,193,7551,1,8,0:0:0:0:
209,303,7701,6,0,P|258:287|345:320,1,134.999995880127,2|0,0:0|0:0,0:0:0:0:
453,353,8151,2,0,L|444:273,1,67.4999979400635,8|0,0:0|0:0,0:0:0:0:
389,136,8451,2,0,L|381:203,2,67.4999979400635,0|0|8,0:0|0:0|0:0,0:0:0:0:
283,44,8901,6,0,L|130:52,1,134.999995880127,2|0,0:0|0:0,0:0:0:0:
27,30,9351,2,0,P|44:76|40:113,1,67.4999979400635,8|0,0:0|0:0,0:0:0:0:
45,210,9651,1,0,0:0:0:0:
152,139,9801,2,0,L|219:135,1,67.4999979400635,0|8,0:0|0:0,0:0:0:0:
323,241,10101,6,0,B|236:225|236:225|182:244,1,134.999995880127,6|0,0:0|0:0,0:0:0:0:
101,314,10551,1,8,0:0:0:0:
198,375,10701,2,0,L|191:228,1,134.999995880127,4|0,0:0|0:0,0:0:0:0:
152,139,11151,1,8,0:0:0:0:
264,42,11301,6,0,P|240:90|275:177,1,134.999995880127,6|0,0:0|0:0,0:0:0:0:
399,106,11751,2,0,L|306:105,1,67.4999979400635,8|0,0:0|0:0,0:0:0:0:
430,204,12051,2,0,L|523:203,2,67.4999979400635,0|0|8,0:0|0:0|0:0,0:0:0:0:
426,338,12501,6,0,L|430:184,1,134.999995880127,2|0,0:0|0:0,0:0:0:0:
399,106,12951,1,8,0:0:0:0:
343,222,13101,1,0,0:0:0:0:
261,164,13251,2,0,L|168:163,2,67.4999979400635,0|0|8,0:0|0:0|0:0,0:0:0:0:
261,288,13701,6,0,P|238:225|260:163,1,134.999995880127,4|0,0:0|0:0,0:0:0:0:
204,58,14151,2,0,P|161:66|119:59,1,67.4999979400635,8|0,0:0|0:0,0:0:0:0:
102,157,14451,2,0,P|59:149|17:156,2,67.4999979400635,0|0|8,0:0|0:0|0:0,0:0:0:0:
126,294,14901,6,0,L|265:287,1,134.999995880127,6|0,0:0|0:0,0:0:0:0:
379,344,15351,1,8,0:0:0:0:
380,214,15501,2,0,B|361:299|361:299|386:361,1,134.999995880127,4|0,0:0|0:0,0:0:0:0:
467,292,15951,1,8,3:0:0:0:
444,141,16101,6,0,P|383:116|304:144,1,134.999995880127,6|0,0:0|0:0,0:0:0:0:
183,124,16551,2,0,L|328:133,1,134.999995880127,8|0,0:0|0:0,0:0:0:0:
446,44,17001,6,0,P|431:93|452:152,2,101.249996910095,0|0|0,0:0|3:0|3:2,0:0:0:0:
308,32,17601,2,0,L|274:29,2,33.7499989700318,0|0|8,3:2|0:0|3:2,0:0:0:0:
317,132,17901,2,0,L|320:223,1,67.4999979400635,0|0,3:2|3:2,0:0:0:0:
392,280,18201,2,0,L|425:277,2,33.7499989700318,0|0|8,0:0|0:0|3:2,0:0:0:0:
307,337,18501,1,0,0:0:0:0:
214,217,18651,5,4,0:0:0:0:
392,280,18801,1,4,0:0:0:0:
214,217,19701,6,0,P|125:215|73:214,1,134.999995880127,4|0,0:0|0:0,0:0:0:0:
2,128,20151,2,0,L|9:54,1,67.4999979400635,0|0,3:2|3:2,0:0:0:0:
79,214,20451,2,0,L|85:281,1,67.4999979400635,0|0,3:2|3:2,0:0:0:0:
211,121,20751,2,0,P|198:162|224:229,1,101.249996910095,4|0,0:0|0:0,0:0:0:0:
243,241,21051,6,0,L|326:237,1,60,6|0,0:0|0:0,0:0:0:0:
391,342,21351,2,0,L|308:338,1,60,8|0,0:0|0:0,0:0:0:0:
426,239,21651,2,0,L|509:235,2,60,0|0|8,0:0|0:0|0:0,0:0:0:0:
353,138,22101,1,0,0:0:0:0:
243,241,22251,6,0,L|244:326,2,60,0|0|8,0:0|0:0|0:0,0:0:0:0:
145,133,22701,2,0,P|212:144|273:110,1,120,0|0,0:0|0:0,0:0:0:0:
191,31,23151,1,8,0:0:0:0:
310,32,23301,6,0,L|165:30,1,120,2|0,0:0|0:0,0:0:0:0:
85,135,23751,2,0,L|167:131,1,60,8|0,0:0|0:0,0:0:0:0:
82,240,24051,2,0,L|0:236,1,60,0|0,0:0|0:0,0:0:0:0:
102,333,24351,2,0,L|184:329,1,60,8|0,0:0|0:0,0:0:0:0:
320,348,24651,5,2,0:0:0:0:
245,256,24801,1,0,0:0:0:0:
325,172,24951,1,8,0:0:0:0:
320,348,25101,1,0,0:0:0:0:
292,360,25401,1,0,0:0:0:0:
245,256,25551,1,0,0:0:0:0:
412,351,25701,6,0,P|405:312|336:258,1,120,2|0,0:0|0:0,0:0:0:0:
317,112,26151,2,0,L|327:187,1,60,8|0,0:0|0:0,0:0:0:0:
425,95,26451,2,0,L|432:35,2,60,0|0|8,0:0|0:0|0:0,0:0:0:0:
237,60,26901,6,0,P|287:24|361:35,1,120,2|0,0:0|0:0,0:0:0:0:
484,97,27351,2,0,L|404:94,1,60,8|0,0:0|0:0,0:0:0:0:
424,208,27651,2,0,L|504:205,2,60,0|0|8,0:0|0:0|0:0,0:0:0:0:
306,226,28101,6,0,P|327:158|311:102,1,120,2|0,0:0|0:0,0:0:0:0:
170,164,28551,2,0,L|243:161,1,60,8|0,0:0|0:0,0:0:0:0:
128,70,28851,2,0,L|55:67,1,60,0|0,0:0|0:0,0:0:0:0:
1,172,29151,2,0,L|74:169,1,60,8|0,0:0|0:0,0:0:0:0:
182,283,29451,6,0,L|167:144,1,120,2|8,0:0|0:0,0:0:0:0:
79,256,29901,2,0,L|66:375,1,120,0|0,0:0|0:0,0:0:0:0:
182,283,30351,2,0,P|222:275|259:283,1,60,8|0,0:0|0:0,0:0:0:0:
259,283,30576,1,0,0:0:0:0:
275,292,30651,6,0,L|280:211,1,60,6|0,0:0|0:0,0:0:0:0:
366,140,30951,2,0,L|369:199,1,60,8|0,0:0|0:0,0:0:0:0:
465,287,31251,2,0,L|470:206,2,60,0|0|8,0:0|0:0|0:0,0:0:0:0:
393,367,31701,1,0,0:0:0:0:
275,292,31851,6,0,L|194:287,2,60,2|0|8,0:0|0:0|0:0,0:0:0:0:
269,182,32301,2,0,P|256:136|297:63,1,120,0|0,0:0|0:0,0:0:0:0:
366,140,32751,1,8,0:0:0:0:
284,72,32901,6,0,L|152:68,1,120,2|0,0:0|0:0,0:0:0:0:
60,46,33351,2,0,L|66:128,1,60,8|0,0:0|0:0,0:0:0:0:
148,225,33651,2,0,L|152:165,1,60,0|0,0:0|0:0,0:0:0:0:
49,255,33951,2,0,L|55:337,1,60,8|0,0:0|0:0,0:0:0:0:
166,355,34251,5,2,0:0:0:0:
247,274,34401,1,0,0:0:0:0:
148,225,34551,1,8,0:0:0:0:
166,355,34701,1,0,0:0:0:0:
195,368,35001,1,0,0:0:0:0:
247,274,35151,1,0,0:0:0:0:
366,280,35301,6,0,L|237:273,1,120,2|0,0:0|0:0,0:0:0:0:
312,122,35751,2,0,L|317:195,1,60,8|0,0:0|0:0,0:0:0:0:
421,107,36051,2,0,L|425:47,2,60,0|0|8,0:0|0:0|0:0,0:0:0:0:
227,68,36501,6,0,P|289:29|347:40,1,120,2|0,0:0|0:0,0:0:0:0:
480,108,36951,2,0,L|400:106,1,60,8|0,0:0|0:0,0:0:0:0:
316,181,37251,2,0,L|256:182,1,60,0|0,0:0|0:0,0:0:0:0:
131,112,37551,1,8,0:0:0:0:
165,218,37701,1,0,0:0:0:0:
1,115,37851,6,0,P|63:130|137:108,1,134.999995880127,6|8,0:0|0:0,0:0:0:0:
64,18,38301,1,2,0:0:0:0:
1,115,38451,2,0,L|11:201,1,67.4999979400635,0|0,0:0|0:0,0:0:0:0:
60,323,38751,2,0,L|67:255,1,67.4999979400635,8|0,0:0|0:0,0:0:0:0:
299,221,39051,6,0,L|159:217,1,134.999995880127,2|8,0:0|0:0,0:0:0:0:
239,108,39501,1,2,0:0:0:0:
299,221,39651,2,0,P|309:265|294:315,1,67.4999979400635,0|0,0:0|0:0,0:0:0:0:
394,168,39951,2,0,P|391:134|401:102,1,67.4999979400635,8|0,0:0|0:0,0:0:0:0:
239,108,40251,6,0,L|99:104,1,134.999995880127,2|8,0:0|0:0,0:0:0:0:
22,34,40701,1,2,0:0:0:0:
11,159,40851,2,0,L|17:242,1,67.4999979400635,0|0,0:0|0:0,0:0:0:0:
119,269,41151,2,0,L|114:336,1,67.4999979400635,8|0,0:0|0:0,0:0:0:0:
275,224,41451,6,0,P|223:218|183:237,1,67.4999979400635,2|0,0:0|0:0,0:0:0:0:
316,325,41751,2,0,P|368:331|408:312,1,67.4999979400635,10|0,0:0|0:0,0:0:0:0:
272,235,42051,2,0,P|220:229|180:248,1,67.4999979400635,2|0,0:0|0:0,0:0:0:0:
313,336,42351,2,0,P|365:342|405:323,1,67.4999979400635,10|0,0:0|0:0,0:0:0:0:
454,217,42651,6,0,B|439:137|439:137|460:88,1,120,6|8,0:0|0:0,0:0:0:0:
370,32,43101,2,0,L|233:38,1,120,2|0,0:0|0:0,0:0:0:0:
141,25,43551,2,0,L|150:107,1,60,10|0,0:0|0:0,0:0:0:0:
226,233,43851,6,0,P|213:187|260:107,1,120,2|8,0:0|0:0,0:0:0:0:
352,122,44301,2,0,P|377:174|365:232,1,120,2|0,0:0|0:0,0:0:0:0:
226,233,44751,2,0,L|147:231,1,60,10|0,0:0|0:0,0:0:0:0:
215,352,45051,6,0,L|226:222,1,120,2|8,0:0|0:0,0:0:0:0:
365,232,45501,2,0,L|375:351,1,120,2|0,0:0|0:0,0:0:0:0:
215,352,45951,2,0,L|136:350,1,60,10|0,0:0|0:0,0:0:0:0:
64,243,46251,6,0,P|78:200|77:166,1,60,2|0,0:0|0:0,0:0:0:0:
49,81,46551,1,8,0:0:0:0:
167,148,46701,2,0,L|248:143,1,60,0|0,0:0|0:0,0:0:0:0:
335,48,47001,2,0,L|254:43,2,60,2|10|0,0:0|0:0|0:0,0:0:0:0:
340,167,47451,6,0,L|333:26,1,120,6|8,0:0|0:0,0:0:0:0:
451,128,47901,2,0,L|445:247,1,120,2|0,0:0|0:0,0:0:0:0:
464,353,48351,2,0,P|418:345|381:349,1,60,10|0,0:0|0:0,0:0:0:0:
231,260,48651,6,0,P|276:262|372:262,1,120,2|8,0:0|0:0,0:0:0:0:
245,353,49101,2,0,P|200:351|104:351,1,120,2|0,0:0|0:0,0:0:0:0:
42,257,49551,2,0,P|50:217|56:183,1,60,10|0,0:0|0:0,0:0:0:0:
162,78,49851,6,0,P|143:130|166:209,1,120,2|8,0:0|0:0,0:0:0:0:
280,195,50301,2,0,P|299:143|276:64,1,120,2|0,0:0|0:0,0:0:0:0:
162,78,50751,2,0,L|79:83,1,60,10|0,0:0|0:0,0:0:0:0:
151,251,51051,6,0,L|154:191,1,60,2|0,0:0|0:0,0:0:0:0:
178,304,51351,2,0,L|150:250,1,60,10|0,0:0|0:0,0:0:0:0:
228,336,51651,2,0,L|177:303,1,60,2|0,0:0|0:0,0:0:0:0:
287,339,51951,2,0,L|227:335,1,60,10|0,0:0|0:0,0:0:0:0:
340,259,52251,6,0,P|371:293|375:378,1,120,6|8,0:0|0:0,0:0:0:0:
454,245,52701,2,0,P|457:186|493:139,1,120,2|0,0:0|0:0,0:0:0:0:
377,139,53151,2,0,P|341:155|300:159,1,60,10|0,0:0|0:0,0:0:0:0:
220,76,53451,6,0,L|226:207,1,120,2|8,0:0|0:0,0:0:0:0:
119,280,53901,2,0,L|124:160,1,120,2|0,0:0|0:0,0:0:0:0:
220,76,54351,2,0,L|292:73,1,60,10|0,0:0|0:0,0:0:0:0:
124,160,54651,6,0,L|-14:156,1,120,2|8,0:0|0:0,0:0:0:0:
10,277,55101,1,0,0:0:0:0:
4,156,55251,1,0,0:0:0:0:
119,280,55401,1,0,0:0:0:0:
128,76,55551,2,0,P|112:118|131:169,1,90,8|0,0:0|0:0,0:0:0:0:
159,191,55851,6,0,L|300:185,1,120,2|8,0:0|0:0,0:0:0:0:
339,290,56301,2,0,L|219:284,1,120,2|0,0:0|0:0,0:0:0:0:
278,185,56751,2,0,L|283:108,1,60,8|0,0:0|0:0,0:0:0:0:
408,225,57051,6,0,P|431:270|406:351,2,120,4|8|0,0:0|0:0|0:0,0:0:0:0:
339,290,57801,1,0,0:0:0:0:
218,182,57951,2,0,L|277:184,1,60,8|0,0:0|0:0,0:0:0:0:
408,225,58251,6,0,L|405:95,1,120,0|0,0:0|0:2,0:0:0:0:
282,50,58701,1,0,0:2:0:0:
218,182,58851,1,0,0:2:0:0:
270,31,59001,1,0,0:2:0:0:
238,198,59151,2,0,P|238:238|247:275,1,60,0|0,0:2|0:2,0:0:0:0:
129,172,59451,6,0,P|77:158|11:181,1,104.999996795654,4|0,0:2|0:0,0:0:0:0:
75,266,59901,1,0,0:0:0:0:
129,172,60051,2,0,L|130:54,1,104.999996795654,0|0,0:2|0:2,0:0:0:0:
226,17,60501,1,0,0:2:0:0:
299,88,60651,6,0,L|398:80,2,89.9999972534181,2|2|2,0:0|0:0|0:0,0:0:0:0:
299,88,61551,1,2,0:0:0:0:
388,322,61851,6,0,B|368:223|368:223|394:171,1,150,4|8,0:0|0:0,0:0:0:0:
484,246,62301,1,0,0:0:0:0:
389,179,62451,2,0,L|237:185,1,150,0|8,0:0|0:0,0:0:0:0:
182,271,62901,1,0,0:0:0:0:
218,115,63051,6,0,P|240:162|229:210,1,75,0|0,0:0|0:0,0:0:0:0:
112,291,63351,2,0,P|159:269|207:280,1,75,8|0,0:0|0:0,0:0:0:0:
297,378,63651,2,0,P|275:331|286:283,1,75,0|0,0:0|0:0,0:0:0:0:
391,202,63951,2,0,P|344:224|296:213,1,75,8|0,0:0|0:0,0:0:0:0:
218,115,64251,6,0,L|341:108,1,112.5,0|0,0:0|0:0,0:0:0:0:
364,90,64551,2,0,L|370:1,1,75,8|0,0:0|0:0,0:0:0:0:
488,94,64851,2,0,L|493:168,1,75,0|0,0:0|0:0,0:0:0:0:
385,276,65151,2,0,L|391:187,1,75,8|0,0:0|0:0,0:0:0:0:
481,364,65451,6,0,B|437:354|437:354|383:373|383:373|320:353,1,150,4|8,0:0|0:0,0:0:0:0:
268,251,65901,1,0,0:0:0:0:
163,351,66051,2,0,L|254:348,1,75,4|0,0:0|0:0,0:0:0:0:
146,238,66351,2,0,L|55:235,1,75,12|0,0:0|0:0,0:0:0:0:
160,102,66651,6,0,P|130:155|161:255,1,150,4|8,0:0|0:0,0:0:0:0:
268,251,67101,1,0,0:0:0:0:
341,139,67251,2,0,L|237:144,1,75,0|0,0:0|0:0,0:0:0:0:
409,54,67551,1,8,0:0:0:0:
424,194,67701,1,0,0:0:0:0:
259,61,67851,6,0,L|408:53,1,150,0|8,0:0|0:0,0:0:0:0:
505,117,68301,1,0,0:0:0:0:
420,268,68451,2,0,L|424:174,1,75,0|0,0:0|0:0,0:0:0:0:
301,264,68751,2,0,L|304:338,1,75,8|0,0:0|0:0,0:0:0:0:
218,196,69051,6,0,P|162:196|81:198,1,112.5,4|0,0:0|0:0,0:0:0:0:
71,178,69351,1,8,0:0:0:0:
170,291,69501,1,4,0:0:0:0:
170,331,69801,1,4,0:0:0:0:
67,283,69951,1,8,0:0:0:0:
218,196,70101,6,0,B|203:97|203:97|230:26,1,150,4|0,0:0|3:0,0:0:0:0:
402,109,70551,2,0,L|308:108,1,75,8|0,3:2|3:2,0:0:0:0:
310,109,70776,1,0,3:2:0:0:
295,111,70851,1,0,3:2:0:0:
324,244,71001,2,0,L|331:302,2,37.5,0|0|8,3:2|3:2|3:2,0:0:0:0:
444,198,71301,1,0,3:2:0:0:
453,192,71376,1,0,3:2:0:0:
464,182,71451,6,0,P|489:141|470:40,1,150,4|8,0:0|0:0,0:0:0:0:
402,109,71901,1,0,0:0:0:0:
469,256,72051,2,0,L|463:170,1,75,0|0,0:0|0:0,0:0:0:0:
324,244,72351,2,0,L|318:318,1,75,8|0,0:0|0:0,0:0:0:0:
167,215,72651,6,0,P|204:217|236:236,1,75,0|0,0:0|0:0,0:0:0:0:
143,128,72952,2,0,P|145:90|164:58,1,75,8|0,0:0|0:0,0:0:0:0:
70,186,73252,2,0,P|32:183|0:164,1,75,0|0,0:0|0:0,0:0:0:0:
95,277,73552,2,0,P|92:314|73:346,1,75,8|0,0:0|0:0,0:0:0:0:
206,325,73851,6,0,L|344:317,1,112.5,4|0,0:0|0:0,0:0:0:0:
359,339,74151,2,0,L|350:251,1,75,8|0,0:0|0:0,0:0:0:0:
355,253,74376,1,0,0:0:0:0:
360,236,74451,2,0,L|367:161,1,75,0|0,0:0|0:0,0:0:0:0:
453,69,74751,1,8,0:0:0:0:
299,88,74901,6,0,B|217:52|237:135|130:74,1,150,4|0,0:0|0:0,0:0:0:0:
51,28,75351,2,0,P|63:83|51:116,1,75,8|0,0:0|0:0,0:0:0:0:
128,249,75651,2,0,P|123:212|135:176,1,75,0|0,0:0|3:2,0:0:0:0:
18,288,75951,2,0,P|30:323|25:360,1,75,8|0,3:2|3:2,0:0:0:0:
17,376,76176,1,0,3:2:0:0:
6,381,76251,6,0,L|162:378,1,150,4|8,3:2|0:0,0:0:0:0:
263,303,76701,1,0,0:0:0:0:
361,361,76851,2,0,L|359:269,1,75,0|0,0:0|0:0,0:0:0:0:
468,186,77151,2,0,L|466:260,1,75,8|0,0:0|0:0,0:0:0:0:
327,180,77451,6,0,P|387:205|480:175,1,150,0|8,0:0|0:0,0:0:0:0:
400,88,77901,1,0,0:0:0:0:
252,183,78051,2,0,L|349:179,1,75,0|0,0:0|0:0,0:0:0:0:
253,78,78351,2,0,L|156:74,1,75,8|0,0:0|0:0,0:0:0:0:
160,78,78576,1,0,0:0:0:0:
146,78,78651,6,0,P|159:125|104:216,1,150,4|0,0:0|0:0,0:0:0:0:
145,342,79101,2,0,P|102:282|112:209,1,150,12|0,0:0|0:0,0:0:0:0:
239,258,79551,2,0,L|337:259,1,75,4|0,0:0|0:0,0:0:0:0:
323,266,79776,1,0,0:0:0:0:
334,272,79851,5,4,0:0:0:0:
432,191,80001,2,0,L|435:141,2,37.5,0|0|8,0:0|0:0|0:0,0:0:0:0:
438,323,80301,1,0,0:0:0:0:
313,258,80451,2,0,L|239:258,1,75,0|0,0:0|0:0,0:0:0:0:
145,342,80751,1,8,0:0:0:0:
160,189,80901,6,0,B|153:135|153:135|177:98|177:98|171:41,1,134.999995880127,4|0,0:0|0:0,0:0:0:0:
268,155,81351,2,0,L|342:154,1,67.4999979400635,8|0,0:0|0:0,0:0:0:0:
240,62,81651,2,0,L|165:61,1,67.4999979400635,0|0,0:0|0:0,0:0:0:0:
56,69,81951,1,8,0:0:0:0:
35,199,82101,6,0,P|89:173|181:206,1,134.999995880127,0|0,0:0|0:0,0:0:0:0:
99,330,82551,2,0,L|102:244,1,67.4999979400635,8|0,0:0|0:0,0:0:0:0:
215,301,82851,2,0,L|293:299,2,67.4999979400635,0|0|8,0:0|0:0|0:0,0:0:0:0:
333,223,83301,6,0,P|368:270|352:359,1,134.999995880127,0|0,0:0|0:0,0:0:0:0:
476,276,83751,2,0,L|480:183,1,67.4999979400635,8|0,0:0|0:0,0:0:0:0:
404,123,84051,2,0,L|400:30,2,67.4999979400635,0|0|8,0:0|0:0|0:0,0:0:0:0:
333,223,84501,6,0,L|215:221,1,101.249996910095,0|0,0:0|0:0,0:0:0:0:
206,233,84801,1,0,0:0:0:0:
189,119,84951,2,0,P|196:77|183:36,1,67.4999979400635,8|0,0:0|0:0,0:0:0:0:
117,202,85251,2,0,P|109:234|114:267,1,67.4999979400635,0|0,0:0|0:0,0:0:0:0:
216,367,85551,1,8,0:0:0:0:
206,233,85701,6,0,L|216:367,1,134.999995880127,4|0,0:0|0:0,0:0:0:0:
330,290,86151,2,0,L|332:222,1,67.4999979400635,8|0,0:0|0:0,0:0:0:0:
266,77,86451,2,0,L|268:144,1,67.4999979400635,0|0,0:0|0:0,0:0:0:0:
206,233,86751,1,8,0:0:0:0:
138,80,86901,6,0,P|194:97|282:64,1,134.999995880127,0|0,0:0|0:0,0:0:0:0:
425,139,87351,2,0,P|382:127|330:140,1,67.4999979400635,8|0,0:0|0:0,0:0:0:0:
432,273,87651,2,0,L|424:122,1,134.999995880127,0|8,0:0|0:0,0:0:0:0:
297,280,88101,6,0,L|448:272,1,134.999995880127,4|0,0:0|0:0,0:0:0:0:
304,176,88551,2,0,L|221:173,1,67.4999979400635,8|0,0:0|0:0,0:0:0:0:
123,269,88851,2,0,L|190:266,2,67.4999979400635,0|0|8,0:0|0:0|0:0,0:0:0:0:
94,147,89301,6,0,P|132:221|117:280,1,134.999995880127,4|0,0:0|0:0,0:0:0:0:
13,232,89751,1,0,3:2:0:0:
25,73,89901,1,0,3:2:0:0:
161,151,90051,2,0,L|74:145,1,67.4999979400635,0|0,3:2|3:2,0:0:0:0:
226,59,90351,1,0,3:2:0:0:
360,49,90501,6,0,L|225:58,1,134.999995880127,4|0,0:0|0:0,0:0:0:0:
285,159,90951,2,0,P|276:205|283:244,1,67.4999979400635,8|0,0:0|0:0,0:0:0:0:
375,281,91251,2,0,P|383:313|382:347,1,67.4999979400635,0|0,0:0|0:0,0:0:0:0:
289,325,91551,1,8,0:0:0:0:
154,334,91701,6,0,L|289:325,1,134.999995880127,0|0,0:0|0:0,0:0:0:0:
442,284,92151,2,0,L|363:280,1,67.4999979400635,8|0,0:0|0:0,0:0:0:0:
285,159,92451,1,0,0:0:0:0:
289,325,92601,1,0,0:0:0:0:
370,189,92751,1,8,0:0:0:0:
220,235,92901,6,0,L|85:244,1,134.999995880127,0|0,0:0|0:0,0:0:0:0:
52,140,93351,2,0,L|60:55,1,67.4999979400635,8|0,0:0|0:0,0:0:0:0:
173,40,93651,2,0,L|179:107,1,67.4999979400635,0|0,0:0|0:0,0:0:0:0:
285,159,93951,2,0,L|293:74,1,67.4999979400635,8|0,0:0|0:0,0:0:0:0:
406,59,94251,6,0,L|412:126,1,67.4999979400635,0|0,0:0|0:0,0:0:0:0:
476,219,94551,1,8,0:0:0:0:
374,304,94701,1,0,0:0:0:0:
365,309,94776,1,0,0:0:0:0:
357,315,94851,2,0,P|310:301|213:333,1,134.999995880127,0|8,0:0|0:0,0:0:0:0:
80,241,95301,6,0,B|174:248|174:248|219:224,1,134.999995880127,4|0,0:0|0:0,0:0:0:0:
146,78,95751,2,0,L|153:176,1,67.4999979400635,8|0,0:0|0:0,0:0:0:0:
75,308,96051,2,0,L|79:240,1,67.4999979400635,0|0,0:0|0:0,0:0:0:0:
20,113,96351,1,8,0:0:0:0:
272,73,96501,6,0,P|207:96|141:73,1,134.999995880127,4|0,0:0|0:0,0:0:0:0:
313,167,96951,2,0,P|347:160|401:171,1,67.4999979400635,8|0,0:0|0:0,0:0:0:0:
476,68,97251,2,0,P|442:75|388:64,1,67.4999979400635,0|0,0:0|0:0,0:0:0:0:
313,167,97551,2,0,L|318:241,1,67.4999979400635,8|0,0:0|0:0,0:0:0:0:
195,356,97851,6,0,L|206:231,1,101.249996910095,4|0,0:0|0:0,0:0:0:0:
205,215,98151,2,0,L|126:222,1,67.4999979400635,8|0,0:0|0:0,0:0:0:0:
59,120,98451,2,0,L|138:127,1,67.4999979400635,0|0,0:0|0:0,0:0:0:0:
236,27,98751,2,0,L|157:34,1,67.4999979400635,8|0,0:0|0:0,0:0:0:0:
313,167,99051,6,0,L|318:81,1,67.4999979400635,0|0,0:0|0:0,0:0:0:0:
434,32,99351,2,0,L|437:99,1,67.4999979400635,8|0,0:0|0:0,0:0:0:0:
316,234,99651,2,0,L|313:167,1,67.4999979400635,0|0,0:0|0:0,0:0:0:0:
447,253,99951,2,0,L|443:320,1,67.4999979400635,8|0,0:0|0:0,0:0:0:0:
316,234,100251,6,0,L|224:228,1,67.4999979400635,0|0,0:0|0:0,0:0:0:0:
191,334,100551,2,0,L|283:328,1,67.4999979400635,8|0,0:0|0:0,0:0:0:0:
112,230,100851,1,8,0:0:0:0:
91,358,101001,1,0,0:0:0:0:
44,222,101151,2,0,L|138:232,1,67.4999979400635,8|0,0:0|0:0,0:0:0:0:
210,46,101451,6,0,P|207:151|286:62,1,281.25,4|0,0:0|0:0,0:0:0:0:
312,36,102651,6,0,P|353:34|420:71,2,112.500004291535,0|0|2,3:2|3:2|3:2,0:0:0:0:
174,152,103551,1,0,3:2:0:0:
308,271,103851,6,0,L|430:264,2,112.500004291535,0|0|2,3:2|3:2|3:2,0:0:0:0:
141,340,104751,1,0,3:2:0:0:
23,203,105051,6,0,B|15:160|15:160|39:61,2,112.500004291535,0|0|2,3:2|3:2|3:2,0:0:0:0:
203,193,105951,1,0,3:2:0:0:
307,339,106251,5,0,3:2:0:0:
309,159,106551,1,0,3:2:0:0:
205,306,106851,1,2,3:2:0:0:
376,252,107151,1,0,3:2:0:0:
364,72,107451,6,0,P|416:31|491:39,2,112.500004291535,4|0|2,3:2|3:2|3:2,0:0:0:0:
451,230,108351,1,0,3:2:0:0:
279,285,108651,6,0,L|132:287,2,112.500004291535,0|0|2,3:2|3:2|3:2,0:0:0:0:
325,111,109551,2,0,L|324:48,2,37.5000014305115,0|0|0,3:2|0:0|0:0,0:0:0:0:
306,168,109851,6,0,P|245:173|182:133,2,112.500004291535,0|0|8,3:2|3:2|3:2,0:0:0:0:
475,105,110751,1,0,3:2:0:0:
297,238,111051,6,0,L|207:233,2,75
52,159,111501,2,0,L|142:154,2,75,0|0|0,0:0|0:0|0:0,0:0:0:0:
223,234,111951,1,0,0:0:0:0:
223,234,112251,6,0,P|279:250|383:209,1,150,4|8,0:0|0:0,0:0:0:0:
422,107,112701,1,0,0:0:0:0:
291,60,112851,2,0,P|281:106|289:140,1,75,0|0,0:0|0:0,0:0:0:0:
422,107,113151,2,0,P|432:61|424:27,1,75,8|0,0:0|0:0,0:0:0:0:
385,208,113451,6,0,P|442:210|517:150,1,150,0|8,0:0|0:0,0:0:0:0:
422,107,113901,1,0,0:0:0:0:
281,70,114051,2,0,L|171:68,1,75
141,179,114351,2,0,L|251:177,1,75,8|0,0:0|0:0,0:0:0:0:
61,128,114651,6,0,P|48:179|123:274,1,150,0|8,0:0|0:0,0:0:0:0:
214,287,115101,1,0,0:0:0:0:
315,208,115251,2,0,P|388:189|442:214,2,100,0|0|0,0:0|0:0|0:0,0:0:0:0:
214,287,115851,6,0,P|192:220|217:127,1,150,0|8,0:0|0:0,0:0:0:0:
308,64,116301,2,0,P|330:131|305:224,1,150,0|0,0:0|0:0,0:0:0:0:
207,143,116751,1,8,0:0:0:0:
207,143,117051,6,0,L|32:152,1,150,4|8,0:0|0:0,0:0:0:0:
41,255,117501,1,0,0:0:0:0:
144,305,117651,2,0,P|161:240|151:209,1,75,0|0,0:0|0:0,0:0:0:0:
88,144,117951,2,0,P|88:106|103:72,1,75,8|0,0:0|0:0,0:0:0:0:
257,121,118251,6,0,L|160:121,1,75,0|0,0:0|0:0,0:0:0:0:
146,232,118551,1,8,0:0:0:0:
243,344,118701,1,0,0:0:0:0:
285,222,118851,2,0,P|320:211|345:211,2,50,8|8|8,3:0|3:0|3:0,0:0:0:0:
146,232,119151,2,0,P|111:243|86:243,2,50,8|8|8,3:0|3:0|3:0,0:0:0:0:
221,92,119451,5,4,0:0:0:0:
345,220,120051,1,8,3:0:0:0:
134,144,120651,5,0,0:0:0:0:
174,269,138651,6,0,P|143:201|176:144,1,131.25,4|0,0:2|0:0,0:0:0:0:
208,135,139251,6,0,L|297:127,1,75,0|0,0:0|0:0,0:0:0:0:
257,224,139851,6,0,L|357:213,1,98.999999697876,0|0,0:0|0:0,0:0:0:0:
320,305,140451,6,0,L|445:289,1,114.899994319519,0|0,0:0|0:0,0:0:0:0:
281,193,141051,6,0,L|192:189,1,75,4|0,0:2|0:0,0:0:0:0:
95,183,141351,1,0,0:0:0:0:
282,314,141501,6,0,L|371:310,1,75,4|0,0:2|0:0,0:0:0:0:
468,304,141801,1,0,0:0:0:0:
337,208,141951,6,0,P|275:83|398:182,1,427.499986953736,4|0,0:2|0:0,0:0:0:0:
340,129,143451,6,0,L|185:129,1,150,4|8,0:0|0:0,0:0:0:0:
78,87,143901,1,0,0:0:0:0:
128,220,144051,2,0,L|123:300,1,75,0|0,0:0|0:0,0:0:0:0:
245,224,144351,2,0,L|240:144,1,75,8|0,0:0|0:0,0:0:0:0:
385,140,144651,6,0,P|437:133|484:152,1,75,0|0,0:0|0:0,0:0:0:0:
415,249,144951,2,0,P|363:256|316:237,1,75,8|0,0:0|0:0,0:0:0:0:
236,154,145251,2,0,P|252:197|239:232,1,75,0|0,0:0|0:0,0:0:0:0:
139,247,145551,2,0,P|117:189|142:131,1,112.5,8|0,0:0|0:0,0:0:0:0:
150,105,145851,6,0,L|60:101,1,75,0|0,0:0|0:0,0:0:0:0:
236,154,146151,2,0,L|326:150,1,75,8|0,0:0|0:0,0:0:0:0:
334,309,146451,2,0,P|322:247|329:229,1,75,0|0,0:0|0:0,0:0:0:0:
376,104,146751,2,0,P|388:166|381:184,1,75,8|0,0:0|0:0,0:0:0:0:
294,48,147051,6,0,P|355:13|444:36,1,150,4|8,0:0|0:0,0:0:0:0:
483,114,147501,1,0,0:0:0:0:
383,178,147651,2,0,L|375:93,1,75,4|0,0:0|0:0,0:0:0:0:
216,199,147951,2,0,L|209:274,1,75,12|0,0:0|0:0,0:0:0:0:
329,212,148251,6,0,L|316:63,1,150,4|8,0:0|0:0,0:0:0:0:
187,22,148701,1,0,0:0:0:0:
85,95,148851,2,0,P|66:142|74:184,1,75,0|0,0:0|0:0,0:0:0:0:
136,254,149151,1,8,0:0:0:0:
35,245,149301,1,0,0:0:0:0:
169,144,149451,6,0,L|320:133,1,150,0|8,0:0|0:0,0:0:0:0:
440,193,149901,1,0,0:0:0:0:
328,276,150051,2,0,P|306:217|334:105,1,150,0|8,0:0|0:0,0:0:0:0:
438,58,150501,1,0,0:0:0:0:
315,48,150651,5,4,0:0:0:0:
98,218,150951,1,8,0:0:0:0:
222,222,151101,1,4,0:0:0:0:
377,342,151401,1,0,0:0:0:0:
265,321,151551,1,0,0:0:0:0:
321,147,151701,6,0,L|492:142,1,150,4|0,0:0|0:0,0:0:0:0:
506,124,152076,1,0,0:0:0:0:
506,124,152151,1,0,0:0:0:0:
362,37,152301,2,0,L|314:33,2,37.5,0|0|0,0:0|0:0|0:0,0:0:0:0:
246,151,152601,2,0,L|294:147,2,37.5,0|0|0,0:0|0:0|0:0,0:0:0:0:
82,171,152901,1,0,0:0:0:0:
82,189,152976,1,0,0:0:0:0:
83,209,153051,6,0,P|129:258|216:250,1,150,4|8,0:0|0:0,0:0:0:0:
298,136,153501,1,0,0:0:0:0:
159,110,153651,2,0,L|169:198,1,75,0|0,0:0|0:0,0:0:0:0:
298,136,153951,2,0,L|308:48,1,75,8|0,0:0|0:0,0:0:0:0:
344,214,154251,6,0,P|294:226|269:224,1,75
233,71,154551,2,0,P|283:59|308:61,1,75,8|0,0:0|0:0,0:0:0:0:
170,151,154851,2,0,P|140:111|135:63,1,75,0|0,0:0|0:0,0:0:0:0:
308,150,155151,2,0,P|338:190|343:238,1,75,8|0,0:0|0:0,0:0:0:0:
219,282,155451,6,0,L|261:220,1,75,4|0,0:0|0:0,0:0:0:0:
127,212,155751,2,0,L|179:137,1,75,8|0,0:0|0:0,0:0:0:0:
33,139,156051,2,0,L|85:64,1,75
164,27,156351,1,8,0:0:0:0:
256,195,156501,6,0,P|241:251|147:298,1,150,4|0,0:0|0:0,0:0:0:0:
177,133,156951,2,0,P|204:103|245:89,1,75,8|0,0:0|0:0,0:0:0:0:
334,251,157251,2,0,P|307:281|266:295,1,75,0|0,0:0|0:0,0:0:0:0:
89,267,157551,2,0,L|83:185,1,75,8|0,0:0|3:0,0:0:0:0:
81,95,157776,1,0,3:0:0:0:
81,95,157851,6,0,P|118:66|229:78,1,150,4|8,0:0|0:0,0:0:0:0:
288,166,158301,1,0,0:0:0:0:
172,219,158451,2,0,P|160:159|179:116,1,75,0|0,0:0|0:0,0:0:0:0:
288,166,158751,2,0,P|300:226|281:269,1,75,8|0,0:0|0:0,0:0:0:0:
248,75,159051,6,0,P|305:69|379:126,1,150,4|8,0:0|0:0,0:0:0:0:
288,166,159501,1,0,0:0:0:0:
166,166,159651,2,0,L|159:56,1,75,0|0,0:0|0:0,0:0:0:0:
49,190,159951,2,0,L|42:300,1,75,8|0,0:0|0:0,0:0:0:0:
115,337,160176,1,0,0:0:0:0:
115,337,160251,6,0,P|163:330|206:338,1,75,4|0,0:0|0:0,0:0:0:0:
297,355,160551,1,8,0:0:0:0:
431,248,160701,2,0,P|383:255|340:247,1,75,4|0,0:0|0:0,0:0:0:0:
249,230,161001,1,0,0:0:0:0:
296,89,161151,2,0,P|314:161|307:180,1,75,12|0,0:0|0:0,0:0:0:0:
146,149,161451,6,0,L|231:144,1,75,4|0,0:0|3:2,0:0:0:0:
323,234,161751,2,0,L|238:229,1,75,8|0,3:2|0:0,0:0:0:0:
128,136,162051,2,0,L|213:131,1,75,0|0,0:0|0:0,0:0:0:0:
299,220,162351,1,8,0:0:0:0:
166,253,162501,6,0,L|9:258,1,150,4|0,0:0|0:0,0:0:0:0:
129,164,162951,2,0,P|186:154|230:169,1,75,8|0,0:0|0:0,0:0:0:0:
372,212,163251,2,0,P|336:223|299:220,1,75,0|0,0:0|0:0,0:0:0:0:
328,104,163551,1,8,0:0:0:0:
461,166,163701,6,0,P|471:228|408:304,1,150,0|0,0:0|0:0,0:0:0:0:
299,220,164151,2,0,P|347:209|394:226,1,75,8|0,0:0|0:0,0:0:0:0:
339,299,164451,1,0,0:0:0:0:
250,293,164601,1,0,0:0:0:0:
299,220,164751,1,8,0:0:0:0:
148,283,164901,6,0,L|-11:271,1,150,0|0,0:0|0:0,0:0:0:0:
102,178,165351,2,0,L|207:168,1,75,8|0,0:0|0:0,0:0:0:0:
271,90,165651,2,0,L|166:80,1,75,0|0,0:0|0:0,0:0:0:0:
102,178,165951,1,8,0:0:0:0:
233,241,166101,6,0,P|300:245|359:177,1,150,0|0,0:0|0:0,0:0:0:0:
271,90,166551,2,0,L|275:170,1,75,8|0,0:0|0:0,0:0:0:0:
328,283,166851,1,0,0:0:0:0:
375,175,167001,1,0,0:0:0:0:
275,184,167151,1,8,0:0:0:0:
448,251,167301,6,0,P|483:190|453:102,1,150,4|0,0:0|0:0,0:0:0:0:
300,170,167751,2,0,L|396:176,1,75,8|0,0:0|0:0,0:0:0:0:
273,67,168051,2,0,L|177:73,1,75,0|0,0:0|0:0,0:0:0:0:
92,163,168351,1,8,0:0:0:0:
172,246,168501,6,0,P|197:182|182:98,1,150,0|0,0:0|0:0,0:0:0:0:
50,104,168951,2,0,P|81:157|114:168,1,75,8|0,0:0|0:0,0:0:0:0:
225,161,169251,2,0,P|194:108|161:97,1,75,0|0,0:0|0:0,0:0:0:0:
172,246,169551,1,8,0:0:0:0:
316,220,169701,6,0,B|361:204|361:204|475:213,1,150,0|0,0:0|0:0,0:0:0:0:
364,106,170151,2,0,P|306:98|263:106,1,75,8|0,0:0|0:0,0:0:0:0:
197,147,170451,1,0,0:0:0:0:
215,275,170601,1,0,0:0:0:0:
272,192,170751,1,8,0:0:0:0:
117,216,170901,6,0,P|97:182|124:70,1,150,4|0,0:0|0:0,0:0:0:0:
197,147,171351,1,8,0:0:0:0:
215,275,171501,1,0,3:0:0:0:
215,275,171576,1,0,3:0:0:0:
215,275,171651,2,0,L|312:276,2,75,0|0|8,3:0|0:0|0:0,0:0:0:0:
77,254,172101,6,0,B|60:211|73:178|73:178|88:141|62:95,1,150,4|0,0:0|0:0,0:0:0:0:
222,197,172551,2,0,L|140:207,1,75,8|0,0:0|0:0,0:0:0:0:
212,293,172851,2,0,L|294:303,1,75,0|0,0:0|0:0,0:0:0:0:
411,280,173151,1,8,0:0:0:0:
395,100,173301,6,0,P|339:152|319:224,1,150,0|0,0:0|0:0,0:0:0:0:
483,140,173751,2,0,P|492:86|476:39,1,75,8|0,0:0|0:0,0:0:0:0:
315,59,174051,2,0,P|306:113|322:160,1,75,0|0,0:0|0:0,0:0:0:0:
406,216,174351,1,8,0:0:0:0:
276,144,174501,6,0,P|221:125|132:167,1,150,0|0,0:0|0:0,0:0:0:0:
210,294,174951,2,0,L|216:197,1,75,8|0,0:0|0:0,0:0:0:0:
135,83,175251,2,0,L|139:157,1,75
112,289,175551,1,8,0:0:0:0:
231,188,175701,6,0,P|286:188|341:275,1,150,0|0,0:0|0:0,0:0:0:0:
252,341,176151,2,0,L|259:259,1,75,8|0,0:0|0:0,0:0:0:0:
301,136,176451,1,0,0:0:0:0:
361,24,176601,1,4,0:0:0:0:
390,249,176901,6,0,L|208:240,1,150,4|0,0:0|0:0,0:0:0:0:
108,201,177351,2,0,P|92:139|107:108,1,75,8|0,0:0|0:0,0:0:0:0:
233,134,177651,2,0,P|249:196|234:227,1,75,0|0,0:0|0:0,0:0:0:0:
163,274,177951,1,8,0:0:0:0:
279,342,178101,6,0,L|455:337,1,150,4|0,0:0|0:0,0:0:0:0:
492,218,178551,2,0,L|497:137,1,75,8|0,0:0|0:0,0:0:0:0:
390,217,178851,2,0,L|395:298,1,75,0|0,0:0|0:0,0:0:0:0:
279,342,179151,1,8,0:0:0:0:
165,232,179301,6,0,P|161:163|161:62,1,150,4|0,0:0|0:0,0:0:0:0:
242,189,179751,2,0,P|253:244|236:286,1,75,8|0,0:0|0:0,0:0:0:0:
87,271,180051,2,0,P|76:216|93:174,1,75,0|0,0:0|0:0,0:0:0:0:
152,120,180351,1,8,0:0:0:0:
252,40,180501,6,0,P|324:26|415:62,1,150,4|0,0:0|0:0,0:0:0:0:
434,200,180951,2,0,L|446:120,1,75,8|0,0:0|0:0,0:0:0:0:
334,260,181251,2,0,L|322:180,1,75,0|0,0:0|0:0,0:0:0:0:
316,151,181476,1,0,3:0:0:0:
316,151,181551,1,8,3:2:0:0:
185,89,181701,6,0,L|175:257,1,150,4|0,0:0|0:0,0:0:0:0:
257,336,182151,2,0,P|337:345|349:338,1,75,8|0,0:0|0:0,0:0:0:0:
247,251,182451,2,0,P|167:242|155:249,1,75,0|0,0:0|0:0,0:0:0:0:
112,320,182751,1,8,0:0:0:0:
44,196,182901,6,0,P|37:122|66:39,1,150,4|0,0:0|0:0,0:0:0:0:
259,133,183351,2,0,L|165:133,1,75,8|0,0:0|0:0,0:0:0:0:
150,118,183576,1,0,0:0:0:0:
150,118,183651,1,0,0:0:0:0:
290,40,183801,1,0,0:0:0:0:
361,177,183951,1,8,3:2:0:0:
361,195,184026,1,0,3:2:0:0:
362,214,184101,1,0,3:2:0:0:
363,233,184176,1,0,3:2:0:0:
363,252,184251,6,0,L|188:256,1,150,4|0,0:0|0:0,0:0:0:0:
68,156,184701,2,0,L|243:160,1,150,4|0,0:0|0:0,0:0:0:0:
315,299,185151,1,4,0:0:0:0:
256,192,185226,12,0,189951,0:0:0:0:
