osu file format v14

[General]
AudioFilename: audio.mp3
AudioLeadIn: 0
PreviewTime: 60553
Countdown: 0
SampleSet: Normal
StackLeniency: 0.7
Mode: 1
LetterboxInBreaks: 0
WidescreenStoryboard: 1

[Editor]
Bookmarks: 21028,61828,90628,131428,172228,191428,213028,259228
DistanceSpacing: 1
BeatDivisor: 4
GridSize: 4
TimelineZoom: 3.799999

[Metadata]
Title:Shiroi Yuki no Princess wa
TitleUnicode:白い雪のプリンセスは
Artist:Noboru feat. Mitani Nana
ArtistUnicode:のぼる↑ feat. 実谷なな
Creator:radar
Version:Idealism's Muzukashii
Source:
Tags:idealism pop jpop j-pop cover jrock j-rock vocaloid oni snow white and the seven dwarfs hatsune miku Noboru-P blanca japanese rock
BeatmapID:2982527
BeatmapSetID:1450249

[Difficulty]
HPDrainRate:6
CircleSize:5
OverallDifficulty:5
ApproachRate:5
SliderMultiplier:1.4
SliderTickRate:1

[Events]
//Background and Video events
0,0,"E0MSntmUYAEON5E.jpg",0,80
//Break Periods
//Storyboard Layer 0 (Background)
//Storyboard Layer 1 (Fail)
//Storyboard Layer 2 (Pass)
//Storyboard Layer 3 (Foreground)
//Storyboard Layer 4 (Overlay)
//Storyboard Sound Samples

[TimingPoints]
628,300,4,1,0,20,1,0
628,-142.857142857143,4,1,0,20,0,0
2428,-142.857142857143,4,1,0,30,0,0
3028,-133.333333333333,4,1,0,35,0,0
3628,-142.857142857143,4,1,0,40,0,0
4228,-125,4,1,0,45,0,0
4828,-142.857142857143,4,1,0,50,0,0
5428,-117.647058823529,4,1,0,55,0,0
6028,-142.857142857143,4,1,0,60,0,0
6478,-100,4,1,0,100,0,0
21028,-111.111111111111,4,1,0,80,0,0
61828,-100,4,1,0,100,0,1
80878,-100,4,1,0,80,0,0
88678,-98.0392156862745,4,1,0,80,0,0
89128,-96.1538461538461,4,1,0,80,0,0
89578,-94.3396226415094,4,1,0,80,0,0
90028,-92.5925925925926,4,1,0,80,0,0
90178,-91.743119266055,4,1,0,80,0,0
90628,-111.111111111111,4,1,0,80,0,0
130528,-108.695652173913,4,1,0,80,0,0
130828,-106.382978723404,4,1,0,80,0,0
131128,-104.166666666667,4,1,0,80,0,0
131428,-100,4,1,0,100,0,1
150478,-100,4,1,0,80,0,0
171328,-102.040816326531,4,1,0,80,0,0
171628,-104.166666666667,4,1,0,80,0,0
171928,-106.382978723404,4,1,0,80,0,0
172228,-108.695652173913,4,1,0,80,0,0
172378,-111.111111111111,4,1,0,70,0,0
191128,-117.647058823529,4,1,0,50,0,0
191428,-121.951219512195,4,1,0,50,0,0
208228,-105.263157894737,4,1,0,80,0,0
210778,-104.166666666667,4,1,0,80,0,0
210928,-103.092783505155,4,1,0,80,0,0
211078,-102.040816326531,4,1,0,80,0,0
211228,-101.010101010101,4,1,0,80,0,0
211378,-100,4,1,0,80,0,0
211528,-99.009900990099,4,1,0,80,0,0
211828,-94.3396226415094,4,1,0,80,0,0
213028,-100,4,1,0,100,0,1
253828,-100,4,1,0,100,0,0
254278,-96.1538461538461,4,1,0,100,0,0
254728,-92.5925925925926,4,1,0,80,0,1
254878,-90.9090909090909,4,1,0,60,0,1
255028,-89.2857142857143,4,1,0,60,0,1
256228,-89.2857142857143,4,1,0,50,0,1
257428,-89.2857142857143,4,1,0,40,0,1
258628,-89.2857142857143,4,1,0,30,0,1
259228,-89.2857142857143,4,1,0,30,0,0

[HitObjects]
256,192,1678,12,0,6328,0:0:0:0:
251,198,6478,5,4,0:0:0:0:
233,204,6778,1,0,0:0:0:0:
233,204,6928,1,8,0:0:0:0:
233,204,7078,1,0,0:0:0:0:
233,204,7153,1,0,0:0:0:0:
233,204,7228,1,0,0:0:0:0:
233,204,7378,1,8,0:0:0:0:
233,204,7528,1,0,0:0:0:0:
233,204,7678,1,8,0:0:0:0:
250,200,7978,1,0,0:0:0:0:
250,200,8128,1,8,0:0:0:0:
250,200,8278,1,8,0:0:0:0:
250,200,8428,1,0,0:0:0:0:
250,204,8503,1,0,0:0:0:0:
250,204,8578,1,0,0:0:0:0:
262,205,8728,1,8,0:0:0:0:
262,204,8878,1,0,0:0:0:0:
255,200,9328,1,8,0:0:0:0:
255,201,9478,1,0,0:0:0:0:
255,201,9553,1,0,0:0:0:0:
255,201,9628,1,0,0:0:0:0:
255,200,9778,1,8,0:0:0:0:
255,200,9928,1,0,0:0:0:0:
247,209,10078,1,12,0:0:0:0:
246,212,10378,1,0,0:0:0:0:
246,212,10528,1,0,0:0:0:0:
246,212,10678,1,12,0:0:0:0:
246,212,10978,1,8,0:0:0:0:
246,212,11128,1,0,0:0:0:0:
246,212,11278,1,12,0:0:0:0:
233,204,11578,1,0,0:0:0:0:
233,204,11728,1,8,0:0:0:0:
233,204,11878,1,0,0:0:0:0:
233,204,11953,1,0,0:0:0:0:
233,204,12028,1,0,0:0:0:0:
233,204,12178,1,8,0:0:0:0:
233,204,12328,1,0,0:0:0:0:
233,204,12478,1,8,0:0:0:0:
250,200,12778,1,0,0:0:0:0:
250,200,12928,1,8,0:0:0:0:
250,200,13078,1,8,0:0:0:0:
250,200,13228,1,0,0:0:0:0:
250,204,13303,1,0,0:0:0:0:
250,204,13378,1,0,0:0:0:0:
262,205,13528,1,8,0:0:0:0:
262,204,13678,1,0,0:0:0:0:
255,200,14128,1,8,0:0:0:0:
255,201,14278,1,0,0:0:0:0:
255,201,14353,1,0,0:0:0:0:
255,201,14428,1,0,0:0:0:0:
255,200,14578,1,8,0:0:0:0:
255,200,14728,1,0,0:0:0:0:
247,209,14878,1,12,0:0:0:0:
246,212,15178,1,0,0:0:0:0:
246,212,15328,1,0,0:0:0:0:
246,212,15478,1,12,0:0:0:0:
246,212,15778,1,8,0:0:0:0:
246,212,15928,1,0,0:0:0:0:
246,212,16078,1,12,0:0:0:0:
246,212,16528,1,12,0:0:0:0:
246,212,16828,1,0,0:0:0:0:
246,212,16978,1,12,0:0:0:0:
246,212,17278,1,0,0:0:0:0:
246,212,17428,1,8,0:0:0:0:
246,212,17578,1,0,0:0:0:0:
242,215,17653,1,0,0:0:0:0:
246,212,17728,1,0,0:0:0:0:
241,214,17878,1,0,0:0:0:0:
241,214,18028,1,8,0:0:0:0:
241,214,18178,1,8,0:0:0:0:
241,214,18328,1,0,0:0:0:0:
241,214,18628,1,12,0:0:0:0:
251,216,18778,1,12,0:0:0:0:
225,213,19678,1,12,0:0:0:0:
225,213,19978,1,8,0:0:0:0:
225,213,20128,1,8,0:0:0:0:
225,213,20278,1,0,0:0:0:0:
225,213,20428,1,0,0:0:0:0:
225,213,20578,1,0,0:0:0:0:
225,213,20728,1,12,0:0:0:0:
427,173,21028,1,8,0:0:0:0:
218,215,21178,1,8,0:0:0:0:
218,215,21328,1,0,0:0:0:0:
219,214,21478,1,8,0:0:0:0:
223,212,21628,1,0,0:0:0:0:
223,212,21778,1,0,0:0:0:0:
223,212,21928,1,8,0:0:0:0:
223,212,22078,1,0,0:0:0:0:
219,214,22228,1,8,0:0:0:0:
223,212,22378,1,8,0:0:0:0:
231,219,22528,1,0,0:0:0:0:
223,212,22678,1,8,0:0:0:0:
228,219,23128,1,0,0:0:0:0:
231,219,23278,1,8,0:0:0:0:
228,219,23578,1,8,0:0:0:0:
228,219,23728,1,0,0:0:0:0:
228,219,23878,1,8,0:0:0:0:
231,219,24028,1,0,0:0:0:0:
228,219,24178,1,0,0:0:0:0:
228,219,24328,1,8,0:0:0:0:
228,219,24628,1,8,0:0:0:0:
231,219,24703,1,8,0:0:0:0:
228,219,24778,1,8,0:0:0:0:
228,219,24928,1,0,0:0:0:0:
228,219,25078,1,8,0:0:0:0:
228,219,25378,1,0,0:0:0:0:
228,219,25678,1,8,0:0:0:0:
222,221,26128,1,8,0:0:0:0:
222,221,26428,1,0,0:0:0:0:
222,221,26578,1,8,0:0:0:0:
222,221,26878,1,8,0:0:0:0:
218,215,27328,1,8,0:0:0:0:
218,215,27628,1,0,0:0:0:0:
218,215,27778,1,8,0:0:0:0:
218,215,28078,1,0,0:0:0:0:
206,207,28378,1,8,0:0:0:0:
218,215,28678,1,8,0:0:0:0:
218,215,28828,1,0,0:0:0:0:
219,215,28978,1,0,0:0:0:0:
217,214,29128,1,8,0:0:0:0:
220,205,29428,1,8,0:0:0:0:
220,205,29728,1,0,0:0:0:0:
220,205,29878,1,8,0:0:0:0:
220,199,30178,1,8,0:0:0:0:
220,199,30328,1,0,0:0:0:0:
221,199,30403,1,0,0:0:0:0:
221,199,30478,1,0,0:0:0:0:
221,199,30628,1,8,0:0:0:0:
220,199,30778,1,8,0:0:0:0:
220,199,30928,1,0,0:0:0:0:
220,199,31078,1,8,0:0:0:0:
221,199,31228,1,0,0:0:0:0:
221,199,31378,1,0,0:0:0:0:
220,199,31528,1,8,0:0:0:0:
220,199,31678,1,0,0:0:0:0:
220,199,31828,1,8,0:0:0:0:
221,199,31978,1,8,0:0:0:0:
221,199,32128,1,0,0:0:0:0:
220,199,32278,1,8,0:0:0:0:
210,199,32728,1,0,0:0:0:0:
210,199,32878,1,8,0:0:0:0:
210,199,33178,1,8,0:0:0:0:
210,199,33328,1,0,0:0:0:0:
210,199,33478,1,8,0:0:0:0:
210,199,33628,1,8,0:0:0:0:
210,199,33778,1,0,0:0:0:0:
210,199,33928,1,8,0:0:0:0:
210,199,34228,1,8,0:0:0:0:
196,197,34378,1,8,0:0:0:0:
196,197,34528,1,0,0:0:0:0:
196,197,34678,1,8,0:0:0:0:
196,197,34978,1,8,0:0:0:0:
199,201,35278,1,8,0:0:0:0:
201,201,35728,1,8,0:0:0:0:
189,200,36028,1,0,0:0:0:0:
189,200,36178,1,8,0:0:0:0:
189,200,36478,1,8,0:0:0:0:
189,200,36928,1,8,0:0:0:0:
189,200,37228,1,0,0:0:0:0:
189,200,37378,1,8,0:0:0:0:
171,190,37678,1,8,0:0:0:0:
189,200,37828,1,0,0:0:0:0:
191,187,38128,1,8,0:0:0:0:
191,188,38278,1,8,0:0:0:0:
191,188,38428,1,0,0:0:0:0:
191,188,38578,1,0,0:0:0:0:
183,189,38728,1,8,0:0:0:0:
182,188,39028,1,8,0:0:0:0:
182,187,39328,1,8,0:0:0:0:
183,189,39478,1,0,0:0:0:0:
182,188,39628,1,0,0:0:0:0:
182,188,39778,1,0,0:0:0:0:
182,187,39928,1,8,0:0:0:0:
183,189,40228,1,8,0:0:0:0:
186,190,40528,1,8,0:0:0:0:
186,190,40678,1,8,0:0:0:0:
186,190,40828,1,0,0:0:0:0:
183,189,40978,1,0,0:0:0:0:
186,190,41128,1,8,0:0:0:0:
186,190,41428,1,8,0:0:0:0:
189,189,41728,1,0,0:0:0:0:
186,190,41878,1,0,0:0:0:0:
186,190,42028,1,8,0:0:0:0:
171,182,42328,1,0,0:0:0:0:
174,183,42628,1,12,0:0:0:0:
189,189,43078,1,0,0:0:0:0:
198,187,43378,1,0,0:0:0:0:
198,187,43528,1,8,0:0:0:0:
198,187,43828,1,0,0:0:0:0:
196,177,44278,1,0,0:0:0:0:
196,177,44578,1,0,0:0:0:0:
196,177,44728,1,8,0:0:0:0:
196,177,45028,1,0,0:0:0:0:
196,177,45478,1,0,0:0:0:0:
196,177,45778,1,0,0:0:0:0:
196,177,45928,1,8,0:0:0:0:
196,177,46228,1,8,0:0:0:0:
196,177,46528,1,8,0:0:0:0:
196,177,46678,1,0,0:0:0:0:
196,177,46978,1,8,0:0:0:0:
263,180,47278,1,8,0:0:0:0:
196,177,47428,1,0,0:0:0:0:
201,177,47878,1,0,0:0:0:0:
201,177,48178,1,0,0:0:0:0:
201,177,48328,1,8,0:0:0:0:
208,176,48628,1,0,0:0:0:0:
208,177,49078,1,0,0:0:0:0:
208,176,49378,1,0,0:0:0:0:
208,177,49528,1,8,0:0:0:0:
208,177,49828,1,0,0:0:0:0:
208,177,50278,1,0,0:0:0:0:
208,177,50578,1,0,0:0:0:0:
208,177,50728,1,8,0:0:0:0:
209,170,51028,1,12,0:0:0:0:
210,170,51328,1,12,0:0:0:0:
209,170,51628,1,4,0:0:0:0:
210,170,51928,1,4,0:0:0:0:
209,170,52228,1,12,0:0:0:0:
210,170,52528,1,8,0:0:0:0:
210,170,52678,1,0,0:0:0:0:
211,165,52978,1,0,0:0:0:0:
210,170,53128,1,8,0:0:0:0:
210,170,53428,1,0,0:0:0:0:
209,170,53728,1,8,0:0:0:0:
210,161,53878,1,0,0:0:0:0:
210,161,54178,1,0,0:0:0:0:
211,165,54328,1,8,0:0:0:0:
210,161,54628,1,0,0:0:0:0:
198,161,54928,1,8,0:0:0:0:
198,161,55078,1,0,0:0:0:0:
212,146,55228,1,8,0:0:0:0:
212,145,55453,1,0,0:0:0:0:
212,145,55678,1,0,0:0:0:0:
210,161,55828,1,8,0:0:0:0:
210,150,56128,1,8,0:0:0:0:
210,150,56278,1,0,0:0:0:0:
210,150,56728,1,4,0:0:0:0:
183,172,57028,1,12,0:0:0:0:
183,172,57328,1,8,0:0:0:0:
183,172,57478,1,0,0:0:0:0:
183,172,57628,1,0,0:0:0:0:
183,172,57778,1,0,0:0:0:0:
183,172,57928,1,8,0:0:0:0:
183,172,58078,1,8,0:0:0:0:
183,172,58228,1,0,0:0:0:0:
167,169,58528,1,0,0:0:0:0:
170,169,58678,1,8,0:0:0:0:
173,169,58828,1,0,0:0:0:0:
174,169,58978,1,0,0:0:0:0:
177,169,59128,1,8,0:0:0:0:
178,169,59278,1,0,0:0:0:0:
179,170,59428,1,12,0:0:0:0:
184,166,59728,1,8,0:0:0:0:
184,166,59878,1,0,0:0:0:0:
184,166,60028,1,8,0:0:0:0:
184,166,60628,1,0,0:0:0:0:
184,166,60928,1,0,0:0:0:0:
184,166,61228,1,8,0:0:0:0:
184,166,61528,1,0,0:0:0:0:
184,166,61828,1,12,0:0:0:0:
184,159,62128,1,8,0:0:0:0:
184,159,62278,1,0,0:0:0:0:
184,159,62353,1,0,0:0:0:0:
184,159,62428,1,0,0:0:0:0:
184,159,62578,1,0,0:0:0:0:
184,159,62728,1,8,0:0:0:0:
175,161,62878,1,0,0:0:0:0:
180,164,63028,1,8,0:0:0:0:
175,161,63328,1,8,0:0:0:0:
179,157,63478,1,8,0:0:0:0:
175,161,63628,1,0,0:0:0:0:
177,156,63778,1,0,0:0:0:0:
177,156,63928,1,8,0:0:0:0:
175,161,64228,1,0,0:0:0:0:
175,161,64378,1,0,0:0:0:0:
175,161,64453,1,0,0:0:0:0:
175,161,64528,1,0,0:0:0:0:
175,161,64678,1,8,0:0:0:0:
175,161,64828,1,0,0:0:0:0:
175,161,64978,1,8,0:0:0:0:
175,161,65053,1,8,0:0:0:0:
175,161,65128,1,8,0:0:0:0:
175,161,65278,1,8,0:0:0:0:
175,161,65428,1,4,0:0:0:0:
165,166,66028,1,12,0:0:0:0:
165,166,66328,1,12,0:0:0:0:
165,166,66628,1,4,0:0:0:0:
171,161,66928,1,8,0:0:0:0:
171,161,67078,1,0,0:0:0:0:
173,163,67153,1,0,0:0:0:0:
173,163,67228,1,0,0:0:0:0:
172,163,67378,1,0,0:0:0:0:
171,161,67528,1,8,0:0:0:0:
171,161,67678,1,0,0:0:0:0:
173,163,67978,1,0,0:0:0:0:
172,163,68128,1,8,0:0:0:0:
171,161,68278,1,8,0:0:0:0:
171,161,68428,1,0,0:0:0:0:
173,163,68578,1,8,0:0:0:0:
173,163,68653,1,8,0:0:0:0:
173,163,68728,1,8,0:0:0:0:
172,163,68878,1,0,0:0:0:0:
171,161,69028,1,12,0:0:0:0:
168,159,69328,1,0,0:0:0:0:
168,159,69478,1,12,0:0:0:0:
171,161,69778,1,12,0:0:0:0:
168,159,70078,1,12,0:0:0:0:
176,164,70528,1,8,0:0:0:0:
176,164,70678,1,0,0:0:0:0:
176,164,70753,1,0,0:0:0:0:
176,164,70828,1,0,0:0:0:0:
176,164,70978,1,0,0:0:0:0:
176,164,71128,1,8,0:0:0:0:
176,164,71428,1,12,0:0:0:0:
184,159,71728,1,8,0:0:0:0:
184,159,71878,1,0,0:0:0:0:
184,159,71953,1,0,0:0:0:0:
184,159,72028,1,0,0:0:0:0:
184,159,72178,1,0,0:0:0:0:
184,159,72328,1,8,0:0:0:0:
175,161,72478,1,0,0:0:0:0:
180,164,72628,1,8,0:0:0:0:
175,161,72928,1,8,0:0:0:0:
179,157,73078,1,8,0:0:0:0:
175,161,73228,1,0,0:0:0:0:
177,156,73378,1,0,0:0:0:0:
177,156,73528,1,8,0:0:0:0:
175,161,73828,1,4,0:0:0:0:
175,161,73978,1,8,0:0:0:0:
175,161,74053,1,8,0:0:0:0:
175,161,74128,1,8,0:0:0:0:
175,161,74278,1,0,0:0:0:0:
175,161,74428,1,8,0:0:0:0:
175,161,74578,1,0,0:0:0:0:
175,161,74653,1,0,0:0:0:0:
175,161,74728,1,0,0:0:0:0:
175,161,74878,1,12,0:0:0:0:
175,161,75328,1,12,0:0:0:0:
175,161,75628,1,4,0:0:0:0:
165,166,75928,1,12,0:0:0:0:
165,166,76228,1,4,0:0:0:0:
171,161,76528,1,8,0:0:0:0:
171,161,76678,1,0,0:0:0:0:
173,163,76753,1,0,0:0:0:0:
173,163,76828,1,0,0:0:0:0:
172,163,76978,1,0,0:0:0:0:
171,161,77128,1,8,0:0:0:0:
171,161,77428,1,0,0:0:0:0:
173,163,77578,1,8,0:0:0:0:
195,170,77653,1,8,0:0:0:0:
172,163,77728,1,8,0:0:0:0:
171,161,77878,1,0,0:0:0:0:
171,161,78028,1,8,0:0:0:0:
173,163,78178,1,0,0:0:0:0:
173,163,78253,1,0,0:0:0:0:
173,163,78328,1,0,0:0:0:0:
172,163,78478,1,0,0:0:0:0:
171,161,78628,1,12,0:0:0:0:
168,159,78928,1,0,0:0:0:0:
168,159,79078,1,12,0:0:0:0:
164,158,79378,1,0,0:0:0:0:
171,161,79528,1,12,0:0:0:0:
168,159,79828,1,12,0:0:0:0:
165,167,79978,1,0,0:0:0:0:
165,167,80053,1,0,0:0:0:0:
165,167,80128,1,0,0:0:0:0:
165,167,80278,1,8,0:0:0:0:
165,167,80428,1,0,0:0:0:0:
165,167,80578,1,8,0:0:0:0:
165,167,80728,1,8,0:0:0:0:
165,167,80878,1,4,0:0:0:0:
194,177,81328,1,8,0:0:0:0:
190,184,81628,1,0,0:0:0:0:
190,184,81778,1,0,0:0:0:0:
190,184,81928,1,8,0:0:0:0:
190,184,82078,1,0,0:0:0:0:
190,184,82378,1,0,0:0:0:0:
190,184,82528,1,8,0:0:0:0:
244,179,82828,5,8,0:0:0:0:
244,179,82978,1,8,0:0:0:0:
244,179,83128,1,8,0:0:0:0:
244,179,83278,1,0,0:0:0:0:
251,189,83578,1,0,0:0:0:0:
251,189,83728,1,8,0:0:0:0:
251,189,83878,1,0,0:0:0:0:
251,189,83953,1,0,0:0:0:0:
251,189,84028,1,0,0:0:0:0:
251,189,84178,1,0,0:0:0:0:
251,189,84328,1,8,0:0:0:0:
251,189,84478,1,0,0:0:0:0:
251,189,84778,1,0,0:0:0:0:
251,189,84928,1,8,0:0:0:0:
244,192,85078,1,0,0:0:0:0:
244,192,85228,1,8,0:0:0:0:
244,192,85378,1,8,0:0:0:0:
244,192,85528,1,8,0:0:0:0:
244,192,85678,1,4,0:0:0:0:
235,184,85978,1,8,0:0:0:0:
235,184,86128,1,8,0:0:0:0:
235,184,86278,1,0,0:0:0:0:
235,185,86428,1,8,0:0:0:0:
235,184,86503,1,8,0:0:0:0:
235,184,86578,1,8,0:0:0:0:
235,184,86728,1,0,0:0:0:0:
235,184,86878,1,8,0:0:0:0:
219,175,87178,1,0,0:0:0:0:
219,175,87328,1,8,0:0:0:0:
219,175,87478,1,0,0:0:0:0:
219,175,87553,1,0,0:0:0:0:
219,175,87628,1,0,0:0:0:0:
219,175,87778,1,8,0:0:0:0:
219,175,87928,1,0,0:0:0:0:
219,175,88078,1,0,0:0:0:0:
219,175,88228,1,12,0:0:0:0:
219,175,88678,1,12,0:0:0:0:
219,175,89128,1,12,0:0:0:0:
219,175,89578,1,12,0:0:0:0:
219,175,90028,1,12,0:0:0:0:
219,175,90178,1,12,0:0:0:0:
219,175,90628,1,8,0:0:0:0:
219,175,90778,1,8,0:0:0:0:
210,177,90928,1,0,0:0:0:0:
210,177,91078,1,8,0:0:0:0:
209,177,91228,1,0,0:0:0:0:
207,178,91378,1,0,0:0:0:0:
207,178,91528,1,8,0:0:0:0:
210,177,91678,1,0,0:0:0:0:
210,177,91828,1,8,0:0:0:0:
209,177,91978,1,8,0:0:0:0:
207,178,92128,1,0,0:0:0:0:
207,178,92278,1,8,0:0:0:0:
209,177,92728,1,0,0:0:0:0:
207,178,92878,1,8,0:0:0:0:
209,177,93178,1,8,0:0:0:0:
209,177,93328,1,0,0:0:0:0:
209,177,93478,1,0,0:0:0:0:
207,178,93628,1,8,0:0:0:0:
205,173,93778,1,8,0:0:0:0:
205,173,93928,1,0,0:0:0:0:
205,173,94228,1,8,0:0:0:0:
205,173,94303,1,8,0:0:0:0:
205,173,94378,1,8,0:0:0:0:
205,173,94528,1,0,0:0:0:0:
205,173,94678,1,8,0:0:0:0:
205,173,94978,1,0,0:0:0:0:
205,173,95278,1,8,0:0:0:0:
205,173,95728,1,8,0:0:0:0:
198,173,96028,1,0,0:0:0:0:
205,173,96178,1,8,0:0:0:0:
205,173,96478,1,8,0:0:0:0:
185,172,96928,1,8,0:0:0:0:
185,173,97228,1,0,0:0:0:0:
185,172,97378,1,8,0:0:0:0:
185,172,97678,1,0,0:0:0:0:
199,163,97978,1,0,0:0:0:0:
199,163,98128,1,8,0:0:0:0:
199,163,98278,1,8,0:0:0:0:
199,163,98428,1,0,0:0:0:0:
199,163,98578,1,8,0:0:0:0:
199,163,98728,1,0,0:0:0:0:
187,163,98878,1,0,0:0:0:0:
186,163,98953,1,0,0:0:0:0:
199,163,99028,1,0,0:0:0:0:
198,169,99478,1,8,0:0:0:0:
193,164,100228,1,12,0:0:0:0:
193,164,100378,1,8,0:0:0:0:
193,164,100528,1,0,0:0:0:0:
193,164,100678,1,8,0:0:0:0:
193,164,100828,1,0,0:0:0:0:
193,164,100978,1,0,0:0:0:0:
193,164,101128,1,8,0:0:0:0:
193,164,101278,1,0,0:0:0:0:
193,164,101428,1,8,0:0:0:0:
193,164,101578,1,8,0:0:0:0:
193,164,101728,1,0,0:0:0:0:
193,164,101878,1,8,0:0:0:0:
193,164,102178,1,0,0:0:0:0:
193,164,102478,1,8,0:0:0:0:
188,157,102928,1,8,0:0:0:0:
188,157,103078,1,0,0:0:0:0:
188,157,103228,1,8,0:0:0:0:
188,157,103378,1,8,0:0:0:0:
188,157,103528,1,0,0:0:0:0:
191,161,103828,1,8,0:0:0:0:
191,162,103978,1,8,0:0:0:0:
191,162,104053,1,8,0:0:0:0:
191,162,104128,1,8,0:0:0:0:
187,168,104278,1,0,0:0:0:0:
187,168,104578,1,0,0:0:0:0:
186,168,104878,1,8,0:0:0:0:
209,159,105328,1,8,0:0:0:0:
204,158,105628,1,0,0:0:0:0:
204,158,105778,1,8,0:0:0:0:
203,157,106078,1,8,0:0:0:0:
204,158,106528,1,8,0:0:0:0:
203,157,106828,1,0,0:0:0:0:
204,158,106978,1,8,0:0:0:0:
204,158,107278,1,8,0:0:0:0:
204,158,107428,1,0,0:0:0:0:
191,187,107728,1,8,0:0:0:0:
191,188,107878,1,8,0:0:0:0:
191,188,108028,1,0,0:0:0:0:
191,188,108178,1,0,0:0:0:0:
183,189,108328,1,8,0:0:0:0:
182,188,108628,1,8,0:0:0:0:
182,187,108928,1,8,0:0:0:0:
183,189,109078,1,0,0:0:0:0:
182,188,109228,1,0,0:0:0:0:
182,188,109378,1,0,0:0:0:0:
182,187,109528,1,8,0:0:0:0:
183,189,109828,1,8,0:0:0:0:
186,190,110128,1,8,0:0:0:0:
186,190,110278,1,8,0:0:0:0:
186,190,110428,1,0,0:0:0:0:
183,189,110578,1,0,0:0:0:0:
186,190,110728,1,8,0:0:0:0:
186,190,111028,1,8,0:0:0:0:
189,189,111328,1,0,0:0:0:0:
186,190,111478,1,8,0:0:0:0:
186,190,111628,1,0,0:0:0:0:
186,190,111928,1,0,0:0:0:0:
186,190,112228,1,12,0:0:0:0:
189,189,112678,1,0,0:0:0:0:
198,187,112978,1,0,0:0:0:0:
198,187,113128,1,8,0:0:0:0:
198,187,113428,1,0,0:0:0:0:
196,177,113878,1,0,0:0:0:0:
196,177,114178,1,0,0:0:0:0:
196,177,114328,1,8,0:0:0:0:
196,177,114628,1,0,0:0:0:0:
196,177,115078,1,0,0:0:0:0:
196,177,115378,1,0,0:0:0:0:
196,177,115528,1,8,0:0:0:0:
196,177,115828,1,8,0:0:0:0:
196,177,116128,1,8,0:0:0:0:
196,177,116278,1,0,0:0:0:0:
196,177,116578,1,8,0:0:0:0:
228,183,116878,1,8,0:0:0:0:
196,177,117028,1,0,0:0:0:0:
201,177,117478,1,0,0:0:0:0:
201,177,117778,1,0,0:0:0:0:
201,177,117928,1,8,0:0:0:0:
208,176,118228,1,0,0:0:0:0:
208,177,118678,1,0,0:0:0:0:
208,176,118978,1,0,0:0:0:0:
208,177,119128,1,8,0:0:0:0:
208,177,119428,1,0,0:0:0:0:
208,177,119878,1,0,0:0:0:0:
208,177,120178,1,0,0:0:0:0:
208,177,120328,1,8,0:0:0:0:
209,170,120628,1,12,0:0:0:0:
210,170,120928,1,4,0:0:0:0:
209,170,121228,1,12,0:0:0:0:
209,170,121528,1,4,0:0:0:0:
210,170,121828,1,12,0:0:0:0:
210,170,122128,1,8,0:0:0:0:
210,170,122278,1,0,0:0:0:0:
211,165,122578,1,0,0:0:0:0:
210,170,122728,1,8,0:0:0:0:
210,170,123028,1,0,0:0:0:0:
210,171,123328,1,8,0:0:0:0:
210,161,123478,1,0,0:0:0:0:
210,161,123778,1,0,0:0:0:0:
211,165,123928,1,8,0:0:0:0:
210,161,124228,1,0,0:0:0:0:
198,161,124528,1,8,0:0:0:0:
198,161,124678,1,0,0:0:0:0:
212,146,124828,1,8,0:0:0:0:
212,145,125053,1,8,0:0:0:0:
212,145,125278,1,0,0:0:0:0:
210,161,125428,1,8,0:0:0:0:
210,150,125728,1,8,0:0:0:0:
210,150,125878,1,0,0:0:0:0:
210,150,126328,1,4,0:0:0:0:
183,172,126628,1,12,0:0:0:0:
183,172,126928,1,8,0:0:0:0:
183,172,127078,1,0,0:0:0:0:
183,172,127228,1,0,0:0:0:0:
183,172,127378,1,0,0:0:0:0:
183,172,127528,1,8,0:0:0:0:
183,172,127678,1,8,0:0:0:0:
183,172,127828,1,0,0:0:0:0:
167,169,128128,1,0,0:0:0:0:
170,169,128278,1,8,0:0:0:0:
173,169,128428,1,0,0:0:0:0:
174,169,128578,1,0,0:0:0:0:
177,169,128728,1,8,0:0:0:0:
178,169,128878,1,0,0:0:0:0:
179,170,129028,1,12,0:0:0:0:
184,166,129328,1,8,0:0:0:0:
184,166,129478,1,0,0:0:0:0:
184,166,129628,1,8,0:0:0:0:
184,166,130228,1,4,0:0:0:0:
184,166,130528,1,4,0:0:0:0:
184,166,130828,1,4,0:0:0:0:
184,166,131128,1,4,0:0:0:0:
184,166,131428,1,12,0:0:0:0:
175,159,131728,1,8,0:0:0:0:
175,159,131878,1,0,0:0:0:0:
175,159,131953,1,0,0:0:0:0:
175,159,132028,1,0,0:0:0:0:
175,159,132178,1,0,0:0:0:0:
175,159,132328,1,8,0:0:0:0:
169,157,132478,1,0,0:0:0:0:
169,157,132628,1,8,0:0:0:0:
179,155,132928,1,8,0:0:0:0:
175,159,133078,1,8,0:0:0:0:
176,155,133228,1,0,0:0:0:0:
176,155,133378,1,0,0:0:0:0:
179,155,133528,1,8,0:0:0:0:
175,159,133828,1,0,0:0:0:0:
176,155,133978,1,0,0:0:0:0:
176,155,134053,1,0,0:0:0:0:
176,155,134128,1,0,0:0:0:0:
175,159,134278,1,8,0:0:0:0:
179,155,134428,1,0,0:0:0:0:
175,159,134578,1,8,0:0:0:0:
175,159,134653,1,8,0:0:0:0:
176,155,134728,1,8,0:0:0:0:
176,155,134878,1,8,0:0:0:0:
171,153,135028,1,4,0:0:0:0:
194,164,135628,1,12,0:0:0:0:
192,163,135928,1,12,0:0:0:0:
202,163,136228,1,4,0:0:0:0:
192,163,136528,1,0,0:0:0:0:
192,163,136678,1,8,0:0:0:0:
191,161,136753,1,8,0:0:0:0:
191,161,136828,1,8,0:0:0:0:
191,161,136978,1,0,0:0:0:0:
192,163,137128,1,8,0:0:0:0:
192,163,137278,1,0,0:0:0:0:
181,154,137578,1,0,0:0:0:0:
181,154,137728,1,8,0:0:0:0:
181,154,137878,1,8,0:0:0:0:
181,154,138028,1,0,0:0:0:0:
181,154,138178,1,8,0:0:0:0:
181,154,138253,1,8,0:0:0:0:
181,154,138328,1,8,0:0:0:0:
181,154,138478,1,0,0:0:0:0:
181,154,138628,1,12,0:0:0:0:
181,154,138928,1,0,0:0:0:0:
181,154,139078,1,12,0:0:0:0:
184,149,139378,1,12,0:0:0:0:
184,149,139678,1,12,0:0:0:0:
189,157,140128,1,8,0:0:0:0:
189,157,140278,1,0,0:0:0:0:
189,157,140353,1,0,0:0:0:0:
189,157,140428,1,0,0:0:0:0:
189,157,140578,1,0,0:0:0:0:
189,157,140728,1,8,0:0:0:0:
189,157,141028,1,12,0:0:0:0:
189,157,141328,1,8,0:0:0:0:
189,157,141478,1,0,0:0:0:0:
189,157,141553,1,0,0:0:0:0:
189,157,141628,1,0,0:0:0:0:
189,157,141778,1,8,0:0:0:0:
189,157,141928,1,0,0:0:0:0:
183,153,142078,1,0,0:0:0:0:
183,153,142228,1,8,0:0:0:0:
192,152,142528,1,8,0:0:0:0:
192,152,142678,1,8,0:0:0:0:
191,152,142828,1,0,0:0:0:0:
191,152,142978,1,0,0:0:0:0:
192,152,143128,1,8,0:0:0:0:
192,152,143428,1,4,0:0:0:0:
191,152,143578,1,8,0:0:0:0:
191,152,143653,1,8,0:0:0:0:
191,152,143728,1,8,0:0:0:0:
192,152,143878,1,0,0:0:0:0:
192,152,144028,1,8,0:0:0:0:
192,152,144178,1,0,0:0:0:0:
191,152,144253,1,0,0:0:0:0:
191,152,144328,1,0,0:0:0:0:
191,152,144478,1,12,0:0:0:0:
191,152,144928,1,12,0:0:0:0:
192,152,145228,1,4,0:0:0:0:
191,152,145528,1,12,0:0:0:0:
192,152,145828,1,4,0:0:0:0:
179,155,146128,1,0,0:0:0:0:
179,155,146278,1,8,0:0:0:0:
179,155,146353,1,8,0:0:0:0:
179,155,146428,1,8,0:0:0:0:
179,155,146578,1,0,0:0:0:0:
179,155,146728,1,8,0:0:0:0:
191,151,147028,1,0,0:0:0:0:
191,151,147178,1,0,0:0:0:0:
191,151,147253,1,0,0:0:0:0:
191,151,147328,1,0,0:0:0:0:
191,151,147478,1,8,0:0:0:0:
191,151,147628,1,0,0:0:0:0:
194,154,147778,1,8,0:0:0:0:
194,154,147853,1,8,0:0:0:0:
191,151,147928,1,8,0:0:0:0:
202,165,148078,1,0,0:0:0:0:
191,151,148228,1,12,0:0:0:0:
170,149,148528,1,0,0:0:0:0:
170,149,148678,1,12,0:0:0:0:
170,148,148978,1,0,0:0:0:0:
170,149,149128,1,12,0:0:0:0:
170,149,149428,1,12,0:0:0:0:
170,148,149578,1,0,0:0:0:0:
170,148,149653,1,0,0:0:0:0:
170,148,149728,1,0,0:0:0:0:
170,149,149878,1,8,0:0:0:0:
170,149,150028,1,0,0:0:0:0:
170,149,150178,1,0,0:0:0:0:
170,148,150328,1,0,0:0:0:0:
170,148,150478,1,12,0:0:0:0:
246,177,150928,1,0,0:0:0:0:
246,177,151078,1,8,0:0:0:0:
241,176,151228,1,0,0:0:0:0:
246,177,151378,1,0,0:0:0:0:
246,177,151453,1,0,0:0:0:0:
246,177,151528,1,0,0:0:0:0:
246,177,151678,1,8,0:0:0:0:
241,176,151978,1,8,0:0:0:0:
246,177,152053,1,8,0:0:0:0:
246,177,152128,1,8,0:0:0:0:
246,177,152278,1,0,0:0:0:0:
246,177,152428,1,0,0:0:0:0:
241,176,152578,1,8,0:0:0:0:
246,177,152728,1,0,0:0:0:0:
241,176,152878,1,8,0:0:0:0:
233,171,153328,1,8,0:0:0:0:
233,171,153478,1,0,0:0:0:0:
233,171,153628,1,8,0:0:0:0:
233,171,153703,1,8,0:0:0:0:
233,171,153778,1,8,0:0:0:0:
233,171,153928,1,8,0:0:0:0:
233,171,154078,1,0,0:0:0:0:
229,167,154378,1,0,0:0:0:0:
229,167,154453,1,0,0:0:0:0:
229,167,154528,1,0,0:0:0:0:
229,167,154678,1,0,0:0:0:0:
229,167,154828,1,8,0:0:0:0:
229,167,154978,1,8,0:0:0:0:
229,167,155128,1,0,0:0:0:0:
229,167,155278,1,12,0:0:0:0:
223,167,155578,1,8,0:0:0:0:
223,167,155653,1,8,0:0:0:0:
223,168,155728,1,8,0:0:0:0:
223,168,155878,1,0,0:0:0:0:
223,167,156028,1,8,0:0:0:0:
223,168,156328,1,8,0:0:0:0:
223,167,156478,1,0,0:0:0:0:
223,167,156778,1,0,0:0:0:0:
223,167,156853,1,0,0:0:0:0:
223,167,156928,1,0,0:0:0:0:
223,167,157078,1,8,0:0:0:0:
223,157,157528,1,8,0:0:0:0:
224,157,157678,1,0,0:0:0:0:
218,156,157978,1,0,0:0:0:0:
224,157,158053,1,0,0:0:0:0:
218,156,158128,1,0,0:0:0:0:
218,156,158278,1,8,0:0:0:0:
223,157,158428,1,0,0:0:0:0:
225,164,158728,1,0,0:0:0:0:
228,164,158878,1,12,0:0:0:0:
223,157,159178,1,8,0:0:0:0:
222,157,159253,1,8,0:0:0:0:
222,157,159328,1,8,0:0:0:0:
222,157,159478,1,8,0:0:0:0:
221,157,159628,1,0,0:0:0:0:
216,150,159778,1,0,0:0:0:0:
216,150,159928,1,12,0:0:0:0:
216,150,160078,1,12,0:0:0:0:
216,150,160528,1,0,0:0:0:0:
216,150,160678,1,8,0:0:0:0:
216,150,160828,1,8,0:0:0:0:
218,147,160978,1,0,0:0:0:0:
218,147,161128,1,8,0:0:0:0:
216,150,161278,1,8,0:0:0:0:
218,141,161578,1,8,0:0:0:0:
218,141,161728,1,0,0:0:0:0:
218,141,161878,1,0,0:0:0:0:
218,141,161953,1,0,0:0:0:0:
218,141,162028,1,0,0:0:0:0:
218,141,162178,1,0,0:0:0:0:
218,141,162328,1,0,0:0:0:0:
218,141,162478,1,8,0:0:0:0:
211,144,162778,1,8,0:0:0:0:
211,144,162853,1,8,0:0:0:0:
211,144,162928,1,8,0:0:0:0:
207,149,163228,1,8,0:0:0:0:
207,149,163303,1,8,0:0:0:0:
207,149,163378,1,8,0:0:0:0:
207,149,163528,1,0,0:0:0:0:
207,149,163603,1,0,0:0:0:0:
207,149,163678,1,0,0:0:0:0:
200,135,163828,1,8,0:0:0:0:
199,135,163903,1,8,0:0:0:0:
199,135,163978,1,8,0:0:0:0:
199,135,164128,1,0,0:0:0:0:
199,135,164203,1,0,0:0:0:0:
199,135,164278,1,0,0:0:0:0:
198,135,164428,1,8,0:0:0:0:
200,135,164578,1,0,0:0:0:0:
199,135,164728,1,0,0:0:0:0:
199,135,164878,1,12,0:0:0:0:
200,135,165328,1,8,0:0:0:0:
199,135,165478,1,0,0:0:0:0:
199,135,165628,1,8,0:0:0:0:
200,135,165778,1,0,0:0:0:0:
200,135,165928,1,8,0:0:0:0:
194,140,166078,1,12,0:0:0:0:
197,142,166528,1,8,0:0:0:0:
194,140,166678,1,0,0:0:0:0:
197,142,166828,1,8,0:0:0:0:
197,142,166978,1,0,0:0:0:0:
197,142,167128,1,8,0:0:0:0:
199,142,167428,1,0,0:0:0:0:
197,142,167503,1,0,0:0:0:0:
197,142,167578,1,0,0:0:0:0:
197,142,167728,1,8,0:0:0:0:
197,142,167878,1,0,0:0:0:0:
199,142,168028,1,0,0:0:0:0:
199,142,168103,1,0,0:0:0:0:
199,142,168178,1,0,0:0:0:0:
197,142,168328,1,8,0:0:0:0:
215,143,168628,1,8,0:0:0:0:
215,143,168703,1,8,0:0:0:0:
215,143,168778,1,8,0:0:0:0:
215,143,168928,1,0,0:0:0:0:
215,143,169078,1,8,0:0:0:0:
215,143,169228,1,0,0:0:0:0:
215,143,169303,1,0,0:0:0:0:
215,143,169378,1,0,0:0:0:0:
215,143,169528,1,8,0:0:0:0:
215,143,169828,1,8,0:0:0:0:
215,143,169903,1,8,0:0:0:0:
215,143,169978,1,8,0:0:0:0:
215,143,170128,1,8,0:0:0:0:
215,143,170278,1,0,0:0:0:0:
215,143,170428,1,8,0:0:0:0:
215,143,170503,1,8,0:0:0:0:
215,143,170578,1,8,0:0:0:0:
215,143,170728,1,8,0:0:0:0:
215,143,171028,1,8,0:0:0:0:
256,192,171178,12,8,171928,0:0:0:0:
218,155,172228,5,0,0:0:0:0:
222,167,172828,1,8,0:0:0:0:
222,167,173428,1,0,0:0:0:0:
222,167,174028,1,8,0:0:0:0:
222,167,174628,1,0,0:0:0:0:
222,167,175228,1,8,0:0:0:0:
212,165,175828,1,8,0:0:0:0:
212,165,176128,1,0,0:0:0:0:
212,165,176428,1,8,0:0:0:0:
212,165,176728,1,8,0:0:0:0:
212,165,177028,1,0,0:0:0:0:
212,165,177628,1,8,0:0:0:0:
212,165,178228,1,0,0:0:0:0:
212,165,178828,1,8,0:0:0:0:
206,165,179428,1,0,0:0:0:0:
195,160,180028,1,8,0:0:0:0:
195,160,180328,1,0,0:0:0:0:
195,160,180628,1,12,0:0:0:0:
195,160,180928,1,12,0:0:0:0:
195,160,181228,1,4,0:0:0:0:
195,160,181528,1,4,0:0:0:0:
195,160,181828,1,12,0:0:0:0:
210,170,182128,1,8,0:0:0:0:
210,170,182278,1,0,0:0:0:0:
211,165,182578,1,0,0:0:0:0:
210,170,182728,1,8,0:0:0:0:
210,170,183028,1,0,0:0:0:0:
209,170,183328,1,8,0:0:0:0:
210,161,183478,1,0,0:0:0:0:
210,161,183778,1,0,0:0:0:0:
211,165,183928,1,8,0:0:0:0:
210,161,184228,1,0,0:0:0:0:
198,161,184528,1,8,0:0:0:0:
198,161,184678,1,0,0:0:0:0:
212,146,184828,1,8,0:0:0:0:
212,145,185053,1,0,0:0:0:0:
212,145,185278,1,0,0:0:0:0:
210,161,185428,1,8,0:0:0:0:
210,150,185728,1,8,0:0:0:0:
210,150,185878,1,0,0:0:0:0:
210,150,186328,1,4,0:0:0:0:
183,172,186628,1,12,0:0:0:0:
183,172,186928,1,8,0:0:0:0:
183,172,187078,1,0,0:0:0:0:
183,172,187228,1,0,0:0:0:0:
183,172,187378,1,0,0:0:0:0:
183,172,187528,1,8,0:0:0:0:
183,172,187678,1,8,0:0:0:0:
183,172,187828,1,0,0:0:0:0:
167,169,188128,1,0,0:0:0:0:
170,169,188278,1,8,0:0:0:0:
173,169,188428,1,0,0:0:0:0:
174,169,188578,1,0,0:0:0:0:
177,169,188728,1,8,0:0:0:0:
178,169,188878,1,0,0:0:0:0:
179,170,189028,1,8,0:0:0:0:
184,166,189328,1,8,0:0:0:0:
184,166,189478,1,0,0:0:0:0:
184,166,189628,1,8,0:0:0:0:
178,175,190228,1,0,0:0:0:0:
178,175,190528,1,0,0:0:0:0:
178,175,190828,1,8,0:0:0:0:
178,175,191128,1,0,0:0:0:0:
178,175,191428,1,8,0:0:0:0:
178,175,191878,1,0,0:0:0:0:
178,175,192028,1,8,0:0:0:0:
178,175,192478,1,8,0:0:0:0:
178,175,192628,1,8,0:0:0:0:
178,175,192928,1,8,0:0:0:0:
178,175,193228,1,0,0:0:0:0:
178,175,193528,1,0,0:0:0:0:
178,175,193828,1,8,0:0:0:0:
178,175,194128,1,0,0:0:0:0:
178,175,194428,1,8,0:0:0:0:
178,175,194728,1,8,0:0:0:0:
178,175,195028,1,0,0:0:0:0:
178,175,195628,1,8,0:0:0:0:
178,175,195928,1,8,0:0:0:0:
178,175,196228,1,0,0:0:0:0:
178,175,196828,1,0,0:0:0:0:
178,175,197128,1,8,0:0:0:0:
178,175,197428,1,0,0:0:0:0:
178,175,197728,1,0,0:0:0:0:
178,175,197878,1,8,0:0:0:0:
166,169,198478,1,8,0:0:0:0:
166,169,198628,1,0,0:0:0:0:
166,169,198928,1,0,0:0:0:0:
166,169,199078,1,8,0:0:0:0:
166,169,199378,1,8,0:0:0:0:
166,169,199678,1,8,0:0:0:0:
166,169,200428,1,0,0:0:0:0:
166,169,200728,1,0,0:0:0:0:
166,169,201028,1,8,0:0:0:0:
166,169,201628,1,0,0:0:0:0:
176,172,202078,1,8,0:0:0:0:
176,172,202228,1,8,0:0:0:0:
176,172,202528,1,8,0:0:0:0:
176,172,202828,1,0,0:0:0:0:
176,172,203128,1,8,0:0:0:0:
176,172,203428,1,0,0:0:0:0:
176,172,203728,1,0,0:0:0:0:
176,172,204028,1,8,0:0:0:0:
176,172,204328,1,0,0:0:0:0:
176,172,204478,1,8,0:0:0:0:
176,172,204928,1,8,0:0:0:0:
176,172,205228,1,0,0:0:0:0:
176,172,205528,1,8,0:0:0:0:
176,172,205828,1,0,0:0:0:0:
173,167,206428,1,0,0:0:0:0:
175,151,206728,1,0,0:0:0:0:
176,152,207028,1,8,0:0:0:0:
175,151,207328,1,0,0:0:0:0:
175,151,207478,1,8,0:0:0:0:
182,153,208228,1,12,0:0:0:0:
182,153,208828,1,0,0:0:0:0:
182,153,209128,1,0,0:0:0:0:
182,153,209428,1,0,0:0:0:0:
182,153,209728,1,0,0:0:0:0:
182,153,210028,1,0,0:0:0:0:
182,153,210328,1,0,0:0:0:0:
190,150,210628,1,12,0:0:0:0:
190,150,210778,1,0,0:0:0:0:
190,150,210928,1,0,0:0:0:0:
190,150,211078,1,12,0:0:0:0:
190,150,211228,1,0,0:0:0:0:
190,150,211378,1,0,0:0:0:0:
190,150,211528,1,12,0:0:0:0:
256,192,211828,12,0,212728,0:0:0:0:
254,171,213028,5,12,0:0:0:0:
254,171,213478,1,0,0:0:0:0:
254,171,213628,1,8,0:0:0:0:
254,171,213778,1,0,0:0:0:0:
254,171,213853,1,0,0:0:0:0:
254,171,213928,1,0,0:0:0:0:
254,171,214078,1,8,0:0:0:0:
254,171,214228,1,0,0:0:0:0:
254,171,214378,1,8,0:0:0:0:
254,171,214453,1,8,0:0:0:0:
254,171,214528,1,8,0:0:0:0:
254,171,214678,1,0,0:0:0:0:
254,171,214828,1,8,0:0:0:0:
254,171,214978,1,8,0:0:0:0:
254,171,215128,1,0,0:0:0:0:
254,171,215428,1,0,0:0:0:0:
254,171,215578,1,0,0:0:0:0:
248,171,215653,1,0,0:0:0:0:
248,171,215728,1,0,0:0:0:0:
248,171,215878,1,8,0:0:0:0:
248,171,216028,1,0,0:0:0:0:
248,171,216178,1,8,0:0:0:0:
248,171,216253,1,8,0:0:0:0:
248,171,216328,1,8,0:0:0:0:
248,171,216478,1,0,0:0:0:0:
248,171,216628,1,12,0:0:0:0:
248,171,217228,1,12,0:0:0:0:
248,171,217528,1,12,0:0:0:0:
248,171,217828,1,4,0:0:0:0:
226,169,218128,1,0,0:0:0:0:
223,178,218278,1,8,0:0:0:0:
226,171,218428,1,0,0:0:0:0:
226,171,218578,1,8,0:0:0:0:
226,169,218653,1,8,0:0:0:0:
226,169,218728,1,8,0:0:0:0:
226,169,218878,1,8,0:0:0:0:
226,171,219028,1,0,0:0:0:0:
226,171,219178,1,0,0:0:0:0:
226,171,219253,1,0,0:0:0:0:
226,171,219328,1,0,0:0:0:0:
226,169,219478,1,8,0:0:0:0:
226,171,219778,1,8,0:0:0:0:
226,171,219928,1,0,0:0:0:0:
226,171,220003,1,0,0:0:0:0:
226,171,220078,1,0,0:0:0:0:
226,169,220228,1,12,0:0:0:0:
226,171,220528,1,0,0:0:0:0:
226,171,220678,1,12,0:0:0:0:
226,169,220978,1,12,0:0:0:0:
226,171,221278,1,12,0:0:0:0:
244,168,221578,1,0,0:0:0:0:
244,168,221728,1,8,0:0:0:0:
244,168,221878,1,0,0:0:0:0:
244,168,221953,1,0,0:0:0:0:
244,168,222028,1,0,0:0:0:0:
244,168,222178,1,8,0:0:0:0:
244,168,222253,1,8,0:0:0:0:
244,168,222328,1,8,0:0:0:0:
244,168,222478,1,0,0:0:0:0:
244,168,222628,1,12,0:0:0:0:
257,174,223078,1,8,0:0:0:0:
257,175,223228,1,0,0:0:0:0:
257,175,223378,1,0,0:0:0:0:
257,174,223453,1,0,0:0:0:0:
257,174,223528,1,0,0:0:0:0:
257,174,223678,1,8,0:0:0:0:
257,174,223828,1,0,0:0:0:0:
257,175,223978,1,8,0:0:0:0:
257,175,224053,1,8,0:0:0:0:
257,175,224128,1,8,0:0:0:0:
257,174,224278,1,0,0:0:0:0:
257,174,224428,1,8,0:0:0:0:
257,174,224578,1,8,0:0:0:0:
257,175,224728,1,0,0:0:0:0:
251,174,225028,1,12,0:0:0:0:
249,174,225328,1,8,0:0:0:0:
249,174,225478,1,0,0:0:0:0:
251,174,225628,1,8,0:0:0:0:
251,174,225778,1,0,0:0:0:0:
249,174,225853,1,0,0:0:0:0:
249,174,225928,1,0,0:0:0:0:
249,174,226078,1,12,0:0:0:0:
233,165,226528,1,12,0:0:0:0:
230,165,226828,1,4,0:0:0:0:
233,165,227128,1,12,0:0:0:0:
230,165,227428,1,4,0:0:0:0:
225,172,227878,1,8,0:0:0:0:
225,172,227953,1,8,0:0:0:0:
225,172,228028,1,8,0:0:0:0:
225,172,228178,1,0,0:0:0:0:
225,172,228328,1,8,0:0:0:0:
232,173,228628,1,8,0:0:0:0:
232,173,228778,1,0,0:0:0:0:
232,173,228853,1,0,0:0:0:0:
232,173,228928,1,0,0:0:0:0:
232,173,229078,1,8,0:0:0:0:
225,177,229228,1,0,0:0:0:0:
225,177,229378,1,0,0:0:0:0:
225,177,229528,1,8,0:0:0:0:
225,177,229678,1,0,0:0:0:0:
225,177,229828,1,12,0:0:0:0:
225,177,230128,1,0,0:0:0:0:
225,177,230278,1,12,0:0:0:0:
225,177,230578,1,0,0:0:0:0:
225,177,230728,1,12,0:0:0:0:
225,177,231028,1,12,0:0:0:0:
225,177,231178,1,0,0:0:0:0:
225,177,231253,1,0,0:0:0:0:
225,177,231328,1,0,0:0:0:0:
225,177,231478,1,8,0:0:0:0:
225,177,231628,1,0,0:0:0:0:
225,177,231778,1,8,0:0:0:0:
225,177,231853,1,8,0:0:0:0:
225,177,231928,1,8,0:0:0:0:
225,177,232078,1,4,0:0:0:0:
231,169,232528,1,8,0:0:0:0:
231,169,232678,1,0,0:0:0:0:
230,169,232828,1,0,0:0:0:0:
231,169,232978,1,8,0:0:0:0:
231,169,233128,1,0,0:0:0:0:
231,169,233278,1,8,0:0:0:0:
232,175,233578,1,0,0:0:0:0:
232,175,233728,1,8,0:0:0:0:
232,175,233878,1,0,0:0:0:0:
232,176,234028,1,8,0:0:0:0:
232,175,234103,1,8,0:0:0:0:
232,175,234178,1,8,0:0:0:0:
232,175,234328,1,0,0:0:0:0:
232,175,234478,1,8,0:0:0:0:
232,176,234778,1,0,0:0:0:0:
232,175,234928,1,8,0:0:0:0:
232,175,235078,1,8,0:0:0:0:
232,175,235228,1,0,0:0:0:0:
232,176,235378,1,0,0:0:0:0:
232,176,235528,1,8,0:0:0:0:
232,175,235678,1,0,0:0:0:0:
232,175,235978,1,0,0:0:0:0:
232,176,236128,1,8,0:0:0:0:
232,176,236278,1,0,0:0:0:0:
232,175,236353,1,0,0:0:0:0:
232,175,236428,1,0,0:0:0:0:
232,175,236578,1,8,0:0:0:0:
232,176,236878,1,12,0:0:0:0:
225,174,237328,1,8,0:0:0:0:
225,174,237478,1,0,0:0:0:0:
225,173,237628,1,0,0:0:0:0:
225,174,237778,1,8,0:0:0:0:
225,174,237928,1,0,0:0:0:0:
225,174,238078,1,8,0:0:0:0:
225,173,238378,1,0,0:0:0:0:
225,174,238528,1,8,0:0:0:0:
225,174,238678,1,0,0:0:0:0:
225,174,238828,1,0,0:0:0:0:
225,174,238903,1,0,0:0:0:0:
225,173,238978,1,0,0:0:0:0:
225,173,239128,1,8,0:0:0:0:
225,174,239278,1,0,0:0:0:0:
216,170,239578,1,0,0:0:0:0:
216,170,239728,1,8,0:0:0:0:
217,170,239878,1,8,0:0:0:0:
216,170,240028,1,0,0:0:0:0:
216,170,240178,1,0,0:0:0:0:
216,170,240328,1,0,0:0:0:0:
216,170,240478,1,12,0:0:0:0:
216,170,240928,1,12,0:0:0:0:
216,170,241078,1,0,0:0:0:0:
216,170,241153,1,0,0:0:0:0:
216,170,241228,1,0,0:0:0:0:
216,170,241378,1,12,0:0:0:0:
216,170,241678,1,12,0:0:0:0:
218,164,242128,1,8,0:0:0:0:
218,164,242278,1,0,0:0:0:0:
218,164,242428,1,0,0:0:0:0:
218,164,242578,1,8,0:0:0:0:
218,164,242728,1,0,0:0:0:0:
218,164,242878,1,8,0:0:0:0:
218,164,243178,1,0,0:0:0:0:
218,164,243328,1,8,0:0:0:0:
218,164,243478,1,0,0:0:0:0:
218,164,243553,1,0,0:0:0:0:
218,164,243628,1,0,0:0:0:0:
218,164,243778,1,8,0:0:0:0:
218,164,243928,1,8,0:0:0:0:
218,164,244078,1,0,0:0:0:0:
218,164,244378,1,0,0:0:0:0:
224,163,244528,1,8,0:0:0:0:
224,163,244678,1,0,0:0:0:0:
224,163,244828,1,0,0:0:0:0:
225,163,244978,1,8,0:0:0:0:
226,163,245128,1,0,0:0:0:0:
224,163,245278,1,8,0:0:0:0:
224,163,245578,1,8,0:0:0:0:
225,163,245653,1,8,0:0:0:0:
225,163,245728,1,8,0:0:0:0:
226,163,245878,1,0,0:0:0:0:
224,163,246028,1,8,0:0:0:0:
224,163,246103,1,8,0:0:0:0:
224,163,246178,1,8,0:0:0:0:
247,165,246478,1,12,0:0:0:0:
232,170,246928,1,8,0:0:0:0:
224,169,247078,1,8,0:0:0:0:
225,169,247153,1,8,0:0:0:0:
232,170,247228,1,8,0:0:0:0:
224,169,247378,1,0,0:0:0:0:
224,169,247528,1,0,0:0:0:0:
224,168,247678,1,12,0:0:0:0:
224,169,248128,1,8,0:0:0:0:
224,169,248278,1,8,0:0:0:0:
224,168,248353,1,8,0:0:0:0:
224,168,248428,1,8,0:0:0:0:
224,169,248578,1,0,0:0:0:0:
224,169,248728,1,0,0:0:0:0:
224,169,248878,1,12,0:0:0:0:
224,168,249178,1,0,0:0:0:0:
224,169,249328,1,8,0:0:0:0:
224,169,249478,1,0,0:0:0:0:
224,169,249553,1,0,0:0:0:0:
224,169,249628,1,0,0:0:0:0:
224,168,249778,1,8,0:0:0:0:
224,168,249928,1,0,0:0:0:0:
224,169,250078,1,12,0:0:0:0:
217,162,250378,1,0,0:0:0:0:
217,162,250528,1,8,0:0:0:0:
217,162,250678,1,0,0:0:0:0:
217,162,250753,1,0,0:0:0:0:
217,162,250828,1,0,0:0:0:0:
217,162,250978,1,8,0:0:0:0:
217,162,251128,1,0,0:0:0:0:
217,162,251278,1,12,0:0:0:0:
210,162,251728,1,8,0:0:0:0:
210,162,251878,1,0,0:0:0:0:
210,162,252028,1,8,0:0:0:0:
210,162,252178,1,0,0:0:0:0:
210,162,252328,1,8,0:0:0:0:
210,162,252478,1,12,0:0:0:0:
210,162,252778,1,8,0:0:0:0:
210,162,252853,1,8,0:0:0:0:
210,162,252928,1,8,0:0:0:0:
210,162,253078,1,0,0:0:0:0:
210,162,253228,1,8,0:0:0:0:
210,162,253378,1,0,0:0:0:0:
210,162,253528,1,0,0:0:0:0:
217,170,253603,1,0,0:0:0:0:
213,169,253678,1,0,0:0:0:0:
210,162,253828,1,12,0:0:0:0:
210,162,254278,1,12,0:0:0:0:
210,162,254728,1,12,0:0:0:0:
256,192,254878,12,0,259228,0:0:0:0:
