osu file format v14

[General]
AudioFilename: audio.mp3
AudioLeadIn: 0
PreviewTime: 0
Countdown: 1
SampleSet: Normal
StackLeniency: 0.7
Mode: 1
LetterboxInBreaks: 0
WidescreenStoryboard: 1

[Editor]
DistanceSpacing: 1
BeatDivisor: 4
GridSize: 32
TimelineZoom: 0.6000001

[Metadata]
Title:Nosso Samba
TitleUnicode:Nosso Samba
Artist:Noam Lederman
ArtistUnicode:Noam Lederman
Creator:mangomizer
Version:Miyoi's Futsuu
Source:
Tags:Rockschool Originals Grade 8 Midnaait Reficul Miyoi Greenshell twc jazz instrumental twc taiko world cup 2018 RO16 DT
BeatmapID:1744109
BeatmapSetID:716866

[Difficulty]
HPDrainRate:7.5
CircleSize:5
OverallDifficulty:4
ApproachRate:5
SliderMultiplier:1.4
SliderTickRate:1

[Events]
//Background and Video events
0,0,"finish2.jpg",0,0
//Break Periods
//Storyboard Layer 0 (Background)
//Storyboard Layer 1 (Fail)
//Storyboard Layer 2 (Pass)
//Storyboard Layer 3 (Foreground)
//Storyboard Layer 4 (Overlay)
//Storyboard Sound Samples

[TimingPoints]
1939,545.454545454546,4,1,0,60,1,0
1939,-100,4,1,0,60,0,0
4525,545.454545454546,4,1,0,60,1,8
5060,545.454545454546,4,1,0,60,1,8
6311,588.235294117648,4,1,0,60,1,0
6311,-92.7643784786642,4,1,0,60,0,0
6685,645.161290322581,4,1,0,60,1,8
6685,-84.530853761623,4,1,0,60,0,8
7230,666.666666666668,4,1,0,60,1,8
7230,-81.8330605564648,4,1,0,60,0,8
7765,631.578947368422,4,1,0,60,1,8
7765,-86.4304235090752,4,1,0,60,0,8
8186,571.428571428572,4,1,0,60,1,8
8186,-95.4198473282443,4,1,0,60,0,8
8471,545.454545454546,4,1,0,60,1,0
8901,545.454545454546,4,1,0,60,1,8
9422,545.454545454546,4,1,0,60,1,8
10194,545.454545454546,4,1,0,60,1,8
10648,545.454545454546,4,1,0,60,1,0
11067,545.454545454546,4,1,0,60,1,8
11212,545.454545454546,4,1,0,60,1,8
12009,545.454545454546,4,1,0,60,1,8
12827,545.454545454546,4,1,0,60,1,0
13230,545.454545454546,4,1,0,60,1,8
14074,545.454545454546,4,1,0,60,1,8
15028,545.454545454546,4,1,0,60,1,0
15301,545.454545454546,4,1,0,60,1,8
16107,521.739130434783,4,1,0,60,1,8
16107,-104.493207941484,4,1,0,60,0,8
16541,600.000000000001,4,1,0,60,1,8
16541,-90.9090909090909,4,1,0,60,0,0
16641,535.714285714286,4,1,0,60,1,8
16641,-101.83299389002,4,1,0,60,0,0
16819,545.454545454546,4,1,0,60,1,8
17202,545.454545454546,4,1,0,60,1,0
17456,545.454545454546,4,1,0,60,1,8
17592,568.72037914692,4,1,0,60,1,8
17592,-95.8772770853308,4,1,0,60,0,0
18408,576.923076923077,4,1,0,60,1,8
18408,-94.6073793755913,4,1,0,60,0,0
19369,545.454545454546,4,1,0,60,1,0
19638,545.454545454546,4,1,0,60,1,8
20018,571.428571428572,4,1,0,60,1,8
20018,-95.4562810232913,4,1,0,60,0,0
20281,697.674418604652,4,1,0,60,1,8
20281,-78.1860828772479,4,1,0,60,0,0
20652,571.428571428572,4,1,0,60,1,8
20652,-95.5109837631328,4,1,0,60,0,0
21568,545.454545454546,4,1,0,60,1,0
65068,-100,4,1,0,70,0,1
95749,-100,4,1,0,60,0,0
139249,-100,4,1,0,70,0,1
169386,-100,4,1,0,60,0,0
169931,-100,4,1,0,70,0,1
188340,-100,4,1,0,60,0,0

[HitObjects]
224,352,4120,5,12,0:0:0:0:
256,192,5060,1,12,0:0:0:0:
256,192,6311,1,0,0:0:0:0:
256,192,6846,1,8,0:0:0:0:
256,192,7396,1,8,0:0:0:0:
256,192,7922,1,0,0:0:0:0:
256,192,8471,1,12,0:0:0:0:
256,192,9422,1,12,0:0:0:0:
256,192,10784,1,0,0:0:0:0:
256,192,11212,1,0,0:0:0:0:
256,192,11757,1,0,0:0:0:0:
256,192,12009,1,0,0:0:0:0:
256,192,12281,1,8,0:0:0:0:
256,192,12827,1,4,0:0:0:0:
256,192,13775,1,4,0:0:0:0:
256,192,15028,1,12,0:0:0:0:
256,192,15982,1,12,0:0:0:0:
256,192,17202,1,12,0:0:0:0:
256,192,18160,1,12,0:0:0:0:
256,192,18840,1,0,0:0:0:0:
256,192,19369,1,8,0:0:0:0:
256,192,19638,1,8,0:0:0:0:
256,192,20018,1,0,0:0:0:0:
256,192,20281,1,0,0:0:0:0:
256,192,21032,1,12,0:0:0:0:
256,192,21568,1,4,0:0:0:0:
256,192,22658,1,0,0:0:0:0:
256,192,22931,1,0,0:0:0:0:
256,192,23203,1,8,0:0:0:0:
256,192,23749,1,0,0:0:0:0:
256,192,24294,1,8,0:0:0:0:
256,192,24567,1,8,0:0:0:0:
256,192,24840,1,0,0:0:0:0:
256,192,25385,1,8,0:0:0:0:
256,192,25931,1,0,0:0:0:0:
256,192,26476,1,8,0:0:0:0:
256,192,27021,1,0,0:0:0:0:
256,192,27294,1,8,0:0:0:0:
256,192,27567,1,8,0:0:0:0:
256,192,28112,1,8,0:0:0:0:
256,192,28658,1,0,0:0:0:0:
256,192,29203,1,8,0:0:0:0:
256,192,29476,1,0,0:0:0:0:
256,192,29749,1,0,0:0:0:0:
288,192,30294,1,12,0:0:0:0:
256,192,31385,1,0,0:0:0:0:
256,192,31658,1,0,0:0:0:0:
256,192,31931,1,0,0:0:0:0:
256,192,32476,1,8,0:0:0:0:
256,192,33021,1,0,0:0:0:0:
256,192,33567,1,8,0:0:0:0:
256,192,33840,1,8,0:0:0:0:
256,192,34112,1,8,0:0:0:0:
256,192,34658,1,0,0:0:0:0:
263,192,35203,1,8,0:0:0:0:
256,192,35749,1,8,0:0:0:0:
256,192,36294,1,8,0:0:0:0:
256,192,36840,1,0,0:0:0:0:
256,160,37112,1,8,0:0:0:0:
256,192,37385,1,8,0:0:0:0:
256,192,37931,1,0,0:0:0:0:
256,192,38203,1,0,0:0:0:0:
256,192,38476,1,8,0:0:0:0:
256,192,39021,1,0,0:0:0:0:
256,192,40112,1,0,0:0:0:0:
256,192,40385,1,8,0:0:0:0:
256,192,40658,1,0,0:0:0:0:
256,192,41203,1,8,0:0:0:0:
256,192,41749,1,0,0:0:0:0:
256,192,42294,1,8,0:0:0:0:
256,192,42567,1,8,0:0:0:0:
256,192,42840,1,0,0:0:0:0:
256,192,43385,1,4,0:0:0:0:
256,192,44476,1,0,0:0:0:0:
256,192,45021,1,8,0:0:0:0:
256,192,45294,1,8,0:0:0:0:
256,192,45567,1,0,0:0:0:0:
256,192,46112,1,0,0:0:0:0:
256,192,46521,1,8,0:0:0:0:
256,224,47203,1,8,0:0:0:0:
256,224,47476,1,8,0:0:0:0:
256,192,47749,1,0,0:0:0:0:
256,192,48703,1,0,0:0:0:0:
256,192,49385,1,8,0:0:0:0:
256,192,49658,1,0,0:0:0:0:
256,192,49931,1,8,0:0:0:0:
256,192,50476,1,0,0:0:0:0:
256,192,50885,1,8,0:0:0:0:
256,192,51567,1,0,0:0:0:0:
256,192,51840,1,0,0:0:0:0:
256,192,52112,1,8,0:0:0:0:
256,192,53067,1,8,0:0:0:0:
256,192,53749,1,0,0:0:0:0:
288,192,54021,1,8,0:0:0:0:
288,192,54294,1,0,0:0:0:0:
288,192,54840,1,0,0:0:0:0:
288,192,55249,1,8,0:0:0:0:
256,192,55931,1,0,0:0:0:0:
256,192,56203,1,8,0:0:0:0:
256,192,56476,1,4,0:0:0:0:
256,192,57021,1,8,0:0:0:0:
256,192,57294,1,8,0:0:0:0:
256,192,57567,1,0,0:0:0:0:
256,192,58521,1,4,0:0:0:0:
256,192,58931,1,8,0:0:0:0:
256,192,59203,1,8,0:0:0:0:
256,192,59612,1,0,0:0:0:0:
256,192,60294,1,0,0:0:0:0:
256,192,60567,1,0,0:0:0:0:
256,192,60840,1,8,0:0:0:0:
256,192,61112,1,8,0:0:0:0:
256,192,61794,1,8,0:0:0:0:
256,192,62067,1,8,0:0:0:0:
256,192,62476,1,0,0:0:0:0:
256,192,62749,1,0,0:0:0:0:
256,192,63021,1,0,0:0:0:0:
256,192,63703,1,0,0:0:0:0:
256,192,63976,1,0,0:0:0:0:
256,192,65067,1,4,0:0:0:0:
256,192,65749,1,8,0:0:0:0:
256,192,66294,1,0,0:0:0:0:
256,192,66567,1,0,0:0:0:0:
256,192,66840,1,8,0:0:0:0:
256,192,67249,1,8,0:0:0:0:
256,192,67931,1,0,0:0:0:0:
256,192,68476,1,8,0:0:0:0:
256,192,68749,1,8,0:0:0:0:
256,192,69158,1,0,0:0:0:0:
256,192,69431,1,0,0:0:0:0:
256,192,70658,1,8,0:0:0:0:
256,192,70931,1,0,0:0:0:0:
256,192,71203,1,8,0:0:0:0:
256,192,71612,1,8,0:0:0:0:
256,192,72294,1,0,0:0:0:0:
256,192,72840,1,8,0:0:0:0:
256,192,73112,1,8,0:0:0:0:
256,192,73521,1,0,0:0:0:0:
256,192,73794,1,0,0:0:0:0:
256,192,75021,1,0,0:0:0:0:
256,192,75567,1,8,0:0:0:0:
256,192,75840,1,8,0:0:0:0:
256,192,76112,1,0,0:0:0:0:
256,192,76658,1,8,0:0:0:0:
256,224,77203,1,8,0:0:0:0:
256,192,77476,1,0,0:0:0:0:
256,192,77885,1,0,0:0:0:0:
256,192,78158,1,8,0:0:0:0:
255,203,78840,1,0,0:0:0:0:
255,203,79112,1,0,0:0:0:0:
255,203,79385,1,0,0:0:0:0:
255,203,79931,1,8,0:0:0:0:
249,196,80340,1,8,0:0:0:0:
252,185,81021,1,0,0:0:0:0:
252,185,81294,1,0,0:0:0:0:
252,185,81567,1,0,0:0:0:0:
264,193,82112,1,8,0:0:0:0:
263,193,82521,1,8,0:0:0:0:
265,186,83749,1,0,0:0:0:0:
265,186,84021,1,8,0:0:0:0:
265,186,84294,1,0,0:0:0:0:
236,191,84703,1,0,0:0:0:0:
265,186,85385,1,8,0:0:0:0:
265,186,85931,1,0,0:0:0:0:
265,186,86203,1,0,0:0:0:0:
265,186,86612,1,8,0:0:0:0:
265,186,86885,1,8,0:0:0:0:
264,177,87567,1,8,0:0:0:0:
264,177,87840,1,8,0:0:0:0:
264,177,88112,1,8,0:0:0:0:
264,177,88794,1,0,0:0:0:0:
264,177,89067,1,0,0:0:0:0:
262,173,90294,1,8,0:0:0:0:
262,173,90840,1,8,0:0:0:0:
262,173,91249,1,0,0:0:0:0:
258,178,91521,1,0,0:0:0:0:
258,178,91794,1,8,0:0:0:0:
252,180,92476,1,0,0:0:0:0:
252,180,93021,1,0,0:0:0:0:
252,180,93431,1,8,0:0:0:0:
257,176,93703,1,8,0:0:0:0:
257,176,93976,1,0,0:0:0:0:
264,190,94658,1,0,0:0:0:0:
264,188,94931,1,8,0:0:0:0:
219,169,95749,1,4,0:0:0:0:
237,160,96840,1,0,0:0:0:0:
232,156,97112,1,8,0:0:0:0:
237,160,97385,1,0,0:0:0:0:
237,160,97931,1,8,0:0:0:0:
232,156,98476,1,0,0:0:0:0:
232,156,99021,1,8,0:0:0:0:
232,156,99294,1,0,0:0:0:0:
232,156,99567,1,8,0:0:0:0:
232,156,100112,1,0,0:0:0:0:
232,156,100658,1,8,0:0:0:0:
232,156,101476,1,8,0:0:0:0:
232,156,101749,1,0,0:0:0:0:
232,156,102294,1,8,0:0:0:0:
232,156,102840,1,0,0:0:0:0:
232,156,103658,1,0,0:0:0:0:
232,156,103931,1,8,0:0:0:0:
232,156,104476,1,0,0:0:0:0:
234,153,105567,1,8,0:0:0:0:
234,153,105840,1,0,0:0:0:0:
234,153,106112,1,0,0:0:0:0:
234,153,106658,1,0,0:0:0:0:
234,153,107203,1,8,0:0:0:0:
234,153,107749,1,0,0:0:0:0:
234,153,108021,1,8,0:0:0:0:
234,153,108294,1,8,0:0:0:0:
234,153,108840,1,0,0:0:0:0:
234,153,109385,1,0,0:0:0:0:
234,153,109930,1,8,0:0:0:0:
234,153,110476,1,8,0:0:0:0:
234,153,111021,1,0,0:0:0:0:
234,153,111567,1,8,0:0:0:0:
234,153,112112,1,0,0:0:0:0:
234,153,112385,1,8,0:0:0:0:
234,153,112658,1,8,0:0:0:0:
234,153,113203,1,0,0:0:0:0:
234,153,114294,1,8,0:0:0:0:
240,147,114840,1,8,0:0:0:0:
240,147,115385,1,0,0:0:0:0:
240,147,115658,1,8,0:0:0:0:
240,147,116203,1,8,0:0:0:0:
240,147,116476,1,0,0:0:0:0:
240,147,117021,1,8,0:0:0:0:
240,147,117567,1,4,0:0:0:0:
219,158,118658,1,0,0:0:0:0:
219,158,119203,1,8,0:0:0:0:
219,158,119476,1,0,0:0:0:0:
219,158,119749,1,8,0:0:0:0:
219,158,120294,1,8,0:0:0:0:
219,158,120840,1,0,0:0:0:0:
219,158,121795,1,8,0:0:0:0:
219,158,122341,1,0,0:0:0:0:
219,158,122886,1,8,0:0:0:0:
215,151,123432,1,0,0:0:0:0:
219,152,123977,1,0,0:0:0:0:
219,152,124386,1,0,0:0:0:0:
219,152,124658,1,8,0:0:0:0:
219,152,125067,1,8,0:0:0:0:
219,152,126021,1,8,0:0:0:0:
219,152,126294,1,0,0:0:0:0:
225,149,126840,1,8,0:0:0:0:
225,149,127112,1,8,0:0:0:0:
225,149,127385,1,0,0:0:0:0:
225,149,127930,1,8,0:0:0:0:
225,149,128476,1,0,0:0:0:0:
225,149,129021,1,0,0:0:0:0:
225,149,129294,1,8,0:0:0:0:
225,149,129567,1,0,0:0:0:0:
225,149,130112,1,8,0:0:0:0:
225,149,130658,1,0,0:0:0:0:
225,149,131612,1,8,0:0:0:0:
225,149,131885,1,8,0:0:0:0:
225,149,132158,1,8,0:0:0:0:
225,149,132840,1,8,0:0:0:0:
225,149,133794,1,0,0:0:0:0:
225,149,134067,1,0,0:0:0:0:
225,149,134340,1,0,0:0:0:0:
225,149,135021,1,4,0:0:0:0:
225,149,135976,1,8,0:0:0:0:
225,149,136249,1,8,0:0:0:0:
225,149,136521,1,8,0:0:0:0:
225,149,137203,1,8,0:0:0:0:
225,149,137749,1,0,0:0:0:0:
225,149,138021,1,8,0:0:0:0:
225,149,138294,1,0,0:0:0:0:
256,192,139249,5,4,0:0:0:0:
256,192,139930,1,8,0:0:0:0:
256,192,140476,1,0,0:0:0:0:
256,192,140749,1,0,0:0:0:0:
256,192,141021,1,8,0:0:0:0:
256,192,141430,1,8,0:0:0:0:
256,192,142112,1,0,0:0:0:0:
256,192,142658,1,8,0:0:0:0:
256,192,142930,1,8,0:0:0:0:
256,192,143340,1,0,0:0:0:0:
256,192,143612,1,0,0:0:0:0:
256,192,144840,1,8,0:0:0:0:
256,192,145112,1,0,0:0:0:0:
256,192,145385,1,8,0:0:0:0:
256,192,145794,1,8,0:0:0:0:
256,192,146476,1,0,0:0:0:0:
256,192,147021,1,8,0:0:0:0:
256,192,147294,1,8,0:0:0:0:
256,192,147703,1,0,0:0:0:0:
256,192,147976,1,0,0:0:0:0:
256,192,149203,1,0,0:0:0:0:
256,192,149749,1,8,0:0:0:0:
256,192,150021,1,8,0:0:0:0:
256,192,150294,1,0,0:0:0:0:
256,192,150840,1,8,0:0:0:0:
256,224,151385,1,8,0:0:0:0:
256,192,151658,1,0,0:0:0:0:
256,192,152067,1,0,0:0:0:0:
256,192,152340,1,8,0:0:0:0:
255,203,153021,1,0,0:0:0:0:
255,203,153294,1,0,0:0:0:0:
255,203,153567,1,0,0:0:0:0:
255,203,154112,1,8,0:0:0:0:
249,196,154521,1,8,0:0:0:0:
252,185,155203,1,0,0:0:0:0:
252,185,155476,1,0,0:0:0:0:
252,185,155749,1,0,0:0:0:0:
264,193,156294,1,8,0:0:0:0:
263,193,156703,1,8,0:0:0:0:
265,186,157930,1,0,0:0:0:0:
265,186,158203,1,8,0:0:0:0:
265,186,158476,1,0,0:0:0:0:
236,191,158885,1,0,0:0:0:0:
265,186,159567,1,8,0:0:0:0:
265,186,160112,1,0,0:0:0:0:
265,186,160385,1,0,0:0:0:0:
265,186,160794,1,8,0:0:0:0:
265,186,161067,1,8,0:0:0:0:
264,177,161749,1,8,0:0:0:0:
264,177,162021,1,8,0:0:0:0:
264,177,162294,1,8,0:0:0:0:
264,177,162976,1,0,0:0:0:0:
264,177,163249,1,0,0:0:0:0:
262,173,164476,1,8,0:0:0:0:
262,173,165021,1,8,0:0:0:0:
262,173,165430,1,0,0:0:0:0:
258,178,165703,1,0,0:0:0:0:
258,178,165976,1,8,0:0:0:0:
252,180,166658,1,0,0:0:0:0:
252,180,167203,1,0,0:0:0:0:
252,180,167612,1,8,0:0:0:0:
257,176,167885,1,8,0:0:0:0:
257,176,168158,1,0,0:0:0:0:
248,160,168840,1,0,0:0:0:0:
245,169,169386,1,8,0:0:0:0:
253,188,169931,1,4,0:0:0:0:
253,188,171021,1,0,0:0:0:0:
253,188,171567,1,8,0:0:0:0:
253,188,172112,1,0,0:0:0:0:
253,188,172385,1,0,0:0:0:0:
253,188,172658,1,8,0:0:0:0:
253,188,173203,1,0,0:0:0:0:
253,188,173476,1,8,0:0:0:0:
253,188,173885,1,8,0:0:0:0:
253,188,174158,1,0,0:0:0:0:
248,180,174840,1,0,0:0:0:0:
248,180,175385,1,8,0:0:0:0:
248,180,175658,1,8,0:0:0:0:
248,180,175930,1,0,0:0:0:0:
248,180,176476,1,8,0:0:0:0:
248,180,177021,1,0,0:0:0:0:
248,180,177567,1,8,0:0:0:0:
248,180,177840,1,0,0:0:0:0:
248,180,178249,1,0,0:0:0:0:
248,180,178521,1,8,0:0:0:0:
244,162,179749,1,8,0:0:0:0:
244,162,180021,1,8,0:0:0:0:
244,162,180294,1,8,0:0:0:0:
244,162,180840,1,0,0:0:0:0:
244,162,181385,1,8,0:0:0:0:
244,162,181930,1,0,0:0:0:0:
244,162,182203,1,8,0:0:0:0:
244,162,182612,1,8,0:0:0:0:
244,162,182885,1,0,0:0:0:0:
244,162,183567,1,0,0:0:0:0:
244,162,183840,1,8,0:0:0:0:
244,162,184112,1,0,0:0:0:0:
244,162,184658,1,8,0:0:0:0:
244,162,185203,1,0,0:0:0:0:
244,162,186294,1,8,0:0:0:0:
244,162,186840,1,8,0:0:0:0:
256,192,187521,5,4,0:0:0:0:
256,192,187930,1,4,0:0:0:0:
256,192,188340,1,12,0:0:0:0:
