osu file format v14

[General]
AudioFilename: audio.mp3
AudioLeadIn: 0
PreviewTime: 26933
Countdown: 0
SampleSet: Normal
StackLeniency: 0.7
Mode: 0
LetterboxInBreaks: 0
WidescreenStoryboard: 1

[Editor]
DistanceSpacing: 1
BeatDivisor: 4
GridSize: 4
TimelineZoom: 1

[Metadata]
Title:W.I.T.C.H. opening (Russian)
TitleUnicode:W.I.T.C.H. opening (Russian)
Artist:Noam Kaniel
ArtistUnicode:Noam Kaniel
Creator:Firebool
Version:Light Insane
Source:Чародейки
Tags:opening W.I.T.C.H. Cappu Russian
BeatmapID:1395752
BeatmapSetID:657649

[Difficulty]
HPDrainRate:6.5
CircleSize:4
OverallDifficulty:6.5
ApproachRate:8.5
SliderMultiplier:1.4
SliderTickRate:1

[Events]
//Background and Video events
0,0,"012 (2).jpg",0,0
Video,-512,"W.I.T.C.H. (Russian opening).mp4"
//Break Periods
//Storyboard Layer 0 (Background)
//Storyboard Layer 1 (Fail)
//Storyboard Layer 2 (Pass)
//Storyboard Layer 3 (Foreground)
//Storyboard Sound Samples

[TimingPoints]
80.4232650602039,419.58041958042,4,1,0,15,1,0
1758,-100,4,1,0,25,0,0
3437,-100,4,1,0,35,0,0
6793,-100,4,1,0,55,0,0
11828,-66.6666666666667,4,1,0,55,0,0
13506,-100,4,1,0,55,0,0
18541,-66.6666666666667,4,1,0,55,0,0
20220,-80,4,1,0,55,0,0
23576,-133.333333333333,4,1,0,20,0,0
24416,-100,4,1,0,30,0,0
25255,-80,4,1,0,40,0,0
26094,-80,4,1,0,50,0,0
26933,-80,4,1,0,70,0,1
30290,-80,4,1,0,25,0,1
31968,-80,4,1,0,35,0,1
33227,-80,4,1,0,45,0,1
33646,-66.6666666666667,4,1,0,70,0,1
37003,-80,4,1,0,25,0,1
38681,-80,4,1,0,35,0,1
39940,-80,4,1,0,45,0,1
40360,-66.6666666666667,4,1,0,70,0,1
43716,-100,4,1,0,25,0,1
45395,-80,4,1,0,35,0,1
46653,-80,4,1,0,45,0,1
47073,-80,4,1,0,70,0,1
50430,-80,4,1,0,50,0,1
53367,-80,4,1,0,70,0,1
57143,-80,4,1,0,70,0,0

[Colours]
Combo1 : 255,128,255
Combo2 : 255,0,0
Combo3 : 0,255,0
Combo4 : 0,0,255
Combo5 : 128,255,255

[HitObjects]
60,172,80,5,0,2:2:0:0:
92,256,500,1,0,2:2:0:0:
164,308,919,1,0,2:2:0:0:
252,332,1339,1,0,2:2:0:0:
384,252,1758,5,0,2:2:0:0:
352,168,2178,1,0,2:2:0:0:
280,116,2597,1,0,2:2:0:0:
192,92,3017,1,0,2:2:0:0:
236,236,3437,5,0,2:2:0:0:
152,200,3856,1,0,2:2:0:0:
120,80,4276,1,0,2:2:0:0:
0,188,4695,1,0,2:2:0:0:
144,300,5115,1,0,2:2:0:0:
256,192,5325,12,0,6374,0:0:0:0:
312,336,6793,6,0,P|352:328|384:296,1,70,2|0,0:0|0:0,0:0:0:0:
396,100,7213,1,8,0:0:0:0:
312,168,7423,2,0,L|280:192,1,35,0|8,0:0|0:0,0:0:0:0:
312,212,7632,2,0,L|280:236,1,35,0|8,0:0|0:0,0:0:0:0:
312,256,7842,1,0,0:0:0:0:
489,250,8052,1,2,0:0:0:0:
396,100,8262,1,0,0:0:0:0:
374,310,8472,6,0,P|346:330|312:336,1,70,2|0,0:0|0:0,0:0:0:0:
168,336,8891,1,8,0:0:0:0:
312,256,9101,2,0,L|288:224,1,35,0|8,0:0|0:0,0:0:0:0:
268,256,9311,2,0,L|244:224,1,35,0|8,0:0|0:0,0:0:0:0:
224,256,9520,1,0,0:0:0:0:
224,100,9730,1,8,0:0:0:0:
316,160,9940,1,0,0:0:0:0:
108,248,10150,5,2,0:0:0:0:
71,164,10360,2,0,L|51:128,2,35,0|0|8,0:0|0:0|0:0,0:0:0:0:
24,288,10779,2,0,L|20:328,2,35
28,260,11094,1,8,0:0:0:0:
32,232,11199,1,0,0:0:0:0:
4,160,11409,2,0,P|48:156|84:172,1,70,8|0,0:0|0:0,0:0:0:0:
136,321,11828,6,0,B|168:295|161:249|161:249|174:259|191:259,1,105.000004005432,2|0,0:0|0:0,0:0:0:0:
356,244,12248,1,8,0:0:0:0:
222,222,12457,1,0,0:0:0:0:
222,222,12562,2,0,L|181:262,1,52.5000020027161,8|0,0:0|0:0,0:0:0:0:
208,344,12772,2,0,L|245:307,1,52.5000020027161,8|0,0:0|0:0,0:0:0:0:
375,168,13087,2,0,P|420:201|436:249,1,105.000004005432,8|0,0:0|0:0,0:0:0:0:
417,314,13402,1,0,0:0:0:0:
417,314,13506,6,0,L|441:232,1,70,2|0,0:0|0:0,0:0:0:0:
456,64,13926,1,8,0:0:0:0:
496,184,14136,1,0,0:0:0:0:
476,172,14240,1,8,0:0:0:0:
457,161,14345,1,0,0:0:0:0:
437,149,14450,1,8,0:0:0:0:
418,138,14555,1,0,0:0:0:0:
308,40,14765,1,2,0:0:0:0:
232,64,14975,1,0,0:0:0:0:
268,280,15185,6,0,P|296:256|304:224,1,70,2|0,0:0|0:0,0:0:0:0:
160,88,15604,1,8,0:0:0:0:
228,216,15814,2,0,L|212:184,1,35
184,248,16024,2,0,L|168:216,1,35,0|8,0:0|0:0,0:0:0:0:
140,280,16234,1,0,0:0:0:0:
96,180,16444,1,8,0:0:0:0:
40,340,16653,1,0,0:0:0:0:
204,320,16863,5,2,0:0:0:0:
256,244,17073,2,0,L|236:212,2,35,0|0|8,0:0|0:0|0:0,0:0:0:0:
340,336,17493,1,0,0:0:0:0:
340,336,17702,2,0,P|384:324|412:300,1,70
468,192,18122,2,0,P|424:204|396:228,1,70,8|0,0:0|0:0,0:0:0:0:
256,244,18541,6,0,B|288:218|281:172|281:172|294:182|311:182,1,105.000004005432,2|0,0:0|0:0,0:0:0:0:
480,248,18961,1,8,0:0:0:0:
311,126,19171,2,0,L|280:176,1,52.5000020027161,0|8,0:0|0:0,0:0:0:0:
251,122,19381,2,0,L|224:168,1,52.5000020027161,0|8,0:0|0:0,0:0:0:0:
191,118,19590,1,0,0:0:0:0:
88,312,19800,2,0,P|144:300|172:264,1,105.000004005432,8|0,0:0|0:0,0:0:0:0:
248,199,20220,6,0,B|275:274|275:274|310:274,1,87.5,2|0,1:1|1:1,1:1:0:0:
280,343,20639,2,0,B|358:339|358:339|370:306,1,87.5,8|0,1:1|1:1,1:1:0:0:
428,358,21059,2,0,B|450:281|450:281|421:260,1,87.5,2|0,1:1|1:1,1:1:0:0:
485,221,21479,2,0,B|419:176|419:176|390:197,1,87.5,8|0,1:1|1:1,1:1:0:0:
373,123,21898,6,0,B|310:172|310:172|321:205,1,87.5,2|0,1:1|1:1,1:1:0:0:
429,265,22318,1,8,1:1:0:0:
476,128,22527,2,0,L|488:84,2,43.75,0|0|0,1:1|1:1|1:1,1:1:0:0:
468,152,22842,1,8,1:1:0:0:
460,176,22947,1,0,1:1:0:0:
429,265,23157,2,0,P|384:252|352:220,1,87.5,2|0,1:1|1:1,1:1:0:0:
280,84,23576,6,0,L|264:48,7,26.2500010013581,0|0|0|0|0|0|0|0,3:3|3:3|3:3|3:3|3:3|3:3|3:3|3:3,3:3:0:0:
252,248,24416,6,0,L|236:280,7,35,0|0|0|0|0|0|0|0,3:3|3:3|3:3|3:3|3:3|3:3|3:3|3:3,3:3:0:0:
100,76,25255,6,0,L|80:24,7,43.75,0|0|0|0|0|0|0|0,3:3|3:3|3:3|3:3|3:3|3:3|3:3|3:3,3:3:0:0:
60,280,26094,5,0,3:3:0:0:
60,280,26199,1,0,3:3:0:0:
60,280,26304,1,0,3:3:0:0:
60,280,26409,1,0,3:3:0:0:
60,280,26513,2,0,L|96:236,1,43.75,0|0,3:3|3:3,3:3:0:0:
208,192,26723,2,0,L|176:232,1,43.75,0|0,3:3|3:3,3:3:0:0:
180,336,26933,6,0,P|224:344|264:320,1,87.5
261,325,27248,1,0,0:0:0:0:
261,325,27353,1,8,0:0:0:0:
291,154,27562,1,0,0:0:0:0:
291,154,27772,2,0,B|315:178|315:178|323:206|323:206|347:230,1,87.5
400,296,28087,1,0,0:0:0:0:
400,296,28192,1,8,0:0:0:0:
236,243,28402,5,0,0:0:0:0:
236,243,28611,2,0,B|260:219|260:219|288:211|288:211|312:187,1,87.5
380,123,28926,1,0,0:0:0:0:
380,123,29031,1,8,0:0:0:0:
480,248,29241,6,0,L|448:208,1,43.75,0|8,0:0|0:0,0:0:0:0:
492,204,29451,2,0,L|460:164,1,43.75,0|8,0:0|0:0,0:0:0:0:
504,160,29660,1,0,0:0:0:0:
396,36,29870,2,0,P|352:36|316:64,1,87.5,8|0,0:0|0:0,0:0:0:0:
308,284,30290,6,0,L|336:332,3,43.75,0|0|0|0,3:3|3:3|3:3|3:3,3:3:0:0:
220,240,30709,6,0,L|192:192,3,43.75,0|0|0|0,3:3|3:3|3:3|3:3,3:3:0:0:
148,308,31129,6,0,L|188:348,3,43.75,0|0|0|0,3:3|3:3|3:3|3:3,3:3:0:0:
56,232,31548,6,0,L|8:248,3,43.75,0|0|0|0,3:3|3:3|3:3|3:3,3:3:0:0:
68,100,31968,5,0,3:3:0:0:
68,100,32073,1,0,3:3:0:0:
68,100,32178,2,0,L|88:156,1,43.75,0|0,3:3|3:3,3:3:0:0:
152,40,32388,5,0,3:3:0:0:
152,40,32493,1,0,3:3:0:0:
152,40,32598,2,0,L|140:96,1,43.75,0|0,3:3|3:3,3:3:0:0:
256,24,32807,5,0,3:3:0:0:
256,24,32912,1,0,3:3:0:0:
256,24,33017,2,0,L|216:68,1,43.75,0|0,3:3|3:3,3:3:0:0:
200,156,33227,5,0,3:3:0:0:
255,162,33331,1,0,3:3:0:0:
306,140,33436,1,0,3:3:0:0:
339,96,33541,1,0,3:3:0:0:
345,40,33646,5,0,0:0:0:0:
460,152,33856,2,0,L|500:188,2,52.5000020027161,0|0|8,0:0|0:0|0:0,0:0:0:0:
260,72,34276,5,0,0:0:0:0:
472,36,34486,1,0,0:0:0:0:
404,232,34695,1,0,0:0:0:0:
404,232,34800,1,0,0:0:0:0:
404,232,34905,1,8,0:0:0:0:
504,296,35115,5,0,0:0:0:0:
300,168,35325,1,0,0:0:0:0:
356,356,35534,2,0,L|332:292,1,52.5000020027161
288,288,35744,1,8,0:0:0:0:
196,156,35954,6,0,L|216:208,1,52.5000020027161,0|8,0:0|0:0,0:0:0:0:
172,196,36164,2,0,L|192:248,1,52.5000020027161,0|8,0:0|0:0,0:0:0:0:
148,236,36374,1,0,0:0:0:0:
98,318,36583,2,0,B|94:290|94:290|71:267|72:234|72:234|57:212,1,105.000004005432,8|0,0:0|0:0,0:0:0:0:
80,80,37003,6,0,L|46:42,3,43.75,0|0|0|0,3:3|3:3|3:3|3:3,3:3:0:0:
156,132,37423,6,0,L|117:170,3,43.75,0|0|0|0,3:3|3:3|3:3|3:3,3:3:0:0:
252,100,37842,6,0,L|238:44,3,43.75,0|0|0|0,3:3|3:3|3:3|3:3,3:3:0:0:
312,180,38262,6,0,L|322:226,3,43.75,0|0|0|0,3:3|3:3|3:3|3:3,3:3:0:0:
376,48,38681,5,0,3:3:0:0:
376,48,38786,1,0,3:3:0:0:
376,48,38891,2,0,L|341:99,1,43.75,0|0,3:3|3:3,3:3:0:0:
464,92,39101,5,0,3:3:0:0:
464,92,39206,1,0,3:3:0:0:
464,92,39311,2,0,L|411:119,1,43.75,0|0,3:3|3:3,3:3:0:0:
512,180,39520,5,0,3:3:0:0:
512,180,39625,1,0,3:3:0:0:
512,180,39730,2,0,L|452:177,1,43.75,0|0,3:3|3:3,3:3:0:0:
380,184,39940,5,0,3:3:0:0:
343,229,40044,1,0,3:3:0:0:
349,287,40149,1,0,3:3:0:0:
393,324,40254,1,0,3:3:0:0:
451,320,40360,6,0,L|347:344,1,105.000004005432,4|0,1:1|1:1,1:1:0:0:
348,343,40674,1,0,1:1:0:0:
348,343,40779,1,8,1:1:0:0:
232,224,40989,6,0,L|208:176,2,52.5000020027161,0|8|0,1:1|1:1|1:1,1:1:0:0:
244,252,41304,1,8,1:1:0:0:
256,276,41409,1,0,1:1:0:0:
8,192,41618,1,8,1:1:0:0:
208,344,41828,1,0,1:1:0:0:
59,349,42038,6,0,P|103:321|120:272,1,105.000004005432,4|0,1:1|1:1,1:1:0:0:
120,273,42353,1,0,1:1:0:0:
120,273,42458,1,8,1:1:0:0:
32,96,42667,6,0,L|84:116,1,52.5000020027161,0|8,1:1|1:1,1:1:0:0:
56,136,42877,2,0,L|116:160,1,52.5000020027161,0|8,1:1|1:1,1:1:0:0:
80,176,43087,1,0,1:1:0:0:
140,24,43297,1,8,1:1:0:0:
204,232,43506,1,0,1:1:0:0:
220,72,43716,6,0,L|245:38,3,35,0|0|0|0,3:3|3:3|3:3|3:3,3:3:0:0:
308,80,44136,6,0,L|347:51,3,35,0|0|0|0,3:3|3:3|3:3|3:3,3:3:0:0:
388,116,44555,6,0,L|434:98,3,35,0|0|0|0,3:3|3:3|3:3|3:3,3:3:0:0:
456,172,44975,6,0,L|499:168,3,35,0|0|0|0,3:3|3:3|3:3|3:3,3:3:0:0:
340,200,45395,5,0,3:3:0:0:
340,200,45500,1,0,3:3:0:0:
340,200,45604,2,0,L|376:248,1,43.75,0|0,3:3|3:3,3:3:0:0:
252,228,45814,5,0,3:3:0:0:
252,228,45919,1,0,3:3:0:0:
252,228,46024,2,0,L|296:264,1,43.75,0|0,3:3|3:3,3:3:0:0:
176,280,46234,5,0,3:3:0:0:
176,280,46339,1,0,3:3:0:0:
176,280,46443,2,0,L|224:304,1,43.75,0|0,3:3|3:3,3:3:0:0:
260,372,46653,5,0,3:3:0:0:
314,357,46757,1,0,3:3:0:0:
368,342,46862,1,0,3:3:0:0:
423,328,46967,1,0,3:3:0:0:
477,313,47072,5,4,0:0:0:0:
460,160,47283,1,0,0:0:0:0:
460,160,47388,1,0,0:0:0:0:
460,160,47493,1,8,0:0:0:0:
368,342,47702,5,0,0:0:0:0:
196,296,47912,1,0,0:0:0:0:
316,172,48122,1,0,0:0:0:0:
316,172,48227,1,0,0:0:0:0:
316,172,48332,1,8,0:0:0:0:
368,342,48541,5,0,0:0:0:0:
196,296,48751,1,0,0:0:0:0:
149,124,48961,1,0,0:0:0:0:
149,124,49066,1,0,0:0:0:0:
149,124,49171,1,8,0:0:0:0:
88,296,49381,6,0,L|52:264,1,43.75,0|8,0:0|0:0,0:0:0:0:
92,252,49590,2,0,L|52:216,1,43.75,0|8,0:0|0:0,0:0:0:0:
96,208,49800,1,0,0:0:0:0:
132,48,50010,2,0,P|180:52|212:76,1,87.5,8|0,0:0|0:0,0:0:0:0:
232,248,50430,5,0,0:0:0:0:
232,248,50534,1,0,0:0:0:0:
232,248,50639,2,0,L|252:200,1,43.75,0|0,3:3|3:3,3:3:0:0:
256,20,50849,5,0,0:0:0:0:
256,20,50953,1,0,0:0:0:0:
256,20,51058,2,0,L|276:68,1,43.75,0|0,3:3|3:3,3:3:0:0:
320,200,51269,5,0,0:0:0:0:
320,200,51373,1,0,0:0:0:0:
320,200,51478,2,0,L|340:152,1,43.75,0|0,3:3|3:3,3:3:0:0:
380,24,51688,5,0,0:0:0:0:
380,24,51792,1,0,0:0:0:0:
380,24,51897,2,0,L|400:72,1,43.75,0|0,3:3|3:3,3:3:0:0:
460,192,52108,5,0,3:3:0:0:
460,192,52213,1,0,3:3:0:0:
460,192,52318,2,0,L|436:244,1,43.75,0|0,3:3|3:3,3:3:0:0:
352,200,52527,5,0,3:3:0:0:
352,200,52632,1,0,3:3:0:0:
352,200,52737,2,0,L|348:256,1,43.75,0|0,3:3|3:3,3:3:0:0:
244,224,52947,5,0,3:3:0:0:
244,224,53052,1,0,3:3:0:0:
244,224,53157,2,0,L|260:276,1,43.75,0|0,3:3|3:3,3:3:0:0:
236,352,53367,5,0,3:3:0:0:
180,348,53471,1,0,3:3:0:0:
132,320,53576,1,0,3:3:0:0:
101,274,53681,1,0,3:3:0:0:
94,219,53786,5,0,0:0:0:0:
28,344,53996,1,0,0:0:0:0:
28,344,54101,1,0,0:0:0:0:
28,344,54206,1,8,0:0:0:0:
16,76,54416,5,0,0:0:0:0:
39,90,54520,1,8,0:0:0:0:
63,105,54625,1,0,0:0:0:0:
87,120,54730,1,8,0:0:0:0:
111,134,54835,1,0,0:0:0:0:
24,216,55045,1,8,0:0:0:0:
152,44,55255,1,0,0:0:0:0:
147,211,55465,6,0,P|183:183|199:143,1,87.5
199,146,55779,1,0,0:0:0:0:
199,146,55884,1,8,0:0:0:0:
244,32,56094,5,0,0:0:0:0:
248,76,56198,1,8,0:0:0:0:
269,116,56303,1,0,0:0:0:0:
303,144,56408,1,8,0:0:0:0:
346,157,56513,1,0,0:0:0:0:
390,153,56618,1,8,0:0:0:0:
432,136,56723,5,0,0:0:0:0:
413,206,56827,1,8,0:0:0:0:
369,264,56932,1,8,0:0:0:0:
307,300,57037,1,8,0:0:0:0:
235,310,57142,1,8,0:0:0:0:
