osu file format v14

[General]
AudioFilename: audio.mp3
AudioLeadIn: 0
PreviewTime: 57867
Countdown: 0
SampleSet: Normal
StackLeniency: 0.7
Mode: 3
LetterboxInBreaks: 0
SpecialStyle: 0
WidescreenStoryboard: 1

[Editor]
DistanceSpacing: 2
BeatDivisor: 4
GridSize: 4
TimelineZoom: 2

[Metadata]
Title:DUAL BLADE
TitleUnicode:DUAL BLADE
Artist:Noah vs. Morimori Atsushi
ArtistUnicode:Noah vs. モリモリあつし
Creator:RiP46
Version:Beginner
Source:
Tags:Touhou Youyoumu Ultimate Truth Re:End of a Dream Astral Sky vs. Hikagyakurizumu Syadow- FelixSpade
BeatmapID:2101833
BeatmapSetID:997657

[Difficulty]
HPDrainRate:6.5
CircleSize:4
OverallDifficulty:6.5
ApproachRate:5
SliderMultiplier:1.4
SliderTickRate:1

[Events]
//Background and Video events
0,0,"BG.jpg",0,0
//Break Periods
//Storyboard Layer 0 (Background)
//Storyboard Layer 1 (Fail)
//Storyboard Layer 2 (Pass)
//Storyboard Layer 3 (Foreground)
//Storyboard Sound Samples

[TimingPoints]
735,352.941176470588,4,1,0,50,1,0
73440,-100,4,1,0,50,0,1
83323,-100,4,1,0,50,0,0
84734,-100,4,1,0,50,0,1
98852,-100,4,1,0,50,0,0
112970,-99.9999999999999,4,1,0,50,0,1
129911,-99.9999999999999,4,1,0,50,0,0

[HitObjects]
64,192,735,128,0,1264:0:0:0:0:
192,192,735,1,0,0:0:0:0:
320,192,1264,128,0,1440:0:0:0:0:
448,192,1440,128,0,2146:0:0:0:0:
64,192,2146,1,0,0:0:0:0:
448,192,2411,1,0,0:0:0:0:
320,192,2676,1,0,0:0:0:0:
192,192,2852,128,0,3558:0:0:0:0:
64,192,3558,1,0,0:0:0:0:
448,192,3823,1,0,0:0:0:0:
192,192,4087,1,0,0:0:0:0:
320,192,4264,128,0,4970:0:0:0:0:
448,192,4970,1,0,0:0:0:0:
192,192,5234,1,0,0:0:0:0:
320,192,5499,1,0,0:0:0:0:
64,192,5676,128,0,6382:0:0:0:0:
448,192,6382,1,0,0:0:0:0:
64,192,6646,1,0,0:0:0:0:
320,192,6911,1,0,0:0:0:0:
192,192,7087,128,0,7793:0:0:0:0:
64,192,7440,1,0,0:0:0:0:
320,192,7793,128,0,8499:0:0:0:0:
448,192,8146,1,0,0:0:0:0:
64,192,8499,1,0,0:0:0:0:
192,192,8676,1,0,0:0:0:0:
320,192,8852,1,0,0:0:0:0:
448,192,9029,1,0,0:0:0:0:
64,192,9205,1,0,0:0:0:0:
64,192,9382,1,0,0:0:0:0:
448,192,9558,1,0,0:0:0:0:
448,192,9734,1,0,0:0:0:0:
192,192,9911,128,0,10617:0:0:0:0:
320,192,10617,128,0,11323:0:0:0:0:
64,192,11323,128,0,12734:0:0:0:0:
192,192,12029,128,0,12734:0:0:0:0:
320,192,12734,1,0,0:0:0:0:
448,192,12734,1,0,0:0:0:0:
64,192,13440,1,0,0:0:0:0:
320,192,14146,1,0,0:0:0:0:
192,192,14852,1,0,0:0:0:0:
448,192,15558,1,0,0:0:0:0:
64,192,16264,1,0,0:0:0:0:
192,192,16970,1,0,0:0:0:0:
320,192,17676,1,0,0:0:0:0:
448,192,18029,128,0,18382:0:0:0:0:
64,192,18382,1,0,0:0:0:0:
320,192,18734,1,0,0:0:0:0:
192,192,19087,1,0,0:0:0:0:
448,192,19440,128,0,19793:0:0:0:0:
320,192,19793,1,0,0:0:0:0:
192,192,20146,1,0,0:0:0:0:
448,192,20499,1,0,0:0:0:0:
64,192,20852,128,0,21205:0:0:0:0:
448,192,21205,1,0,0:0:0:0:
320,192,21382,1,0,0:0:0:0:
64,192,21558,1,0,0:0:0:0:
192,192,21734,1,0,0:0:0:0:
448,192,21911,1,0,0:0:0:0:
320,192,22087,1,0,0:0:0:0:
64,192,22264,1,0,0:0:0:0:
192,192,22440,1,0,0:0:0:0:
320,192,22617,128,0,23323:0:0:0:0:
448,192,23323,128,0,23852:0:0:0:0:
64,192,24029,128,0,24734:0:0:0:0:
192,192,24029,1,0,0:0:0:0:
320,192,24382,1,0,0:0:0:0:
448,192,24734,128,0,25440:0:0:0:0:
64,192,25087,1,0,0:0:0:0:
192,192,25440,128,0,26146:0:0:0:0:
448,192,25793,1,0,0:0:0:0:
320,192,26146,128,0,26852:0:0:0:0:
64,192,26499,1,0,0:0:0:0:
448,192,26852,128,0,27558:0:0:0:0:
192,192,27205,1,0,0:0:0:0:
64,192,27558,128,0,27823:0:0:0:0:
192,192,27823,128,0,28087:0:0:0:0:
320,192,28087,128,0,28264:0:0:0:0:
448,192,28264,128,0,28793:0:0:0:0:
320,192,28617,1,0,0:0:0:0:
192,192,28793,128,0,28970:0:0:0:0:
64,192,28970,128,0,29323:0:0:0:0:
320,192,29323,1,0,0:0:0:0:
448,192,29323,128,0,29499:0:0:0:0:
192,192,29676,1,0,0:0:0:0:
64,192,29676,128,0,30382:0:0:0:0:
320,192,30029,1,0,0:0:0:0:
448,192,30382,128,0,31087:0:0:0:0:
64,192,30734,1,0,0:0:0:0:
320,192,30911,1,0,0:0:0:0:
192,192,31087,128,0,31793:0:0:0:0:
448,192,31440,1,0,0:0:0:0:
320,192,31793,128,0,32323:0:0:0:0:
64,192,32146,1,0,0:0:0:0:
192,192,32323,128,0,32499:0:0:0:0:
448,192,32499,1,0,0:0:0:0:
448,192,32764,1,0,0:0:0:0:
320,192,33029,1,0,0:0:0:0:
64,192,33205,128,0,33911:0:0:0:0:
192,192,33205,1,0,0:0:0:0:
320,192,33911,1,0,0:0:0:0:
320,192,34176,1,0,0:0:0:0:
192,192,34440,1,0,0:0:0:0:
64,192,34617,1,0,0:0:0:0:
448,192,34617,128,0,35323:0:0:0:0:
64,192,35323,1,0,0:0:0:0:
320,192,35676,1,0,0:0:0:0:
192,192,36029,1,0,0:0:0:0:
448,192,36382,128,0,36558:0:0:0:0:
320,192,36734,1,0,0:0:0:0:
64,192,37087,1,0,0:0:0:0:
448,192,37440,1,0,0:0:0:0:
192,192,37793,128,0,38146:0:0:0:0:
64,192,38146,1,0,0:0:0:0:
448,192,38499,1,0,0:0:0:0:
192,192,38852,1,0,0:0:0:0:
320,192,39205,128,0,39382:0:0:0:0:
448,192,39558,1,0,0:0:0:0:
192,192,39911,1,0,0:0:0:0:
64,192,40264,128,0,40617:0:0:0:0:
448,192,40617,1,0,0:0:0:0:
192,192,40793,1,0,0:0:0:0:
448,192,40970,1,0,0:0:0:0:
64,192,41323,1,0,0:0:0:0:
320,192,41676,1,0,0:0:0:0:
192,192,42029,128,0,42205:0:0:0:0:
64,192,42382,1,0,0:0:0:0:
448,192,42734,1,0,0:0:0:0:
192,192,43087,1,0,0:0:0:0:
320,192,43440,128,0,43793:0:0:0:0:
448,192,43793,1,0,0:0:0:0:
192,192,44146,1,0,0:0:0:0:
320,192,44499,1,0,0:0:0:0:
64,192,44852,128,0,45029:0:0:0:0:
320,192,45205,1,0,0:0:0:0:
320,192,45470,1,0,0:0:0:0:
192,192,45734,1,0,0:0:0:0:
192,192,45999,1,0,0:0:0:0:
448,192,46264,1,0,0:0:0:0:
64,192,46440,1,0,0:0:0:0:
448,192,46617,128,0,47323:0:0:0:0:
192,192,46970,1,0,0:0:0:0:
320,192,47323,128,0,47676:0:0:0:0:
192,192,47676,128,0,48029:0:0:0:0:
64,192,48029,128,0,48293:0:0:0:0:
448,192,48293,128,0,48558:0:0:0:0:
192,192,48558,128,0,48911:0:0:0:0:
320,192,48911,128,0,49264:0:0:0:0:
64,192,49264,128,0,49440:0:0:0:0:
448,192,49440,128,0,49705:0:0:0:0:
192,192,49705,128,0,49970:0:0:0:0:
320,192,49970,128,0,50323:0:0:0:0:
64,192,50323,128,0,50499:0:0:0:0:
448,192,50499,128,0,50676:0:0:0:0:
192,192,50676,128,0,50852:0:0:0:0:
320,192,50852,128,0,51205:0:0:0:0:
64,192,51205,128,0,51558:0:0:0:0:
448,192,51558,128,0,51911:0:0:0:0:
64,192,51911,1,0,0:0:0:0:
448,192,52087,128,0,52264:0:0:0:0:
64,192,52264,128,0,52617:0:0:0:0:
320,192,52617,1,0,0:0:0:0:
192,192,52793,128,0,53146:0:0:0:0:
64,192,53146,1,0,0:0:0:0:
448,192,53323,1,0,0:0:0:0:
192,192,53499,128,0,53676:0:0:0:0:
320,192,53676,128,0,54029:0:0:0:0:
448,192,54029,1,0,0:0:0:0:
64,192,54205,128,0,54558:0:0:0:0:
192,192,54558,1,0,0:0:0:0:
320,192,54734,128,0,55087:0:0:0:0:
64,192,55087,128,0,55440:0:0:0:0:
192,192,55440,128,0,55793:0:0:0:0:
320,192,55793,128,0,56146:0:0:0:0:
448,192,56146,128,0,56499:0:0:0:0:
64,192,56499,1,0,0:0:0:0:
64,192,56676,1,0,0:0:0:0:
448,192,56852,5,0,0:0:0:0:
448,192,57029,1,0,0:0:0:0:
192,192,57205,1,0,0:0:0:0:
192,192,57382,1,0,0:0:0:0:
320,192,57558,1,0,0:0:0:0:
320,192,57734,1,0,0:0:0:0:
448,192,57911,5,0,0:0:0:0:
64,192,57911,1,0,0:0:0:0:
192,192,58264,1,0,0:0:0:0:
320,192,58617,128,0,58970:0:0:0:0:
64,192,58970,128,0,59676:0:0:0:0:
448,192,59676,128,0,60029:0:0:0:0:
192,192,60029,128,0,60382:0:0:0:0:
320,192,60382,128,0,60734:0:0:0:0:
64,192,60734,128,0,61087:0:0:0:0:
448,192,61087,128,0,61793:0:0:0:0:
320,192,61793,128,0,61970:0:0:0:0:
192,192,61970,128,0,62146:0:0:0:0:
64,192,62146,128,0,62676:0:0:0:0:
448,192,62676,128,0,62852:0:0:0:0:
192,192,62852,128,0,63205:0:0:0:0:
320,192,63205,128,0,63734:0:0:0:0:
64,192,63734,128,0,63911:0:0:0:0:
448,192,63911,128,0,64264:0:0:0:0:
192,192,64264,128,0,64970:0:0:0:0:
448,192,64970,128,0,65323:0:0:0:0:
64,192,65323,128,0,67440:0:0:0:0:
192,192,65323,1,0,0:0:0:0:
192,192,67440,128,0,67617:0:0:0:0:
320,192,67617,128,0,67793:0:0:0:0:
448,192,67793,1,0,0:0:0:0:
192,192,68058,128,0,68323:0:0:0:0:
448,192,68323,128,0,68499:0:0:0:0:
64,192,68499,1,0,0:0:0:0:
320,192,68764,128,0,69029:0:0:0:0:
64,192,69029,128,0,69205:0:0:0:0:
448,192,69205,1,0,0:0:0:0:
448,192,69382,1,0,0:0:0:0:
192,192,69558,1,0,0:0:0:0:
192,192,69734,1,0,0:0:0:0:
448,192,69911,1,0,0:0:0:0:
64,192,69911,1,0,0:0:0:0:
320,192,70176,1,0,0:0:0:0:
192,192,70176,1,0,0:0:0:0:
448,192,70440,128,0,70617:0:0:0:0:
64,192,70617,1,0,0:0:0:0:
320,192,70793,1,0,0:0:0:0:
192,192,70970,1,0,0:0:0:0:
448,192,71146,1,0,0:0:0:0:
64,192,71323,1,0,0:0:0:0:
320,192,71499,1,0,0:0:0:0:
192,192,71676,1,0,0:0:0:0:
448,192,71852,1,0,0:0:0:0:
64,192,72029,128,0,72293:0:0:0:0:
192,192,72293,128,0,72558:0:0:0:0:
320,192,72558,128,0,72734:0:0:0:0:
448,192,72734,128,0,73440:0:0:0:0:
64,192,73440,1,0,0:0:0:0:
192,192,73440,1,0,0:0:0:0:
448,192,73617,1,0,0:0:0:0:
320,192,73793,1,0,0:0:0:0:
192,192,73970,128,0,74146:0:0:0:0:
64,192,74146,1,0,0:0:0:0:
448,192,74323,1,0,0:0:0:0:
192,192,74499,1,0,0:0:0:0:
320,192,74676,128,0,74852:0:0:0:0:
448,192,74852,1,0,0:0:0:0:
64,192,75029,1,0,0:0:0:0:
192,192,75205,1,0,0:0:0:0:
320,192,75382,1,0,0:0:0:0:
64,192,75558,1,0,0:0:0:0:
448,192,75734,1,0,0:0:0:0:
192,192,75911,1,0,0:0:0:0:
320,192,76087,128,0,76264:0:0:0:0:
64,192,76264,128,0,76970:0:0:0:0:
448,192,76440,1,0,0:0:0:0:
192,192,76617,1,0,0:0:0:0:
320,192,76793,1,0,0:0:0:0:
448,192,76970,128,0,77323:0:0:0:0:
64,192,77146,1,0,0:0:0:0:
192,192,77323,128,0,77676:0:0:0:0:
448,192,77499,1,0,0:0:0:0:
320,192,77676,128,0,78382:0:0:0:0:
64,192,77852,1,0,0:0:0:0:
448,192,78029,1,0,0:0:0:0:
192,192,78205,1,0,0:0:0:0:
64,192,78382,128,0,78734:0:0:0:0:
320,192,78558,1,0,0:0:0:0:
448,192,78734,128,0,79087:0:0:0:0:
192,192,78911,1,0,0:0:0:0:
64,192,79087,1,0,0:0:0:0:
320,192,79087,1,0,0:0:0:0:
448,192,79264,1,0,0:0:0:0:
192,192,79440,1,0,0:0:0:0:
320,192,79617,128,0,79793:0:0:0:0:
64,192,79793,1,0,0:0:0:0:
448,192,79970,1,0,0:0:0:0:
320,192,80146,1,0,0:0:0:0:
192,192,80323,128,0,80499:0:0:0:0:
64,192,80499,1,0,0:0:0:0:
448,192,80676,1,0,0:0:0:0:
192,192,80852,1,0,0:0:0:0:
320,192,81029,1,0,0:0:0:0:
64,192,81205,1,0,0:0:0:0:
64,192,81470,1,0,0:0:0:0:
448,192,81734,128,0,81911:0:0:0:0:
64,192,81911,5,0,0:0:0:0:
320,192,82087,1,0,0:0:0:0:
192,192,82264,1,0,0:0:0:0:
448,192,82440,128,0,82617:0:0:0:0:
320,192,82617,1,0,0:0:0:0:
192,192,82793,1,0,0:0:0:0:
448,192,82970,1,0,0:0:0:0:
64,192,83146,128,0,83323:0:0:0:0:
192,192,83323,1,0,0:0:0:0:
320,192,83499,1,0,0:0:0:0:
448,192,83676,128,0,83852:0:0:0:0:
64,192,83852,128,0,84029:0:0:0:0:
448,192,84029,128,0,84734:0:0:0:0:
192,192,84734,1,0,0:0:0:0:
64,192,84734,1,0,0:0:0:0:
320,192,84911,1,0,0:0:0:0:
448,192,85087,1,0,0:0:0:0:
64,192,85264,128,0,85440:0:0:0:0:
320,192,85440,1,0,0:0:0:0:
192,192,85617,1,0,0:0:0:0:
64,192,85793,1,0,0:0:0:0:
448,192,85970,128,0,86146:0:0:0:0:
320,192,86146,1,0,0:0:0:0:
64,192,86323,1,0,0:0:0:0:
320,192,86499,1,0,0:0:0:0:
192,192,86676,1,0,0:0:0:0:
448,192,86852,1,0,0:0:0:0:
192,192,87029,1,0,0:0:0:0:
320,192,87205,1,0,0:0:0:0:
64,192,87382,1,0,0:0:0:0:
448,192,87558,1,0,0:0:0:0:
320,192,87734,1,0,0:0:0:0:
192,192,87911,1,0,0:0:0:0:
64,192,88087,1,0,0:0:0:0:
320,192,88264,1,0,0:0:0:0:
448,192,88440,1,0,0:0:0:0:
64,192,88617,1,0,0:0:0:0:
192,192,88793,1,0,0:0:0:0:
320,192,88970,1,0,0:0:0:0:
448,192,89146,1,0,0:0:0:0:
192,192,89323,5,0,0:0:0:0:
64,192,89499,1,0,0:0:0:0:
320,192,89676,1,0,0:0:0:0:
192,192,89852,1,0,0:0:0:0:
448,192,90029,1,0,0:0:0:0:
64,192,90382,5,0,0:0:0:0:
64,192,90646,1,0,0:0:0:0:
448,192,90911,128,0,91087:0:0:0:0:
320,192,91087,1,0,0:0:0:0:
320,192,91352,1,0,0:0:0:0:
192,192,91617,128,0,91793:0:0:0:0:
64,192,91793,1,0,0:0:0:0:
448,192,91970,1,0,0:0:0:0:
192,192,92146,1,0,0:0:0:0:
320,192,92323,1,0,0:0:0:0:
64,192,92499,1,0,0:0:0:0:
448,192,92764,1,0,0:0:0:0:
192,192,93029,128,0,93205:0:0:0:0:
64,192,93205,1,0,0:0:0:0:
320,192,93382,1,0,0:0:0:0:
64,192,93558,1,0,0:0:0:0:
320,192,93734,1,0,0:0:0:0:
448,192,93911,1,0,0:0:0:0:
192,192,94087,1,0,0:0:0:0:
448,192,94264,1,0,0:0:0:0:
192,192,94440,1,0,0:0:0:0:
64,192,94617,1,0,0:0:0:0:
320,192,94793,128,0,94970:0:0:0:0:
192,192,94970,1,0,0:0:0:0:
64,192,95146,128,0,95323:0:0:0:0:
448,192,95323,1,0,0:0:0:0:
192,192,95499,128,0,95676:0:0:0:0:
320,192,95676,1,0,0:0:0:0:
448,192,95852,128,0,96029:0:0:0:0:
64,192,96029,1,0,0:0:0:0:
64,192,96205,1,0,0:0:0:0:
320,192,96382,128,0,96734:0:0:0:0:
192,192,96734,1,0,0:0:0:0:
192,192,96911,1,0,0:0:0:0:
448,192,97087,128,0,97440:0:0:0:0:
320,192,97440,1,0,0:0:0:0:
320,192,97617,1,0,0:0:0:0:
64,192,97793,128,0,98146:0:0:0:0:
448,192,98146,1,0,0:0:0:0:
448,192,98411,1,0,0:0:0:0:
448,192,98676,1,0,0:0:0:0:
64,192,98852,1,0,0:0:0:0:
320,192,99029,1,0,0:0:0:0:
192,192,99293,1,0,0:0:0:0:
448,192,99558,128,0,99911:0:0:0:0:
64,192,99911,128,0,100264:0:0:0:0:
320,192,100264,128,0,100529:0:0:0:0:
192,192,100529,1,0,0:0:0:0:
448,192,100793,1,0,0:0:0:0:
64,192,100970,1,0,0:0:0:0:
320,192,101323,128,0,101676:0:0:0:0:
64,192,101676,1,0,0:0:0:0:
448,192,101676,1,0,0:0:0:0:
192,192,102029,1,0,0:0:0:0:
320,192,102382,128,0,102734:0:0:0:0:
64,192,102734,128,0,102911:0:0:0:0:
448,192,103087,1,0,0:0:0:0:
64,192,103440,1,0,0:0:0:0:
192,192,103793,128,0,104146:0:0:0:0:
448,192,104146,128,0,104499:0:0:0:0:
64,192,104499,1,0,0:0:0:0:
320,192,104852,1,0,0:0:0:0:
192,192,105205,128,0,105558:0:0:0:0:
448,192,105558,128,0,105734:0:0:0:0:
64,192,105911,1,0,0:0:0:0:
320,192,106264,1,0,0:0:0:0:
192,192,106617,128,0,106970:0:0:0:0:
448,192,106970,1,0,0:0:0:0:
64,192,107146,1,0,0:0:0:0:
448,192,107323,1,0,0:0:0:0:
192,192,107676,1,0,0:0:0:0:
320,192,108029,128,0,108382:0:0:0:0:
64,192,108382,128,0,108558:0:0:0:0:
448,192,108734,1,0,0:0:0:0:
192,192,109087,1,0,0:0:0:0:
320,192,109440,128,0,109793:0:0:0:0:
64,192,109793,128,0,110146:0:0:0:0:
448,192,110146,1,0,0:0:0:0:
448,192,110411,1,0,0:0:0:0:
192,192,110676,128,0,110852:0:0:0:0:
320,192,110852,1,0,0:0:0:0:
320,192,111117,1,0,0:0:0:0:
64,192,111382,128,0,111558:0:0:0:0:
192,192,111558,128,0,112264:0:0:0:0:
320,192,112264,128,0,112970:0:0:0:0:
64,192,112970,5,0,0:0:0:0:
448,192,112970,1,0,0:0:0:0:
64,192,113146,1,0,0:0:0:0:
320,192,113323,1,0,0:0:0:0:
320,192,113499,1,0,0:0:0:0:
192,192,113676,1,0,0:0:0:0:
192,192,113852,1,0,0:0:0:0:
448,192,114029,1,0,0:0:0:0:
448,192,114205,1,0,0:0:0:0:
64,192,114382,1,0,0:0:0:0:
320,192,114558,1,0,0:0:0:0:
64,192,114734,1,0,0:0:0:0:
320,192,114911,1,0,0:0:0:0:
448,192,115087,1,0,0:0:0:0:
192,192,115264,1,0,0:0:0:0:
448,192,115440,1,0,0:0:0:0:
192,192,115617,1,0,0:0:0:0:
64,192,115793,1,0,0:0:0:0:
448,192,115793,1,0,0:0:0:0:
320,192,115970,1,0,0:0:0:0:
192,192,116146,1,0,0:0:0:0:
448,192,116323,1,0,0:0:0:0:
64,192,116499,1,0,0:0:0:0:
320,192,116676,1,0,0:0:0:0:
192,192,116852,1,0,0:0:0:0:
64,192,117029,1,0,0:0:0:0:
448,192,117205,1,0,0:0:0:0:
320,192,117382,1,0,0:0:0:0:
192,192,117558,1,0,0:0:0:0:
64,192,117734,1,0,0:0:0:0:
448,192,117911,128,0,118087:0:0:0:0:
192,192,118176,128,0,118352:0:0:0:0:
320,192,118440,128,0,118617:0:0:0:0:
448,192,118617,1,0,0:0:0:0:
64,192,118617,1,0,0:0:0:0:
448,192,118793,1,0,0:0:0:0:
448,192,118970,1,0,0:0:0:0:
448,192,119146,1,0,0:0:0:0:
192,192,119323,1,0,0:0:0:0:
64,192,119323,1,0,0:0:0:0:
192,192,119499,1,0,0:0:0:0:
192,192,119676,1,0,0:0:0:0:
192,192,119852,1,0,0:0:0:0:
320,192,120029,1,0,0:0:0:0:
448,192,120029,1,0,0:0:0:0:
320,192,120205,1,0,0:0:0:0:
320,192,120382,1,0,0:0:0:0:
320,192,120558,1,0,0:0:0:0:
64,192,120734,1,0,0:0:0:0:
448,192,120734,1,0,0:0:0:0:
64,192,120911,1,0,0:0:0:0:
64,192,121087,1,0,0:0:0:0:
64,192,121264,1,0,0:0:0:0:
448,192,121440,1,0,0:0:0:0:
192,192,121440,1,0,0:0:0:0:
320,192,121617,1,0,0:0:0:0:
64,192,121793,1,0,0:0:0:0:
448,192,121793,1,0,0:0:0:0:
192,192,121970,1,0,0:0:0:0:
320,192,122146,1,0,0:0:0:0:
64,192,122146,1,0,0:0:0:0:
448,192,122323,1,0,0:0:0:0:
64,192,122499,1,0,0:0:0:0:
192,192,122499,1,0,0:0:0:0:
320,192,122676,1,0,0:0:0:0:
448,192,122852,128,0,123558:0:0:0:0:
64,192,123558,128,0,124264:0:0:0:0:
448,192,124264,1,0,0:0:0:0:
320,192,124352,1,0,0:0:0:0:
192,192,124440,1,0,0:0:0:0:
448,192,124617,1,0,0:0:0:0:
320,192,124705,1,0,0:0:0:0:
64,192,124882,1,0,0:0:0:0:
192,192,124970,128,0,125087:0:0:0:0:
320,192,125087,1,0,0:0:0:0:
448,192,125264,1,0,0:0:0:0:
192,192,125382,1,0,0:0:0:0:
320,192,125440,1,0,0:0:0:0:
64,192,125558,1,0,0:0:0:0:
448,192,125676,1,0,0:0:0:0:
64,192,125793,1,0,0:0:0:0:
320,192,125911,1,0,0:0:0:0:
192,192,126029,1,0,0:0:0:0:
448,192,126205,1,0,0:0:0:0:
64,192,126264,1,0,0:0:0:0:
64,192,126499,1,0,0:0:0:0:
192,192,126676,1,0,0:0:0:0:
320,192,126734,128,0,127087:0:0:0:0:
448,192,127087,1,0,0:0:0:0:
448,192,127352,1,0,0:0:0:0:
192,192,127617,1,0,0:0:0:0:
320,192,127705,1,0,0:0:0:0:
64,192,128146,128,0,129911:0:0:0:0:
192,192,128146,1,0,0:0:0:0:
192,192,129734,128,0,129911:0:0:0:0:
448,192,129911,1,0,0:0:0:0:
