osu file format v14

[General]
AudioFilename: audio.mp3
AudioLeadIn: 0
PreviewTime: 1245
Countdown: 0
SampleSet: None
StackLeniency: 0.2
Mode: 0
LetterboxInBreaks: 0
WidescreenStoryboard: 0

[Editor]
Bookmarks: 23063,37608,57002,76396,90941,113972,126093,145487,164881,184275,203669,215790,241244,265487,270335,275184,284881,299426,304275,313972,334578,358820
DistanceSpacing: 2
BeatDivisor: 4
GridSize: 32
TimelineZoom: 2

[Metadata]
Title:Rebirth the end Part I - Sasanqua
TitleUnicode:Rebirth the end Part I - Sasanqua
Artist:Noah ft. Ai Ohsera
ArtistUnicode:Noah ft.大瀬良あい
Creator:Scarsnic
Version:SAZANKA
Source:
Tags:Noah Rebirth The End Technical Metal Electronic Orchestral Streams
BeatmapID:1862260
BeatmapSetID:890830

[Difficulty]
HPDrainRate:5.2
CircleSize:4
OverallDifficulty:9.2
ApproachRate:9.7
SliderMultiplier:2
SliderTickRate:1

[Events]
//Background and Video events
0,0,"23.jpg",0,0
//Break Periods
2,148035,153972
//Storyboard Layer 0 (Background)
//Storyboard Layer 1 (Fail)
//Storyboard Layer 2 (Pass)
//Storyboard Layer 3 (Foreground)
//Storyboard Sound Samples

[TimingPoints]
941,-200,4,2,1,50,0,0
1245,303.030303030303,4,2,1,50,1,0
1245,-500,4,2,1,50,0,0
6093,-666.666666666667,4,2,1,50,0,0
7457,-1000,4,2,1,50,0,0
8517,-666.666666666667,4,2,1,50,0,0
10941,-500,4,2,1,50,0,0
11396,-400,4,2,1,50,0,0
12229,-400,4,2,1,5,0,0
12305,-400,4,2,1,50,0,0
13366,-500,4,2,1,50,0,0
14578,-666.666666666667,4,2,1,50,0,0
15714,-666.666666666667,4,2,1,5,0,0
15790,-1000,4,2,1,50,0,0
22760,-1000,4,2,1,5,0,0
23063,-125,4,3,1,55,0,0
24805,-125,4,3,1,5,0,0
24881,-125,4,3,1,55,0,0
25411,-125,4,3,1,5,0,0
25487,-125,4,3,1,55,0,0
27608,-111.111111111111,4,3,1,55,0,0
27911,-100,4,3,1,60,0,0
30335,-250,4,3,1,40,0,0
30638,-200,4,3,1,43,0,0
30941,-166.666666666667,4,3,1,46,0,0
31244,-142.857142857143,4,3,1,49,0,0
31548,-125,4,3,1,52,0,0
31851,-111.111111111111,4,3,1,55,0,0
32154,-99.9999999999999,4,3,1,58,0,0
32457,-90.9090909090909,4,3,1,61,0,0
32760,-83.3333333333333,4,3,1,64,0,0
33063,-83.3333333333333,4,3,1,67,0,0
33366,-83.3333333333333,4,3,1,70,0,0
33669,-83.3333333333333,4,3,1,73,0,0
33972,-83.3333333333333,4,3,1,76,0,0
34275,-83.3333333333333,4,3,1,79,0,0
34578,-83.3333333333333,4,3,1,80,0,0
34881,-83.3333333333333,4,3,1,83,0,0
35184,-200,4,3,1,86,0,0
35689,-200,4,3,1,5,0,0
35790,-71.4285714285714,4,3,1,86,0,0
35891,-71.4285714285714,4,3,1,5,0,0
35992,-71.4285714285714,4,3,1,86,0,0
36093,-71.4285714285714,4,3,1,5,0,0
36194,-71.4285714285714,4,3,1,86,0,0
36295,-71.4285714285714,4,3,1,5,0,0
36396,-200,4,3,1,86,0,0
36926,-200,4,3,1,5,0,0
37002,-200,4,3,1,44,0,0
37078,-200,4,3,1,46,0,0
37154,-200,4,3,1,48,0,0
37229,-200,4,3,1,50,0,0
37305,-200,4,3,1,52,0,0
37381,-200,4,3,1,54,0,0
37457,-200,4,3,1,56,0,0
37532,-200,4,3,1,58,0,0
37608,-100,4,2,1,60,0,0
49654,-100,4,2,1,5,0,0
49729,-100,4,2,1,60,0,0
52078,-100,4,2,1,5,0,0
52154,-250,4,2,1,60,0,0
52381,-250,4,2,1,5,0,0
52457,-90.9090909090909,4,2,1,60,0,0
52760,-250,4,2,1,60,0,0
52987,-250,4,2,1,5,0,0
53063,-90.9090909090909,4,2,1,60,0,0
53366,-250,4,2,1,60,0,0
53593,-250,4,2,1,5,0,0
53669,-90.9090909090909,4,2,1,60,0,0
53972,-250,4,2,1,60,0,0
54199,-250,4,2,1,5,0,0
54275,-90.9090909090909,4,2,1,60,0,0
54578,-250,4,2,1,60,0,0
54805,-250,4,2,1,5,0,0
54881,-90.9090909090909,4,2,1,60,0,0
55184,-250,4,2,1,60,0,0
55411,-250,4,2,1,5,0,0
55487,-90.9090909090909,4,2,1,60,0,0
57002,-83.3333333333333,4,3,1,65,0,0
57229,-83.3333333333333,4,3,1,5,0,0
57305,-83.3333333333333,4,3,1,65,0,0
60260,-83.3333333333333,4,3,1,65,0,0
60411,-83.3333333333333,4,3,1,5,0,0
60487,-83.3333333333333,4,3,1,65,0,0
60563,-83.3333333333333,4,3,1,5,0,0
60638,-83.3333333333333,4,3,1,65,0,0
60866,-83.3333333333333,4,3,1,65,0,0
61017,-83.3333333333333,4,3,1,5,0,0
61093,-83.3333333333333,4,3,1,65,0,0
61169,-83.3333333333333,4,3,1,5,0,0
61244,-83.3333333333333,4,3,1,65,0,0
64199,-83.3333333333333,4,3,1,5,0,0
64275,-83.3333333333333,4,3,1,65,0,0
64578,-66.6666666666667,4,3,1,65,0,0
64881,-83.3333333333333,4,3,1,65,0,0
65184,-66.6666666666667,4,3,1,65,0,0
65487,-83.3333333333333,4,3,1,65,0,0
66926,-83.3333333333333,4,3,1,5,0,0
67002,-83.3333333333333,4,3,1,65,0,0
69957,-83.3333333333333,4,3,1,65,0,0
70108,-83.3333333333333,4,3,1,5,0,0
70184,-83.3333333333333,4,3,1,65,0,0
70260,-83.3333333333333,4,3,1,5,0,0
70335,-83.3333333333333,4,3,1,65,0,0
70563,-83.3333333333333,4,3,1,65,0,0
70714,-83.3333333333333,4,3,1,5,0,0
70790,-83.3333333333333,4,3,1,65,0,0
70866,-83.3333333333333,4,3,1,5,0,0
70941,-83.3333333333333,4,3,1,65,0,0
73063,-66.6666666666667,4,3,1,65,0,0
73366,-83.3333333333333,4,3,1,65,0,0
73972,-66.6666666666667,4,3,1,65,0,0
74199,-66.6666666666667,4,3,1,5,0,0
74275,-66.6666666666667,4,3,1,65,0,0
75108,-66.6666666666667,4,3,1,5,0,0
75184,-83.3333333333333,4,3,1,65,0,0
76396,-250,4,3,1,65,0,0
78416,-250,4,3,1,5,0,0
78517,-250,4,3,1,65,0,0
78820,-100,4,3,1,65,0,0
83063,-66.6666666666667,4,3,1,65,0,0
83669,-100,4,3,1,65,0,0
85714,-83.3333333333333,4,3,1,5,0,0
85790,-250,4,3,1,65,0,0
85992,-250,4,3,1,5,0,0
86093,-83.3333333333333,4,3,1,65,0,0
107305,-66.6666666666667,4,3,1,65,0,0
107532,-66.6666666666667,4,3,1,5,0,0
107608,-83.3333333333333,4,3,1,65,0,0
109123,-76.9230769230769,4,3,1,65,0,0
109729,-71.4285714285714,4,3,1,65,0,0
110335,-66.6666666666667,4,3,1,65,0,0
110941,-62.5,4,3,1,65,0,0
111143,-52.6315789473684,4,3,1,65,0,0
111346,-45.4545454545455,4,3,1,65,0,0
112760,-71.4285714285714,4,3,1,65,0,0
113972,-83.3333333333333,4,3,1,75,0,1
118138,-83.3333333333333,4,3,1,5,0,1
118214,-83.3333333333333,4,3,1,75,0,1
118820,-71.4285714285714,4,3,1,75,0,1
120032,-62.5,4,3,1,75,0,1
120335,-62.5,4,3,1,5,0,1
120411,-62.5,4,3,1,75,0,1
120866,-62.5,4,3,1,5,0,1
120941,-62.5,4,3,1,75,0,1
121244,-83.3333333333333,4,3,1,75,0,1
125487,-333.333333333333,4,3,1,75,0,1
126093,-100,4,3,1,65,0,0
143063,-76.9230769230769,4,3,1,65,0,0
143366,-76.9230769230769,4,3,1,65,0,0
145487,-100,4,2,1,65,0,0
157532,-100,4,2,1,5,0,0
157608,-100,4,2,1,65,0,0
159957,-100,4,2,1,5,0,0
160032,-250,4,2,1,65,0,0
160260,-250,4,2,1,5,0,0
160335,-90.9090909090909,4,2,1,65,0,0
160638,-250,4,2,1,65,0,0
160866,-250,4,2,1,5,0,0
160941,-90.9090909090909,4,2,1,65,0,0
161245,-250,4,2,1,65,0,0
161472,-250,4,2,1,5,0,0
161548,-90.9090909090909,4,2,1,65,0,0
161851,-250,4,2,1,65,0,0
162078,-250,4,2,1,5,0,0
162154,-90.9090909090909,4,2,1,65,0,0
162457,-250,4,2,1,65,0,0
162684,-250,4,2,1,5,0,0
162760,-90.9090909090909,4,2,1,65,0,0
163063,-250,4,2,1,65,0,0
163290,-250,4,2,1,5,0,0
163366,-90.9090909090909,4,2,1,65,0,0
164578,-333.333333333333,4,2,1,65,0,0
164805,-333.333333333333,4,2,1,5,0,0
164881,-83.3333333333333,4,3,1,65,0,0
165108,-83.3333333333333,4,3,1,5,0,0
165184,-83.3333333333333,4,3,1,65,0,0
168290,-83.3333333333333,4,3,1,5,0,0
168366,-83.3333333333333,4,3,1,65,0,0
168441,-83.3333333333333,4,3,1,5,0,0
168517,-83.3333333333333,4,3,1,65,0,0
168896,-83.3333333333333,4,3,1,5,0,0
168972,-83.3333333333333,4,3,1,65,0,0
169048,-83.3333333333333,4,3,1,5,0,0
169123,-83.3333333333333,4,3,1,65,0,0
172078,-83.3333333333333,4,3,1,5,0,0
172154,-83.3333333333333,4,3,1,65,0,0
172457,-66.6666666666667,4,3,1,65,0,0
172760,-83.3333333333333,4,3,1,65,0,0
173063,-66.6666666666667,4,3,1,65,0,0
173366,-83.3333333333333,4,3,1,65,0,0
174805,-83.3333333333333,4,3,1,5,0,0
174881,-83.3333333333333,4,3,1,65,0,0
177987,-83.3333333333333,4,3,1,5,0,0
178063,-83.3333333333333,4,3,1,65,0,0
178138,-83.3333333333333,4,3,1,5,0,0
178214,-83.3333333333333,4,3,1,65,0,0
178593,-83.3333333333333,4,3,1,5,0,0
178669,-83.3333333333333,4,3,1,65,0,0
178744,-83.3333333333333,4,3,1,5,0,0
178820,-83.3333333333333,4,3,1,65,0,0
180941,-66.6666666666667,4,3,1,65,0,0
181244,-83.3333333333333,4,3,1,65,0,0
181851,-66.6666666666667,4,3,1,65,0,0
182078,-66.6666666666667,4,3,1,5,0,0
182154,-66.6666666666667,4,3,1,65,0,0
182987,-66.6666666666667,4,3,1,5,0,0
183063,-66.6666666666667,4,3,1,65,0,0
241244,-83.3333333333333,4,3,1,65,0,1
265487,-100,4,2,1,65,0,0
313972,-83.3333333333333,4,3,1,65,0,1
334578,-83.3333333333333,4,3,1,65,0,0
358820,-83.3333333333333,4,3,1,65,0,1
397608,-83.3333333333333,4,3,1,65,0,0

[Colours]
Combo1 : 0,0,183
Combo2 : 98,0,98
Combo3 : 0,0,94
Combo4 : 174,0,174

[HitObjects]
285,115,941,5,0,0:0:0:0:
319,134,1042,1,0,0:0:0:0:
333,171,1143,1,0,0:0:0:0:
267,205,1245,6,0,B|185:221|185:221|115:191|115:191|143:146|123:96|123:96|197:78|197:78|223:149|184:229|184:229|156:291|156:291|94:264,1,620,4|0,2:1|2:0,2:0:0:0:
245,290,6093,6,0,L|362:263,1,119.999996337891
267,205,7457,2,0,L|208:191,1,60
153,69,8517,6,0,B|178:116|178:116|174:177|174:177|218:163|218:163|235:195|266:204,1,224.999993133545
333,120,10941,2,0,L|294:124,1,40
370,220,11396,2,0,L|345:84,1,137.5
319,55,12305,2,0,P|397:77|467:55,1,150
402,178,13366,6,0,P|416:110|462:58,1,140
428,206,14578,2,0,L|315:196,1,112.499996566773
240,270,15790,5,4,0:0:0:0:
275,250,17760,1,0,0:0:0:0:
315,220,17911,1,0,0:0:0:0:
390,260,18063,1,0,0:0:0:0:
110,100,18214,5,4,0:0:0:0:
256,192,18290,12,0,22760,0:0:0:0:
220,155,23063,5,4,0:0:0:0:
170,250,24275,2,0,B|282:240|282:240|332:190|332:190|373:200|373:200|427:195,1,280,4|0,0:0|0:0,0:0:0:0:
505,225,24881,5,0,0:0:0:0:
442,278,24982,1,0,0:0:0:0:
457,360,25083,1,0,0:0:0:0:
345,310,25184,2,0,L|225:320,1,120,8|0,0:0|0:0,0:0:0:0:
145,240,25487,5,4,0:0:0:0:
270,100,26699,6,0,L|260:152,2,53.3333333333333,4|0|0,0:0|0:0|0:0,0:0:0:0:
285,10,27002,1,0,0:0:0:0:
299,0,27305,5,4,0:0:0:0:
255,90,27406,1,0,0:0:0:0:
326,160,27507,1,0,0:0:0:0:
281,249,27608,2,0,L|291:308,2,59.9999981689454
106,384,27911,5,4,0:0:0:0:
151,329,28012,1,0,0:0:0:0:
217,304,28113,1,0,0:0:0:0:
286,316,28214,2,0,L|418:304,1,133.333333333333,8|0,0:0|0:0,0:0:0:0:
500,105,28517,5,4,0:0:0:0:
455,160,28618,1,0,0:0:0:0:
389,185,28719,1,0,0:0:0:0:
320,173,28820,2,0,L|187:184,1,133.333333333333,8|0,0:0|0:0,0:0:0:0:
85,120,29123,6,0,B|64:127|64:127|20:119,2,66.6666666666667,4|0|0,0:0|0:0|0:0,0:0:0:0:
170,50,29426,2,0,B|206:33|206:33|299:42,1,133.333333333333,8|0,0:0|0:0,0:0:0:0:
410,90,29729,5,4,0:0:0:0:
405,115,29830,1,0,0:0:0:0:
400,140,29931,1,0,0:0:0:0:
430,215,30032,2,0,P|417:154|474:131,1,133.333333333333,8|0,0:0|0:0,0:0:0:0:
495,295,30335,6,0,L|490:321,2,26.6666666666667
395,330,30638,2,0,L|358:335,2,36.6666677856446
330,245,30941,2,0,L|312:209,2,39.9999987792969
229,280,31244,2,0,L|182:286,2,46.6666652425131
31,139,31548,6,0,L|40:191,2,53.3333333333333
190,182,31851,2,0,L|130:173,2,59.9999981689454
225,29,32154,2,0,L|195:88,2,66.6666666666667
369,134,32457,2,0,L|296:123,2,73.3333355712891
445,65,32760,5,8,0:0:0:0:
443,75,32861,1,0,0:0:0:0:
441,85,32962,1,8,0:0:0:0:
480,155,33063,5,4,1:3:0:0:
461,157,33164,1,0,1:0:0:0:
443,160,33265,1,0,1:0:0:0:
390,221,33366,5,0,1:0:0:0:
381,203,33467,1,0,1:0:0:0:
372,185,33568,1,4,1:0:0:0:
279,131,33669,5,0,1:0:0:0:
302,128,33770,1,0,1:0:0:0:
326,125,33871,1,0,1:0:0:0:
285,220,33972,5,0,1:0:0:0:
258,216,34073,1,0,1:0:0:0:
232,212,34174,1,4,1:0:0:0:
190,135,34275,5,4,1:0:0:0:
160,139,34376,1,0,1:0:0:0:
130,143,34477,1,0,1:0:0:0:
45,215,34578,5,0,1:0:0:0:
78,220,34679,1,0,1:0:0:0:
110,226,34780,1,0,1:0:0:0:
145,315,34881,1,0,1:0:0:0:
181,309,34982,1,0,1:0:0:0:
217,304,35083,1,0,1:0:0:0:
300,215,35184,6,0,B|300:253|300:253|289:276|289:276|298:314|298:314|285:338|285:338|285:375,1,166.666666666667,4|0,0:0|0:0,0:0:0:0:
185,384,35790,6,0,B|163:378|144:361|144:361|139:336|145:314,1,93.3333304850261,4|0,0:0|0:0,0:0:0:0:
160,240,35992,2,0,B|165:218|160:193|160:193|141:176|120:170,1,93.3333304850261,4|0,0:0|0:0,0:0:0:0:
47,146,36194,2,0,B|25:140|6:123|6:123|1:98|7:76,1,93.3333304850261,4|0,0:0|0:0,0:0:0:0:
165,70,36396,6,0,B|223:65|223:65|246:45|246:45|279:44|279:44|324:15,1,175,4|0,0:0|0:0,0:0:0:0:
407,58,37003,1,0,0:0:0:0:
392,67,37079,1,0,0:0:0:0:
377,76,37155,1,0,0:0:0:0:
362,86,37231,1,0,0:0:0:0:
348,96,37306,1,0,0:0:0:0:
333,105,37382,1,0,0:0:0:0:
319,115,37458,1,0,0:0:0:0:
304,125,37534,1,0,0:0:0:0:
290,135,37608,6,0,L|298:237,1,100,4|0,3:0|0:0,0:0:0:0:
335,305,37835,1,0,0:0:0:0:
345,316,37911,1,0,0:0:0:0:
205,375,38063,1,0,0:0:0:0:
208,361,38138,1,0,0:0:0:0:
211,347,38214,1,0,0:0:0:0:
140,225,38366,2,0,L|189:233,2,50
60,120,38669,1,0,0:0:0:0:
57,134,38744,1,0,0:0:0:0:
54,148,38820,5,0,0:0:0:0:
145,45,38972,2,0,L|194:36,2,50
284,107,39275,1,0,0:0:0:0:
287,121,39350,1,0,0:0:0:0:
290,135,39426,1,0,0:0:0:0:
369,32,39578,2,0,L|418:23,2,50
400,120,39805,1,0,0:0:0:0:
395,155,39881,1,0,0:0:0:0:
390,190,39957,1,0,0:0:0:0:
385,225,40032,6,0,L|285:233,1,100
220,195,40260,1,0,0:0:0:0:
210,206,40336,1,0,0:0:0:0:
270,345,40487,1,0,0:0:0:0:
260,334,40563,1,0,0:0:0:0:
250,323,40638,6,0,L|150:331,1,100
85,370,40866,1,0,0:0:0:0:
75,359,40942,1,0,0:0:0:0:
0,225,41093,1,0,0:0:0:0:
10,236,41169,1,0,0:0:0:0:
20,247,41245,6,0,L|120:239,1,100
187,188,41473,1,0,0:0:0:0:
210,206,41548,2,0,L|310:197,1,100
125,130,41775,1,0,0:0:0:0:
144,108,41850,2,0,L|243:98,1,100
335,50,42078,1,0,0:0:0:0:
316,72,42153,2,0,L|320:122,1,50
325,265,42305,1,0,0:0:0:0:
375,219,42381,1,0,0:0:0:0:
310,197,42457,6,0,L|302:299,1,100
265,365,42684,1,0,0:0:0:0:
263,379,42760,1,0,0:0:0:0:
190,260,42911,1,0,0:0:0:0:
195,248,42987,1,0,0:0:0:0:
200,236,43063,1,0,0:0:0:0:
75,320,43215,2,0,L|26:312,2,50
65,180,43518,1,0,0:0:0:0:
51,184,43593,1,0,0:0:0:0:
37,188,43669,5,0,0:0:0:0:
100,75,43821,2,0,L|109:26,2,50
200,125,44124,1,0,0:0:0:0:
197,139,44199,1,0,0:0:0:0:
194,153,44275,1,0,0:0:0:0:
270,35,44426,1,0,0:0:0:0:
273,49,44501,1,0,0:0:0:0:
276,63,44577,1,0,0:0:0:0:
307,212,44729,1,0,0:0:0:0:
310,198,44804,1,0,0:0:0:0:
313,184,44881,6,0,L|413:176,1,100
470,130,45109,1,0,0:0:0:0:
480,141,45185,1,0,0:0:0:0:
405,340,45336,1,0,0:0:0:0:
393,330,45412,1,0,0:0:0:0:
382,320,45487,6,0,L|282:312,1,100
200,325,45714,1,0,0:0:0:0:
203,310,45789,1,0,0:0:0:0:
206,295,45866,1,0,0:0:0:0:
209,280,45941,1,0,0:0:0:0:
212,265,46018,1,0,0:0:0:0:
215,250,46093,6,0,L|115:259,1,100
45,290,46320,1,0,0:0:0:0:
35,279,46396,1,0,0:0:0:0:
62,150,46548,2,0,L|57:199,1,50
40,375,46699,1,0,0:0:0:0:
160,175,46851,1,0,0:0:0:0:
166,163,46926,1,0,0:0:0:0:
172,151,47002,5,0,3:0:0:0:
218,169,47077,1,0,3:0:0:0:
267,173,47153,1,0,3:0:0:0:
316,163,47229,1,0,3:0:0:0:
360,139,47305,5,4,3:1:0:0:
361,248,47457,1,0,0:0:0:0:
305,45,47608,2,0,L|205:54,1,100
120,229,47911,1,0,0:0:0:0:
73,142,48063,2,0,L|183:151,1,100
350,260,48366,1,0,0:0:0:0:
263,308,48518,6,0,B|251:282|251:282|257:211,1,100
205,54,48820,1,0,0:0:0:0:
292,102,48972,2,0,B|303:76|303:76|297:5,1,100
385,152,49275,1,0,0:0:0:0:
144,100,49426,2,0,B|187:96|187:96|234:107|234:107|292:102,1,150
380,60,49729,5,0,0:0:0:0:
257,210,49881,1,0,0:0:0:0:
257,210,50032,2,0,L|157:219,1,100
35,315,50335,1,0,0:0:0:0:
35,315,50486,2,0,L|135:324,1,100
353,275,50790,1,0,0:0:0:0:
269,230,50942,6,0,P|259:278|274:326,1,100
397,192,51244,1,0,0:0:0:0:
449,271,51396,2,0,P|401:285|353:275,1,100
268,136,51699,1,0,0:0:0:0:
456,139,51850,2,0,P|392:127|397:192,1,150
410,75,52154,6,0,L|350:80,1,60,4|0,0:3|0:3,0:3:0:0:
295,163,52457,2,0,L|315:55,1,110.000003356934,8|0,0:0|0:0,0:0:0:0:
130,150,52760,2,0,L|189:144,1,60,4|0,0:3|0:3,0:3:0:0:
200,221,53063,2,0,L|219:112,1,110.000003356934,8|0,0:0|0:0,0:0:0:0:
235,335,53366,6,0,P|206:341|177:333,1,60,4|0,0:3|0:3,0:3:0:0:
264,380,53669,2,0,P|285:331|258:286,1,110.000003356934,8|0,0:0|0:0,0:0:0:0:
66,262,53972,2,0,P|59:290|67:319,1,60,4|0,0:3|0:3,0:3:0:0:
114,238,54275,2,0,P|68:210|20:232,1,110.000003356934,8|0,0:0|0:0,0:0:0:0:
224,172,54578,6,0,L|218:112,1,60,4|0,0:3|0:3,0:3:0:0:
140,75,54881,2,0,B|174:90|174:90|246:85,1,110.000003356934,8|0,0:0|0:0,0:0:0:0:
420,55,55184,2,0,L|360:60,1,60,4|0,0:3|0:3,0:3:0:0:
323,139,55487,2,0,B|338:104|338:104|333:32,1,110.000003356934,8|0,0:0|0:0,0:0:0:0:
150,160,55790,5,0,3:0:0:0:
145,195,55866,1,0,3:0:0:0:
150,230,55941,1,0,3:0:0:0:
165,262,56017,1,0,3:0:0:0:
187,290,56093,1,0,3:0:0:0:
217,309,56169,1,0,3:0:0:0:
250,321,56244,1,0,3:0:0:0:
286,322,56320,1,0,3:0:0:0:
320,315,56396,2,0,B|347:307|347:307|366:287,1,55.0000016784668,0|0,3:0|3:0,3:0:0:0:
369,112,56548,2,0,B|341:119|341:119|322:139,1,55.0000016784668,0|0,3:0|3:0,3:0:0:0:
160,370,56699,1,8,3:2:0:0:
485,234,57002,6,0,B|481:190|481:190|459:164|459:164|486:122|462:65,1,179.999994506836,4|0,0:1|0:0,0:0:0:0:
380,25,57305,2,0,L|260:35,1,119.999996337891,8|0,0:0|0:0,0:0:0:0:
130,165,57608,1,0,0:0:0:0:
189,73,57760,1,0,0:0:0:0:
285,250,57911,2,0,L|403:239,1,119.999996337891,8|0,0:0|0:0,0:0:0:0:
181,262,58214,5,0,0:0:0:0:
122,354,58366,1,0,0:0:0:0:
239,170,58517,1,8,0:0:0:0:
239,170,58669,1,0,0:0:0:0:
79,67,58820,1,0,0:0:0:0:
130,165,58972,1,0,0:0:0:0:
260,35,59123,1,8,0:0:0:0:
263,25,59199,1,0,0:0:0:0:
266,15,59275,1,0,0:0:0:0:
173,258,59426,6,0,P|114:267|60:242,1,119.999996337891
265,155,59729,2,0,P|323:145|377:170,1,119.999996337891,8|0,0:0|0:0,0:0:0:0:
305,337,60032,6,0,B|285:357|251:364|251:364|222:346|210:320,1,119.999996337891,2|0,0:0|0:0,0:0:0:0:
310,247,60260,2,0,L|329:365,1,119.999996337891,2|0,0:0|0:0,0:0:0:0:
395,286,60487,2,0,L|335:275,1,59.9999981689454,2|0,0:0|0:0,0:0:0:0:
167,231,60638,6,0,L|147:112,1,119.999996337891,2|0,0:0|0:0,0:0:0:0:
265,155,60866,2,0,B|254:130|224:113|224:113|191:119|171:140,1,119.999996337891,2|0,0:0|0:0,0:0:0:0:
82,191,61093,2,0,L|141:201,1,59.9999981689454,2|0,0:0|0:0,0:0:0:0:
377,170,61244,1,4,0:0:0:0:
195,335,61396,1,4,0:0:0:0:
285,65,61548,1,8,0:0:0:0:
300,64,61623,1,0,0:0:0:0:
315,63,61699,1,0,0:0:0:0:
330,62,61775,1,0,0:0:0:0:
345,61,61851,6,0,L|464:50,1,119.999996337891,4|0,0:1|0:0,0:0:0:0:
512,130,62078,1,0,0:0:0:0:
495,139,62154,2,0,B|462:141|462:141|437:130,1,59.9999981689454,8|0,0:0|0:0,0:0:0:0:
350,240,62305,2,0,B|347:207|347:207|358:182,1,59.9999981689454
495,320,62457,6,0,L|435:325,1,59.9999981689454
240,370,62608,1,0,0:0:0:0:
231,368,62684,1,0,0:0:0:0:
222,365,62760,2,0,L|215:305,1,59.9999981689454,8|0,0:0|0:0,0:0:0:0:
125,230,62911,2,0,L|131:170,1,59.9999981689454
140,50,63063,5,0,0:0:0:0:
140,50,63214,1,0,0:0:0:0:
40,300,63366,1,8,0:0:0:0:
15,130,63517,1,0,0:0:0:0:
131,170,63669,1,0,0:0:0:0:
265,130,63820,1,0,0:0:0:0:
216,305,63972,2,0,P|234:230|295:276,1,179.999994506836,8|0,0:0|0:0,0:0:0:0:
305,375,64275,6,0,L|326:256,1,119.999996337891
265,130,64578,2,0,B|279:98|279:98|317:84|317:84|358:85|358:85|383:109,1,150.000005722046,4|0,0:1|0:0,0:0:0:0:
425,255,64881,1,4,0:0:0:0:
465,142,65032,1,4,0:0:0:0:
216,305,65184,2,0,B|184:290|184:290|170:252|170:252|171:211|171:211|195:186,1,150.000005722046,4|0,0:1|0:0,0:0:0:0:
319,84,65487,5,4,0:0:0:0:
150,20,65638,1,4,0:0:0:0:
100,305,65790,1,4,0:1:0:0:
170,115,65941,1,0,0:0:0:0:
190,110,66017,1,0,0:0:0:0:
211,112,66093,1,0,0:0:0:0:
230,119,66169,1,0,0:0:0:0:
247,131,66245,1,0,0:0:0:0:
90,220,66396,1,0,0:0:0:0:
90,220,66548,1,0,0:0:0:0:
424,254,66699,6,0,P|364:193|382:109,1,179.999994506836,4|0,0:1|0:0,0:0:0:0:
450,50,67002,2,0,L|330:60,1,119.999996337891,8|0,0:0|0:0,0:0:0:0:
195,187,67305,1,0,0:0:0:0:
195,187,67457,1,0,0:0:0:0:
398,221,67608,2,0,P|407:162|382:108,1,119.999996337891,8|0,0:0|0:0,0:0:0:0:
149,15,67911,5,0,0:0:0:0:
172,101,68063,1,0,0:0:0:0:
247,34,68214,1,8,0:0:0:0:
73,81,68366,1,0,0:0:0:0:
218,273,68517,5,0,0:0:0:0:
195,187,68669,1,0,0:0:0:0:
293,206,68820,1,8,0:0:0:0:
119,253,68972,1,0,0:0:0:0:
293,206,69123,6,0,P|317:259|308:318,1,119.999996337891
83,172,69426,2,0,P|141:162|195:187,1,119.999996337891
211,351,69729,6,0,B|170:382|123:365|123:365|137:342,1,119.999996337891,2|0,0:0|0:0,0:0:0:0:
119,253,69957,2,0,L|100:371,1,119.999996337891,2|0,0:0|0:0,0:0:0:0:
205,270,70184,2,0,L|199:210,1,59.9999981689454,2|0,0:0|0:0,0:0:0:0:
165,25,70335,6,0,L|46:44,1,119.999996337891,2|0,0:0|0:0,0:0:0:0:
145,136,70563,2,0,B|176:95|159:48|159:48|136:62,1,119.999996337891,2|0,0:0|0:0,0:0:0:0:
3,124,70790,2,0,L|62:129,1,59.9999981689454,2|0,0:0|0:0,0:0:0:0:
275,150,70941,1,4,0:0:0:0:
138,343,71093,1,4,0:0:0:0:
136,62,71245,1,8,0:0:0:0:
151,61,71320,1,0,0:0:0:0:
166,60,71396,1,0,0:0:0:0:
181,59,71472,1,0,0:0:0:0:
196,58,71548,6,0,L|315:47,1,119.999996337891,4|0,0:1|0:0,0:0:0:0:
470,105,71775,1,0,0:0:0:0:
453,114,71851,2,0,B|419:120|395:105,1,59.9999981689454,8|0,0:0|0:0,0:0:0:0:
303,144,72002,2,0,B|286:174|293:201,1,59.9999981689454
410,305,72154,6,0,L|405:245,1,59.9999981689454
198,275,72305,1,0,0:0:0:0:
196,284,72381,1,0,0:0:0:0:
193,293,72457,2,0,L|252:297,1,59.9999981689454,8|0,0:0|0:0,0:0:0:0:
290,120,72608,2,0,L|230:126,1,59.9999981689454
3,270,72760,6,0,P|61:280|115:255,1,119.999996337891,4|0,0:0|0:0,0:0:0:0:
62,28,73063,2,0,L|48:178,1,150.000005722046,4|0,0:1|0:0,0:0:0:0:
50,370,73366,1,12,0:0:0:0:
59,372,73442,1,4,0:0:0:0:
68,375,73518,2,0,L|127:368,1,59.9999981689454,4|4,0:0|0:0,0:0:0:0:
216,201,73669,1,12,0:0:0:0:
225,199,73745,1,4,0:0:0:0:
234,196,73820,2,0,L|293:202,1,59.9999981689454,4|4,0:0|0:0,0:0:0:0:
495,346,73972,6,0,P|439:252|476:149,1,225.000008583069,4|0,0:1|0:0,0:0:0:0:
494,63,74275,2,0,B|461:58|435:71|435:71|393:40|350:54,1,150.000005722046,8|0,0:0|0:0,0:0:0:0:
290,120,74502,1,0,0:0:0:0:
376,140,74578,2,0,L|367:238,1,75.0000028610231,4|0,0:0|0:0,0:0:0:0:
215,355,74729,2,0,L|207:265,1,75.0000028610231,4|0,0:0|0:0,0:0:0:0:
78,93,74881,2,0,B|158:107|158:107|200:89|200:89|226:108|226:108|290:120,1,225.000008583069,4|0,0:1|0:0,0:0:0:0:
376,140,75184,5,8,0:0:0:0:
374,158,75259,1,0,0:0:0:0:
372,177,75335,1,0,0:0:0:0:
371,196,75411,1,0,0:0:0:0:
369,214,75487,1,0,0:0:0:0:
367,233,75562,1,0,0:0:0:0:
366,252,75638,1,0,0:0:0:0:
364,270,75714,1,0,0:0:0:0:
362,289,75790,1,0,0:0:0:0:
360,307,75866,1,0,0:0:0:0:
290,335,75941,5,0,0:0:0:0:
230,288,76017,2,0,L|233:250,2,37.5000014305115
145,54,76396,6,0,P|249:52|226:154,1,240,4|0,0:1|0:0,0:0:0:0:
32,124,77608,6,0,P|52:31|145:53,1,213.333333333333,4|0,0:1|0:0,0:0:0:0:
135,175,78517,2,0,L|108:171,2,26.6666666666667
205,255,78820,6,0,L|335:231,1,133.333333333333,4|4,0:0|0:0,0:0:0:0:
410,185,79123,2,0,B|386:161|386:161|354:152,2,66.6666666666667,8|0|0,0:0|0:0|0:0,0:0:0:0:
325,296,79426,6,0,L|336:230,1,66.6666666666667,4|0,0:0|0:0,0:0:0:0:
366,86,79628,2,0,L|354:151,1,66.6666666666667,4|8,0:0|0:0,0:0:0:0:
209,164,79830,2,0,L|275:176,1,66.6666666666667
456,319,80032,6,0,L|324:295,1,133.333333333333,4|4,0:0|0:0,0:0:0:0:
164,295,80335,1,8,0:0:0:0:
241,263,80436,1,0,0:0:0:0:
230,345,80537,1,0,0:0:0:0:
137,368,80638,6,0,L|142:301,1,66.6666666666667,4|0,0:0|0:0,0:0:0:0:
75,230,80840,2,0,L|139:215,1,66.6666666666667,4|8,0:0|0:0,0:0:0:0:
187,128,81042,2,0,L|221:185,1,66.6666666666667
70,135,81244,6,0,L|113:84,1,66.6666666666667,4|0,0:0|0:0,0:0:0:0:
175,20,81447,1,4,0:0:0:0:
265,95,81548,1,8,0:0:0:0:
285,74,81649,2,0,L|351:68,1,66.6666666666667
477,191,81851,2,0,L|410:185,1,66.6666666666667,4|0,0:0|0:0,0:0:0:0:
331,239,82053,1,4,0:0:0:0:
241,164,82154,1,8,0:0:0:0:
221,185,82255,2,0,L|154:190,1,66.6666666666667
50,275,82457,6,0,B|89:293|89:293|178:285,1,133.333333333333,4|4,0:0|0:0,0:0:0:0:
241,164,82760,2,0,B|280:145|280:145|369:153,1,133.333333333333,8|0,0:0|0:0,0:0:0:0:
453,360,83063,6,0,P|426:318|426:268,1,100.000003814697,4|0,0:1|0:0,0:0:0:0:
466,179,83265,2,0,P|443:222|400:247,1,100.000003814697,4|0,0:1|0:0,0:0:0:0:
303,256,83467,2,0,P|352:254|395:278,1,100.000003814697,4|0,0:1|0:0,0:0:0:0:
285,375,83669,6,0,L|153:351,1,133.333333333333,4|4,0:0|0:0,0:0:0:0:
65,300,83972,1,8,0:0:0:0:
103,226,84073,1,0,0:0:0:0:
65,152,84174,1,0,0:0:0:0:
103,78,84275,2,0,L|91:12,2,66.6666666666667,4|0|4,0:0|0:0|0:0,0:0:0:0:
170,164,84578,2,0,P|225:129|289:138,1,133.333333333333,8|0,0:0|0:0,0:0:0:0:
335,75,84881,6,0,L|323:208,1,133.333333333333,4|4,0:0|0:0,0:0:0:0:
344,341,85184,1,8,0:0:0:0:
382,267,85285,1,0,0:0:0:0:
323,208,85386,1,0,0:0:0:0:
246,243,85487,2,0,P|198:199|251:161,1,150,4|0,0:0|0:0,0:0:0:0:
209,268,85790,6,0,B|228:287|228:287|255:290,1,53.3333333333333,8|0,0:0|0:0,0:0:0:0:
126,281,86093,5,8,0:0:0:0:
88,207,86194,1,0,0:0:0:0:
146,148,86295,1,0,0:0:0:0:
107,74,86396,2,0,L|27:80,2,79.9999975585938,8|0|0,0:0|0:0|0:0,0:0:0:0:
233,34,86699,5,8,0:0:0:0:
242,76,86800,1,0,0:0:0:0:
251,118,86901,1,0,0:0:0:0:
261,160,87002,2,0,L|340:153,2,79.9999975585938,8|0|0,0:0|0:0|0:0,0:0:0:0:
209,268,87305,5,8,0:0:0:0:
229,298,87406,1,0,0:0:0:0:
259,278,87507,1,0,0:0:0:0:
239,248,87608,2,0,L|223:327,2,79.9999975585938,8|0|0,0:0|0:0|0:0,0:0:0:0:
350,245,87911,5,8,0:0:0:0:
392,236,88012,1,8,0:0:0:0:
434,227,88113,1,8,0:0:0:0:
507,161,88214,5,4,0:0:0:0:
426,143,88315,1,4,0:0:0:0:
345,125,88416,1,4,0:0:0:0:
451,33,88517,5,4,0:1:0:0:
239,248,89123,1,4,0:0:0:0:
197,242,89199,1,4,0:0:0:0:
162,219,89275,1,4,0:0:0:0:
136,186,89351,1,4,0:0:0:0:
96,175,89426,1,4,0:0:0:0:
57,192,89502,1,2,0:0:0:0:
35,228,89578,1,2,0:0:0:0:
38,270,89654,1,2,0:0:0:0:
65,302,89729,5,12,0:0:0:0:
95,272,89805,1,4,0:0:0:0:
112,233,89881,1,2,0:0:0:0:
111,190,89957,1,2,0:0:0:0:
96,151,90032,1,2,0:0:0:0:
102,109,90108,1,2,0:0:0:0:
129,77,90184,1,2,0:0:0:0:
169,63,90260,1,2,0:0:0:0:
210,72,90336,1,2,0:0:0:0:
241,101,90411,1,2,0:0:0:0:
252,142,90487,2,0,P|248:171|235:198,1,59.9999981689454,2|2,0:0|0:0,0:0:0:0:
60,380,90638,1,8,0:0:0:0:
45,384,90941,5,4,0:1:0:0:
245,295,91093,1,8,0:0:0:0:
96,151,91244,1,0,0:0:0:0:
86,154,91320,1,0,0:0:0:0:
76,157,91396,1,8,0:0:0:0:
235,199,91548,2,0,L|361:187,1,119.999996337891,0|8,0:0|0:0,0:0:0:0:
450,255,91775,1,0,0:0:0:0:
423,231,91851,1,0,0:0:0:0:
389,220,91926,1,0,0:0:0:0:
353,224,92002,1,8,0:0:0:0:
160,380,92154,6,0,B|146:349|146:349|153:263,1,119.999996337891,0|8,0:0|0:0,0:0:0:0:
220,120,92457,1,0,0:0:0:0:
217,110,92533,1,0,0:0:0:0:
214,100,92609,1,8,0:0:0:0:
260,310,92760,1,0,0:0:0:0:
16,170,92911,1,8,0:0:0:0:
36,145,92987,2,0,L|95:150,1,59.9999981689454
194,75,93138,1,0,0:0:0:0:
214,100,93214,2,0,L|273:94,1,59.9999981689454,8|0,0:0|0:0,0:0:0:0:
450,15,93366,5,0,0:0:0:0:
353,224,93517,1,8,0:0:0:0:
325,25,93669,1,0,0:0:0:0:
328,15,93745,1,0,0:0:0:0:
331,5,93821,1,8,0:0:0:0:
180,190,93972,1,0,0:0:0:0:
372,329,94123,1,8,0:0:0:0:
407,318,94199,1,0,0:0:0:0:
434,295,94274,1,0,0:0:0:0:
453,264,94350,1,0,0:0:0:0:
459,228,94426,1,8,0:0:0:0:
205,200,94578,6,0,L|225:318,1,119.999996337891,0|8,0:0|0:0,0:0:0:0:
150,384,94805,1,0,0:0:0:0:
125,364,94881,2,0,L|135:304,1,59.9999981689454
180,95,95032,1,8,0:0:0:0:
230,340,95184,1,0,0:0:0:0:
420,155,95335,1,8,0:0:0:0:
399,130,95411,2,0,L|339:140,1,59.9999981689454
73,176,95563,1,0,0:0:0:0:
117,184,95638,1,8,0:0:0:0:
161,192,95714,1,0,0:0:0:0:
205,200,95790,6,0,B|218:169|218:169|211:83,1,119.999996337891,4|8,1:0|0:0,0:0:0:0:
40,25,96093,1,0,0:0:0:0:
30,28,96169,1,0,0:0:0:0:
20,31,96244,2,0,B|8:63|8:63|18:86,1,59.9999981689454,8|0,0:0|0:0,0:0:0:0:
10,205,96396,2,0,B|40:219|40:219|65:211,1,59.9999981689454
273,105,96548,1,8,0:0:0:0:
270,95,96624,1,0,0:0:0:0:
267,85,96699,2,0,B|235:73|235:73|211:83,1,59.9999981689454
175,276,96851,2,0,B|207:287|207:287|230:277,1,59.9999981689454,8|0,0:0|0:0,0:0:0:0:
385,95,97002,5,0,0:0:0:0:
469,317,97154,1,8,0:0:0:0:
243,348,97305,1,0,0:0:0:0:
230,313,97381,1,0,0:0:0:0:
231,277,97457,1,8,0:0:0:0:
243,244,97532,1,0,0:0:0:0:
267,217,97608,1,0,0:0:0:0:
125,145,97760,1,8,0:0:0:0:
145,170,97836,2,0,L|204:164,1,59.9999981689454
305,55,97987,1,0,0:0:0:0:
285,30,98063,2,0,L|225:35,1,59.9999981689454,8|0,0:0|0:0,0:0:0:0:
13,188,98214,6,0,L|132:198,1,119.999996337891,0|8,0:0|0:0,0:0:0:0:
320,280,98517,1,0,0:0:0:0:
317,290,98593,1,0,0:0:0:0:
314,300,98669,1,8,0:0:0:0:
225,145,98820,1,0,0:0:0:0:
85,355,98972,1,8,0:0:0:0:
121,360,99048,1,0,0:0:0:0:
157,365,99124,1,0,0:0:0:0:
193,370,99199,1,0,0:0:0:0:
229,375,99275,1,8,0:0:0:0:
462,259,99426,5,2,0:0:0:0:
415,222,99501,1,0,0:0:0:0:
359,202,99577,1,8,0:0:0:0:
299,204,99653,1,0,0:0:0:0:
243,224,99729,1,2,0:0:0:0:
184,230,99804,1,0,0:0:0:0:
132,198,99880,1,8,0:0:0:0:
107,143,99956,1,0,0:0:0:0:
125,85,100032,5,2,0:0:0:0:
146,89,100108,1,0,0:0:0:0:
167,93,100184,1,8,0:0:0:0:
188,97,100260,1,0,0:0:0:0:
209,101,100336,1,2,0:0:0:0:
230,105,100411,1,0,0:0:0:0:
251,109,100487,1,8,0:0:0:0:
272,113,100563,1,0,0:0:0:0:
293,117,100639,5,4,0:1:0:0:
415,15,100790,1,8,0:0:0:0:
359,202,100941,1,0,0:0:0:0:
349,205,101017,1,0,0:0:0:0:
339,208,101093,1,8,0:0:0:0:
280,30,101244,1,0,0:0:0:0:
490,135,101396,1,8,0:0:0:0:
495,171,101472,1,0,0:0:0:0:
500,207,101548,1,0,0:0:0:0:
505,243,101623,1,0,0:0:0:0:
510,279,101699,1,8,0:0:0:0:
319,349,101851,6,0,P|263:327|229:279,1,119.999996337891,0|8,0:0|0:0,0:0:0:0:
224,125,102154,1,0,0:0:0:0:
227,115,102230,1,0,0:0:0:0:
230,105,102305,1,8,0:0:0:0:
95,110,102457,1,0,0:0:0:0:
290,200,102608,1,8,0:0:0:0:
315,180,102684,2,0,L|319:120,1,59.9999981689454
150,305,102835,1,0,0:0:0:0:
125,285,102911,2,0,L|120:225,1,59.9999981689454,8|0,0:0|0:0,0:0:0:0:
40,20,103063,6,0,L|159:30,1,119.999996337891,0|8,0:0|0:0,0:0:0:0:
319,120,103366,1,0,0:0:0:0:
329,117,103442,1,0,0:0:0:0:
339,114,103518,1,8,0:0:0:0:
472,20,103669,2,0,L|352:30,1,119.999996337891,0|8,0:0|0:0,0:0:0:0:
225,0,103896,1,0,0:0:0:0:
250,20,103972,2,0,L|254:79,1,59.9999981689454
145,185,104123,2,0,L|149:244,1,59.9999981689454,8|0,0:0|0:0,0:0:0:0:
315,330,104275,6,0,L|325:210,1,119.999996337891,0|8,0:0|0:0,0:0:0:0:
440,120,104578,1,0,0:0:0:0:
430,117,104654,1,0,0:0:0:0:
420,114,104730,1,8,0:0:0:0:
237,227,104881,1,0,0:0:0:0:
460,255,105032,1,8,0:0:0:0:
480,230,105108,2,0,L|421:224,1,59.9999981689454
216,148,105260,1,0,0:0:0:0:
243,167,105336,2,0,L|237:226,1,59.9999981689454,8|0,0:0|0:0,0:0:0:0:
160,375,105487,6,0,L|219:380,1,59.9999981689454,4|0,0:1|0:0,0:0:0:0:
430,384,105638,1,8,0:0:0:0:
401,368,105714,2,0,L|396:308,1,59.9999981689454
320,105,105866,1,0,0:0:0:0:
335,133,105942,2,0,L|394:137,1,59.9999981689454,8|0,0:0|0:0,0:0:0:0:
511,5,106093,2,0,L|391:16,1,119.999996337891,0|8,0:0|0:0,0:0:0:0:
305,5,106321,1,0,0:0:0:0:
304,41,106397,1,0,0:0:0:0:
292,74,106472,1,0,0:0:0:0:
268,101,106548,2,0,L|208:95,1,59.9999981689454,8|0,0:0|0:0,0:0:0:0:
40,55,106699,5,12,0:0:0:0:
30,58,106775,1,4,0:0:0:0:
20,61,106851,2,0,L|25:120,1,59.9999981689454,4|4,0:0|0:0,0:0:0:0:
5,315,107002,1,12,0:0:0:0:
8,325,107078,1,4,0:0:0:0:
11,335,107154,2,0,L|70:340,1,59.9999981689454,4|4,0:0|0:0,0:0:0:0:
417,347,107305,6,0,B|430:302|408:269|408:269|430:211|430:211|394:137,1,225.000008583069,4|0,0:1|0:0,0:0:0:0:
320,50,107608,2,0,L|309:169,1,119.999996337891
300,250,107835,1,0,0:0:0:0:
295,270,107911,5,2,0:0:0:0:
241,297,107987,1,0,0:0:0:0:
182,286,108063,1,0,0:0:0:0:
142,242,108138,1,0,0:0:0:0:
136,182,108214,1,2,0:0:0:0:
166,130,108290,1,0,0:0:0:0:
149,72,108366,1,0,0:0:0:0:
97,45,108441,1,0,0:0:0:0:
39,59,108517,5,2,0:0:0:0:
91,87,108592,1,0,0:0:0:0:
150,99,108668,1,0,0:0:0:0:
209,93,108744,1,0,0:0:0:0:
265,71,108820,1,2,0:0:0:0:
319,44,108896,1,0,0:0:0:0:
379,35,108972,1,0,0:0:0:0:
436,54,109048,1,0,0:0:0:0:
481,93,109123,6,0,B|471:145|471:145|481:207|481:207|469:263,1,173.333325398763,4|0,0:1|0:0,0:0:0:0:
445,375,109426,1,0,0:0:0:0:
90,200,109628,1,4,0:0:0:0:
166,130,109729,2,0,B|233:118|233:118|256:127,1,93.3333304850261,8|0,0:0|0:0,0:0:0:0:
112,300,109931,1,4,0:0:0:0:
188,230,110032,2,0,B|255:218|255:218|278:227,1,93.3333304850261,8|8,0:0|0:0,0:0:0:0:
181,375,110234,5,8,0:0:0:0:
305,315,110335,2,0,B|315:287|315:287|303:217,1,100.000003814697,4|0,0:0|0:0,0:0:0:0:
125,310,110537,1,4,0:0:0:0:
1,250,110638,2,0,B|-9:222|-9:222|2:152,1,100.000003814697,8|0,0:0|0:0,0:0:0:0:
75,5,110840,5,4,0:0:0:0:
166,130,110941,2,0,P|218:128|259:95,1,106.666666666667,4|0,0:1|0:0,0:0:0:0:
325,175,111143,2,0,P|356:117|346:53,1,126.666663284302,4|0,0:1|0:0,0:0:0:0:
156,4,111346,2,0,P|222:33|259:94,1,146.666671142578,4|0,0:1|0:0,0:0:0:0:
265,384,111548,5,2,0:0:0:0:
188,152,112457,1,0,0:0:0:0:
188,152,112507,1,0,0:0:0:0:
188,152,112558,1,0,0:0:0:0:
188,152,112608,1,0,0:0:0:0:
188,152,112659,1,0,0:0:0:0:
188,152,112709,1,0,0:0:0:0:
188,152,112760,6,0,B|247:157|247:157|306:152|306:152|373:158,1,186.666660970052,4|0,0:0|0:0,0:0:0:0:
475,320,113063,1,4,0:0:0:0:
395,245,113164,2,0,L|302:236,1,93.3333304850261,8|0,0:0|0:0,0:0:0:0:
125,310,113366,2,0,L|104:219,1,93.3333304850261,8|0,0:0|0:0,0:0:0:0:
70,40,113568,1,0,0:0:0:0:
125,45,113669,1,0,0:0:0:0:
180,50,113770,1,0,0:0:0:0:
235,55,113871,1,0,0:0:0:0:
290,135,113972,5,4,0:0:0:0:
390,40,114123,1,4,0:0:0:0:
390,115,114351,1,4,0:0:0:0:
390,190,114654,1,4,0:0:0:0:
282,251,114881,1,4,0:0:0:0:
302,236,114957,1,4,0:0:0:0:
127,272,115184,6,0,B|138:247|138:247|137:217|137:217|198:227,1,119.999996337891,4|0,0:0|0:0,0:0:0:0:
194,184,115411,2,0,B|218:195|218:195|248:194|248:194|238:255,1,119.999996337891,4|0,0:0|0:0,0:0:0:0:
282,251,115638,2,0,B|270:275|270:275|271:305|271:305|210:295,1,119.999996337891,4|0,0:0|0:0,0:0:0:0:
215,339,115866,2,0,B|190:327|190:327|160:328|160:328|170:267,1,119.999996337891,4|0,0:0|0:0,0:0:0:0:
225,155,116093,5,4,0:1:0:0:
127,272,116194,1,4,0:1:0:0:
74,128,116295,1,4,0:1:0:0:
45,360,116396,6,0,L|24:241,1,119.999996337891,4|4,0:0|0:0,0:0:0:0:
89,204,116775,1,4,0:0:0:0:
154,167,117078,1,4,0:0:0:0:
238,256,117305,1,4,0:0:0:0:
218,241,117381,1,4,0:0:0:0:
385,350,117608,6,0,B|389:313|389:313|357:292|357:292|384:257,1,119.999996337891,4|0,0:0|0:0,0:0:0:0:
455,260,117835,2,0,B|420:244|420:244|418:206|418:206|374:213,1,119.999996337891,4|0,0:0|0:0,0:0:0:0:
304,174,118063,2,0,L|363:168,1,59.9999981689454,4|0,0:0|0:0,0:0:0:0:
470,65,118214,5,10,0:0:0:0:
410,100,118315,1,2,0:0:0:0:
349,65,118416,1,2,0:0:0:0:
285,130,118517,5,2,0:0:0:0:
225,165,118618,1,2,0:0:0:0:
164,130,118719,1,2,0:0:0:0:
85,55,118820,6,0,B|54:40|54:40|64:90|64:90|49:142,1,139.999995727539,4|0,0:1|0:0,0:0:0:0:
0,172,119048,2,0,B|16:141|16:141|37:187|37:187|80:221,1,139.999995727539,4|0,0:0|0:0,0:0:0:0:
136,216,119275,2,0,B|104:200|104:200|114:250|114:250|100:303,1,139.999995727539,4|0,0:0|0:0,0:0:0:0:
51,331,119502,2,0,B|67:300|67:300|88:346|88:346|131:380,1,139.999995727539,4|0,0:0|0:0,0:0:0:0:
250,384,119729,1,8,0:0:0:0:
270,369,119805,1,8,0:0:0:0:
285,130,120032,5,4,0:1:0:0:
240,220,120108,2,0,B|287:224|287:224|339:212|339:212|418:228|418:228|390:236|372:264,1,240,4|0,0:0|0:0,0:0:0:0:
443,311,120411,2,0,L|428:148,1,160,4|0,0:0|0:0,0:0:0:0:
305,305,120638,1,4,0:0:0:0:
215,205,120714,2,0,L|57:232,1,160,4|0,0:1|0:0,0:0:0:0:
0,320,120941,5,6,0:0:0:0:
35,235,121042,1,6,0:0:0:0:
38,143,121143,1,6,0:0:0:0:
9,55,121244,5,6,0:0:0:0:
185,95,121548,2,0,P|181:55|157:23,2,79.9999975585938,2|2|2,0:0|0:0|0:0,0:0:0:0:
125,190,121851,1,6,0:0:0:0:
310,150,122154,1,2,0:0:0:0:
305,149,122204,1,2,0:0:0:0:
300,148,122255,1,2,0:0:0:0:
295,147,122305,1,2,0:0:0:0:
290,146,122356,1,2,0:0:0:0:
285,145,122406,1,2,0:0:0:0:
280,144,122456,5,4,0:0:0:0:
247,229,122558,1,4,0:0:0:0:
317,286,122659,1,4,0:0:0:0:
392,237,122760,1,4,0:0:0:0:
172,278,123063,5,4,0:0:0:0:
95,228,123165,1,4,0:0:0:0:
118,141,123266,1,4,0:0:0:0:
207,137,123367,1,4,0:0:0:0:
230,51,123467,1,4,0:0:0:0:
155,2,123568,1,4,0:0:0:0:
85,58,123669,5,4,0:1:0:0:
292,113,124275,1,4,0:1:0:0:
31,164,124881,5,4,0:1:0:0:
317,286,125487,2,0,L|321:237,2,39.9999987792969
415,130,126093,6,0,L|315:138,1,100
240,110,126320,1,0,0:0:0:0:
225,120,126396,2,0,L|217:219,1,100,8|0,0:0|0:0,0:0:0:0:
224,235,126623,1,0,0:0:0:0:
231,251,126699,1,0,0:0:0:0:
160,365,126851,1,0,0:0:0:0:
335,300,127002,2,0,L|434:308,1,100,8|0,0:0|0:0,0:0:0:0:
510,380,127305,5,0,0:0:0:0:
415,130,127532,1,0,0:0:0:0:
422,146,127608,1,8,0:0:0:0:
240,110,127760,2,0,P|223:63|230:14,1,100
330,53,128063,1,0,0:0:0:0:
125,160,128214,2,0,L|25:151,1,100,8|0,0:0|0:0,0:0:0:0:
10,315,128517,5,0,0:0:0:0:
27,293,128593,1,0,0:0:0:0:
49,276,128669,1,0,0:0:0:0:
75,268,128744,1,0,0:0:0:0:
103,269,128820,1,8,0:0:0:0:
129,278,128896,1,0,0:0:0:0:
159,301,128972,1,0,0:0:0:0:
195,313,129048,1,0,0:0:0:0:
244,307,129123,5,0,0:0:0:0:
278,270,129199,1,0,0:0:0:0:
277,220,129275,1,0,0:0:0:0:
242,184,129351,1,0,0:0:0:0:
193,180,129426,1,8,0:0:0:0:
153,210,129502,1,0,0:0:0:0:
103,206,129578,1,0,0:0:0:0:
70,168,129654,1,0,0:0:0:0:
71,119,129729,6,0,L|76:69,3,50
190,55,130032,2,0,L|184:5,3,50,8|0|0|0,0:0|0:0|0:0|0:0,0:0:0:0:
260,105,130335,5,0,0:0:0:0:
272,102,130411,1,0,0:0:0:0:
284,99,130487,1,0,0:0:0:0:
296,96,130563,1,0,0:0:0:0:
308,93,130638,1,8,0:0:0:0:
320,90,130714,1,0,0:0:0:0:
332,87,130790,1,0,0:0:0:0:
344,84,130865,1,0,0:0:0:0:
356,81,130941,6,0,L|347:180,1,100,4|0,0:1|0:0,0:0:0:0:
342,265,131169,1,0,0:0:0:0:
342,283,131245,1,8,0:0:0:0:
110,350,131472,1,0,0:0:0:0:
122,336,131548,2,0,L|221:345,1,100
465,294,131851,1,8,0:0:0:0:
340,380,132002,1,0,0:0:0:0:
153,210,132154,5,0,0:0:0:0:
250,195,132305,1,0,0:0:0:0:
347,180,132457,1,8,0:0:0:0:
285,65,132608,2,0,B|249:52|249:52|188:62,2,100
404,100,133063,1,8,0:0:0:0:
320,305,133214,1,0,0:0:0:0:
151,183,133366,6,0,L|160:83,1,100
174,73,133593,1,0,0:0:0:0:
188,62,133669,1,8,0:0:0:0:
4,125,133820,1,0,0:0:0:0:
90,235,133972,1,0,0:0:0:0:
70,60,134123,1,0,0:0:0:0:
0,265,134275,2,0,L|99:255,1,100,8|0,0:0|0:0,0:0:0:0:
255,215,134578,6,0,L|263:315,1,100
265,332,134805,1,0,0:0:0:0:
268,350,134881,1,8,0:0:0:0:
375,190,135032,1,0,0:0:0:0:
205,135,135184,1,0,0:0:0:0:
205,135,135335,1,0,0:0:0:0:
430,60,135487,5,8,0:0:0:0:
437,58,135563,1,8,0:0:0:0:
444,56,135638,1,4,0:0:0:0:
451,54,135714,1,4,0:0:0:0:
500,35,135790,5,4,0:1:0:0:
450,6,135866,1,0,0:0:0:0:
394,15,135941,1,0,0:0:0:0:
355,58,136017,1,0,0:0:0:0:
353,116,136093,1,8,0:0:0:0:
387,163,136169,1,0,0:0:0:0:
443,177,136245,1,0,0:0:0:0:
474,225,136320,1,0,0:0:0:0:
452,279,136396,1,0,0:0:0:0:
395,288,136472,1,0,0:0:0:0:
340,270,136548,1,0,0:0:0:0:
284,290,136624,1,0,0:0:0:0:
257,340,136700,1,8,0:0:0:0:
203,358,136775,1,0,0:0:0:0:
156,322,136851,1,0,0:0:0:0:
161,265,136927,1,0,0:0:0:0:
225,225,137002,5,2,0:0:0:0:
251,195,137078,2,0,L|246:145,2,50
145,165,137305,1,10,0:0:0:0:
171,135,137381,2,0,L|166:85,2,50
5,224,137608,5,2,0:0:0:0:
35,250,137684,2,0,L|84:245,2,50
65,144,137911,1,10,0:0:0:0:
95,170,137987,2,0,L|144:165,2,50
156,322,138214,6,0,L|255:330,1,100,2|0,0:0|0:0,0:0:0:0:
335,340,138441,1,0,0:0:0:0:
359,342,138517,1,8,0:0:0:0:
394,137,138669,1,0,0:0:0:0:
225,225,138820,2,0,L|324:233,1,100,2|0,0:0|0:0,0:0:0:0:
473,243,139123,1,8,0:0:0:0:
345,361,139275,1,0,0:0:0:0:
294,128,139426,6,0,L|393:136,1,100,2|0,0:0|0:0,0:0:0:0:
473,146,139653,1,0,0:0:0:0:
497,148,139729,1,8,0:0:0:0:
325,234,139881,1,0,0:0:0:0:
363,31,140032,2,0,L|462:39,1,100,2|0,0:0|0:0,0:0:0:0:
483,167,140335,1,8,0:0:0:0:
225,225,140487,1,0,0:0:0:0:
215,222,140563,1,0,0:0:0:0:
205,219,140638,6,0,L|213:119,1,100,4|0,1:0|0:0,0:0:0:0:
223,40,140866,1,0,0:0:0:0:
225,16,140942,1,8,0:0:0:0:
110,265,141169,1,0,0:0:0:0:
125,255,141245,2,0,L|133:155,1,100,2|0,0:0|0:0,0:0:0:0:
145,45,141548,1,8,0:0:0:0:
20,160,141699,1,0,0:0:0:0:
214,120,141851,6,0,L|313:111,1,100,2|0,0:0|0:0,0:0:0:0:
392,101,142078,1,0,0:0:0:0:
417,100,142154,1,8,0:0:0:0:
345,0,142305,1,0,0:0:0:0:
265,195,142457,2,0,L|363:185,1,100,2|0,0:0|0:0,0:0:0:0:
507,169,142760,1,8,0:0:0:0:
425,305,142911,1,0,0:0:0:0:
160,250,143063,6,0,P|183:169|251:218,1,194.999991073609,4|0,0:0|0:0,0:0:0:0:
243,346,143366,5,4,0:1:0:0:
233,347,143441,1,0,0:0:0:0:
223,345,143517,1,0,0:0:0:0:
215,340,143593,1,0,0:0:0:0:
209,332,143669,1,4,0:1:0:0:
206,322,143744,1,0,0:0:0:0:
207,312,143820,1,0,0:0:0:0:
211,304,143896,1,0,0:0:0:0:
218,298,143972,1,4,0:1:0:0:
227,294,144047,1,0,0:0:0:0:
237,293,144123,1,0,0:0:0:0:
245,296,144199,1,0,0:0:0:0:
254,302,144275,5,8,0:0:0:0:
209,340,144351,1,8,0:0:0:0:
151,347,144426,1,0,0:0:0:0:
97,324,144502,1,0,0:0:0:0:
61,278,144578,1,0,0:0:0:0:
69,219,144654,1,0,0:0:0:0:
116,184,144730,1,0,0:0:0:0:
174,192,144806,1,0,0:0:0:0:
226,164,144881,1,0,0:0:0:0:
250,110,144957,1,0,0:0:0:0:
239,51,145033,1,0,0:0:0:0:
195,11,145109,1,0,0:0:0:0:
137,6,145185,1,0,0:0:0:0:
86,32,145260,1,0,0:0:0:0:
62,85,145336,1,0,0:0:0:0:
73,142,145412,1,0,0:0:0:0:
116,184,145488,5,4,3:1:0:0:
256,192,145563,12,0,147835,0:0:0:0:
100,150,154729,5,0,0:0:0:0:
97,163,154804,1,0,0:0:0:0:
94,176,154880,5,0,3:0:0:0:
135,205,154956,1,0,3:0:0:0:
183,219,155032,1,0,3:0:0:0:
233,216,155108,1,0,3:0:0:0:
279,197,155184,5,4,3:1:0:0:
203,67,155336,1,0,0:0:0:0:
340,50,155487,2,0,L|440:41,1,100
310,175,155790,1,0,0:0:0:0:
413,163,155941,2,0,L|513:154,1,100
383,288,156245,1,0,0:0:0:0:
233,216,156397,6,0,P|223:167|240:120,1,100
242,317,156699,1,0,0:0:0:0:
92,245,156851,2,0,P|82:196|99:149,1,100
100,345,157154,1,0,0:0:0:0:
240,121,157305,2,0,B|182:116|182:116|135:127|135:127|92:123,1,150
5,155,157608,5,0,0:0:0:0:
145,30,157760,1,0,0:0:0:0:
145,30,157911,2,0,L|245:39,1,100
360,150,158214,1,0,0:0:0:0:
360,150,158365,2,0,L|260:141,1,100
145,125,158669,1,0,0:0:0:0:
185,290,158821,6,0,B|211:302|211:302|282:296,1,100
235,215,159123,1,0,0:0:0:0:
245,380,159275,2,0,B|271:391|271:391|342:385,1,100
440,375,159578,1,0,0:0:0:0:
409,139,159729,2,0,B|351:134|351:134|304:145|304:145|261:141,1,150
181,81,160032,6,0,B|153:73|153:73|122:80,1,60,4|0,0:3|0:3,0:3:0:0:
153,161,160335,2,0,L|261:141,1,110.000003356934,8|0,0:0|0:0,0:0:0:0:
340,296,160638,2,0,B|309:303|309:303|281:295,1,60,4|0,0:3|0:3,0:3:0:0:
201,236,160942,2,0,L|309:216,1,110.000003356934,8|0,0:0|0:0,0:0:0:0:
105,305,161245,6,0,P|88:279|82:250,1,60,4|0,0:3|0:3,0:3:0:0:
50,177,161548,2,0,P|45:231|13:275,1,110.000003356934,8|0,0:0|0:0,0:0:0:0:
123,80,161851,2,0,P|152:78|181:87,1,60,4|0,0:3|0:3,0:3:0:0:
261,96,162154,2,0,P|216:65|194:15,1,110.000003356934,8|0,0:0|0:0,0:0:0:0:
399,79,162457,6,0,L|408:138,1,60,4|0,0:3|0:3,0:3:0:0:
470,220,162760,2,0,B|495:150|495:150|488:115,1,110.000003356934,8|0,0:0|0:0,0:0:0:0:
349,236,163063,6,0,L|339:295,1,60,4|0,0:3|0:3,0:3:0:0:
390,384,163366,2,0,B|413:356|413:356|426:283,1,110.000003356934,8|0,0:0|0:0,0:0:0:0:
367,78,163669,5,4,3:1:0:0:
354,80,163744,1,0,3:0:0:0:
341,82,163820,1,0,3:0:0:0:
328,84,163896,1,0,3:0:0:0:
315,86,163972,2,0,L|260:95,1,55.0000016784668,0|0,3:0|3:0,3:0:0:0:
410,165,164123,5,4,3:1:0:0:
371,171,164199,1,0,3:0:0:0:
332,177,164274,1,0,3:0:0:0:
293,183,164350,1,0,3:0:0:0:
254,189,164426,2,0,L|182:199,1,55.0000016784668,0|0,3:0|3:0,3:0:0:0:
30,55,164578,6,0,B|17:29|17:29|19:11,1,44.999998626709,0|0,3:0|3:0,3:0:0:0:
19,12,164881,6,0,L|3:191,1,179.999994506836,4|0,0:1|0:0,0:0:0:0:
40,280,165184,2,0,P|98:289|152:264,1,119.999996337891,8|0,0:0|0:0,0:0:0:0:
220,105,165487,1,0,0:0:0:0:
220,105,165639,1,0,0:0:0:0:
472,104,165790,2,0,P|413:94|359:119,1,119.999996337891,8|0,0:0|0:0,0:0:0:0:
292,279,166093,5,0,0:0:0:0:
254,189,166245,1,0,0:0:0:0:
431,209,166396,1,8,0:0:0:0:
431,209,166548,1,0,0:0:0:0:
242,359,166699,5,0,0:0:0:0:
330,369,166851,1,0,0:0:0:0:
342,199,167002,1,8,0:0:0:0:
342,199,167154,1,0,0:0:0:0:
135,178,167305,6,0,L|254:188,1,119.999996337891
420,25,167608,2,0,L|300:35,1,119.999996337891,8|0,0:0|0:0,0:0:0:0:
90,154,167911,6,0,B|68:128|66:99|66:99|40:112|9:107,1,119.999996337891,2|0,0:0|0:0,0:0:0:0:
129,214,168139,2,0,L|148:96,1,119.999996337891,2|0,0:0|0:0,0:0:0:0:
86,15,168366,2,0,P|56:13|28:22,1,59.9999981689454,2|0,0:0|0:0,0:0:0:0:
0,225,168517,6,0,L|19:343,1,119.999996337891,2|0,0:0|0:0,0:0:0:0:
139,236,168744,2,0,B|107:241|81:228|81:228|79:257|57:283,1,119.999996337891,2|0,0:0|0:0,0:0:0:0:
158,321,168972,2,0,P|186:329|216:327,1,59.9999981689454,2|0,0:0|0:0,0:0:0:0:
390,210,169123,1,4,0:0:0:0:
310,384,169275,1,4,0:0:0:0:
304,95,169427,1,8,0:0:0:0:
303,80,169502,1,0,0:0:0:0:
302,65,169578,1,0,0:0:0:0:
301,50,169654,1,0,0:0:0:0:
300,35,169730,6,0,L|419:23,1,119.999996337891,4|0,1:0|0:0,0:0:0:0:
495,90,169957,1,0,0:0:0:0:
480,103,170033,2,0,B|448:113|448:113|421:109,1,59.9999981689454,8|0,0:0|0:0,0:0:0:0:
265,15,170184,2,0,B|238:10|238:10|206:21,1,59.9999981689454
5,105,170336,6,0,L|10:45,1,59.9999981689454
60,235,170487,1,0,0:0:0:0:
69,233,170563,1,0,0:0:0:0:
78,230,170638,2,0,L|85:170,1,59.9999981689454,8|0,0:0|0:0,0:0:0:0:
152,355,170790,2,0,L|159:295,1,59.9999981689454
120,30,170942,5,0,0:0:0:0:
120,30,171093,1,0,0:0:0:0:
90,142,171245,1,8,0:0:0:0:
308,154,171396,2,0,L|303:94,1,59.9999981689454
195,200,171548,1,0,0:0:0:0:
413,212,171699,1,0,0:0:0:0:
246,384,171851,2,0,L|66:368,1,179.999994506836,8|0,0:0|0:0,0:0:0:0:
10,305,172154,6,0,B|-6:271|-6:271|1:188,1,119.999996337891
120,30,172457,2,0,B|7:49|7:49|30:77,1,150.000005722046,4|0,0:1|0:0,0:0:0:0:
210,210,172760,1,4,0:0:0:0:
240,30,172911,1,4,0:0:0:0:
159,295,173063,2,0,B|271:314|271:314|259:280,1,150.000005722046,4|0,0:1|0:0,0:0:0:0:
304,94,173366,5,4,0:0:0:0:
146,146,173517,1,4,0:0:0:0:
415,60,173669,1,8,0:0:0:0:
325,175,173820,1,0,0:0:0:0:
305,180,173896,1,0,0:0:0:0:
284,178,173972,1,0,0:0:0:0:
265,171,174048,1,0,0:0:0:0:
248,159,174124,1,0,0:0:0:0:
328,7,174275,1,0,0:0:0:0:
328,7,174427,1,0,0:0:0:0:
434,270,174578,6,0,B|386:293|386:293|259:280,1,179.999994506836,4|0,0:1|0:0,0:0:0:0:
185,215,174881,2,0,L|65:225,1,119.999996337891,8|0,0:0|0:0,0:0:0:0:
0,297,175184,1,0,0:0:0:0:
90,145,175336,1,0,0:0:0:0:
260,280,175487,2,0,P|282:225|271:167,1,119.999996337891,8|0,0:0|0:0,0:0:0:0:
135,25,175790,5,0,0:0:0:0:
192,106,175942,1,0,0:0:0:0:
252,27,176093,1,8,0:0:0:0:
347,59,176245,1,0,0:0:0:0:
351,259,176396,5,0,0:0:0:0:
349,159,176548,1,0,0:0:0:0:
444,190,176699,1,8,0:0:0:0:
503,110,176851,1,0,0:0:0:0:
460,360,177002,6,0,L|340:349,1,119.999996337891
141,290,177305,2,0,L|260:279,1,119.999996337891,8|0,0:0|0:0,0:0:0:0:
100,44,177608,6,0,B|89:91|89:91|62:117|62:117|65:151,1,119.999996337891,2|0,0:0|0:0,0:0:0:0:
138,191,177836,2,0,B|82:207|82:207|32:170,1,119.999996337891,2|0,0:0|0:0,0:0:0:0:
13,36,178063,2,0,L|72:47,1,59.9999981689454,2|0,0:0|0:0,0:0:0:0:
349,159,178214,6,0,B|298:196|298:196|243:179,1,119.999996337891,2|0,0:0|0:0,0:0:0:0:
281,33,178441,2,0,B|291:80|291:80|318:106|318:106|315:140,1,119.999996337891,2|0,0:0|0:0,0:0:0:0:
206,76,178669,2,0,L|265:64,1,59.9999981689454,2|0,0:0|0:0,0:0:0:0:
445,35,178820,1,4,0:0:0:0:
420,200,178972,1,4,0:0:0:0:
135,29,179124,1,8,0:0:0:0:
120,30,179199,1,0,0:0:0:0:
105,31,179275,1,0,0:0:0:0:
90,32,179351,1,0,0:0:0:0:
75,33,179427,6,0,L|65:152,1,119.999996337891,4|0,1:0|0:0,0:0:0:0:
10,245,179654,1,0,0:0:0:0:
28,236,179730,2,0,B|62:229|86:245,1,59.9999981689454,8|0,0:0|0:0,0:0:0:0:
170,335,179881,2,0,B|194:350|228:344,1,59.9999981689454
390,320,180033,6,0,L|385:260,1,59.9999981689454
205,170,180184,1,0,0:0:0:0:
203,179,180260,1,0,0:0:0:0:
200,188,180336,2,0,L|206:246,1,59.9999981689454,8|0,0:0|0:0,0:0:0:0:
330,115,180487,2,0,L|324:55,1,59.9999981689454
93,156,180639,6,0,P|146:180|204:170,1,119.999996337891,4|0,0:0|0:0,0:0:0:0:
473,41,180942,2,0,L|323:55,1,150.000005722046,4|0,0:1|0:0,0:0:0:0:
80,55,181245,1,12,0:0:0:0:
78,64,181321,1,4,0:0:0:0:
75,73,181397,2,0,L|82:132,1,59.9999981689454,4|4,0:0|0:0,0:0:0:0:
50,378,181548,1,12,0:0:0:0:
59,376,181623,1,4,0:0:0:0:
68,373,181699,2,0,L|127:369,1,59.9999981689454,4|4,0:0|0:0,0:0:0:0:
401,189,181851,6,0,P|307:133|204:169,1,225.000008583069,4|0,0:1|0:0,0:0:0:0:
70,225,182154,2,0,B|219:211,1,150.000005722046,8|0,0:0|0:0,0:0:0:0:
295,264,182381,1,0,0:0:0:0:
212,304,182457,2,0,L|137:297,1,75.0000028610231,4|0,0:0|0:0,0:0:0:0:
7,139,182608,2,0,L|81:132,1,75.0000028610231,4|0,0:0|0:0,0:0:0:0:
469,12,182760,2,0,B|473:76|473:76|462:106|462:106|516:152|498:220,1,225.000008583069,4|0,0:1|0:0,0:0:0:0:
447,302,183063,5,8,0:0:0:0:
430,308,183138,1,0,0:0:0:0:
412,312,183214,1,0,0:0:0:0:
393,312,183290,1,0,0:0:0:0:
374,311,183366,1,0,0:0:0:0:
356,306,183441,1,0,0:0:0:0:
339,300,183517,1,0,0:0:0:0:
323,289,183593,1,0,0:0:0:0:
308,277,183669,1,0,0:0:0:0:
295,264,183744,1,0,0:0:0:0:
224,290,183820,5,0,0:0:0:0:
153,316,183896,2,0,L|115:313,2,37.5000014305115
300,40,184275,5,4,0:1:0:0:
