osu file format v14

[General]
AudioFilename: audio_1.2_P.mp3
AudioLeadIn: 0
PreviewTime: 0
Countdown: 0
SampleSet: None
StackLeniency: 0.7
Mode: 3
LetterboxInBreaks: 0
SpecialStyle: 0
WidescreenStoryboard: 1

[Editor]
Bookmarks: 10322,20645,30967,39999,59354,72257,82580,92902,103225,112257,131612,144515,154838,165160
DistanceSpacing: 0.8
BeatDivisor: 4
GridSize: 8
TimelineZoom: 1.3

[Metadata]
Title:Make Me (Cry) [feat. Labrinth] (Marshmello Remix)
TitleUnicode:Make Me (Cry) [feat. Labrinth] (Marshmello Remix)
Artist:Noah Cyrus
ArtistUnicode:Noah Cyrus
Creator:Midgy
Version:Easy x1.2
Source:
Tags:
BeatmapID:1687949
BeatmapSetID:804142

[Difficulty]
HPDrainRate:8
CircleSize:4
OverallDifficulty:8
ApproachRate:5
SliderMultiplier:1.4
SliderTickRate:1

[Events]
//Background and Video events
0,0,"3marshmallows.jpeg",0,0
//Break Periods
//Storyboard Layer 0 (Background)
//Storyboard Layer 1 (Fail)
//Storyboard Layer 2 (Pass)
//Storyboard Layer 3 (Foreground)
//Storyboard Sound Samples

[TimingPoints]
0,322.58064516129,4,1,0,0,1,0

[HitObjects]
64,192,0,5,0,0:0:0:0:
192,192,0,1,0,0:0:0:0:
320,192,0,1,0,0:0:0:0:
64,192,483,1,0,0:0:0:0:
192,192,483,1,0,0:0:0:0:
448,192,645,128,0,725:0:0:0:0:
320,192,645,1,0,0:0:0:0:
320,192,805,1,0,0:0:0:0:
448,192,805,1,0,0:0:0:0:
448,192,967,1,0,0:0:0:0:
320,192,967,1,0,0:0:0:0:
448,192,1774,1,0,0:0:0:0:
64,192,1774,1,0,0:0:0:0:
192,192,1935,128,0,2015:0:0:0:0:
320,192,1935,1,0,0:0:0:0:
448,192,2257,1,0,0:0:0:0:
320,192,2257,1,0,0:0:0:0:
64,192,2580,1,0,0:0:0:0:
192,192,2580,1,0,0:0:0:0:
448,192,3064,1,0,0:0:0:0:
320,192,3064,1,0,0:0:0:0:
192,192,3225,128,0,3305:0:0:0:0:
64,192,3225,1,0,0:0:0:0:
192,192,3386,1,0,0:0:0:0:
64,192,3386,1,0,0:0:0:0:
192,192,3548,1,0,0:0:0:0:
64,192,3548,1,0,0:0:0:0:
64,192,4354,1,0,0:0:0:0:
320,192,4354,1,0,0:0:0:0:
448,192,4515,128,0,4596:0:0:0:0:
192,192,4515,1,0,0:0:0:0:
448,192,4838,1,0,0:0:0:0:
320,192,4838,1,0,0:0:0:0:
320,192,5160,1,0,0:0:0:0:
448,192,5160,1,0,0:0:0:0:
320,192,5322,1,0,0:0:0:0:
320,192,5483,1,0,0:0:0:0:
64,192,5645,1,0,0:0:0:0:
192,192,5645,1,0,0:0:0:0:
448,192,5805,128,0,5886:0:0:0:0:
320,192,5805,1,0,0:0:0:0:
320,192,5967,1,0,0:0:0:0:
448,192,5967,1,0,0:0:0:0:
448,192,6128,1,0,0:0:0:0:
320,192,6128,1,0,0:0:0:0:
192,192,6290,1,0,0:0:0:0:
192,192,6450,1,0,0:0:0:0:
192,192,6612,1,0,0:0:0:0:
192,192,6774,1,0,0:0:0:0:
192,192,6935,1,0,0:0:0:0:
64,192,6935,1,0,0:0:0:0:
320,192,7096,128,0,7176:0:0:0:0:
448,192,7096,1,0,0:0:0:0:
448,192,7257,1,0,0:0:0:0:
64,192,7419,1,0,0:0:0:0:
448,192,7419,1,0,0:0:0:0:
64,192,7580,1,0,0:0:0:0:
320,192,7741,1,0,0:0:0:0:
64,192,7741,1,0,0:0:0:0:
320,192,7902,1,0,0:0:0:0:
320,192,8064,1,0,0:0:0:0:
320,192,8225,1,0,0:0:0:0:
192,192,8225,1,0,0:0:0:0:
64,192,8386,1,0,0:0:0:0:
448,192,8386,128,0,8467:0:0:0:0:
448,192,8548,1,0,0:0:0:0:
64,192,8548,1,0,0:0:0:0:
448,192,8709,1,0,0:0:0:0:
64,192,8709,1,0,0:0:0:0:
192,192,8870,1,0,0:0:0:0:
192,192,9031,1,0,0:0:0:0:
192,192,9193,1,0,0:0:0:0:
192,192,9354,1,0,0:0:0:0:
192,192,9515,1,0,0:0:0:0:
64,192,9515,1,0,0:0:0:0:
448,192,9676,128,0,9757:0:0:0:0:
320,192,9676,1,0,0:0:0:0:
448,192,9838,1,0,0:0:0:0:
448,192,10000,1,0,0:0:0:0:
64,192,10000,1,0,0:0:0:0:
64,192,10160,1,0,0:0:0:0:
64,192,10322,1,0,0:0:0:0:
448,192,10322,1,0,0:0:0:0:
320,192,10564,1,0,0:0:0:0:
192,192,10805,1,0,0:0:0:0:
64,192,11128,1,0,0:0:0:0:
320,192,11450,1,0,0:0:0:0:
192,192,11612,1,0,0:0:0:0:
64,192,11854,1,0,0:0:0:0:
448,192,12096,1,0,0:0:0:0:
64,192,12419,1,0,0:0:0:0:
64,192,12580,1,0,0:0:0:0:
448,192,12902,1,0,0:0:0:0:
64,192,13145,1,0,0:0:0:0:
320,192,13386,1,0,0:0:0:0:
192,192,13709,1,0,0:0:0:0:
192,192,13870,1,0,0:0:0:0:
192,192,14031,1,0,0:0:0:0:
448,192,14193,1,0,0:0:0:0:
320,192,14435,1,0,0:0:0:0:
64,192,14676,1,0,0:0:0:0:
448,192,15000,1,0,0:0:0:0:
448,192,15160,1,0,0:0:0:0:
64,192,15483,1,0,0:0:0:0:
320,192,15725,1,0,0:0:0:0:
192,192,15967,1,0,0:0:0:0:
64,192,16290,1,0,0:0:0:0:
320,192,16612,1,0,0:0:0:0:
192,192,16774,1,0,0:0:0:0:
64,192,17015,1,0,0:0:0:0:
448,192,17257,1,0,0:0:0:0:
64,192,17580,1,0,0:0:0:0:
64,192,17741,1,0,0:0:0:0:
448,192,18064,1,0,0:0:0:0:
64,192,18305,1,0,0:0:0:0:
192,192,18548,1,0,0:0:0:0:
320,192,18870,1,0,0:0:0:0:
320,192,19031,1,0,0:0:0:0:
320,192,19193,1,0,0:0:0:0:
64,192,19354,1,0,0:0:0:0:
320,192,19596,1,0,0:0:0:0:
448,192,19838,1,0,0:0:0:0:
192,192,20160,1,0,0:0:0:0:
192,192,20322,1,0,0:0:0:0:
320,192,20322,128,0,20402:0:0:0:0:
448,192,20645,128,0,20805:0:0:0:0:
64,192,20645,1,0,0:0:0:0:
320,192,20645,1,0,0:0:0:0:
192,192,20886,1,0,0:0:0:0:
320,192,20886,1,0,0:0:0:0:
64,192,20967,1,0,0:0:0:0:
320,192,21128,1,0,0:0:0:0:
448,192,21128,1,0,0:0:0:0:
320,192,21290,1,0,0:0:0:0:
192,192,21290,1,0,0:0:0:0:
64,192,21290,1,0,0:0:0:0:
192,192,21450,1,0,0:0:0:0:
64,192,21450,1,0,0:0:0:0:
192,192,21612,1,0,0:0:0:0:
64,192,21612,1,0,0:0:0:0:
448,192,21774,1,0,0:0:0:0:
320,192,21774,1,0,0:0:0:0:
320,192,21935,1,0,0:0:0:0:
448,192,21935,1,0,0:0:0:0:
320,192,22176,1,0,0:0:0:0:
448,192,22176,1,0,0:0:0:0:
64,192,22419,1,0,0:0:0:0:
192,192,22419,1,0,0:0:0:0:
448,192,22580,1,0,0:0:0:0:
192,192,22580,1,0,0:0:0:0:
64,192,22580,1,0,0:0:0:0:
448,192,22741,1,0,0:0:0:0:
192,192,22741,1,0,0:0:0:0:
448,192,22902,1,0,0:0:0:0:
320,192,22902,1,0,0:0:0:0:
192,192,22902,1,0,0:0:0:0:
64,192,23225,1,0,0:0:0:0:
192,192,23225,1,0,0:0:0:0:
320,192,23225,1,0,0:0:0:0:
192,192,23467,1,0,0:0:0:0:
320,192,23467,1,0,0:0:0:0:
448,192,23548,1,0,0:0:0:0:
64,192,23709,1,0,0:0:0:0:
192,192,23709,1,0,0:0:0:0:
192,192,23870,1,0,0:0:0:0:
64,192,23870,1,0,0:0:0:0:
448,192,24031,1,0,0:0:0:0:
320,192,24031,1,0,0:0:0:0:
192,192,24031,1,0,0:0:0:0:
192,192,24193,1,0,0:0:0:0:
320,192,24193,1,0,0:0:0:0:
448,192,24193,1,0,0:0:0:0:
448,192,24354,1,0,0:0:0:0:
64,192,24354,1,0,0:0:0:0:
64,192,24515,1,0,0:0:0:0:
448,192,24515,1,0,0:0:0:0:
448,192,24757,1,0,0:0:0:0:
64,192,24757,1,0,0:0:0:0:
192,192,24999,1,0,0:0:0:0:
320,192,24999,1,0,0:0:0:0:
320,192,25160,1,0,0:0:0:0:
192,192,25160,1,0,0:0:0:0:
64,192,25160,1,0,0:0:0:0:
448,192,25322,1,0,0:0:0:0:
320,192,25322,1,0,0:0:0:0:
320,192,25483,1,0,0:0:0:0:
192,192,25483,1,0,0:0:0:0:
64,192,25483,1,0,0:0:0:0:
448,192,25645,1,0,0:0:0:0:
64,192,25805,1,0,0:0:0:0:
192,192,25805,1,0,0:0:0:0:
320,192,25967,1,0,0:0:0:0:
448,192,25967,1,0,0:0:0:0:
192,192,26048,1,0,0:0:0:0:
64,192,26048,1,0,0:0:0:0:
448,192,26128,1,0,0:0:0:0:
192,192,26290,1,0,0:0:0:0:
64,192,26290,1,0,0:0:0:0:
64,192,26450,1,0,0:0:0:0:
320,192,26450,1,0,0:0:0:0:
448,192,26450,1,0,0:0:0:0:
320,192,26612,1,0,0:0:0:0:
448,192,26612,1,0,0:0:0:0:
448,192,26774,1,0,0:0:0:0:
320,192,26774,1,0,0:0:0:0:
64,192,26935,1,0,0:0:0:0:
192,192,26935,1,0,0:0:0:0:
64,192,27096,1,0,0:0:0:0:
192,192,27096,1,0,0:0:0:0:
448,192,27257,1,0,0:0:0:0:
320,192,27338,1,0,0:0:0:0:
192,192,27338,1,0,0:0:0:0:
64,192,27419,1,0,0:0:0:0:
320,192,27580,1,0,0:0:0:0:
448,192,27580,1,0,0:0:0:0:
448,192,27741,1,0,0:0:0:0:
320,192,27741,1,0,0:0:0:0:
192,192,27902,1,0,0:0:0:0:
64,192,27902,1,0,0:0:0:0:
192,192,28064,1,0,0:0:0:0:
64,192,28064,1,0,0:0:0:0:
320,192,28064,1,0,0:0:0:0:
448,192,28386,1,0,0:0:0:0:
320,192,28386,1,0,0:0:0:0:
192,192,28386,1,0,0:0:0:0:
64,192,28548,1,0,0:0:0:0:
192,192,28628,1,0,0:0:0:0:
320,192,28628,1,0,0:0:0:0:
448,192,28709,1,0,0:0:0:0:
192,192,28870,1,0,0:0:0:0:
448,192,28870,1,0,0:0:0:0:
320,192,28950,1,0,0:0:0:0:
192,192,29031,1,0,0:0:0:0:
64,192,29031,1,0,0:0:0:0:
448,192,29031,1,0,0:0:0:0:
192,192,29193,1,0,0:0:0:0:
64,192,29193,1,0,0:0:0:0:
192,192,29354,1,0,0:0:0:0:
64,192,29354,1,0,0:0:0:0:
448,192,29515,1,0,0:0:0:0:
448,192,29676,1,0,0:0:0:0:
320,192,29676,1,0,0:0:0:0:
192,192,29838,1,0,0:0:0:0:
64,192,29919,1,0,0:0:0:0:
320,192,29919,1,0,0:0:0:0:
448,192,29999,128,0,30160:0:0:0:0:
64,192,30160,1,0,0:0:0:0:
192,192,30160,1,0,0:0:0:0:
320,192,30322,1,0,0:0:0:0:
192,192,30322,1,0,0:0:0:0:
64,192,30322,1,0,0:0:0:0:
448,192,30322,128,0,30483:0:0:0:0:
320,192,30483,1,0,0:0:0:0:
192,192,30483,1,0,0:0:0:0:
448,192,30645,128,0,30805:0:0:0:0:
320,192,30645,1,0,0:0:0:0:
192,192,30645,1,0,0:0:0:0:
64,192,30645,1,0,0:0:0:0:
64,192,30967,1,0,0:0:0:0:
448,192,30967,1,0,0:0:0:0:
320,192,31209,1,0,0:0:0:0:
192,192,31450,1,0,0:0:0:0:
64,192,31774,1,0,0:0:0:0:
192,192,31935,1,0,0:0:0:0:
448,192,31935,1,0,0:0:0:0:
320,192,32096,1,0,0:0:0:0:
192,192,32257,1,0,0:0:0:0:
64,192,32499,1,0,0:0:0:0:
448,192,32741,1,0,0:0:0:0:
320,192,32902,1,0,0:0:0:0:
192,192,32902,1,0,0:0:0:0:
64,192,33064,1,0,0:0:0:0:
64,192,33225,1,0,0:0:0:0:
448,192,33548,1,0,0:0:0:0:
64,192,33790,1,0,0:0:0:0:
320,192,34031,1,0,0:0:0:0:
192,192,34354,1,0,0:0:0:0:
192,192,34515,1,0,0:0:0:0:
64,192,34515,1,0,0:0:0:0:
192,192,34676,1,0,0:0:0:0:
448,192,34838,1,0,0:0:0:0:
320,192,35080,1,0,0:0:0:0:
64,192,35322,1,0,0:0:0:0:
192,192,35483,1,0,0:0:0:0:
320,192,35483,1,0,0:0:0:0:
448,192,35645,1,0,0:0:0:0:
448,192,35805,1,0,0:0:0:0:
64,192,36128,1,0,0:0:0:0:
448,192,36128,1,0,0:0:0:0:
320,192,36370,1,0,0:0:0:0:
192,192,36612,1,0,0:0:0:0:
64,192,36935,1,0,0:0:0:0:
192,192,37096,1,0,0:0:0:0:
448,192,37096,1,0,0:0:0:0:
320,192,37257,1,0,0:0:0:0:
192,192,37419,1,0,0:0:0:0:
64,192,37660,1,0,0:0:0:0:
448,192,37902,1,0,0:0:0:0:
320,192,38064,1,0,0:0:0:0:
192,192,38064,1,0,0:0:0:0:
64,192,38225,1,0,0:0:0:0:
64,192,38386,1,0,0:0:0:0:
448,192,38709,1,0,0:0:0:0:
192,192,38709,1,0,0:0:0:0:
64,192,38950,1,0,0:0:0:0:
192,192,39193,1,0,0:0:0:0:
320,192,39515,1,0,0:0:0:0:
320,192,39676,1,0,0:0:0:0:
192,192,39676,1,0,0:0:0:0:
320,192,39838,1,0,0:0:0:0:
64,192,39999,1,0,0:0:0:0:
448,192,39999,1,0,0:0:0:0:
320,192,40241,1,0,0:0:0:0:
64,192,40322,1,0,0:0:0:0:
448,192,40322,1,0,0:0:0:0:
320,192,40483,1,0,0:0:0:0:
192,192,40645,1,0,0:0:0:0:
448,192,40645,1,0,0:0:0:0:
64,192,40645,1,0,0:0:0:0:
192,192,40805,1,0,0:0:0:0:
192,192,40967,1,0,0:0:0:0:
320,192,40967,128,0,41128:0:0:0:0:
448,192,40967,1,0,0:0:0:0:
64,192,40967,1,0,0:0:0:0:
448,192,41290,1,0,0:0:0:0:
64,192,41290,1,0,0:0:0:0:
320,192,41531,1,0,0:0:0:0:
64,192,41612,1,0,0:0:0:0:
448,192,41612,1,0,0:0:0:0:
192,192,41774,1,0,0:0:0:0:
448,192,41935,1,0,0:0:0:0:
64,192,41935,1,0,0:0:0:0:
320,192,42096,1,0,0:0:0:0:
448,192,42257,1,0,0:0:0:0:
64,192,42257,1,0,0:0:0:0:
320,192,42419,1,0,0:0:0:0:
448,192,42580,1,0,0:0:0:0:
64,192,42580,1,0,0:0:0:0:
192,192,42580,1,0,0:0:0:0:
320,192,42822,1,0,0:0:0:0:
448,192,42902,1,0,0:0:0:0:
64,192,42902,1,0,0:0:0:0:
192,192,43064,1,0,0:0:0:0:
448,192,43225,1,0,0:0:0:0:
64,192,43225,1,0,0:0:0:0:
320,192,43386,1,0,0:0:0:0:
320,192,43548,1,0,0:0:0:0:
448,192,43548,1,0,0:0:0:0:
64,192,43548,1,0,0:0:0:0:
448,192,43870,1,0,0:0:0:0:
64,192,43870,1,0,0:0:0:0:
192,192,44112,1,0,0:0:0:0:
448,192,44193,1,0,0:0:0:0:
64,192,44193,1,0,0:0:0:0:
320,192,44354,1,0,0:0:0:0:
448,192,44515,1,0,0:0:0:0:
64,192,44515,1,0,0:0:0:0:
192,192,44676,1,0,0:0:0:0:
192,192,44838,1,0,0:0:0:0:
448,192,44838,1,0,0:0:0:0:
64,192,44838,1,0,0:0:0:0:
192,192,44999,1,0,0:0:0:0:
448,192,45160,1,0,0:0:0:0:
64,192,45160,1,0,0:0:0:0:
320,192,45402,1,0,0:0:0:0:
448,192,45483,1,0,0:0:0:0:
64,192,45483,1,0,0:0:0:0:
192,192,45645,1,0,0:0:0:0:
448,192,45805,1,0,0:0:0:0:
64,192,45805,1,0,0:0:0:0:
320,192,45967,1,0,0:0:0:0:
320,192,46128,1,0,0:0:0:0:
448,192,46128,1,0,0:0:0:0:
64,192,46128,1,0,0:0:0:0:
448,192,46450,1,0,0:0:0:0:
64,192,46450,1,0,0:0:0:0:
192,192,46531,1,0,0:0:0:0:
320,192,46693,1,0,0:0:0:0:
448,192,46774,1,0,0:0:0:0:
64,192,46774,1,0,0:0:0:0:
192,192,46935,1,0,0:0:0:0:
448,192,47096,1,0,0:0:0:0:
64,192,47096,1,0,0:0:0:0:
192,192,47257,1,0,0:0:0:0:
448,192,47419,1,0,0:0:0:0:
64,192,47419,1,0,0:0:0:0:
320,192,47580,1,0,0:0:0:0:
192,192,47741,1,0,0:0:0:0:
448,192,47741,1,0,0:0:0:0:
64,192,47741,1,0,0:0:0:0:
320,192,47983,1,0,0:0:0:0:
448,192,48064,1,0,0:0:0:0:
64,192,48064,1,0,0:0:0:0:
320,192,48225,1,0,0:0:0:0:
448,192,48386,1,0,0:0:0:0:
64,192,48386,1,0,0:0:0:0:
192,192,48548,1,0,0:0:0:0:
192,192,48709,1,0,0:0:0:0:
64,192,48709,1,0,0:0:0:0:
448,192,48709,1,0,0:0:0:0:
448,192,49031,1,0,0:0:0:0:
64,192,49031,1,0,0:0:0:0:
320,192,49031,1,0,0:0:0:0:
320,192,49274,1,0,0:0:0:0:
448,192,49354,1,0,0:0:0:0:
64,192,49354,1,0,0:0:0:0:
192,192,49515,1,0,0:0:0:0:
64,192,49676,1,0,0:0:0:0:
448,192,49676,1,0,0:0:0:0:
320,192,49838,1,0,0:0:0:0:
320,192,49999,1,0,0:0:0:0:
448,192,49999,1,0,0:0:0:0:
64,192,49999,1,0,0:0:0:0:
320,192,50160,1,0,0:0:0:0:
64,192,50322,1,0,0:0:0:0:
448,192,50322,1,0,0:0:0:0:
320,192,50564,1,0,0:0:0:0:
64,192,50645,1,0,0:0:0:0:
448,192,50645,1,0,0:0:0:0:
448,192,50805,1,0,0:0:0:0:
448,192,50967,1,0,0:0:0:0:
64,192,50967,1,0,0:0:0:0:
192,192,51128,1,0,0:0:0:0:
192,192,51290,1,0,0:0:0:0:
320,192,51290,128,0,51450:0:0:0:0:
64,192,51290,1,0,0:0:0:0:
448,192,51290,1,0,0:0:0:0:
64,192,51612,1,0,0:0:0:0:
192,192,51612,1,0,0:0:0:0:
320,192,51774,1,0,0:0:0:0:
448,192,51774,1,0,0:0:0:0:
192,192,51935,1,0,0:0:0:0:
64,192,51935,1,0,0:0:0:0:
320,192,52096,1,0,0:0:0:0:
448,192,52096,1,0,0:0:0:0:
192,192,52257,1,0,0:0:0:0:
64,192,52257,1,0,0:0:0:0:
320,192,52419,1,0,0:0:0:0:
448,192,52419,1,0,0:0:0:0:
192,192,52580,1,0,0:0:0:0:
64,192,52580,1,0,0:0:0:0:
320,192,52741,1,0,0:0:0:0:
448,192,52741,1,0,0:0:0:0:
192,192,52902,1,0,0:0:0:0:
64,192,52902,1,0,0:0:0:0:
320,192,53064,1,0,0:0:0:0:
448,192,53064,1,0,0:0:0:0:
192,192,53225,1,0,0:0:0:0:
64,192,53225,1,0,0:0:0:0:
320,192,53386,1,0,0:0:0:0:
448,192,53386,1,0,0:0:0:0:
192,192,53548,1,0,0:0:0:0:
64,192,53548,1,0,0:0:0:0:
320,192,53709,1,0,0:0:0:0:
448,192,53709,1,0,0:0:0:0:
192,192,53870,1,0,0:0:0:0:
64,192,53870,1,0,0:0:0:0:
320,192,54031,1,0,0:0:0:0:
448,192,54031,1,0,0:0:0:0:
192,192,54193,1,0,0:0:0:0:
64,192,54193,1,0,0:0:0:0:
320,192,54354,1,0,0:0:0:0:
448,192,54354,1,0,0:0:0:0:
192,192,54515,1,0,0:0:0:0:
64,192,54515,1,0,0:0:0:0:
320,192,54676,1,0,0:0:0:0:
448,192,54676,1,0,0:0:0:0:
192,192,54838,1,0,0:0:0:0:
64,192,54838,1,0,0:0:0:0:
320,192,54999,1,0,0:0:0:0:
448,192,54999,1,0,0:0:0:0:
192,192,55160,1,0,0:0:0:0:
64,192,55160,1,0,0:0:0:0:
320,192,55322,1,0,0:0:0:0:
448,192,55322,1,0,0:0:0:0:
192,192,55483,1,0,0:0:0:0:
64,192,55483,1,0,0:0:0:0:
320,192,55645,1,0,0:0:0:0:
448,192,55645,1,0,0:0:0:0:
192,192,55805,1,0,0:0:0:0:
64,192,55805,1,0,0:0:0:0:
320,192,55967,1,0,0:0:0:0:
448,192,55967,1,0,0:0:0:0:
192,192,56128,1,0,0:0:0:0:
64,192,56128,1,0,0:0:0:0:
320,192,56290,1,0,0:0:0:0:
448,192,56290,1,0,0:0:0:0:
192,192,56450,1,0,0:0:0:0:
64,192,56450,1,0,0:0:0:0:
320,192,56612,1,0,0:0:0:0:
448,192,56612,1,0,0:0:0:0:
64,192,56774,1,0,0:0:0:0:
192,192,56774,1,0,0:0:0:0:
448,192,56854,1,0,0:0:0:0:
320,192,56935,1,0,0:0:0:0:
64,192,56935,1,0,0:0:0:0:
192,192,57015,1,0,0:0:0:0:
320,192,57096,1,0,0:0:0:0:
448,192,57096,1,0,0:0:0:0:
192,192,57176,1,0,0:0:0:0:
64,192,57257,1,0,0:0:0:0:
448,192,57257,1,0,0:0:0:0:
320,192,57338,1,0,0:0:0:0:
192,192,57419,1,0,0:0:0:0:
64,192,57419,1,0,0:0:0:0:
320,192,57499,1,0,0:0:0:0:
448,192,57580,1,0,0:0:0:0:
64,192,57580,1,0,0:0:0:0:
192,192,57660,1,0,0:0:0:0:
320,192,57741,1,0,0:0:0:0:
448,192,57741,1,0,0:0:0:0:
192,192,57822,1,0,0:0:0:0:
64,192,57902,1,0,0:0:0:0:
448,192,57902,1,0,0:0:0:0:
320,192,57983,1,0,0:0:0:0:
192,192,58064,1,0,0:0:0:0:
64,192,58064,1,0,0:0:0:0:
320,192,58145,1,0,0:0:0:0:
448,192,58145,1,0,0:0:0:0:
192,192,58225,1,0,0:0:0:0:
64,192,58225,1,0,0:0:0:0:
320,192,58305,1,0,0:0:0:0:
448,192,58305,1,0,0:0:0:0:
192,192,58386,1,0,0:0:0:0:
64,192,58386,1,0,0:0:0:0:
320,192,58467,1,0,0:0:0:0:
448,192,58467,1,0,0:0:0:0:
192,192,58548,1,0,0:0:0:0:
64,192,58548,1,0,0:0:0:0:
320,192,58628,1,0,0:0:0:0:
448,192,58628,1,0,0:0:0:0:
192,192,58709,1,0,0:0:0:0:
64,192,58709,1,0,0:0:0:0:
320,192,58790,1,0,0:0:0:0:
448,192,58790,1,0,0:0:0:0:
192,192,58870,1,0,0:0:0:0:
64,192,58870,1,0,0:0:0:0:
320,192,58950,1,0,0:0:0:0:
448,192,58950,1,0,0:0:0:0:
192,192,59031,1,0,0:0:0:0:
64,192,59031,1,0,0:0:0:0:
320,192,59112,1,0,0:0:0:0:
448,192,59112,1,0,0:0:0:0:
192,192,59193,1,0,0:0:0:0:
64,192,59193,1,0,0:0:0:0:
320,192,59274,1,0,0:0:0:0:
448,192,59274,1,0,0:0:0:0:
192,192,59354,1,0,0:0:0:0:
64,192,59354,1,0,0:0:0:0:
448,192,60645,1,0,0:0:0:0:
448,192,60967,1,0,0:0:0:0:
448,192,61290,1,0,0:0:0:0:
320,192,61290,1,0,0:0:0:0:
192,192,61370,1,0,0:0:0:0:
64,192,61370,1,0,0:0:0:0:
320,192,61450,1,0,0:0:0:0:
448,192,61450,1,0,0:0:0:0:
320,192,61612,1,0,0:0:0:0:
192,192,61612,1,0,0:0:0:0:
64,192,61774,1,0,0:0:0:0:
192,192,61774,1,0,0:0:0:0:
448,192,61935,1,0,0:0:0:0:
64,192,61935,1,0,0:0:0:0:
320,192,61975,1,0,0:0:0:0:
192,192,62015,1,0,0:0:0:0:
448,192,62055,1,0,0:0:0:0:
320,192,62096,1,0,0:0:0:0:
64,192,62136,1,0,0:0:0:0:
192,192,62176,1,0,0:0:0:0:
448,192,62217,1,0,0:0:0:0:
64,192,62257,1,0,0:0:0:0:
320,192,62257,1,0,0:0:0:0:
320,192,62419,1,0,0:0:0:0:
192,192,62580,1,0,0:0:0:0:
64,192,62580,1,0,0:0:0:0:
448,192,62580,1,0,0:0:0:0:
320,192,62741,1,0,0:0:0:0:
448,192,62741,1,0,0:0:0:0:
448,192,62902,1,0,0:0:0:0:
320,192,62902,1,0,0:0:0:0:
192,192,62943,1,0,0:0:0:0:
64,192,62983,1,0,0:0:0:0:
448,192,63024,1,0,0:0:0:0:
192,192,63064,1,0,0:0:0:0:
320,192,63104,1,0,0:0:0:0:
64,192,63145,1,0,0:0:0:0:
192,192,63185,1,0,0:0:0:0:
448,192,63225,1,0,0:0:0:0:
320,192,63225,1,0,0:0:0:0:
320,192,63709,1,0,0:0:0:0:
448,192,63709,1,0,0:0:0:0:
64,192,63870,1,0,0:0:0:0:
448,192,63870,1,0,0:0:0:0:
192,192,63910,1,0,0:0:0:0:
320,192,63950,1,0,0:0:0:0:
192,192,63991,1,0,0:0:0:0:
64,192,64031,1,0,0:0:0:0:
448,192,64072,1,0,0:0:0:0:
320,192,64112,1,0,0:0:0:0:
192,192,64152,1,0,0:0:0:0:
64,192,64193,1,0,0:0:0:0:
448,192,64193,1,0,0:0:0:0:
64,192,64515,1,0,0:0:0:0:
448,192,64515,1,0,0:0:0:0:
192,192,64555,1,0,0:0:0:0:
320,192,64596,1,0,0:0:0:0:
448,192,64636,1,0,0:0:0:0:
64,192,64676,1,0,0:0:0:0:
192,192,64717,1,0,0:0:0:0:
448,192,64757,1,0,0:0:0:0:
64,192,64798,1,0,0:0:0:0:
192,192,64838,1,0,0:0:0:0:
320,192,64838,1,0,0:0:0:0:
448,192,64999,1,0,0:0:0:0:
64,192,64999,1,0,0:0:0:0:
192,192,65160,1,0,0:0:0:0:
320,192,65160,1,0,0:0:0:0:
320,192,65322,1,0,0:0:0:0:
192,192,65322,1,0,0:0:0:0:
448,192,65483,1,0,0:0:0:0:
64,192,65483,1,0,0:0:0:0:
320,192,65524,1,0,0:0:0:0:
192,192,65564,1,0,0:0:0:0:
320,192,65604,1,0,0:0:0:0:
448,192,65645,1,0,0:0:0:0:
64,192,65685,1,0,0:0:0:0:
192,192,65725,1,0,0:0:0:0:
320,192,65765,1,0,0:0:0:0:
448,192,65805,1,0,0:0:0:0:
64,192,65805,1,0,0:0:0:0:
448,192,66290,1,0,0:0:0:0:
320,192,66290,1,0,0:0:0:0:
448,192,66450,1,0,0:0:0:0:
320,192,66450,1,0,0:0:0:0:
192,192,66491,1,0,0:0:0:0:
64,192,66531,1,0,0:0:0:0:
448,192,66572,1,0,0:0:0:0:
320,192,66612,1,0,0:0:0:0:
64,192,66652,1,0,0:0:0:0:
192,192,66693,1,0,0:0:0:0:
448,192,66733,1,0,0:0:0:0:
64,192,66774,1,0,0:0:0:0:
320,192,66774,1,0,0:0:0:0:
192,192,66814,1,0,0:0:0:0:
448,192,66854,1,0,0:0:0:0:
320,192,66895,1,0,0:0:0:0:
64,192,66935,1,0,0:0:0:0:
192,192,66975,1,0,0:0:0:0:
320,192,67015,1,0,0:0:0:0:
448,192,67055,1,0,0:0:0:0:
192,192,67096,1,0,0:0:0:0:
64,192,67096,1,0,0:0:0:0:
320,192,67136,1,0,0:0:0:0:
448,192,67176,1,0,0:0:0:0:
64,192,67217,1,0,0:0:0:0:
192,192,67257,1,0,0:0:0:0:
448,192,67298,1,0,0:0:0:0:
320,192,67338,1,0,0:0:0:0:
64,192,67378,1,0,0:0:0:0:
448,192,67419,1,0,0:0:0:0:
192,192,67419,1,0,0:0:0:0:
320,192,67580,1,0,0:0:0:0:
448,192,67580,1,0,0:0:0:0:
448,192,67741,1,0,0:0:0:0:
64,192,67741,1,0,0:0:0:0:
320,192,67902,1,0,0:0:0:0:
192,192,67902,1,0,0:0:0:0:
320,192,68064,1,0,0:0:0:0:
192,192,68064,1,0,0:0:0:0:
448,192,68104,1,0,0:0:0:0:
64,192,68145,1,0,0:0:0:0:
192,192,68185,1,0,0:0:0:0:
448,192,68225,1,0,0:0:0:0:
320,192,68265,1,0,0:0:0:0:
192,192,68305,1,0,0:0:0:0:
320,192,68346,1,0,0:0:0:0:
64,192,68386,1,0,0:0:0:0:
448,192,68386,1,0,0:0:0:0:
192,192,68870,1,0,0:0:0:0:
64,192,68870,1,0,0:0:0:0:
64,192,69031,1,0,0:0:0:0:
448,192,69031,1,0,0:0:0:0:
320,192,69072,1,0,0:0:0:0:
192,192,69112,1,0,0:0:0:0:
448,192,69152,1,0,0:0:0:0:
320,192,69193,1,0,0:0:0:0:
192,192,69233,1,0,0:0:0:0:
448,192,69274,1,0,0:0:0:0:
320,192,69314,1,0,0:0:0:0:
192,192,69354,1,0,0:0:0:0:
64,192,69354,1,0,0:0:0:0:
64,192,69676,1,0,0:0:0:0:
448,192,69676,1,0,0:0:0:0:
192,192,69717,1,0,0:0:0:0:
320,192,69757,1,0,0:0:0:0:
64,192,69798,1,0,0:0:0:0:
192,192,69838,1,0,0:0:0:0:
448,192,69878,1,0,0:0:0:0:
320,192,69919,1,0,0:0:0:0:
192,192,69959,1,0,0:0:0:0:
448,192,69999,1,0,0:0:0:0:
64,192,69999,1,0,0:0:0:0:
192,192,70160,1,0,0:0:0:0:
448,192,70160,1,0,0:0:0:0:
320,192,70322,1,0,0:0:0:0:
64,192,70322,1,0,0:0:0:0:
448,192,70322,1,0,0:0:0:0:
192,192,70483,1,0,0:0:0:0:
64,192,70483,1,0,0:0:0:0:
448,192,70645,1,0,0:0:0:0:
192,192,70645,1,0,0:0:0:0:
320,192,70685,1,0,0:0:0:0:
64,192,70725,1,0,0:0:0:0:
448,192,70765,1,0,0:0:0:0:
320,192,70805,1,0,0:0:0:0:
64,192,70846,1,0,0:0:0:0:
192,192,70886,1,0,0:0:0:0:
320,192,70926,1,0,0:0:0:0:
448,192,70967,1,0,0:0:0:0:
64,192,70967,1,0,0:0:0:0:
320,192,71450,1,0,0:0:0:0:
192,192,71450,1,0,0:0:0:0:
64,192,71612,1,0,0:0:0:0:
320,192,71612,1,0,0:0:0:0:
192,192,71652,1,0,0:0:0:0:
448,192,71693,1,0,0:0:0:0:
64,192,71733,1,0,0:0:0:0:
192,192,71774,1,0,0:0:0:0:
320,192,71814,1,0,0:0:0:0:
64,192,71854,1,0,0:0:0:0:
448,192,71895,1,0,0:0:0:0:
320,192,71935,1,0,0:0:0:0:
64,192,71935,128,0,71975:0:0:0:0:
192,192,71975,1,0,0:0:0:0:
448,192,72015,1,0,0:0:0:0:
320,192,72055,1,0,0:0:0:0:
64,192,72096,1,0,0:0:0:0:
192,192,72136,1,0,0:0:0:0:
448,192,72176,1,0,0:0:0:0:
320,192,72217,1,0,0:0:0:0:
64,192,72257,1,0,0:0:0:0:
192,192,72257,1,0,0:0:0:0:
448,192,72298,1,0,0:0:0:0:
320,192,72338,1,0,0:0:0:0:
64,192,72378,1,0,0:0:0:0:
192,192,72419,1,0,0:0:0:0:
320,192,72459,1,0,0:0:0:0:
448,192,72499,1,0,0:0:0:0:
64,192,72540,1,0,0:0:0:0:
192,192,72580,1,0,0:0:0:0:
320,192,72580,1,0,0:0:0:0:
448,192,72660,1,0,0:0:0:0:
64,192,72741,1,0,0:0:0:0:
320,192,72741,1,0,0:0:0:0:
192,192,72822,1,0,0:0:0:0:
64,192,72902,1,0,0:0:0:0:
448,192,72902,1,0,0:0:0:0:
320,192,72983,1,0,0:0:0:0:
192,192,73064,1,0,0:0:0:0:
64,192,73064,1,0,0:0:0:0:
320,192,73145,1,0,0:0:0:0:
192,192,73225,1,0,0:0:0:0:
64,192,73225,1,0,0:0:0:0:
448,192,73265,1,0,0:0:0:0:
320,192,73305,1,0,0:0:0:0:
192,192,73346,1,0,0:0:0:0:
320,192,73386,1,0,0:0:0:0:
64,192,73426,1,0,0:0:0:0:
192,192,73467,1,0,0:0:0:0:
320,192,73507,1,0,0:0:0:0:
64,192,73548,1,0,0:0:0:0:
448,192,73548,1,0,0:0:0:0:
192,192,73628,1,0,0:0:0:0:
448,192,73709,1,0,0:0:0:0:
192,192,73790,1,0,0:0:0:0:
448,192,73870,1,0,0:0:0:0:
192,192,73950,1,0,0:0:0:0:
448,192,74031,1,0,0:0:0:0:
320,192,74031,1,0,0:0:0:0:
192,192,74112,1,0,0:0:0:0:
64,192,74193,1,0,0:0:0:0:
448,192,74193,1,0,0:0:0:0:
320,192,74233,1,0,0:0:0:0:
192,192,74274,1,0,0:0:0:0:
448,192,74314,1,0,0:0:0:0:
64,192,74354,1,0,0:0:0:0:
192,192,74395,1,0,0:0:0:0:
320,192,74435,1,0,0:0:0:0:
192,192,74475,1,0,0:0:0:0:
448,192,74515,1,0,0:0:0:0:
64,192,74515,1,0,0:0:0:0:
320,192,74596,1,0,0:0:0:0:
64,192,74676,1,0,0:0:0:0:
320,192,74757,1,0,0:0:0:0:
64,192,74838,1,0,0:0:0:0:
192,192,74838,1,0,0:0:0:0:
320,192,74878,1,0,0:0:0:0:
448,192,74919,1,0,0:0:0:0:
64,192,74959,1,0,0:0:0:0:
320,192,74999,1,0,0:0:0:0:
192,192,75040,1,0,0:0:0:0:
64,192,75080,1,0,0:0:0:0:
320,192,75120,1,0,0:0:0:0:
448,192,75160,1,0,0:0:0:0:
192,192,75160,1,0,0:0:0:0:
64,192,75241,1,0,0:0:0:0:
448,192,75322,1,0,0:0:0:0:
320,192,75322,1,0,0:0:0:0:
64,192,75402,1,0,0:0:0:0:
320,192,75483,1,0,0:0:0:0:
448,192,75483,1,0,0:0:0:0:
192,192,75564,1,0,0:0:0:0:
64,192,75645,1,0,0:0:0:0:
448,192,75645,1,0,0:0:0:0:
320,192,75725,1,0,0:0:0:0:
448,192,75805,1,0,0:0:0:0:
64,192,75805,1,0,0:0:0:0:
192,192,75846,1,0,0:0:0:0:
320,192,75886,1,0,0:0:0:0:
64,192,75926,1,0,0:0:0:0:
192,192,75967,1,0,0:0:0:0:
320,192,76007,1,0,0:0:0:0:
448,192,76048,1,0,0:0:0:0:
320,192,76088,1,0,0:0:0:0:
192,192,76128,1,0,0:0:0:0:
64,192,76128,1,0,0:0:0:0:
320,192,76209,1,0,0:0:0:0:
64,192,76290,1,0,0:0:0:0:
320,192,76370,1,0,0:0:0:0:
64,192,76450,1,0,0:0:0:0:
320,192,76531,1,0,0:0:0:0:
64,192,76612,1,0,0:0:0:0:
192,192,76612,1,0,0:0:0:0:
320,192,76693,1,0,0:0:0:0:
448,192,76774,1,0,0:0:0:0:
64,192,76774,1,0,0:0:0:0:
192,192,76814,1,0,0:0:0:0:
320,192,76854,1,0,0:0:0:0:
64,192,76895,1,0,0:0:0:0:
192,192,76935,1,0,0:0:0:0:
448,192,76975,1,0,0:0:0:0:
320,192,77015,1,0,0:0:0:0:
192,192,77055,1,0,0:0:0:0:
64,192,77096,1,0,0:0:0:0:
448,192,77096,1,0,0:0:0:0:
320,192,77136,1,0,0:0:0:0:
192,192,77176,1,0,0:0:0:0:
448,192,77217,1,0,0:0:0:0:
320,192,77257,1,0,0:0:0:0:
192,192,77298,1,0,0:0:0:0:
64,192,77338,1,0,0:0:0:0:
320,192,77378,1,0,0:0:0:0:
192,192,77419,1,0,0:0:0:0:
448,192,77419,1,0,0:0:0:0:
64,192,77459,1,0,0:0:0:0:
320,192,77499,1,0,0:0:0:0:
448,192,77540,1,0,0:0:0:0:
64,192,77580,1,0,0:0:0:0:
192,192,77620,1,0,0:0:0:0:
320,192,77660,1,0,0:0:0:0:
64,192,77700,1,0,0:0:0:0:
192,192,77741,1,0,0:0:0:0:
448,192,77741,1,0,0:0:0:0:
320,192,77822,1,0,0:0:0:0:
64,192,77902,1,0,0:0:0:0:
192,192,77902,1,0,0:0:0:0:
448,192,77983,1,0,0:0:0:0:
320,192,78064,1,0,0:0:0:0:
64,192,78064,1,0,0:0:0:0:
192,192,78145,1,0,0:0:0:0:
320,192,78225,1,0,0:0:0:0:
448,192,78225,1,0,0:0:0:0:
192,192,78305,1,0,0:0:0:0:
320,192,78386,1,0,0:0:0:0:
448,192,78386,1,0,0:0:0:0:
64,192,78426,1,0,0:0:0:0:
192,192,78467,1,0,0:0:0:0:
320,192,78507,1,0,0:0:0:0:
192,192,78548,1,0,0:0:0:0:
64,192,78588,1,0,0:0:0:0:
448,192,78628,1,0,0:0:0:0:
320,192,78669,1,0,0:0:0:0:
64,192,78709,1,0,0:0:0:0:
192,192,78709,1,0,0:0:0:0:
320,192,78790,1,0,0:0:0:0:
192,192,78870,1,0,0:0:0:0:
64,192,78950,1,0,0:0:0:0:
448,192,79031,1,0,0:0:0:0:
320,192,79112,1,0,0:0:0:0:
64,192,79193,1,0,0:0:0:0:
192,192,79193,1,0,0:0:0:0:
448,192,79274,1,0,0:0:0:0:
320,192,79354,1,0,0:0:0:0:
64,192,79354,1,0,0:0:0:0:
192,192,79395,1,0,0:0:0:0:
448,192,79435,1,0,0:0:0:0:
320,192,79475,1,0,0:0:0:0:
64,192,79515,1,0,0:0:0:0:
192,192,79555,1,0,0:0:0:0:
320,192,79596,1,0,0:0:0:0:
64,192,79636,1,0,0:0:0:0:
192,192,79676,1,0,0:0:0:0:
448,192,79676,1,0,0:0:0:0:
320,192,79757,1,0,0:0:0:0:
64,192,79838,1,0,0:0:0:0:
320,192,79919,1,0,0:0:0:0:
64,192,79999,1,0,0:0:0:0:
448,192,79999,1,0,0:0:0:0:
320,192,80040,1,0,0:0:0:0:
192,192,80080,1,0,0:0:0:0:
320,192,80120,1,0,0:0:0:0:
448,192,80160,1,0,0:0:0:0:
64,192,80200,1,0,0:0:0:0:
192,192,80241,1,0,0:0:0:0:
64,192,80281,1,0,0:0:0:0:
320,192,80322,1,0,0:0:0:0:
448,192,80322,1,0,0:0:0:0:
192,192,80402,1,0,0:0:0:0:
320,192,80483,1,0,0:0:0:0:
448,192,80483,1,0,0:0:0:0:
192,192,80564,1,0,0:0:0:0:
448,192,80645,1,0,0:0:0:0:
64,192,80645,1,0,0:0:0:0:
320,192,80725,1,0,0:0:0:0:
192,192,80805,1,0,0:0:0:0:
64,192,80805,1,0,0:0:0:0:
320,192,80886,1,0,0:0:0:0:
192,192,80967,1,0,0:0:0:0:
64,192,80967,1,0,0:0:0:0:
320,192,81007,1,0,0:0:0:0:
448,192,81048,1,0,0:0:0:0:
192,192,81088,1,0,0:0:0:0:
320,192,81128,1,0,0:0:0:0:
64,192,81169,1,0,0:0:0:0:
192,192,81209,1,0,0:0:0:0:
448,192,81249,1,0,0:0:0:0:
320,192,81290,1,0,0:0:0:0:
64,192,81290,1,0,0:0:0:0:
192,192,81370,1,0,0:0:0:0:
320,192,81450,1,0,0:0:0:0:
448,192,81531,1,0,0:0:0:0:
192,192,81612,1,0,0:0:0:0:
64,192,81693,1,0,0:0:0:0:
448,192,81774,1,0,0:0:0:0:
320,192,81774,1,0,0:0:0:0:
192,192,81854,1,0,0:0:0:0:
64,192,81935,1,0,0:0:0:0:
448,192,81935,1,0,0:0:0:0:
320,192,81975,1,0,0:0:0:0:
192,192,82015,1,0,0:0:0:0:
448,192,82055,1,0,0:0:0:0:
320,192,82096,1,0,0:0:0:0:
64,192,82136,1,0,0:0:0:0:
192,192,82176,1,0,0:0:0:0:
320,192,82217,1,0,0:0:0:0:
64,192,82257,1,0,0:0:0:0:
448,192,82257,128,0,82298:0:0:0:0:
192,192,82298,1,0,0:0:0:0:
320,192,82338,1,0,0:0:0:0:
64,192,82378,1,0,0:0:0:0:
192,192,82419,1,0,0:0:0:0:
448,192,82459,1,0,0:0:0:0:
320,192,82499,1,0,0:0:0:0:
192,192,82540,1,0,0:0:0:0:
64,192,82580,1,0,0:0:0:0:
448,192,82580,1,0,0:0:0:0:
320,192,82822,1,0,0:0:0:0:
192,192,83064,1,0,0:0:0:0:
64,192,83386,1,0,0:0:0:0:
320,192,83709,1,0,0:0:0:0:
192,192,83870,1,0,0:0:0:0:
64,192,84112,1,0,0:0:0:0:
448,192,84354,1,0,0:0:0:0:
64,192,84676,1,0,0:0:0:0:
64,192,84838,1,0,0:0:0:0:
448,192,85160,1,0,0:0:0:0:
64,192,85402,1,0,0:0:0:0:
320,192,85645,1,0,0:0:0:0:
192,192,85967,1,0,0:0:0:0:
192,192,86128,1,0,0:0:0:0:
192,192,86290,1,0,0:0:0:0:
448,192,86450,1,0,0:0:0:0:
320,192,86693,1,0,0:0:0:0:
64,192,86935,1,0,0:0:0:0:
448,192,87257,1,0,0:0:0:0:
448,192,87419,1,0,0:0:0:0:
64,192,87741,1,0,0:0:0:0:
320,192,87983,1,0,0:0:0:0:
192,192,88225,1,0,0:0:0:0:
64,192,88548,1,0,0:0:0:0:
320,192,88870,1,0,0:0:0:0:
192,192,89031,1,0,0:0:0:0:
64,192,89274,1,0,0:0:0:0:
448,192,89515,1,0,0:0:0:0:
64,192,89838,1,0,0:0:0:0:
64,192,89999,1,0,0:0:0:0:
448,192,90322,1,0,0:0:0:0:
64,192,90564,1,0,0:0:0:0:
192,192,90805,1,0,0:0:0:0:
320,192,91128,1,0,0:0:0:0:
320,192,91290,1,0,0:0:0:0:
320,192,91450,1,0,0:0:0:0:
64,192,91612,1,0,0:0:0:0:
320,192,91854,1,0,0:0:0:0:
448,192,92096,1,0,0:0:0:0:
192,192,92419,1,0,0:0:0:0:
192,192,92580,1,0,0:0:0:0:
320,192,92580,128,0,92660:0:0:0:0:
64,192,92902,128,0,93064:0:0:0:0:
448,192,92902,1,0,0:0:0:0:
192,192,92902,1,0,0:0:0:0:
320,192,93145,1,0,0:0:0:0:
192,192,93145,1,0,0:0:0:0:
448,192,93225,1,0,0:0:0:0:
192,192,93386,1,0,0:0:0:0:
64,192,93386,1,0,0:0:0:0:
192,192,93548,1,0,0:0:0:0:
320,192,93548,1,0,0:0:0:0:
448,192,93548,1,0,0:0:0:0:
320,192,93709,1,0,0:0:0:0:
448,192,93709,1,0,0:0:0:0:
320,192,93870,1,0,0:0:0:0:
448,192,93870,1,0,0:0:0:0:
64,192,94031,1,0,0:0:0:0:
192,192,94031,1,0,0:0:0:0:
192,192,94193,1,0,0:0:0:0:
64,192,94193,1,0,0:0:0:0:
192,192,94435,1,0,0:0:0:0:
64,192,94435,1,0,0:0:0:0:
448,192,94676,1,0,0:0:0:0:
320,192,94676,1,0,0:0:0:0:
64,192,94838,1,0,0:0:0:0:
320,192,94838,1,0,0:0:0:0:
448,192,94838,1,0,0:0:0:0:
64,192,94999,1,0,0:0:0:0:
320,192,94999,1,0,0:0:0:0:
64,192,95160,1,0,0:0:0:0:
192,192,95160,1,0,0:0:0:0:
320,192,95160,1,0,0:0:0:0:
448,192,95483,1,0,0:0:0:0:
320,192,95483,1,0,0:0:0:0:
192,192,95483,1,0,0:0:0:0:
320,192,95725,1,0,0:0:0:0:
192,192,95725,1,0,0:0:0:0:
64,192,95805,1,0,0:0:0:0:
448,192,95967,1,0,0:0:0:0:
320,192,95967,1,0,0:0:0:0:
320,192,96128,1,0,0:0:0:0:
448,192,96128,1,0,0:0:0:0:
64,192,96290,1,0,0:0:0:0:
192,192,96290,1,0,0:0:0:0:
320,192,96290,1,0,0:0:0:0:
320,192,96450,1,0,0:0:0:0:
192,192,96450,1,0,0:0:0:0:
64,192,96450,1,0,0:0:0:0:
64,192,96612,1,0,0:0:0:0:
448,192,96612,1,0,0:0:0:0:
448,192,96774,1,0,0:0:0:0:
64,192,96774,1,0,0:0:0:0:
64,192,97015,1,0,0:0:0:0:
448,192,97015,1,0,0:0:0:0:
320,192,97257,1,0,0:0:0:0:
192,192,97257,1,0,0:0:0:0:
192,192,97419,1,0,0:0:0:0:
320,192,97419,1,0,0:0:0:0:
448,192,97419,1,0,0:0:0:0:
64,192,97580,1,0,0:0:0:0:
192,192,97580,1,0,0:0:0:0:
192,192,97741,1,0,0:0:0:0:
320,192,97741,1,0,0:0:0:0:
448,192,97741,1,0,0:0:0:0:
64,192,97902,1,0,0:0:0:0:
448,192,98064,1,0,0:0:0:0:
320,192,98064,1,0,0:0:0:0:
192,192,98225,1,0,0:0:0:0:
64,192,98225,1,0,0:0:0:0:
320,192,98305,1,0,0:0:0:0:
448,192,98305,1,0,0:0:0:0:
64,192,98386,1,0,0:0:0:0:
320,192,98548,1,0,0:0:0:0:
448,192,98548,1,0,0:0:0:0:
448,192,98709,1,0,0:0:0:0:
192,192,98709,1,0,0:0:0:0:
64,192,98709,1,0,0:0:0:0:
192,192,98870,1,0,0:0:0:0:
64,192,98870,1,0,0:0:0:0:
64,192,99031,1,0,0:0:0:0:
192,192,99031,1,0,0:0:0:0:
448,192,99193,1,0,0:0:0:0:
320,192,99193,1,0,0:0:0:0:
448,192,99354,1,0,0:0:0:0:
320,192,99354,1,0,0:0:0:0:
64,192,99515,1,0,0:0:0:0:
192,192,99596,1,0,0:0:0:0:
320,192,99596,1,0,0:0:0:0:
448,192,99676,1,0,0:0:0:0:
192,192,99838,1,0,0:0:0:0:
64,192,99838,1,0,0:0:0:0:
64,192,99999,1,0,0:0:0:0:
192,192,99999,1,0,0:0:0:0:
320,192,100160,1,0,0:0:0:0:
448,192,100160,1,0,0:0:0:0:
320,192,100322,1,0,0:0:0:0:
448,192,100322,1,0,0:0:0:0:
192,192,100322,1,0,0:0:0:0:
64,192,100645,1,0,0:0:0:0:
192,192,100645,1,0,0:0:0:0:
320,192,100645,1,0,0:0:0:0:
448,192,100805,1,0,0:0:0:0:
320,192,100886,1,0,0:0:0:0:
192,192,100886,1,0,0:0:0:0:
64,192,100967,1,0,0:0:0:0:
320,192,101128,1,0,0:0:0:0:
64,192,101128,1,0,0:0:0:0:
192,192,101209,1,0,0:0:0:0:
320,192,101290,1,0,0:0:0:0:
448,192,101290,1,0,0:0:0:0:
64,192,101290,1,0,0:0:0:0:
320,192,101450,1,0,0:0:0:0:
448,192,101450,1,0,0:0:0:0:
320,192,101612,1,0,0:0:0:0:
448,192,101612,1,0,0:0:0:0:
64,192,101774,1,0,0:0:0:0:
64,192,101935,1,0,0:0:0:0:
192,192,101935,1,0,0:0:0:0:
320,192,102096,1,0,0:0:0:0:
448,192,102176,1,0,0:0:0:0:
192,192,102176,1,0,0:0:0:0:
320,192,102419,1,0,0:0:0:0:
64,192,102419,1,0,0:0:0:0:
192,192,102580,1,0,0:0:0:0:
64,192,102580,1,0,0:0:0:0:
448,192,102580,1,0,0:0:0:0:
192,192,102741,1,0,0:0:0:0:
320,192,102741,1,0,0:0:0:0:
64,192,102902,128,0,102983:0:0:0:0:
192,192,102902,1,0,0:0:0:0:
320,192,102902,1,0,0:0:0:0:
448,192,102902,1,0,0:0:0:0:
448,192,103225,1,0,0:0:0:0:
64,192,103225,1,0,0:0:0:0:
320,192,103467,1,0,0:0:0:0:
192,192,103709,1,0,0:0:0:0:
64,192,104031,1,0,0:0:0:0:
192,192,104193,1,0,0:0:0:0:
448,192,104193,1,0,0:0:0:0:
320,192,104354,1,0,0:0:0:0:
192,192,104515,1,0,0:0:0:0:
64,192,104757,1,0,0:0:0:0:
448,192,104999,1,0,0:0:0:0:
320,192,105160,1,0,0:0:0:0:
192,192,105160,1,0,0:0:0:0:
64,192,105322,1,0,0:0:0:0:
64,192,105483,1,0,0:0:0:0:
448,192,105805,1,0,0:0:0:0:
64,192,106048,1,0,0:0:0:0:
320,192,106290,1,0,0:0:0:0:
192,192,106612,1,0,0:0:0:0:
192,192,106774,1,0,0:0:0:0:
64,192,106774,1,0,0:0:0:0:
192,192,106935,1,0,0:0:0:0:
448,192,107096,1,0,0:0:0:0:
320,192,107338,1,0,0:0:0:0:
64,192,107580,1,0,0:0:0:0:
192,192,107741,1,0,0:0:0:0:
320,192,107741,1,0,0:0:0:0:
448,192,107902,1,0,0:0:0:0:
448,192,108064,1,0,0:0:0:0:
64,192,108386,1,0,0:0:0:0:
448,192,108386,1,0,0:0:0:0:
320,192,108628,1,0,0:0:0:0:
192,192,108870,1,0,0:0:0:0:
64,192,109193,1,0,0:0:0:0:
192,192,109354,1,0,0:0:0:0:
448,192,109354,1,0,0:0:0:0:
320,192,109515,1,0,0:0:0:0:
192,192,109676,1,0,0:0:0:0:
64,192,109919,1,0,0:0:0:0:
448,192,110160,1,0,0:0:0:0:
320,192,110322,1,0,0:0:0:0:
192,192,110322,1,0,0:0:0:0:
64,192,110483,1,0,0:0:0:0:
64,192,110645,1,0,0:0:0:0:
448,192,110967,1,0,0:0:0:0:
192,192,110967,1,0,0:0:0:0:
64,192,111209,1,0,0:0:0:0:
192,192,111450,1,0,0:0:0:0:
320,192,111774,1,0,0:0:0:0:
320,192,111935,1,0,0:0:0:0:
192,192,111935,1,0,0:0:0:0:
320,192,112096,1,0,0:0:0:0:
64,192,112257,1,0,0:0:0:0:
448,192,112257,1,0,0:0:0:0:
320,192,112499,1,0,0:0:0:0:
64,192,112580,1,0,0:0:0:0:
448,192,112580,1,0,0:0:0:0:
320,192,112741,1,0,0:0:0:0:
192,192,112902,1,0,0:0:0:0:
448,192,112902,1,0,0:0:0:0:
64,192,112902,1,0,0:0:0:0:
192,192,113064,1,0,0:0:0:0:
192,192,113225,1,0,0:0:0:0:
448,192,113225,1,0,0:0:0:0:
64,192,113225,1,0,0:0:0:0:
448,192,113548,1,0,0:0:0:0:
64,192,113548,1,0,0:0:0:0:
320,192,113790,1,0,0:0:0:0:
64,192,113870,1,0,0:0:0:0:
448,192,113870,1,0,0:0:0:0:
192,192,114031,1,0,0:0:0:0:
448,192,114193,1,0,0:0:0:0:
64,192,114193,1,0,0:0:0:0:
320,192,114354,1,0,0:0:0:0:
448,192,114515,1,0,0:0:0:0:
64,192,114515,1,0,0:0:0:0:
320,192,114676,1,0,0:0:0:0:
448,192,114838,1,0,0:0:0:0:
64,192,114838,1,0,0:0:0:0:
192,192,114838,1,0,0:0:0:0:
320,192,115080,1,0,0:0:0:0:
448,192,115160,1,0,0:0:0:0:
64,192,115160,1,0,0:0:0:0:
192,192,115322,1,0,0:0:0:0:
448,192,115483,1,0,0:0:0:0:
64,192,115483,1,0,0:0:0:0:
320,192,115645,1,0,0:0:0:0:
320,192,115805,1,0,0:0:0:0:
448,192,115805,1,0,0:0:0:0:
64,192,115805,1,0,0:0:0:0:
448,192,116128,1,0,0:0:0:0:
64,192,116128,1,0,0:0:0:0:
192,192,116370,1,0,0:0:0:0:
448,192,116450,1,0,0:0:0:0:
64,192,116450,1,0,0:0:0:0:
320,192,116612,1,0,0:0:0:0:
448,192,116774,1,0,0:0:0:0:
64,192,116774,1,0,0:0:0:0:
192,192,116935,1,0,0:0:0:0:
192,192,117096,1,0,0:0:0:0:
448,192,117096,1,0,0:0:0:0:
64,192,117096,1,0,0:0:0:0:
192,192,117257,1,0,0:0:0:0:
448,192,117419,1,0,0:0:0:0:
64,192,117419,1,0,0:0:0:0:
320,192,117660,1,0,0:0:0:0:
448,192,117741,1,0,0:0:0:0:
64,192,117741,1,0,0:0:0:0:
192,192,117902,1,0,0:0:0:0:
448,192,118064,1,0,0:0:0:0:
64,192,118064,1,0,0:0:0:0:
320,192,118225,1,0,0:0:0:0:
320,192,118386,1,0,0:0:0:0:
448,192,118386,1,0,0:0:0:0:
64,192,118386,1,0,0:0:0:0:
448,192,118709,1,0,0:0:0:0:
64,192,118709,1,0,0:0:0:0:
192,192,118790,1,0,0:0:0:0:
320,192,118950,1,0,0:0:0:0:
448,192,119031,1,0,0:0:0:0:
64,192,119031,1,0,0:0:0:0:
192,192,119193,1,0,0:0:0:0:
448,192,119354,1,0,0:0:0:0:
64,192,119354,1,0,0:0:0:0:
192,192,119515,1,0,0:0:0:0:
448,192,119676,1,0,0:0:0:0:
64,192,119676,1,0,0:0:0:0:
320,192,119838,1,0,0:0:0:0:
192,192,119999,1,0,0:0:0:0:
448,192,119999,1,0,0:0:0:0:
64,192,119999,1,0,0:0:0:0:
320,192,120241,1,0,0:0:0:0:
448,192,120322,1,0,0:0:0:0:
64,192,120322,1,0,0:0:0:0:
320,192,120483,1,0,0:0:0:0:
448,192,120645,1,0,0:0:0:0:
64,192,120645,1,0,0:0:0:0:
192,192,120805,1,0,0:0:0:0:
192,192,120967,1,0,0:0:0:0:
64,192,120967,1,0,0:0:0:0:
448,192,120967,1,0,0:0:0:0:
448,192,121290,1,0,0:0:0:0:
64,192,121290,1,0,0:0:0:0:
320,192,121290,1,0,0:0:0:0:
320,192,121531,1,0,0:0:0:0:
448,192,121612,1,0,0:0:0:0:
64,192,121612,1,0,0:0:0:0:
192,192,121774,1,0,0:0:0:0:
64,192,121935,1,0,0:0:0:0:
448,192,121935,1,0,0:0:0:0:
320,192,122096,1,0,0:0:0:0:
320,192,122257,1,0,0:0:0:0:
448,192,122257,1,0,0:0:0:0:
64,192,122257,1,0,0:0:0:0:
320,192,122419,1,0,0:0:0:0:
64,192,122580,1,0,0:0:0:0:
448,192,122580,1,0,0:0:0:0:
320,192,122822,1,0,0:0:0:0:
64,192,122902,1,0,0:0:0:0:
448,192,122902,1,0,0:0:0:0:
448,192,123064,1,0,0:0:0:0:
448,192,123225,1,0,0:0:0:0:
64,192,123225,1,0,0:0:0:0:
192,192,123386,1,0,0:0:0:0:
192,192,123548,1,0,0:0:0:0:
320,192,123548,128,0,123709:0:0:0:0:
64,192,123548,1,0,0:0:0:0:
448,192,123548,1,0,0:0:0:0:
64,192,123870,1,0,0:0:0:0:
192,192,123870,1,0,0:0:0:0:
320,192,124031,1,0,0:0:0:0:
448,192,124031,1,0,0:0:0:0:
192,192,124193,1,0,0:0:0:0:
64,192,124193,1,0,0:0:0:0:
320,192,124354,1,0,0:0:0:0:
448,192,124354,1,0,0:0:0:0:
192,192,124515,1,0,0:0:0:0:
64,192,124515,1,0,0:0:0:0:
320,192,124676,1,0,0:0:0:0:
448,192,124676,1,0,0:0:0:0:
192,192,124838,1,0,0:0:0:0:
64,192,124838,1,0,0:0:0:0:
320,192,124999,1,0,0:0:0:0:
448,192,124999,1,0,0:0:0:0:
192,192,125160,1,0,0:0:0:0:
64,192,125160,1,0,0:0:0:0:
320,192,125322,1,0,0:0:0:0:
448,192,125322,1,0,0:0:0:0:
192,192,125483,1,0,0:0:0:0:
64,192,125483,1,0,0:0:0:0:
320,192,125645,1,0,0:0:0:0:
448,192,125645,1,0,0:0:0:0:
192,192,125805,1,0,0:0:0:0:
64,192,125805,1,0,0:0:0:0:
320,192,125967,1,0,0:0:0:0:
448,192,125967,1,0,0:0:0:0:
192,192,126128,1,0,0:0:0:0:
64,192,126128,1,0,0:0:0:0:
320,192,126290,1,0,0:0:0:0:
448,192,126290,1,0,0:0:0:0:
192,192,126450,1,0,0:0:0:0:
64,192,126450,1,0,0:0:0:0:
320,192,126612,1,0,0:0:0:0:
448,192,126612,1,0,0:0:0:0:
192,192,126774,1,0,0:0:0:0:
64,192,126774,1,0,0:0:0:0:
320,192,126935,1,0,0:0:0:0:
448,192,126935,1,0,0:0:0:0:
192,192,127096,1,0,0:0:0:0:
64,192,127096,1,0,0:0:0:0:
320,192,127257,1,0,0:0:0:0:
448,192,127257,1,0,0:0:0:0:
192,192,127419,1,0,0:0:0:0:
64,192,127419,1,0,0:0:0:0:
320,192,127580,1,0,0:0:0:0:
448,192,127580,1,0,0:0:0:0:
192,192,127741,1,0,0:0:0:0:
64,192,127741,1,0,0:0:0:0:
320,192,127902,1,0,0:0:0:0:
448,192,127902,1,0,0:0:0:0:
192,192,128064,1,0,0:0:0:0:
64,192,128064,1,0,0:0:0:0:
320,192,128225,1,0,0:0:0:0:
448,192,128225,1,0,0:0:0:0:
192,192,128386,1,0,0:0:0:0:
64,192,128386,1,0,0:0:0:0:
320,192,128548,1,0,0:0:0:0:
448,192,128548,1,0,0:0:0:0:
192,192,128709,1,0,0:0:0:0:
64,192,128709,1,0,0:0:0:0:
320,192,128870,1,0,0:0:0:0:
448,192,128870,1,0,0:0:0:0:
64,192,129031,1,0,0:0:0:0:
192,192,129031,1,0,0:0:0:0:
448,192,129112,1,0,0:0:0:0:
320,192,129193,1,0,0:0:0:0:
64,192,129193,1,0,0:0:0:0:
192,192,129274,1,0,0:0:0:0:
320,192,129354,1,0,0:0:0:0:
448,192,129354,1,0,0:0:0:0:
192,192,129435,1,0,0:0:0:0:
64,192,129515,1,0,0:0:0:0:
448,192,129515,1,0,0:0:0:0:
320,192,129596,1,0,0:0:0:0:
192,192,129676,1,0,0:0:0:0:
64,192,129676,1,0,0:0:0:0:
320,192,129757,1,0,0:0:0:0:
448,192,129838,1,0,0:0:0:0:
64,192,129838,1,0,0:0:0:0:
192,192,129919,1,0,0:0:0:0:
320,192,129999,1,0,0:0:0:0:
448,192,129999,1,0,0:0:0:0:
192,192,130080,1,0,0:0:0:0:
64,192,130160,1,0,0:0:0:0:
448,192,130160,1,0,0:0:0:0:
320,192,130241,1,0,0:0:0:0:
192,192,130322,1,0,0:0:0:0:
64,192,130322,1,0,0:0:0:0:
320,192,130402,1,0,0:0:0:0:
448,192,130402,1,0,0:0:0:0:
192,192,130483,1,0,0:0:0:0:
64,192,130483,1,0,0:0:0:0:
320,192,130564,1,0,0:0:0:0:
448,192,130564,1,0,0:0:0:0:
192,192,130645,1,0,0:0:0:0:
64,192,130645,1,0,0:0:0:0:
320,192,130725,1,0,0:0:0:0:
448,192,130725,1,0,0:0:0:0:
192,192,130805,1,0,0:0:0:0:
64,192,130805,1,0,0:0:0:0:
320,192,130886,1,0,0:0:0:0:
448,192,130886,1,0,0:0:0:0:
192,192,130967,1,0,0:0:0:0:
64,192,130967,1,0,0:0:0:0:
320,192,131048,1,0,0:0:0:0:
448,192,131048,1,0,0:0:0:0:
192,192,131128,1,0,0:0:0:0:
64,192,131128,1,0,0:0:0:0:
320,192,131209,1,0,0:0:0:0:
448,192,131209,1,0,0:0:0:0:
192,192,131290,1,0,0:0:0:0:
64,192,131290,1,0,0:0:0:0:
320,192,131370,1,0,0:0:0:0:
448,192,131370,1,0,0:0:0:0:
192,192,131450,1,0,0:0:0:0:
64,192,131450,1,0,0:0:0:0:
320,192,131531,1,0,0:0:0:0:
448,192,131531,1,0,0:0:0:0:
192,192,131612,1,0,0:0:0:0:
64,192,131612,1,0,0:0:0:0:
448,192,132902,1,0,0:0:0:0:
448,192,133225,1,0,0:0:0:0:
64,192,133548,1,0,0:0:0:0:
192,192,133548,1,0,0:0:0:0:
320,192,133628,1,0,0:0:0:0:
448,192,133628,1,0,0:0:0:0:
192,192,133709,1,0,0:0:0:0:
64,192,133709,1,0,0:0:0:0:
192,192,133870,1,0,0:0:0:0:
320,192,133870,1,0,0:0:0:0:
448,192,134031,1,0,0:0:0:0:
320,192,134031,1,0,0:0:0:0:
64,192,134193,1,0,0:0:0:0:
448,192,134193,1,0,0:0:0:0:
192,192,134233,1,0,0:0:0:0:
320,192,134274,1,0,0:0:0:0:
64,192,134314,1,0,0:0:0:0:
192,192,134354,1,0,0:0:0:0:
320,192,134395,1,0,0:0:0:0:
448,192,134435,1,0,0:0:0:0:
320,192,134475,1,0,0:0:0:0:
64,192,134515,1,0,0:0:0:0:
192,192,134515,1,0,0:0:0:0:
192,192,134676,1,0,0:0:0:0:
320,192,134838,1,0,0:0:0:0:
448,192,134838,1,0,0:0:0:0:
64,192,134838,1,0,0:0:0:0:
192,192,134999,1,0,0:0:0:0:
64,192,134999,1,0,0:0:0:0:
64,192,135160,1,0,0:0:0:0:
192,192,135160,1,0,0:0:0:0:
320,192,135200,1,0,0:0:0:0:
448,192,135241,1,0,0:0:0:0:
64,192,135281,1,0,0:0:0:0:
320,192,135322,1,0,0:0:0:0:
192,192,135362,1,0,0:0:0:0:
448,192,135402,1,0,0:0:0:0:
320,192,135443,1,0,0:0:0:0:
64,192,135483,1,0,0:0:0:0:
192,192,135483,1,0,0:0:0:0:
192,192,135967,1,0,0:0:0:0:
64,192,135967,1,0,0:0:0:0:
448,192,136128,1,0,0:0:0:0:
64,192,136128,1,0,0:0:0:0:
320,192,136169,1,0,0:0:0:0:
192,192,136209,1,0,0:0:0:0:
320,192,136249,1,0,0:0:0:0:
448,192,136290,1,0,0:0:0:0:
64,192,136330,1,0,0:0:0:0:
192,192,136370,1,0,0:0:0:0:
320,192,136410,1,0,0:0:0:0:
448,192,136450,1,0,0:0:0:0:
64,192,136450,1,0,0:0:0:0:
448,192,136774,1,0,0:0:0:0:
192,192,136774,1,0,0:0:0:0:
320,192,136814,1,0,0:0:0:0:
64,192,136854,1,0,0:0:0:0:
192,192,136895,1,0,0:0:0:0:
448,192,136935,1,0,0:0:0:0:
320,192,136975,1,0,0:0:0:0:
64,192,137015,1,0,0:0:0:0:
448,192,137055,1,0,0:0:0:0:
320,192,137096,1,0,0:0:0:0:
192,192,137096,1,0,0:0:0:0:
64,192,137257,1,0,0:0:0:0:
448,192,137257,1,0,0:0:0:0:
320,192,137419,1,0,0:0:0:0:
192,192,137419,1,0,0:0:0:0:
192,192,137580,1,0,0:0:0:0:
320,192,137580,1,0,0:0:0:0:
64,192,137741,1,0,0:0:0:0:
448,192,137741,1,0,0:0:0:0:
192,192,137781,1,0,0:0:0:0:
320,192,137822,1,0,0:0:0:0:
192,192,137862,1,0,0:0:0:0:
64,192,137902,1,0,0:0:0:0:
448,192,137943,1,0,0:0:0:0:
320,192,137983,1,0,0:0:0:0:
192,192,138024,1,0,0:0:0:0:
64,192,138064,1,0,0:0:0:0:
448,192,138064,1,0,0:0:0:0:
64,192,138548,1,0,0:0:0:0:
192,192,138548,1,0,0:0:0:0:
64,192,138709,1,0,0:0:0:0:
192,192,138709,1,0,0:0:0:0:
320,192,138749,1,0,0:0:0:0:
448,192,138790,1,0,0:0:0:0:
64,192,138830,1,0,0:0:0:0:
192,192,138870,1,0,0:0:0:0:
448,192,138910,1,0,0:0:0:0:
320,192,138950,1,0,0:0:0:0:
192,192,138991,1,0,0:0:0:0:
64,192,139031,1,0,0:0:0:0:
448,192,139031,1,0,0:0:0:0:
320,192,139072,1,0,0:0:0:0:
192,192,139112,1,0,0:0:0:0:
64,192,139152,1,0,0:0:0:0:
448,192,139193,1,0,0:0:0:0:
320,192,139233,1,0,0:0:0:0:
64,192,139274,1,0,0:0:0:0:
192,192,139314,1,0,0:0:0:0:
320,192,139354,1,0,0:0:0:0:
448,192,139354,1,0,0:0:0:0:
64,192,139395,1,0,0:0:0:0:
192,192,139435,1,0,0:0:0:0:
320,192,139475,1,0,0:0:0:0:
448,192,139515,1,0,0:0:0:0:
64,192,139555,1,0,0:0:0:0:
192,192,139596,1,0,0:0:0:0:
320,192,139636,1,0,0:0:0:0:
64,192,139676,1,0,0:0:0:0:
448,192,139676,1,0,0:0:0:0:
192,192,139838,1,0,0:0:0:0:
64,192,139838,1,0,0:0:0:0:
64,192,139999,1,0,0:0:0:0:
448,192,139999,1,0,0:0:0:0:
192,192,140160,1,0,0:0:0:0:
320,192,140160,1,0,0:0:0:0:
192,192,140322,1,0,0:0:0:0:
320,192,140322,1,0,0:0:0:0:
64,192,140362,1,0,0:0:0:0:
448,192,140402,1,0,0:0:0:0:
320,192,140443,1,0,0:0:0:0:
64,192,140483,1,0,0:0:0:0:
448,192,140524,1,0,0:0:0:0:
192,192,140564,1,0,0:0:0:0:
320,192,140604,1,0,0:0:0:0:
448,192,140645,1,0,0:0:0:0:
64,192,140645,1,0,0:0:0:0:
320,192,141128,1,0,0:0:0:0:
448,192,141128,1,0,0:0:0:0:
448,192,141290,1,0,0:0:0:0:
64,192,141290,1,0,0:0:0:0:
192,192,141330,1,0,0:0:0:0:
320,192,141370,1,0,0:0:0:0:
64,192,141410,1,0,0:0:0:0:
192,192,141450,1,0,0:0:0:0:
320,192,141491,1,0,0:0:0:0:
64,192,141531,1,0,0:0:0:0:
192,192,141572,1,0,0:0:0:0:
320,192,141612,1,0,0:0:0:0:
448,192,141612,1,0,0:0:0:0:
448,192,141935,1,0,0:0:0:0:
64,192,141935,1,0,0:0:0:0:
320,192,141975,1,0,0:0:0:0:
192,192,142015,1,0,0:0:0:0:
448,192,142055,1,0,0:0:0:0:
320,192,142096,1,0,0:0:0:0:
192,192,142136,1,0,0:0:0:0:
64,192,142176,1,0,0:0:0:0:
320,192,142217,1,0,0:0:0:0:
192,192,142257,1,0,0:0:0:0:
448,192,142257,1,0,0:0:0:0:
320,192,142419,1,0,0:0:0:0:
64,192,142419,1,0,0:0:0:0:
192,192,142580,1,0,0:0:0:0:
448,192,142580,1,0,0:0:0:0:
64,192,142580,1,0,0:0:0:0:
320,192,142741,1,0,0:0:0:0:
448,192,142741,1,0,0:0:0:0:
64,192,142902,1,0,0:0:0:0:
320,192,142902,1,0,0:0:0:0:
192,192,142943,1,0,0:0:0:0:
448,192,142983,1,0,0:0:0:0:
64,192,143024,1,0,0:0:0:0:
192,192,143064,1,0,0:0:0:0:
448,192,143104,1,0,0:0:0:0:
320,192,143145,1,0,0:0:0:0:
192,192,143185,1,0,0:0:0:0:
64,192,143225,1,0,0:0:0:0:
448,192,143225,1,0,0:0:0:0:
192,192,143709,1,0,0:0:0:0:
320,192,143709,1,0,0:0:0:0:
448,192,143870,1,0,0:0:0:0:
192,192,143870,1,0,0:0:0:0:
320,192,143910,1,0,0:0:0:0:
64,192,143950,1,0,0:0:0:0:
448,192,143991,1,0,0:0:0:0:
320,192,144031,1,0,0:0:0:0:
192,192,144072,1,0,0:0:0:0:
448,192,144112,1,0,0:0:0:0:
320,192,144152,1,0,0:0:0:0:
64,192,144193,128,0,144233:0:0:0:0:
192,192,144193,1,0,0:0:0:0:
448,192,144233,1,0,0:0:0:0:
320,192,144274,1,0,0:0:0:0:
192,192,144314,1,0,0:0:0:0:
448,192,144354,1,0,0:0:0:0:
64,192,144395,1,0,0:0:0:0:
320,192,144435,1,0,0:0:0:0:
448,192,144475,1,0,0:0:0:0:
192,192,144515,1,0,0:0:0:0:
64,192,144515,1,0,0:0:0:0:
320,192,144555,1,0,0:0:0:0:
448,192,144596,1,0,0:0:0:0:
64,192,144636,1,0,0:0:0:0:
192,192,144676,1,0,0:0:0:0:
320,192,144717,1,0,0:0:0:0:
448,192,144757,1,0,0:0:0:0:
192,192,144798,1,0,0:0:0:0:
64,192,144838,1,0,0:0:0:0:
320,192,144838,1,0,0:0:0:0:
448,192,144919,1,0,0:0:0:0:
64,192,144999,1,0,0:0:0:0:
192,192,144999,1,0,0:0:0:0:
320,192,145080,1,0,0:0:0:0:
448,192,145160,1,0,0:0:0:0:
64,192,145160,1,0,0:0:0:0:
192,192,145241,1,0,0:0:0:0:
320,192,145322,1,0,0:0:0:0:
448,192,145322,1,0,0:0:0:0:
192,192,145402,1,0,0:0:0:0:
320,192,145483,1,0,0:0:0:0:
448,192,145483,1,0,0:0:0:0:
64,192,145524,1,0,0:0:0:0:
192,192,145564,1,0,0:0:0:0:
320,192,145604,1,0,0:0:0:0:
192,192,145645,1,0,0:0:0:0:
448,192,145685,1,0,0:0:0:0:
320,192,145725,1,0,0:0:0:0:
192,192,145765,1,0,0:0:0:0:
448,192,145805,1,0,0:0:0:0:
64,192,145805,1,0,0:0:0:0:
320,192,145886,1,0,0:0:0:0:
64,192,145967,1,0,0:0:0:0:
320,192,146048,1,0,0:0:0:0:
64,192,146128,1,0,0:0:0:0:
320,192,146209,1,0,0:0:0:0:
64,192,146290,1,0,0:0:0:0:
192,192,146290,1,0,0:0:0:0:
320,192,146370,1,0,0:0:0:0:
448,192,146450,1,0,0:0:0:0:
64,192,146450,1,0,0:0:0:0:
192,192,146491,1,0,0:0:0:0:
320,192,146531,1,0,0:0:0:0:
64,192,146572,1,0,0:0:0:0:
448,192,146612,1,0,0:0:0:0:
320,192,146652,1,0,0:0:0:0:
192,192,146693,1,0,0:0:0:0:
320,192,146733,1,0,0:0:0:0:
64,192,146774,1,0,0:0:0:0:
448,192,146774,1,0,0:0:0:0:
192,192,146854,1,0,0:0:0:0:
448,192,146935,1,0,0:0:0:0:
192,192,147015,1,0,0:0:0:0:
448,192,147096,1,0,0:0:0:0:
320,192,147096,1,0,0:0:0:0:
192,192,147136,1,0,0:0:0:0:
64,192,147176,1,0,0:0:0:0:
320,192,147217,1,0,0:0:0:0:
192,192,147257,1,0,0:0:0:0:
320,192,147298,1,0,0:0:0:0:
448,192,147338,1,0,0:0:0:0:
192,192,147378,1,0,0:0:0:0:
64,192,147419,1,0,0:0:0:0:
320,192,147419,1,0,0:0:0:0:
448,192,147499,1,0,0:0:0:0:
64,192,147580,1,0,0:0:0:0:
192,192,147580,1,0,0:0:0:0:
448,192,147660,1,0,0:0:0:0:
192,192,147741,1,0,0:0:0:0:
64,192,147741,1,0,0:0:0:0:
320,192,147822,1,0,0:0:0:0:
448,192,147902,1,0,0:0:0:0:
64,192,147902,1,0,0:0:0:0:
192,192,147983,1,0,0:0:0:0:
64,192,148064,1,0,0:0:0:0:
448,192,148064,1,0,0:0:0:0:
320,192,148104,1,0,0:0:0:0:
192,192,148145,1,0,0:0:0:0:
448,192,148185,1,0,0:0:0:0:
320,192,148225,1,0,0:0:0:0:
192,192,148265,1,0,0:0:0:0:
320,192,148305,1,0,0:0:0:0:
64,192,148346,1,0,0:0:0:0:
192,192,148386,1,0,0:0:0:0:
448,192,148386,1,0,0:0:0:0:
320,192,148467,1,0,0:0:0:0:
448,192,148548,1,0,0:0:0:0:
192,192,148628,1,0,0:0:0:0:
448,192,148709,1,0,0:0:0:0:
192,192,148790,1,0,0:0:0:0:
448,192,148870,1,0,0:0:0:0:
320,192,148870,1,0,0:0:0:0:
192,192,148950,1,0,0:0:0:0:
64,192,149031,1,0,0:0:0:0:
448,192,149031,1,0,0:0:0:0:
320,192,149072,1,0,0:0:0:0:
192,192,149112,1,0,0:0:0:0:
448,192,149152,1,0,0:0:0:0:
320,192,149193,1,0,0:0:0:0:
64,192,149233,1,0,0:0:0:0:
192,192,149274,1,0,0:0:0:0:
320,192,149314,1,0,0:0:0:0:
448,192,149354,1,0,0:0:0:0:
64,192,149354,1,0,0:0:0:0:
192,192,149395,1,0,0:0:0:0:
320,192,149435,1,0,0:0:0:0:
64,192,149475,1,0,0:0:0:0:
192,192,149515,1,0,0:0:0:0:
320,192,149555,1,0,0:0:0:0:
448,192,149596,1,0,0:0:0:0:
192,192,149636,1,0,0:0:0:0:
320,192,149676,1,0,0:0:0:0:
64,192,149676,1,0,0:0:0:0:
448,192,149717,1,0,0:0:0:0:
192,192,149757,1,0,0:0:0:0:
64,192,149798,1,0,0:0:0:0:
448,192,149838,1,0,0:0:0:0:
320,192,149878,1,0,0:0:0:0:
192,192,149919,1,0,0:0:0:0:
448,192,149959,1,0,0:0:0:0:
320,192,149999,1,0,0:0:0:0:
64,192,149999,1,0,0:0:0:0:
192,192,150080,1,0,0:0:0:0:
448,192,150160,1,0,0:0:0:0:
320,192,150160,1,0,0:0:0:0:
64,192,150241,1,0,0:0:0:0:
192,192,150322,1,0,0:0:0:0:
448,192,150322,1,0,0:0:0:0:
320,192,150402,1,0,0:0:0:0:
192,192,150483,1,0,0:0:0:0:
64,192,150483,1,0,0:0:0:0:
320,192,150564,1,0,0:0:0:0:
192,192,150645,1,0,0:0:0:0:
64,192,150645,1,0,0:0:0:0:
448,192,150685,1,0,0:0:0:0:
320,192,150725,1,0,0:0:0:0:
192,192,150765,1,0,0:0:0:0:
320,192,150805,1,0,0:0:0:0:
448,192,150846,1,0,0:0:0:0:
192,192,150886,1,0,0:0:0:0:
64,192,150926,1,0,0:0:0:0:
448,192,150967,1,0,0:0:0:0:
320,192,150967,1,0,0:0:0:0:
192,192,151048,1,0,0:0:0:0:
320,192,151128,1,0,0:0:0:0:
448,192,151209,1,0,0:0:0:0:
64,192,151290,1,0,0:0:0:0:
192,192,151370,1,0,0:0:0:0:
448,192,151450,1,0,0:0:0:0:
320,192,151450,1,0,0:0:0:0:
64,192,151531,1,0,0:0:0:0:
192,192,151612,1,0,0:0:0:0:
448,192,151612,1,0,0:0:0:0:
320,192,151652,1,0,0:0:0:0:
64,192,151693,1,0,0:0:0:0:
192,192,151733,1,0,0:0:0:0:
448,192,151774,1,0,0:0:0:0:
320,192,151814,1,0,0:0:0:0:
192,192,151854,1,0,0:0:0:0:
448,192,151895,1,0,0:0:0:0:
320,192,151935,1,0,0:0:0:0:
64,192,151935,1,0,0:0:0:0:
192,192,152015,1,0,0:0:0:0:
448,192,152096,1,0,0:0:0:0:
192,192,152176,1,0,0:0:0:0:
448,192,152257,1,0,0:0:0:0:
64,192,152257,1,0,0:0:0:0:
192,192,152298,1,0,0:0:0:0:
320,192,152338,1,0,0:0:0:0:
192,192,152378,1,0,0:0:0:0:
64,192,152419,1,0,0:0:0:0:
448,192,152459,1,0,0:0:0:0:
320,192,152499,1,0,0:0:0:0:
448,192,152540,1,0,0:0:0:0:
192,192,152580,1,0,0:0:0:0:
64,192,152580,1,0,0:0:0:0:
320,192,152660,1,0,0:0:0:0:
192,192,152741,1,0,0:0:0:0:
64,192,152741,1,0,0:0:0:0:
320,192,152822,1,0,0:0:0:0:
64,192,152902,1,0,0:0:0:0:
448,192,152902,1,0,0:0:0:0:
192,192,152983,1,0,0:0:0:0:
320,192,153064,1,0,0:0:0:0:
448,192,153064,1,0,0:0:0:0:
192,192,153145,1,0,0:0:0:0:
320,192,153225,1,0,0:0:0:0:
448,192,153225,1,0,0:0:0:0:
192,192,153265,1,0,0:0:0:0:
64,192,153305,1,0,0:0:0:0:
320,192,153346,1,0,0:0:0:0:
192,192,153386,1,0,0:0:0:0:
448,192,153426,1,0,0:0:0:0:
320,192,153467,1,0,0:0:0:0:
64,192,153507,1,0,0:0:0:0:
192,192,153548,1,0,0:0:0:0:
448,192,153548,1,0,0:0:0:0:
320,192,153628,1,0,0:0:0:0:
192,192,153709,1,0,0:0:0:0:
64,192,153790,1,0,0:0:0:0:
320,192,153870,1,0,0:0:0:0:
448,192,153950,1,0,0:0:0:0:
64,192,154031,1,0,0:0:0:0:
192,192,154031,1,0,0:0:0:0:
320,192,154112,1,0,0:0:0:0:
448,192,154193,1,0,0:0:0:0:
64,192,154193,1,0,0:0:0:0:
192,192,154233,1,0,0:0:0:0:
320,192,154274,1,0,0:0:0:0:
64,192,154314,1,0,0:0:0:0:
192,192,154354,1,0,0:0:0:0:
448,192,154395,1,0,0:0:0:0:
320,192,154435,1,0,0:0:0:0:
192,192,154475,1,0,0:0:0:0:
448,192,154515,1,0,0:0:0:0:
64,192,154515,128,0,154555:0:0:0:0:
320,192,154555,1,0,0:0:0:0:
192,192,154596,1,0,0:0:0:0:
448,192,154636,1,0,0:0:0:0:
320,192,154676,1,0,0:0:0:0:
64,192,154717,1,0,0:0:0:0:
192,192,154757,1,0,0:0:0:0:
320,192,154798,1,0,0:0:0:0:
448,192,154838,1,0,0:0:0:0:
64,192,154838,1,0,0:0:0:0:
320,192,155322,1,0,0:0:0:0:
448,192,155322,1,0,0:0:0:0:
448,192,155483,1,0,0:0:0:0:
320,192,155483,1,0,0:0:0:0:
192,192,155483,1,0,0:0:0:0:
64,192,155645,1,0,0:0:0:0:
448,192,155645,1,0,0:0:0:0:
448,192,155805,1,0,0:0:0:0:
64,192,155805,1,0,0:0:0:0:
192,192,156612,1,0,0:0:0:0:
320,192,156612,1,0,0:0:0:0:
64,192,156774,1,0,0:0:0:0:
192,192,156774,1,0,0:0:0:0:
320,192,156774,1,0,0:0:0:0:
64,192,157096,1,0,0:0:0:0:
192,192,157096,1,0,0:0:0:0:
64,192,157419,1,0,0:0:0:0:
448,192,157419,1,0,0:0:0:0:
192,192,157902,1,0,0:0:0:0:
448,192,157902,1,0,0:0:0:0:
320,192,158064,1,0,0:0:0:0:
192,192,158064,1,0,0:0:0:0:
64,192,158064,1,0,0:0:0:0:
320,192,158225,1,0,0:0:0:0:
448,192,158225,1,0,0:0:0:0:
448,192,158386,1,0,0:0:0:0:
320,192,158386,1,0,0:0:0:0:
64,192,159193,1,0,0:0:0:0:
448,192,159193,1,0,0:0:0:0:
320,192,159354,1,0,0:0:0:0:
192,192,159354,1,0,0:0:0:0:
64,192,159354,1,0,0:0:0:0:
64,192,159676,1,0,0:0:0:0:
448,192,159676,1,0,0:0:0:0:
320,192,159999,1,0,0:0:0:0:
192,192,159999,1,0,0:0:0:0:
320,192,160483,1,0,0:0:0:0:
448,192,160483,1,0,0:0:0:0:
320,192,160645,1,0,0:0:0:0:
192,192,160645,1,0,0:0:0:0:
64,192,160645,1,0,0:0:0:0:
448,192,160805,1,0,0:0:0:0:
64,192,160805,1,0,0:0:0:0:
64,192,160967,1,0,0:0:0:0:
448,192,160967,1,0,0:0:0:0:
192,192,161774,1,0,0:0:0:0:
320,192,161774,1,0,0:0:0:0:
192,192,161935,1,0,0:0:0:0:
320,192,161935,1,0,0:0:0:0:
448,192,161935,1,0,0:0:0:0:
192,192,162257,1,0,0:0:0:0:
64,192,162257,1,0,0:0:0:0:
320,192,162580,1,0,0:0:0:0:
448,192,162580,1,0,0:0:0:0:
448,192,163064,1,0,0:0:0:0:
64,192,163064,1,0,0:0:0:0:
64,192,163225,1,0,0:0:0:0:
192,192,163225,1,0,0:0:0:0:
320,192,163225,1,0,0:0:0:0:
448,192,163386,1,0,0:0:0:0:
192,192,163386,1,0,0:0:0:0:
448,192,163548,1,0,0:0:0:0:
192,192,163548,1,0,0:0:0:0:
192,192,164193,1,0,0:0:0:0:
320,192,164354,1,0,0:0:0:0:
448,192,164354,1,0,0:0:0:0:
192,192,164435,1,0,0:0:0:0:
64,192,164515,1,0,0:0:0:0:
448,192,164515,1,0,0:0:0:0:
192,192,164676,1,0,0:0:0:0:
320,192,164838,1,0,0:0:0:0:
64,192,164838,1,0,0:0:0:0:
448,192,164919,1,0,0:0:0:0:
192,192,164999,1,0,0:0:0:0:
320,192,165080,1,0,0:0:0:0:
64,192,165160,128,0,165241:0:0:0:0:
