osu file format v14

[General]
AudioFilename: audio.mp3
AudioLeadIn: 0
PreviewTime: 151680
Countdown: 0
SampleSet: Soft
StackLeniency: 0.4
Mode: 0
LetterboxInBreaks: 0
WidescreenStoryboard: 0

[Editor]
DistanceSpacing: 0.9
BeatDivisor: 4
GridSize: 4
TimelineZoom: 1

[Metadata]
Title:Again feat. XXXTENTACION
TitleUnicode:Again feat. XXXTENTACION
Artist:Noah Cyrus
ArtistUnicode:Noah Cyrus
Creator:[A L P H A]
Version:constantly
Source:
Tags:
BeatmapID:1748485
BeatmapSetID:834729

[Difficulty]
HPDrainRate:6
CircleSize:4
OverallDifficulty:7
ApproachRate:8.2
SliderMultiplier:1.6
SliderTickRate:1

[Events]
//Background and Video events
0,0,"again.jpg",0,0
//Break Periods
//Storyboard Layer 0 (Background)
//Storyboard Layer 1 (Fail)
//Storyboard Layer 2 (Pass)
//Storyboard Layer 3 (Foreground)
//Storyboard Sound Samples

[TimingPoints]
180,500,4,2,0,60,1,0
40180,-250,4,2,0,60,0,0
47180,-100,4,2,0,60,0,0
47680,-71.4285714285714,4,2,0,60,0,0
47680,-71.4285714285714,4,2,0,60,0,0
48180,-250,4,2,0,60,0,0
64180,-100,4,2,0,60,0,0
70180,-111.111111111111,4,2,0,60,0,0
72180,-76.9230769230769,4,2,0,60,0,1
88180,-100,4,2,0,60,0,0
120180,-125,4,2,0,60,0,0
127180,-100,4,2,0,60,0,0
127680,-71.4285714285714,4,2,0,60,0,0
128179,-125,4,2,0,60,0,0
136180,-111.111111111111,4,2,0,60,0,0
142180,-125,4,2,0,60,0,0
143305,-142.857142857143,4,2,0,60,0,0
144180,-111.111111111111,4,2,0,60,0,0
152180,-76.9230769230769,4,2,0,60,0,1
167680,-76.9230769230769,4,2,0,60,0,0
168180,-76.9230769230769,4,2,0,60,0,1
175180,-100,4,2,0,60,0,1
175680,-71.4285714285714,4,2,0,60,0,1
176180,-76.9230769230769,4,2,0,60,0,1
184180,-125,4,2,0,60,0,0

[Colours]
Combo1 : 128,128,128
Combo2 : 255,128,0

[HitObjects]
326,164,180,6,0,P|333:203|340:242,1,80
214,220,680,2,0,P|221:180|228:141,1,80
366,68,1180,2,0,P|310:84|283:91,1,80
142,36,1680,2,0,P|180:47|219:57,1,80
307,11,2180,5,0,0:0:0:0:
303,2,2430,1,0,0:0:0:0:
406,56,2680,1,0,0:0:0:0:
402,65,2930,1,0,0:0:0:0:
328,144,3180,1,0,0:0:0:0:
324,135,3430,1,0,0:0:0:0:
427,189,3680,1,0,0:0:0:0:
423,198,3930,1,0,0:0:0:0:
337,291,4180,6,0,P|290:287|251:283,1,80
182,189,4680,2,0,P|221:185|261:181,1,80
146,339,5180,2,0,P|133:283|123:241,1,80
50,175,5680,2,0,P|40:213|31:252,1,80
139,105,6180,5,0,0:0:0:0:
133,89,6430,1,0,0:0:0:0:
256,128,6680,1,0,0:0:0:0:
250,144,6930,1,2,0:0:0:0:
128,240,7180,1,0,0:0:0:0:
122,224,7430,1,0,0:0:0:0:
245,263,7680,1,0,0:0:0:0:
239,279,7930,1,0,0:0:0:0:
320,344,8180,6,0,P|366:348|412:356,1,80
484,259,8680,2,0,P|441:267|402:272,1,80
295,158,9180,2,0,P|325:204|341:233,1,80
192,283,9680,2,0,P|211:248|234:215,1,80
402,148,10180,5,0,0:0:0:0:
408,168,10430,1,0,0:0:0:0:
275,141,10680,1,0,0:0:0:0:
281,121,10930,1,0,0:0:0:0:
408,40,11180,1,0,0:0:0:0:
414,60,11430,1,0,0:0:0:0:
281,33,11680,1,0,0:0:0:0:
287,13,11930,1,0,0:0:0:0:
221,99,12180,6,0,P|158:113|131:118,1,80
42,28,12680,2,0,P|81:35|120:44,1,80
79,207,13180,2,0,P|65:147|61:120,1,80
171,193,13680,2,0,P|164:232|154:271,1,80
38,348,14180,5,0,0:0:0:0:
33,327,14430,1,0,0:0:0:0:
158,346,14680,1,0,0:0:0:0:
153,367,14930,1,2,0:0:0:0:
72,248,15180,5,0,0:0:0:0:
67,227,15430,1,0,0:0:0:0:
192,246,15680,1,0,0:0:0:0:
187,267,15930,1,0,0:0:0:0:
271,192,16180,6,0,L|364:205,1,80
428,109,16680,2,0,L|348:120,1,80
152,32,17180,2,0,P|224:18|283:101,1,160
234,164,17930,1,0,0:0:0:0:
302,233,18180,6,0,P|349:227|394:219,1,80
494,302,18680,2,0,P|454:297|414:290,1,80
439,126,19180,2,0,P|451:176|460:231,1,80
344,126,19680,2,0,P|351:86|361:47,1,80
240,120,20180,5,0,0:0:0:0:
245,141,20430,1,0,0:0:0:0:
120,122,20680,1,0,0:0:0:0:
125,101,20930,1,0,0:0:0:0:
206,220,21180,5,0,0:0:0:0:
211,241,21430,1,0,0:0:0:0:
86,222,21680,1,0,0:0:0:0:
91,201,21930,1,0,0:0:0:0:
178,150,22180,6,0,P|233:158|268:164,1,80
377,73,22680,2,0,P|337:78|297:85,1,80
129,31,23180,6,0,P|175:41|186:42,2,40,2|0|0,0:0|0:0|0:0,0:0:0:0:
52,156,23680,5,2,0:0:0:0:
52,156,23805,1,0,0:0:0:0:
52,156,23930,1,0,0:0:0:0:
171,246,24180,6,0,B|261:236|235:302|317:294,1,160
408,200,24930,1,0,0:0:0:0:
492,304,25180,2,0,B|476:340|448:376,1,80
212,314,25680,2,0,B|196:278|170:245,1,80
30,153,26180,6,0,B|105:148|105:148|114:143|114:143|197:138,1,160
307,203,26930,1,0,0:0:0:0:
412,104,27180,2,0,P|338:76|272:2,1,160
281,19,28180,6,0,P|251:54|207:65,1,80
64,78,28680,1,0,0:0:0:0:
64,78,29180,2,0,P|100:92|125:123,1,80
196,248,29680,2,0,L|213:125,1,120
215,119,30180,5,0,0:0:0:0:
325,164,30430,1,0,0:0:0:0:
406,84,30680,2,0,P|379:55|398:3,1,80
495,157,31180,2,0,P|453:191|398:273,1,120,2|0,0:0|0:0,0:0:0:0:
412,243,31680,1,2,0:0:0:0:
412,243,31805,1,0,0:0:0:0:
412,243,31930,1,0,0:0:0:0:
282,353,32180,6,0,B|361:348|361:348|369:352|369:352|452:346,1,160
411,242,32930,1,0,0:0:0:0:
411,242,33180,2,0,P|383:199|326:99,1,160
257,205,33930,1,0,0:0:0:0:
174,128,34180,6,0,P|183:89|194:37,1,80
45,40,34680,2,0,P|53:79|62:118,1,80
136,205,35180,2,0,P|74:242|41:288,1,120
45,279,35680,2,0,P|83:291|98:344,1,80
236,352,36180,6,0,B|227:276|227:276|221:267|221:267|211:190,1,160
211,194,36930,1,0,0:0:0:0:
129,102,37180,6,0,P|85:156|12:211,2,160
201,23,38430,5,0,0:0:0:0:
268,103,38680,2,0,P|286:130|341:145,1,80
394,235,39180,2,0,P|431:223|455:191,1,80
416,76,39680,1,0,0:0:0:0:
416,76,39930,1,0,0:0:0:0:
252,32,40180,6,0,P|169:89|114:162,1,192
114,161,42180,2,0,P|71:122|36:117,2,96
77,301,44180,6,0,P|147:287|247:218,1,192
245,219,46180,2,0,P|276:233|303:253,1,64
462,338,47180,6,0,L|454:289,3,40,2|0|2|0,0:0|0:0|0:0|0:0,0:0:0:0:
404,241,47680,6,0,L|412:188,8,27.9999991455078,2|2|2|2|2|2|2|2|2,0:0|0:0|0:0|0:0|0:0|0:0|0:0|0:0|0:0,0:0:0:0:
463,127,48430,5,0,0:0:0:0:
349,88,48680,1,0,0:0:0:0:
345,102,48930,1,0,0:0:0:0:
280,167,49180,2,0,P|247:158|216:151,1,64
217,151,50180,6,0,P|234:122|243:105,2,48
130,203,51180,2,0,P|169:242|198:283,1,96
287,364,52180,6,0,P|316:331|454:275,1,192
449,275,54180,2,0,P|439:243|439:234,1,32
339,230,54680,2,0,P|342:214|348:199,1,32
241,150,55180,2,0,P|271:134|310:123,1,64
299,125,56180,5,0,0:0:0:0:
284,55,56430,1,0,0:0:0:0:
149,90,56680,1,0,0:0:0:0:
202,42,56930,1,0,0:0:0:0:
117,175,57180,1,0,0:0:0:0:
64,127,57430,1,0,0:0:0:0:
183,229,57680,1,0,0:0:0:0:
130,277,57930,1,0,0:0:0:0:
193,154,58180,5,0,0:0:0:0:
265,167,58430,1,0,0:0:0:0:
397,215,58680,1,0,0:0:0:0:
325,228,58930,1,0,0:0:0:0:
349,81,59180,1,0,0:0:0:0:
343,153,59430,1,0,0:0:0:0:
250,100,59680,1,0,0:0:0:0:
244,28,59930,1,0,0:0:0:0:
408,52,60180,5,0,0:0:0:0:
338,66,60430,1,0,0:0:0:0:
104,52,60680,1,0,0:0:0:0:
174,66,60930,1,0,0:0:0:0:
264,183,61180,1,0,0:0:0:0:
256,111,61430,1,0,0:0:0:0:
362,189,61680,1,0,0:0:0:0:
354,261,61930,1,0,0:0:0:0:
234,364,62180,5,0,0:0:0:0:
296,320,62430,1,0,0:0:0:0:
92,320,62680,1,0,0:0:0:0:
154,364,62930,1,0,0:0:0:0:
150,210,63180,5,0,0:0:0:0:
150,210,63305,2,0,P|129:219|105:227,1,48
307,210,63930,1,0,0:0:0:0:
240,245,64180,6,0,L|231:157,1,80
405,65,64680,2,0,L|396:144,1,80
184,87,65180,2,0,P|236:65|308:157,1,160
308,124,65930,1,0,0:0:0:0:
240,245,66180,6,0,P|176:280|107:320,2,120
358,298,67180,2,0,B|386:184|353:265|384:137,1,160
463,96,67930,1,0,0:0:0:0:
406,35,68180,6,0,B|366:25|366:25|329:52,1,80
170,50,68680,2,0,B|201:72|201:72|241:62,1,80
120,204,69180,2,0,P|103:126|80:40,1,160
9,105,69930,1,0,0:0:0:0:
175,292,70180,6,0,B|290:266|345:197|329:79|197:111|165:187|237:285|301:333,1,431.999986816407
281,316,72180,6,0,P|311:270|373:273,1,103.999995239258
444,354,72680,2,0,B|432:287|432:287|435:270|435:270|418:183,1,155.999992858887
468,137,73180,1,0,0:0:0:0:
468,137,73680,2,0,B|496:95|496:95|481:31,1,103.999995239258
298,139,74180,5,0,0:0:0:0:
298,139,74430,2,0,B|285:191|285:191|313:233,2,103.999995239258
255,336,75180,2,0,P|179:318|67:298,1,155.999992858887
102,303,75680,2,0,P|141:264|128:206,1,103.999995239258
16,95,76180,6,0,B|35:229|31:124|48:254,1,155.999992858887
102,303,76680,2,0,L|217:328,1,103.999995239258
324,263,77180,1,0,0:0:0:0:
324,263,77680,2,0,L|425:240,1,103.999995239258
492,122,78180,5,0,0:0:0:0:
432,47,78430,1,0,0:0:0:0:
344,79,78680,1,0,0:0:0:0:
356,172,78930,1,0,0:0:0:0:
455,193,79180,1,0,0:0:0:0:
455,193,79305,2,0,P|475:273|489:358,1,155.999992858887
275,296,79930,2,0,P|283:267|288:244,1,51.999997619629
243,154,80180,6,0,B|123:150|179:253|29:245,1,207.999990478516
6,152,80930,1,0,0:0:0:0:
74,76,81180,2,0,B|112:110|112:110|186:87,1,103.999995239258
334,76,81680,2,0,B|293:45|293:45|219:65,1,103.999995239258
212,220,82180,5,0,0:0:0:0:
346,194,82430,1,0,0:0:0:0:
421,305,82680,2,0,P|326:333|220:371,1,207.999990478516
130,307,83430,1,0,0:0:0:0:
223,369,83680,2,0,P|264:321|248:257,1,103.999995239258
145,187,84180,6,0,P|180:247|313:225,1,207.999990478516
246,102,84930,1,0,0:0:0:0:
359,159,85180,2,0,B|510:148|375:145|537:133,1,155.999992858887
489,58,85680,2,0,P|424:47|371:33,1,103.999995239258
246,102,86180,6,0,P|194:110|144:122,1,103.999995239258
6,245,86680,2,0,B|125:215|76:332|208:300,2,207.999990478516
367,221,88180,6,0,P|391:176|286:195,1,240
312,282,89180,2,0,L|323:367,1,80
230,362,89680,2,0,L|219:282,1,80
111,208,90180,5,0,0:0:0:0:
129,94,90430,1,0,0:0:0:0:
306,95,90680,1,0,0:0:0:0:
324,209,90930,1,0,0:0:0:0:
194,304,91180,2,0,B|65:301|162:322|24:318,1,160
35,318,91930,1,0,0:0:0:0:
74,214,92180,6,0,P|98:155|108:123,1,80
232,185,92680,2,0,P|247:221|261:259,1,80
184,108,93180,1,0,0:0:0:0:
184,108,93430,1,0,0:0:0:0:
297,47,93680,2,0,P|346:55|394:60,1,80
360,198,94180,6,0,P|320:191|280:186,1,80
90,139,94680,2,0,B|169:128|169:128|173:124|173:124|254:114,1,160
417,241,95680,1,0,0:0:0:0:
335,350,95930,1,0,0:0:0:0:
335,350,96055,1,0,0:0:0:0:
335,350,96180,6,0,P|280:332|243:337,1,80
112,241,96680,2,0,P|151:239|188:224,1,80
253,96,97180,2,0,L|268:262,1,160
343,308,97930,1,0,0:0:0:0:
407,242,98180,6,0,P|389:202|377:149,1,80
512,78,98680,2,0,P|501:116|484:152,1,80
255,99,99180,2,0,B|388:95|291:83|423:77,1,160
480,26,99930,1,0,0:0:0:0:
466,162,100180,6,0,B|453:206|453:206|477:261,1,80
350,321,100680,2,0,B|365:286|365:286|350:245,1,80
232,146,101180,2,0,L|319:152,1,80
285,20,101680,2,0,L|205:25,1,80
123,76,102180,5,0,0:0:0:0:
145,169,102430,1,0,0:0:0:0:
263,215,102680,1,0,0:0:0:0:
241,308,102930,1,0,0:0:0:0:
426,350,103180,2,0,P|439:307|446:297,1,40
428,176,103430,2,0,P|435:194|438:214,1,40
333,350,103680,2,0,P|346:307|353:297,1,40
335,176,103930,2,0,P|342:194|346:214,2,26.6666666666667
272,128,104180,6,0,B|150:120|240:144|112:136,1,160
36,66,104930,1,0,0:0:0:0:
119,223,105180,2,0,P|131:276|136:313,1,80
310,341,105680,2,0,P|316:301|325:262,1,80
212,180,106180,5,0,0:0:0:0:
222,318,106430,1,0,0:0:0:0:
407,289,106680,2,0,L|415:201,1,80
218,174,107180,2,0,L|225:253,1,80
311,348,107680,1,0,0:0:0:0:
311,348,107930,1,0,0:0:0:0:
155,308,108180,6,0,B|79:297|91:371|-2:353,1,160
29,234,108930,1,0,0:0:0:0:
29,234,109180,2,0,P|12:172|7:144,1,80
211,136,109680,2,0,P|199:174|191:213,1,80
104,128,110180,5,0,0:0:0:0:
104,128,110430,2,0,L|93:39,2,80
204,221,111180,2,0,L|194:300,1,80
102,366,111680,1,0,0:0:0:0:
32,272,111930,1,0,0:0:0:0:
32,272,112055,1,0,0:0:0:0:
32,272,112180,6,0,P|27:217|17:182,1,80
216,120,112680,2,0,P|166:178|205:270,1,160
289,228,113430,1,0,0:0:0:0:
289,228,113680,2,0,P|335:239|379:249,1,80
364,72,114180,6,0,P|325:81|286:90,1,80
92,108,114680,2,0,B|210:131|116:140|255:164,1,160
286,90,115430,1,0,0:0:0:0:
305,247,115680,1,0,0:0:0:0:
371,194,115930,1,0,0:0:0:0:
305,247,116180,6,0,L|136:235,1,160
65,166,116930,1,0,0:0:0:0:
144,104,117180,2,0,B|223:112|223:112|227:117|227:117|308:124,1,160
400,70,117930,1,0,0:0:0:0:
469,147,118180,6,0,P|475:197|488:243,1,80
298,281,118680,2,0,P|307:242|311:202,1,80
92,210,119180,2,0,P|106:250|168:354,1,160
165,350,120180,6,0,P|208:329|293:304,1,128
363,233,120930,1,0,0:0:0:0:
363,233,121180,2,0,P|414:253|479:300,1,128
473,294,122180,2,0,P|463:247|450:213,1,64
416,137,122680,2,0,P|420:92|428:68,1,64
292,53,123180,2,0,P|267:104|315:174,1,128
296,274,123930,1,0,0:0:0:0:
296,274,124055,1,0,0:0:0:0:
296,274,124180,6,0,P|252:293|221:311,1,64
377,320,124680,2,0,P|406:332|435:346,1,64
435,346,125180,2,0,P|420:302|395:206,1,128
490,93,126180,2,0,P|457:135|434:45,1,192
420,50,127180,6,0,L|369:57,3,40
306,66,127680,6,0,L|261:72,6,37.3333321940105,2|0|2|0|2|0|2,0:0|0:0|0:0|0:0|0:0|0:0|0:0,0:0:0:0:
159,30,128430,5,0,0:0:0:0:
58,105,128680,1,0,0:0:0:0:
54,83,128930,1,0,0:0:0:0:
179,135,129180,2,0,B|189:255|193:155|205:282,1,128
151,330,129930,1,0,0:0:0:0:
151,330,130180,6,0,P|198:338|246:365,1,96
256,276,130930,1,0,0:0:0:0:
316,329,131180,2,0,P|363:320|405:305,1,64
482,209,131680,2,0,P|425:199|391:186,1,64
419,197,132055,1,0,0:0:0:0:
419,197,132180,6,0,P|370:212|341:225,1,64
319,141,132680,2,0,P|289:129|258:121,1,64
168,186,133180,2,0,B|177:128|177:128|175:119|175:119|185:58,1,128
256,17,133930,1,0,0:0:0:0:
314,75,134180,6,0,P|359:87|385:102,1,64
441,42,134680,2,0,P|472:35|501:22,1,64
442,193,135180,2,0,L|450:127,1,64
372,11,135680,1,0,0:0:0:0:
372,11,136180,6,0,P|297:28|222:55,1,143.999995605469
278,126,136930,1,0,0:0:0:0:
233,50,137180,2,0,P|162:34|94:10,1,143.999995605469
94,10,138180,6,0,P|112:56|120:87,1,71.9999978027344
203,144,138680,1,0,0:0:0:0:
203,144,138805,2,0,P|192:178|176:216,1,71.9999978027344
178,211,139180,2,0,P|228:200|326:185,1,143.999995605469
435,80,139930,1,0,0:0:0:0:
435,80,140055,1,0,0:0:0:0:
435,80,140180,6,0,P|462:113|458:159,1,71.9999978027344
356,291,140680,2,0,P|360:255|385:229,1,71.9999978027344
276,344,141180,2,0,B|167:354|247:334|127:342,1,143.999995605469
132,341,142180,6,0,P|108:311|20:252,1,128
264,120,143180,5,0,0:0:0:0:
264,120,143305,2,0,P|250:156|232:203,1,83.9999974365235
480,39,144180,6,0,B|414:45|414:45|404:41|404:41|335:46,1,143.999995605469
283,120,144930,1,0,0:0:0:0:
367,189,145180,2,0,P|380:136|395:92,1,71.9999978027344
214,194,145680,2,0,P|224:228|232:263,1,71.9999978027344
104,352,146180,5,0,0:0:0:0:
47,255,146430,2,0,P|60:203|69:162,1,71.9999978027344
124,143,146805,2,0,P|115:107|106:73,1,71.9999978027344
28,6,147180,2,0,P|62:50|159:18,1,143.999995605469
246,139,147930,1,0,0:0:0:0:
246,139,148055,1,0,0:0:0:0:
246,139,148180,6,0,P|280:189|281:226,1,71.9999978027344
455,203,148680,2,0,P|466:169|490:142,1,71.9999978027344
333,57,149180,2,0,B|348:158|352:86|371:217,1,143.999995605469
319,268,149930,1,0,0:0:0:0:
392,341,150180,5,0,0:0:0:0:
479,353,150430,1,0,0:0:0:0:
319,268,150680,1,0,0:0:0:0:
451,246,150930,1,0,0:0:0:0:
84,314,151180,1,0,0:0:0:0:
260,346,151430,1,0,0:0:0:0:
37,219,151680,1,0,0:0:0:0:
262,180,151930,1,0,0:0:0:0:
332,232,152180,6,0,P|350:158|373:72,1,155.999992858887
370,80,152680,2,0,P|314:71|277:120,1,103.999995239258
332,232,153180,1,0,0:0:0:0:
332,232,153680,2,0,P|276:249|225:260,1,103.999995239258
47,160,154180,5,0,0:0:0:0:
184,183,154430,1,0,0:0:0:0:
184,183,154680,2,0,P|168:111|160:77,1,103.999995239258
343,30,155180,2,0,P|363:81|281:159,1,155.999992858887
307,155,155680,2,0,P|359:164|416:187,1,103.999995239258
235,274,156180,6,0,P|168:311|62:343,1,155.999992858887
92,336,156680,2,0,P|130:287|123:220,1,103.999995239258
59,186,157180,1,0,0:0:0:0:
59,186,157680,2,0,P|91:236|149:243,1,103.999995239258
231,159,158180,6,0,P|161:173|142:277,1,155.999992858887
131,245,158680,2,0,P|190:259|255:272,1,103.999995239258
345,370,159180,5,0,0:0:0:0:
345,370,159305,2,0,P|395:358|446:347,1,103.999995239258
491,286,159680,2,0,P|512:226|466:173,1,103.999995239258
495,192,160055,1,0,0:0:0:0:
495,192,160180,6,0,P|444:212|383:230,1,103.999995239258
216,328,160680,2,0,P|265:343|314:361,1,103.999995239258
188,241,161180,2,0,P|134:261|22:287,1,155.999992858887
38,284,161680,2,0,P|76:233|63:176,1,103.999995239258
24,93,162180,5,0,0:0:0:0:
175,144,162430,2,0,L|286:126,1,103.999995239258
339,175,162805,2,0,L|441:191,1,103.999995239258
499,142,163180,2,0,P|509:77|418:24,1,155.999992858887
445,22,163680,2,0,P|394:42|338:55,1,103.999995239258
357,204,164180,6,0,P|306:191|257:173,1,103.999995239258
202,311,164680,2,0,P|252:323|301:341,1,103.999995239258
146,173,165180,2,0,P|97:191|46:203,1,103.999995239258
102,341,165680,2,0,P|150:322|201:310,1,103.999995239258
359,248,166180,6,0,B|335:201|335:201|351:141,1,103.999995239258
482,82,166680,1,0,0:0:0:0:
483,83,167180,2,0,P|408:90|355:15,1,155.999992858887
357,34,167680,2,0,P|296:62|234:82,1,103.999995239258
262,73,168055,1,0,0:0:0:0:
262,73,168180,6,0,P|298:155|327:248,1,155.999992858887
319,218,168680,2,0,P|373:227|398:303,1,103.999995239258
332,367,169180,1,0,0:0:0:0:
332,367,169680,2,0,P|276:358|203:348,1,103.999995239258
125,250,170180,6,0,P|73:257|22:265,1,103.999995239258
206,272,170680,2,0,B|217:195|217:195|227:184|227:184|239:106,1,155.999992858887
236,121,171180,2,0,P|283:177|320:186,1,103.999995239258
166,56,171680,2,0,P|119:76|91:119,1,103.999995239258
471,104,172180,6,0,B|346:86|434:121|301:100,1,155.999992858887
316,102,172680,2,0,B|336:52|336:52|303:3,1,103.999995239258
179,65,173180,1,0,0:0:0:0:
179,65,173680,2,0,P|194:131|203:175,1,103.999995239258
395,255,174180,6,0,P|405:204|417:153,1,103.999995239258
96,198,174680,2,0,L|120:363,1,155.999992858887
118,352,175180,6,0,L|165:359,3,40
237,350,175680,6,0,L|274:354,6,37.3333321940105,2|0|2|0|2|0|2,0:0|0:0|0:0|0:0|0:0|0:0|0:0,0:0:0:0:
432,304,176430,5,0,0:0:0:0:
300,233,176680,1,0,0:0:0:0:
303,251,176930,1,0,0:0:0:0:
429,193,177180,2,0,P|446:129|466:34,1,155.999992858887
464,41,177680,2,0,P|414:47|373:104,1,103.999995239258
429,193,178180,5,0,0:0:0:0:
429,193,178430,2,0,P|378:204|325:215,1,103.999995239258
315,291,178805,2,0,P|264:280|213:269,1,103.999995239258
186,202,179180,2,0,P|110:211|70:308,1,155.999992858887
68,273,179680,2,0,P|124:342|133:357,1,103.999995239258
329,304,180180,6,0,P|357:260|392:221,1,103.999995239258
262,133,180680,2,0,P|233:176|198:215,1,103.999995239258
370,129,181180,2,0,L|359:21,1,103.999995239258
128,32,181680,2,0,L|138:135,1,103.999995239258
272,248,182180,5,0,0:0:0:0:
262,356,182430,1,0,0:0:0:0:
262,356,182555,1,0,0:0:0:0:
262,356,182680,1,0,0:0:0:0:
153,340,182930,1,0,0:0:0:0:
94,270,183180,2,0,B|48:284|22:310|22:310|21:263|0:229,2,155.999992858887
124,166,184180,6,0,P|186:193|263:198,1,128
225,332,185180,2,0,P|288:324|346:298,1,128
491,236,186180,6,0,P|465:305|448:362,1,128
229,262,187180,2,0,P|251:321|270:382,1,128
292,154,188180,6,0,P|361:174|423:184,1,128
426,339,189180,2,0,P|362:350|301:368,1,128
76,271,190180,6,0,B|184:258|105:281|220:265,1,128
204,72,191180,2,0,B|95:59|174:82|76:68,1,128
21,133,191930,1,0,0:0:0:0:
