osu file format v14

[General]
AudioFilename: audio.mp3
AudioLeadIn: 0
PreviewTime: 38118
Countdown: 0
SampleSet: Normal
StackLeniency: 1
Mode: 2
LetterboxInBreaks: 0
WidescreenStoryboard: 1

[Editor]
DistanceSpacing: 1
BeatDivisor: 4
GridSize: 32
TimelineZoom: 2.200001

[Metadata]
Title:World's end
TitleUnicode:World's end
Artist:Noah
ArtistUnicode:Noah
Creator:Kyptoric
Version:Rain
Source:SOUND VOLTEX III GRAVITY WARS
Tags:sdvx konami the 4th kac original song contest オリジナル楽曲コンテスト voltenizer maxima iv autols ascendance RoseusJaeger Wei Wuxian Tsumugi Aoba metal instrumental
BeatmapID:2111251
BeatmapSetID:1006480

[Difficulty]
HPDrainRate:4
CircleSize:4
OverallDifficulty:9.1
ApproachRate:9.1
SliderMultiplier:1.3
SliderTickRate:2

[Events]
//Background and Video events
0,0,"bg.png",0,0
//Break Periods
//Storyboard Layer 0 (Background)
//Storyboard Layer 1 (Fail)
//Storyboard Layer 2 (Pass)
//Storyboard Layer 3 (Foreground)
//Storyboard Layer 4 (Overlay)
//Storyboard Sound Samples

[TimingPoints]
840,222.222222222222,4,1,1,65,1,0
37729,-100,4,1,1,70,0,0
38173,-100,4,1,1,75,0,1
45062,-100,4,1,1,75,0,0
45284,-100,4,1,1,75,0,1
52395,-166.666666666667,4,1,1,65,0,0
53173,-100,4,1,1,65,0,0
77284,-100,4,1,1,75,0,1
84173,-100,4,1,1,75,0,0
84395,-100,4,1,1,75,0,1
91506,-166.666666666667,4,1,1,65,0,0
92284,-100,4,1,1,65,0,0
107506,-166.666666666667,4,1,1,65,0,0
108951,-100,4,1,1,65,0,0

[HitObjects]
317,316,840,6,0,P|363:269|289:184,1,195,8|0,0:3|0:0,0:0:0:0:
191,187,1284,2,0,P|145:234|219:319,1,195,8|0,0:3|0:0,0:0:0:0:
316,316,1728,6,0,P|397:293|454:183,1,195,8|0,0:3|0:0,0:0:0:0:
347,198,2173,2,0,P|266:175|209:65,1,195,8|0,0:3|0:0,0:0:0:0:
381,82,2617,5,8,0:3:0:0:
393,122,2691,1,0,0:0:0:0:
374,160,2765,1,0,0:0:0:0:
334,175,2839,2,0,L|259:178,1,65,8|0,0:3|0:0,0:0:0:0:
48,189,3062,1,8,0:3:0:0:
30,230,3136,1,0,0:0:0:0:
49,268,3210,1,0,0:0:0:0:
89,283,3284,2,0,L|164:285,1,65,8|0,0:3|0:0,0:0:0:0:
337,289,3506,5,8,0:3:0:0:
378,279,3580,1,0,0:0:0:0:
413,254,3654,1,0,0:0:0:0:
436,217,3728,2,0,L|364:211,1,65,8|0,0:3|0:0,0:0:0:0:
175,203,3951,2,0,P|136:156|207:67,1,195,8|0,0:3|0:0,0:0:0:0:
440,28,4395,6,0,L|447:98,1,65,8|0,0:3|0:0,0:0:0:0:
356,108,4617,2,0,L|287:116,1,65,0|0,0:0|0:0,0:0:0:0:
376,146,4839,2,0,L|445:154,1,65,8|0,0:3|0:0,0:0:0:0:
350,168,5062,2,0,L|346:249,1,65,0|0,0:0|0:0,0:0:0:0:
140,247,5284,6,0,L|66:243,1,65,8|0,0:3|0:0,0:0:0:0:
172,243,5506,2,0,P|209:206|146:157,1,130,0|8,0:0|0:3,0:0:0:0:
116,151,5802,1,0,0:0:0:0:
63,144,5877,1,0,0:0:0:0:
13,127,5951,2,0,L|94:122,1,65
303,70,6173,6,0,L|309:140,1,65,8|0,0:3|0:0,0:0:0:0:
218,145,6395,2,0,L|224:215,1,65,0|0,0:0|0:0,0:0:0:0:
319,226,6617,1,8,0:3:0:0:
275,228,6691,1,0,0:0:0:0:
232,231,6765,1,0,0:0:0:0:
189,234,6839,1,0,0:0:0:0:
417,294,7062,6,0,P|495:227|361:24,1,390,12|0,0:3|0:0,0:0:0:0:
66,60,7951,6,0,L|21:116,2,65,8|0|0,0:3|0:0|0:0,0:0:0:0:
163,64,8284,2,0,L|118:120,2,65,8|0|0,0:3|0:0|0:0,0:0:0:0:
260,64,8617,2,0,L|266:146,1,65,8|0,0:3|0:0,0:0:0:0:
37,355,8839,5,8,0:3:0:0:
15,331,8894,1,0,0:0:0:0:
4,300,8950,1,0,0:0:0:0:
8,268,9005,1,0,0:0:0:0:
25,240,9061,1,0,0:0:0:0:
51,222,9116,1,0,0:0:0:0:
83,217,9172,1,0,0:0:0:0:
273,357,9284,5,8,0:3:0:0:
294,333,9339,1,0,0:0:0:0:
305,302,9395,1,0,0:0:0:0:
301,270,9450,1,0,0:0:0:0:
284,242,9506,1,8,0:3:0:0:
258,224,9561,1,0,0:0:0:0:
226,219,9617,1,0,0:0:0:0:
450,253,9728,6,0,P|482:197|396:102,1,195,8|0,0:3|0:0,0:0:0:0:
321,93,10173,2,0,L|389:88,1,65,8|0,0:3|0:0,0:0:0:0:
474,68,10395,2,0,L|406:63,1,65,0|0,0:0|0:0,0:0:0:0:
213,41,10617,6,0,P|189:85|232:157,1,130,8|0,0:3|0:0,0:0:0:0:
318,167,10951,2,0,P|259:189|179:168,1,130,8|0,0:3|0:0,0:0:0:0:
290,192,11284,2,0,L|296:270,1,65,8|0,0:3|0:0,0:0:0:0:
87,274,11506,6,0,L|-3:279,1,65,8|0,0:3|0:0,0:0:0:0:
109,251,11728,2,0,L|178:249,1,65,0|0,0:0|0:0,0:0:0:0:
84,231,11951,2,0,L|78:167,1,65,8|0,0:3|0:0,0:0:0:0:
168,155,12173,2,0,L|162:91,1,65,0|0,0:0|0:0,0:0:0:0:
362,32,12395,6,0,P|425:36|495:151,1,195,8|0,0:3|0:0,0:0:0:0:
405,144,12839,1,8,0:3:0:0:
313,153,12951,1,0,0:0:0:0:
313,153,13006,1,0,0:0:0:0:
313,153,13062,2,0,L|383:156,1,65,0|0,0:0|0:0,0:0:0:0:
150,352,13284,6,0,P|87:348|17:233,1,195,8|0,0:3|0:0,0:0:0:0:
107,243,13728,2,0,L|171:246,1,65,8|0,0:3|0:0,0:0:0:0:
81,228,13951,2,0,L|86:150,1,65,0|0,0:0|0:0,0:0:0:0:
181,137,14173,6,0,P|120:116|61:140,1,130,8|0,0:3|0:0,0:0:0:0:
126,145,14506,1,0,0:0:0:0:
314,165,14617,2,0,L|392:163,1,65,8|0,0:3|0:0,0:0:0:0:
198,219,14839,2,0,L|120:221,1,65,0|0,0:0|0:0,0:0:0:0:
448,335,15062,5,8,0:3:0:0:
480,307,15136,1,0,0:0:0:0:
479,266,15210,1,0,0:0:0:0:
446,239,15284,2,0,L|360:238,1,65,0|0,0:0|0:0,0:0:0:0:
283,233,15506,5,8,0:3:0:0:
251,205,15580,1,0,0:0:0:0:
252,164,15654,1,0,0:0:0:0:
285,137,15728,2,0,L|371:136,1,65,0|0,0:0|0:0,0:0:0:0:
147,56,15951,6,0,L|75:58,1,65,8|0,0:3|0:0,0:0:0:0:
169,83,16173,2,0,L|176:155,1,65,0|0,0:0|0:0,0:0:0:0:
85,161,16395,2,0,L|92:233,1,65,8|0,0:3|0:0,0:0:0:0:
297,259,16617,2,0,L|206:268,1,65,8|0,0:3|0:0,0:0:0:0:
42,353,16839,6,0,P|19:311|47:171,1,195,8|0,0:3|0:0,0:0:0:0:
110,170,17284,1,8,0:3:0:0:
205,149,17395,2,0,L|124:145,2,65,0|0|0,0:0|0:0|0:0,0:0:0:0:
378,144,17728,6,0,P|433:136|494:61,1,130,8|0,0:3|0:0,0:0:0:0:
388,86,18062,2,0,P|333:94|272:169,1,130,8|0,0:3|0:0,0:0:0:0:
471,147,18395,2,0,L|476:216,1,65,8|0,0:3|0:0,0:0:0:0:
286,222,18617,6,0,L|211:227,1,65,8|0,0:3|0:0,0:0:0:0:
310,245,18839,2,0,L|317:325,1,65
223,310,19062,2,0,L|317:312,1,65,8|0,0:3|0:0,0:0:0:0:
378,312,19284,2,0,L|460:309,1,65
221,50,19506,5,8,0:3:0:0:
190,79,19580,1,0,0:0:0:0:
193,120,19654,1,0,0:0:0:0:
226,146,19728,2,0,L|298:150,1,65,0|0,0:0|0:0,0:0:0:0:
417,147,19951,1,8,0:3:0:0:
447,176,20025,1,0,0:0:0:0:
444,217,20099,1,0,0:0:0:0:
411,243,20173,2,0,L|339:246,1,65,0|0,0:0|0:0,0:0:0:0:
144,272,20395,6,0,P|96:270|6:139,1,195,8|0,0:3|0:0,0:0:0:0:
102,151,20839,2,0,L|167:147,2,65,8|0|0,0:3|0:0|0:0,0:0:0:0:
291,94,21173,1,0,0:0:0:0:
355,93,21284,6,0,L|358:173,1,65,8|0,0:3|0:0,0:0:0:0:
267,169,21506,2,0,L|270:249,1,65,0|0,0:0|0:0,0:0:0:0:
360,234,21728,1,8,0:3:0:0:
402,226,21802,1,0,0:0:0:0:
436,200,21876,1,0,0:0:0:0:
454,162,21951,2,0,L|375:156,1,65,0|0,0:0|0:0,0:0:0:0:
201,35,22173,6,0,P|191:86|273:123,1,130,8|0,0:3|0:0,0:0:0:0:
76,130,22506,2,0,P|66:181|148:218,1,130,8|0,0:3|0:0,0:0:0:0:
219,235,22839,2,0,L|141:238,1,65,8|0,0:3|0:0,0:0:0:0:
367,305,23062,5,8,0:3:0:0:
399,306,23117,1,0,0:0:0:0:
430,296,23173,1,0,0:0:0:0:
455,277,23228,1,0,0:0:0:0:
473,249,23284,1,0,0:0:0:0:
480,218,23339,1,0,0:0:0:0:
477,186,23395,1,8,0:3:0:0:
462,157,23450,1,0,0:0:0:0:
439,135,23506,2,0,L|366:131,1,65,0|0,0:0|0:0,0:0:0:0:
125,72,23728,2,0,L|198:67,1,65,8|0,0:3|0:0,0:0:0:0:
368,233,23951,6,0,P|331:238|217:232,1,130,8|0,0:3|0:0,0:0:0:0:
147,201,24284,1,0,0:0:0:0:
147,201,24339,1,0,0:0:0:0:
147,201,24395,2,0,L|229:198,1,65,8|0,0:3|0:0,0:0:0:0:
302,186,24617,2,0,L|226:181,1,65,0|0,0:0|0:0,0:0:0:0:
152,148,24839,6,0,L|149:78,1,65,8|0,0:3|0:0,0:0:0:0:
240,84,25062,2,0,L|165:79,2,65,0|0|8,0:0|0:0|0:3,0:0:0:0:
330,85,25395,2,0,L|372:142,2,65,0|8|0,0:0|0:3|0:0,0:0:0:0:
121,40,25728,6,0,P|91:86|149:135,1,130,8|0,0:3|0:0,0:0:0:0:
232,142,26062,1,0,0:0:0:0:
232,142,26117,1,0,0:0:0:0:
232,142,26173,2,0,L|143:149,1,65,8|0,0:3|0:0,0:0:0:0:
263,158,26395,2,0,L|267:225,1,65,0|0,0:0|0:0,0:0:0:0:
364,219,26617,5,8,0:3:0:0:
393,189,26691,1,0,0:0:0:0:
392,147,26765,1,0,0:0:0:0:
361,119,26839,2,0,L|277:117,1,65,0|0,0:0|0:0,0:0:0:0:
483,32,27062,2,0,L|492:171,1,130,8|8,0:3|0:3,0:0:0:0:
259,351,27506,6,0,P|206:349|120:304,1,130,8|0,0:3|0:0,0:0:0:0:
317,291,27839,2,0,P|370:289|456:244,1,130,8|0,0:3|0:0,0:0:0:0:
345,228,28173,2,0,L|338:157,1,65,8|0,0:3|0:0,0:0:0:0:
241,163,28395,2,0,P|219:108|291:76,1,130,8|0,0:3|0:0,0:0:0:0:
461,69,28728,2,0,P|483:124|411:156,1,130,8|0,0:3|0:0,0:0:0:0:
401,164,29006,1,0,0:0:0:0:
368,164,29062,1,8,0:3:0:0:
62,63,29284,6,0,L|53:202,1,130,8|0,0:3|0:0,0:0:0:0:
144,197,29617,1,0,0:0:0:0:
234,201,29728,2,0,L|235:284,1,65,8|0,0:3|0:0,0:0:0:0:
143,274,29951,2,0,L|144:357,1,65,8|0,0:3|0:0,0:0:0:0:
322,332,30173,2,0,L|469:327,1,130,8|0,0:3|0:0,0:0:0:0:
144,276,30617,5,8,0:3:0:0:
117,242,30691,1,0,0:0:0:0:
125,201,30765,1,0,0:0:0:0:
160,179,30839,2,0,L|236:175,1,65,0|0,0:0|0:0,0:0:0:0:
460,183,31062,6,0,P|465:139|387:106,1,130,8|0,0:3|0:0,0:0:0:0:
307,102,31395,2,0,P|253:122|176:100,1,130,0|0,0:0|0:0,0:0:0:0:
267,69,31728,2,0,L|274:150,1,65,0|0,0:0|0:0,0:0:0:0:
24,222,31951,1,8,0:3:0:0:
229,189,32284,1,8,0:3:0:0:
24,222,32617,1,8,0:3:0:0:
341,348,32839,6,0,P|391:335|446:271,1,130,8|0,0:3|0:0,0:0:0:0:
256,284,33173,2,0,P|206:271|151:207,1,130,8|0,0:3|0:0,0:0:0:0:
244,203,33506,2,0,L|247:122,1,65,8|0,0:3|0:0,0:0:0:0:
157,108,33728,6,0,P|180:69|273:61,1,130,8|0,0:3|0:0,0:0:0:0:
349,62,34062,2,0,P|326:101|233:109,1,130,8|0,0:3|0:0,0:0:0:0:
182,114,34395,1,8,0:3:0:0:
117,116,34506,1,0,0:0:0:0:
324,250,34617,6,0,P|386:249|472:220,1,130,8|0,0:3|0:0,0:0:0:0:
257,200,35062,2,0,L|173:155,2,86.6666666666667,8|8|8,0:3|0:3|0:3,0:0:0:0:
474,179,35506,5,0,0:0:0:0:
501,146,35580,1,0,0:0:0:0:
494,104,35654,1,0,0:0:0:0:
458,83,35728,2,0,L|378:79,1,65,0|0,0:0|0:0,0:0:0:0:
191,61,35951,2,0,L|180:162,1,86.6666666666667,8|8,0:3|0:3,0:0:0:0:
284,158,36247,1,0,0:0:0:0:
53,208,36395,6,0,P|28:290|128:336,1,195,8|0,0:3|0:0,0:0:0:0:
280,334,36839,2,0,L|344:338,1,65,8|0,0:3|0:0,0:0:0:0:
267,325,37062,2,0,L|202:320,1,65,8|0,0:3|0:0,0:0:0:0:
491,246,37284,6,0,L|496:170,1,65,8|0,0:3|0:0,0:0:0:0:
304,116,37506,1,8,0:3:0:0:
271,114,37561,1,0,0:0:0:0:
239,112,37617,1,0,0:0:0:0:
21,138,37728,2,0,L|16:214,1,65,8|8,0:3|0:3,0:0:0:0:
208,268,37950,1,8,0:3:0:0:
241,270,38005,1,0,0:0:0:0:
273,272,38061,1,8,0:3:0:0:
463,276,38173,6,0,P|496:241|410:147,1,195,12|0,0:3|0:0,0:0:0:0:
222,63,38617,2,0,L|225:136,1,65,8|0,0:3|0:0,0:0:0:0:
315,137,38839,2,0,L|318:210,1,65,0|0,0:0|0:0,0:0:0:0:
121,287,39062,6,0,P|46:278|8:168,2,195,8|8|8,0:3|0:3|0:3,0:0:0:0:
300,260,39951,6,0,P|384:255|436:229,1,130,8|0,0:3|0:0,0:0:0:0:
212,124,40284,2,0,P|128:129|76:155,1,130,8|0,0:3|0:0,0:0:0:0:
271,194,40617,2,0,L|341:186,1,65,8|0,0:3|0:0,0:0:0:0:
138,213,40839,6,0,P|111:171|195:78,1,195,8|0,0:3|0:0,0:0:0:0:
288,60,41284,2,0,P|257:46|146:68,1,130,8|0,0:3|0:0,0:0:0:0:
228,65,41617,1,0,0:0:0:0:
433,77,41728,6,0,P|475:110|431:163,1,130,8|8,0:3|0:3,0:0:0:0:
340,164,42062,2,0,P|279:146|222:174,1,130,0|0,0:0|0:0,0:0:0:0:
401,221,42395,2,0,L|414:294,1,65,8|0,0:3|0:0,0:0:0:0:
187,297,42617,6,0,L|120:298,2,65,8|0|8,0:3|0:0|0:3,0:0:0:0:
285,300,42951,2,0,L|240:243,2,65,0|0|0,0:0|0:0|0:0,0:0:0:0:
382,303,43284,2,0,L|381:226,1,65,8|0,0:3|0:0,0:0:0:0:
92,50,43506,5,8,0:3:0:0:
67,71,43561,1,0,0:0:0:0:
52,99,43617,1,0,0:0:0:0:
48,131,43672,1,0,0:0:0:0:
56,163,43728,1,8,0:3:0:0:
74,189,43783,1,0,0:0:0:0:
101,207,43839,1,0,0:0:0:0:
132,215,43894,1,0,0:0:0:0:
165,215,43951,2,0,L|251:213,1,65,8|0,0:3|0:0,0:0:0:0:
423,151,44173,2,0,L|337:149,1,65,0|8,0:3|0:3,0:0:0:0:
151,284,44395,6,0,L|86:288,1,65,8|0,0:3|0:0,0:0:0:0:
257,311,44617,2,0,L|333:306,1,65,8|0,0:3|0:0,0:0:0:0:
491,138,44839,2,0,L|496:214,1,65,8|0,0:3|0:0,0:0:0:0:
304,268,45061,1,8,0:3:0:0:
271,270,45116,1,0,0:0:0:0:
239,272,45172,1,8,0:3:0:0:
49,276,45284,6,0,P|16:241|102:147,1,195,12|0,0:3|0:0,0:0:0:0:
264,122,45728,2,0,L|334:121,1,65,8|0,0:3|0:0,0:0:0:0:
244,157,45951,2,0,L|174:156,1,65,0|0,0:0|0:0,0:0:0:0:
391,287,46173,6,0,P|466:278|504:168,2,195,8|8|8,0:3|0:3|0:3,0:0:0:0:
111,79,47062,6,0,P|88:135|140:176,1,130,8|0,0:3|0:0,0:0:0:0:
231,177,47395,2,0,P|254:233|202:274,1,130,8|8,0:3|0:3,0:0:0:0:
114,301,47728,2,0,L|185:303,1,65,8|8,0:3|0:3,0:0:0:0:
428,35,47951,6,0,P|468:61|393:160,1,195,8|0,0:3|0:0,0:0:0:0:
313,168,48395,2,0,P|273:194|348:293,1,195,8|0,0:3|0:0,0:0:0:0:
427,296,48839,6,0,L|423:217,1,65,12|0,0:3|0:0,0:0:0:0:
325,231,49062,2,0,L|321:152,1,65,0|0,0:0|0:0,0:0:0:0:
224,170,49284,2,0,L|220:91,1,65,8|0,0:3|0:0,0:0:0:0:
317,95,49506,2,0,L|391:91,1,65,0|0,0:0|0:0,0:0:0:0:
115,52,49728,6,0,L|42:54,2,65,8|0|0,0:3|0:0|0:0,0:0:0:0:
194,109,50062,2,0,L|121:111,2,65,8|0|0,0:3|0:0|0:0,0:0:0:0:
100,135,50395,2,0,L|96:209,1,65,8|0,0:3|0:0,0:0:0:0:
296,268,50617,6,0,P|360:268|426:242,1,130,8|0,0:3|0:0,0:0:0:0:
356,237,50951,1,0,0:0:0:0:
115,295,51062,2,0,L|34:298,1,65,8|0,0:3|0:0,0:0:0:0:
143,323,51284,2,0,L|224:326,1,65,8|0,0:3|0:0,0:0:0:0:
110,325,51506,6,0,P|64:280|142:195,1,195,8|0,0:3|0:0,0:0:0:0:
229,194,51951,2,0,P|279:203|363:180,1,130,8|8,0:3|0:3,0:0:0:0:
47,27,52395,6,0,P|14:81|138:221,1,272.999991668701,12|0,0:3|0:0,0:0:0:0:
310,296,53284,6,0,P|324:249|268:202,1,130,8|0,0:3|0:0,0:0:0:0:
365,194,53617,2,0,P|412:199|490:156,1,130,8|0,0:3|0:0,0:0:0:0:
271,29,53951,2,0,L|268:97,1,65,8|0,0:3|0:0,0:0:0:0:
51,253,54173,5,8,0:3:0:0:
26,232,54228,1,0,0:0:0:0:
20,201,54284,1,0,0:0:0:0:
34,172,54339,1,0,0:0:0:0:
63,159,54395,1,0,0:0:0:0:
160,157,54506,1,8,0:3:0:0:
188,171,54561,1,0,0:0:0:0:
220,177,54617,1,0,0:0:0:0:
252,173,54672,1,0,0:0:0:0:
282,159,54728,1,0,0:0:0:0:
194,117,54839,2,0,L|149:112,2,32.5,8|0|0,0:3|0:0|0:0,0:0:0:0:
461,253,55062,5,8,0:3:0:0:
485,232,55117,1,0,0:0:0:0:
491,201,55173,1,0,0:0:0:0:
477,172,55228,1,0,0:0:0:0:
448,159,55284,1,0,0:0:0:0:
351,154,55395,1,8,0:3:0:0:
327,133,55450,1,0,0:0:0:0:
321,102,55506,1,0,0:0:0:0:
335,73,55561,1,0,0:0:0:0:
364,60,55617,1,0,0:0:0:0:
460,48,55728,2,0,L|495:47,2,32.5,8|0|0,0:3|0:0|0:0,0:0:0:0:
232,105,55951,5,8,0:3:0:0:
201,135,56025,1,0,0:0:0:0:
188,176,56099,1,0,0:0:0:0:
194,219,56173,1,8,0:3:0:0:
218,254,56247,1,0,0:0:0:0:
255,275,56321,1,0,0:0:0:0:
304,281,56395,2,0,L|347:278,2,43.3333333333333,8|0|0,0:3|0:0|0:0,0:0:0:0:
384,275,56617,2,0,L|405:238,2,43.3333333333333,8|0|0,0:3|0:0|0:0,0:0:0:0:
143,310,56839,6,0,P|67:304|14:265,1,130,8|0,0:3|0:0,0:0:0:0:
89,270,57173,1,0,0:0:0:0:
326,215,57284,2,0,P|402:209|455:170,1,130,8|0,0:3|0:0,0:0:0:0:
347,171,57618,1,0,0:0:0:0:
250,163,57728,6,0,L|245:93,1,65,8|0,0:3|0:0,0:0:0:0:
343,90,57951,2,0,L|338:20,1,65,0|0,0:0|0:0,0:0:0:0:
253,174,58173,2,0,L|188:176,3,65,8|0|0|0,0:3|0:0|0:0|0:0,0:0:0:0:
90,173,58617,6,0,L|85:103,1,65,8|0,0:3|0:0,0:0:0:0:
180,100,58840,2,0,L|175:30,1,65,0|0,0:0|0:0,0:0:0:0:
86,209,59062,2,0,L|151:211,3,65,8|0|0|0,0:3|0:0|0:0|0:0,0:0:0:0:
362,326,59506,6,0,L|364:259,1,65,8|0,0:3|0:0,0:0:0:0:
196,251,59728,2,0,L|198:184,1,65,0|0,0:0|0:0,0:0:0:0:
367,169,59951,2,0,L|436:164,3,65,8|0|8|0,0:3|0:0|0:3|0:0,0:0:0:0:
226,42,60395,6,0,L|150:46,1,65,8|0,0:3|0:0,0:0:0:0:
250,84,60617,2,0,L|326:88,1,65,0|0,0:0|0:0,0:0:0:0:
44,143,60839,2,0,L|16:210,1,65,8|0,0:3|0:0,0:0:0:0:
188,231,61062,2,0,L|216:303,1,65,8|8,0:3|0:3,0:0:0:0:
384,319,61284,2,0,P|447:317|515:288,1,130,8|0,0:3|0:0,0:0:0:0:
344,308,61728,6,0,L|330:262,3,43.3333333333333,8|0|0|0,0:3|0:0|0:0|0:0,0:0:0:0:
250,263,62062,1,0,0:0:0:0:
169,256,62173,2,0,L|183:210,2,43.3333333333333,8|0|0,0:3|0:0|0:0,0:0:0:0:
181,214,62396,2,0,L|258:210,1,65,8|0,0:3|0:0,0:0:0:0:
41,210,62617,1,8,0:3:0:0:
17,175,62691,1,0,0:0:0:0:
27,134,62765,1,0,0:0:0:0:
65,116,62839,2,0,L|150:113,1,65,8|0,0:3|0:0,0:0:0:0:
324,127,63062,6,0,P|386:123|459:90,1,130,8|0,0:3|0:0,0:0:0:0:
250,126,63395,2,0,P|234:78|292:30,1,130,8|0,0:3|0:0,0:0:0:0:
319,30,63673,1,0,0:0:0:0:
351,29,63728,1,8,0:3:0:0:
253,30,63839,1,0,0:0:0:0:
154,30,63951,6,0,P|138:78|196:126,1,130,8|0,0:3|0:0,0:0:0:0:
288,130,64284,2,0,P|304:178|246:226,1,130,8|0,0:3|0:0,0:0:0:0:
153,222,64617,2,0,L|223:234,1,65,8|0,0:3|0:0,0:0:0:0:
37,353,64839,5,8,0:3:0:0:
17,327,64894,1,0,0:0:0:0:
9,295,64950,1,0,0:0:0:0:
14,263,65005,1,0,0:0:0:0:
31,236,65061,1,0,0:0:0:0:
58,217,65116,1,0,0:0:0:0:
89,211,65172,1,0,0:0:0:0:
298,338,65284,6,0,L|304:288,3,32.5,8|0|0|0,0:3|0:0|0:0|0:0,0:0:0:0:
244,298,65506,2,0,L|250:248,3,32.5,0|0|0|0,0:0|0:0|0:0|0:0,0:0:0:0:
298,339,65728,5,8,0:3:0:0:
330,335,65783,1,0,0:0:0:0:
361,326,65839,1,0,0:0:0:0:
390,311,65894,1,0,0:0:0:0:
415,291,65950,1,0,0:0:0:0:
437,267,66005,1,0,0:0:0:0:
454,239,66061,1,0,0:0:0:0:
253,206,66173,5,8,0:3:0:0:
222,195,66228,1,0,0:0:0:0:
201,171,66284,1,0,0:0:0:0:
195,139,66339,1,0,0:0:0:0:
205,109,66395,1,0,0:0:0:0:
230,88,66450,1,0,0:0:0:0:
261,81,66506,1,0,0:0:0:0:
466,27,66617,6,0,P|486:59|466:153,1,130,8|0,0:3|0:0,0:0:0:0:
261,33,66951,2,0,P|241:65|261:159,1,130,8|0,0:3|0:0,0:0:0:0:
471,194,67284,2,0,L|467:261,1,65,8|0,0:3|0:0,0:0:0:0:
190,197,67506,6,0,L|194:264,1,65,8|0,0:3|0:0,0:0:0:0:
428,333,67728,2,0,L|492:329,3,65,8|8|8|8,0:3|0:3|0:3|0:3,0:0:0:0:
253,327,68173,2,0,L|178:323,1,65,8|8,0:3|0:3,0:0:0:0:
443,304,68395,5,8,0:3:0:0:
459,264,68469,1,0,0:0:0:0:
457,221,68543,1,0,0:0:0:0:
437,183,68617,1,8,0:3:0:0:
402,158,68691,1,0,0:0:0:0:
359,151,68765,1,0,0:0:0:0:
278,161,68839,5,8,0:3:0:0:
320,159,68913,1,0,0:0:0:0:
350,130,68987,1,0,0:0:0:0:
352,87,69061,1,8,0:3:0:0:
286,80,69173,1,0,0:0:0:0:
103,51,69284,5,8,0:3:0:0:
79,87,69358,1,0,0:0:0:0:
71,129,69432,1,0,0:0:0:0:
80,171,69506,1,8,0:3:0:0:
105,206,69580,1,0,0:0:0:0:
141,229,69654,1,0,0:0:0:0:
224,237,69728,5,8,0:3:0:0:
198,271,69802,1,0,0:0:0:0:
160,292,69876,1,0,0:0:0:0:
117,295,69950,1,8,0:3:0:0:
51,293,70062,1,0,0:0:0:0:
236,352,70173,5,8,0:3:0:0:
278,347,70247,1,0,0:0:0:0:
318,330,70321,1,0,0:0:0:0:
350,301,70395,1,8,0:3:0:0:
373,264,70469,1,0,0:0:0:0:
383,222,70543,1,0,0:0:0:0:
318,218,70617,1,8,0:3:0:0:
280,197,70691,1,0,0:0:0:0:
260,159,70765,1,0,0:0:0:0:
263,117,70839,1,8,0:3:0:0:
328,112,70951,1,0,0:0:0:0:
148,49,71062,6,0,L|110:94,2,43.3333333333333,8|0|0,0:3|0:0|0:0,0:0:0:0:
230,52,71284,2,0,L|264:101,2,43.3333333333333,8|0|0,0:3|0:0|0:0,0:0:0:0:
150,72,71506,1,8,0:3:0:0:
128,108,71580,1,0,0:0:0:0:
126,151,71654,1,0,0:0:0:0:
146,189,71728,1,8,0:3:0:0:
210,193,71839,1,0,0:0:0:0:
453,226,71951,6,0,L|499:263,2,43.3333333333333,8|0|0,0:3|0:0|0:0,0:0:0:0:
385,198,72173,2,0,L|352:228,2,43.3333333333333,8|0|0,0:3|0:0|0:0,0:0:0:0:
306,185,72395,1,8,0:3:0:0:
284,148,72469,1,0,0:0:0:0:
296,108,72543,1,0,0:0:0:0:
333,89,72617,1,8,0:3:0:0:
268,86,72728,1,0,0:0:0:0:
54,99,72839,6,0,L|19:137,2,43.3333333333333,8|0|0,0:3|0:0|0:0,0:0:0:0:
131,99,73062,2,0,L|173:146,2,43.3333333333333,8|0|0,0:3|0:0|0:0,0:0:0:0:
54,99,73284,1,8,0:3:0:0:
37,138,73358,1,0,0:0:0:0:
40,181,73432,1,0,0:0:0:0:
61,218,73506,1,8,0:3:0:0:
125,221,73617,1,0,0:0:0:0:
320,338,73728,5,8,0:3:0:0:
352,342,73783,1,0,0:0:0:0:
384,339,73839,1,0,0:0:0:0:
415,329,73894,1,0,0:0:0:0:
443,313,73950,1,0,0:0:0:0:
467,291,74005,1,0,0:0:0:0:
485,264,74061,1,0,0:0:0:0:
497,234,74116,1,0,0:0:0:0:
502,202,74172,1,8,0:3:0:0:
500,170,74228,1,0,0:0:0:0:
491,139,74283,1,0,0:0:0:0:
475,110,74339,1,0,0:0:0:0:
454,86,74394,1,0,0:0:0:0:
388,83,74506,1,0,0:0:0:0:
210,76,74617,6,0,P|190:117|292:217,1,195,8|0,0:3|0:0,0:0:0:0:
337,219,75062,1,8,0:3:0:0:
145,280,75173,1,0,0:0:0:0:
145,280,75228,1,0,0:0:0:0:
145,280,75284,2,0,L|235:285,1,65,8|0,0:3|0:0,0:0:0:0:
30,250,75506,6,0,L|27:173,1,65,8|0,0:3|0:0,0:0:0:0:
124,193,75728,2,0,L|121:116,1,65,8|0,0:3|0:0,0:0:0:0:
219,121,75951,1,8,0:3:0:0:
261,116,76025,1,0,0:0:0:0:
298,94,76099,1,0,0:0:0:0:
321,58,76173,2,0,L|247:55,1,65,8|0,0:3|0:0,0:0:0:0:
21,138,76395,6,0,L|16:214,1,65,8|0,0:3|0:0,0:0:0:0:
208,268,76617,1,8,0:3:0:0:
241,270,76672,1,0,0:0:0:0:
273,272,76728,1,0,0:0:0:0:
491,246,76839,2,0,L|496:170,1,65,8|8,0:3|0:3,0:0:0:0:
304,116,77061,1,8,0:3:0:0:
271,114,77116,1,0,0:0:0:0:
239,112,77172,1,8,0:3:0:0:
49,108,77284,6,0,P|16:143|102:237,1,195,12|0,0:3|0:0,0:0:0:0:
340,257,77728,2,0,L|336:192,1,65,8|0,0:3|0:0,0:0:0:0:
166,204,77951,2,0,L|162:139,1,65,8|0,0:3|0:0,0:0:0:0:
391,287,78173,6,0,P|466:278|504:168,2,195,8|8|8,0:3|0:3|0:3,0:0:0:0:
182,69,79062,2,0,P|166:115|238:168,1,130,8|0,0:3|0:0,0:0:0:0:
387,167,79395,2,0,P|434:128|422:68,1,130,8|0,0:3|0:0,0:0:0:0:
184,205,79728,2,0,L|91:208,1,65,8|8,0:3|0:3,0:0:0:0:
360,289,79951,6,0,P|427:286|490:241,1,130,8|0,0:3|0:0,0:0:0:0:
298,254,80395,2,0,P|231:257|168:302,1,130,8|0,0:3|0:0,0:0:0:0:
463,204,80839,6,0,P|478:148|410:117,1,130,8|0,0:3|0:0,0:0:0:0:
326,125,81173,2,0,P|271:142|199:125,1,130,8|0,0:3|0:0,0:0:0:0:
266,121,81506,1,8,0:3:0:0:
330,113,81617,1,0,0:0:0:0:
111,114,81728,6,0,L|107:182,1,65,8|0,0:3|0:0,0:0:0:0:
205,183,81951,2,0,L|280:184,1,65,0|8,0:0|0:3,0:0:0:0:
175,207,82173,2,0,L|179:286,1,65,0|0,0:0|0:0,0:0:0:0:
374,343,82395,2,0,L|293:343,1,65,8|0,0:3|0:0,0:0:0:0:
28,266,82617,5,8,0:3:0:0:
15,236,82672,1,0,0:0:0:0:
10,203,82728,1,0,0:0:0:0:
14,171,82783,1,0,0:0:0:0:
25,141,82839,1,8,0:3:0:0:
43,114,82894,1,0,0:0:0:0:
67,92,82950,1,0,0:0:0:0:
96,77,83005,1,0,0:0:0:0:
127,69,83062,2,0,L|199:68,1,65,8|0,0:3|0:0,0:0:0:0:
369,124,83284,2,0,L|448:121,1,65,8|0,0:3|0:0,0:0:0:0:
199,162,83506,6,0,L|196:250,1,65,8|0,0:3|0:0,0:0:0:0:
293,219,83728,2,0,L|212:221,1,65,8|0,0:3|0:0,0:0:0:0:
21,138,83950,2,0,L|16:214,1,65,8|0,0:3|0:0,0:0:0:0:
208,268,84172,1,8,0:3:0:0:
241,270,84227,1,0,0:0:0:0:
273,272,84283,1,8,0:3:0:0:
463,276,84395,6,0,P|496:241|410:147,1,195,12|0,0:3|0:0,0:0:0:0:
248,151,84839,2,0,L|242:73,1,65,8|0,0:3|0:0,0:0:0:0:
435,50,85062,2,0,L|370:43,1,65,0|0,0:0|0:0,0:0:0:0:
121,97,85284,6,0,P|46:106|8:216,2,195,8|8|8,0:3|0:3|0:3,0:0:0:0:
406,79,86173,6,0,P|423:132|365:175,1,130,8|0,0:3|0:0,0:0:0:0:
201,245,86506,2,0,P|159:262|66:237,1,130,8|0,0:3|0:0,0:0:0:0:
327,283,86839,2,0,L|412:283,1,65,8|8,0:3|0:3,0:0:0:0:
164,27,87062,6,0,P|136:83|200:212,1,195,8|0,0:3|0:0,0:0:0:0:
348,27,87506,2,0,P|376:83|312:212,1,195,8|0,0:3|0:0,0:0:0:0:
116,295,87951,2,0,L|43:300,3,65,12|0|0|0,0:3|0:0|0:0|0:0,0:0:0:0:
147,283,88395,2,0,L|220:288,3,65,8|0|0|0,0:3|0:0|0:0|0:0,0:0:0:0:
27,240,88839,6,0,L|24:157,1,65,8|0,0:3|0:0,0:0:0:0:
210,146,89062,2,0,L|278:144,1,65,0|8,0:0|0:3,0:0:0:0:
177,141,89284,2,0,L|175:72,1,65,0|0,0:0|0:0,0:0:0:0:
399,197,89506,2,0,L|401:128,1,65,8|0,0:3|0:0,0:0:0:0:
303,126,89728,6,0,P|276:158|376:253,1,195,8|0,0:3|0:0,0:0:0:0:
445,284,90173,2,0,L|381:287,1,65,8|0,0:3|0:0,0:0:0:0:
311,317,90395,2,0,L|375:320,1,65,8|0,0:3|0:0,0:0:0:0:
156,250,90617,6,0,P|90:247|23:188,1,130,8|8,0:3|0:3,0:0:0:0:
356,250,91062,2,0,P|422:247|489:188,1,130,8|8,0:3|0:3,0:0:0:0:
158,32,91506,6,0,P|111:110|208:186,1,233.999992858887,12|0,0:3|0:0,0:0:0:0:
239,187,92228,1,0,0:0:0:0:
271,187,92284,1,0,0:0:0:0:
478,191,92395,6,0,P|486:104|440:76,1,130,8|8,0:3|0:3,0:0:0:0:
362,84,92728,2,0,P|318:97|231:74,1,130,8|8,0:3|0:3,0:0:0:0:
331,48,93062,2,0,L|406:44,1,65,8|8,0:3|0:3,0:0:0:0:
134,72,93284,6,0,L|86:23,2,65,8|0|0,0:3|0:0|0:0,0:0:0:0:
225,104,93617,2,0,L|284:158,2,65,0|8|0,0:0|0:3|0:0,0:0:0:0:
25,161,93951,2,0,L|19:242,1,65
223,346,94173,5,8,0:3:0:0:
285,331,94284,1,0,0:0:0:0:
333,288,94395,1,0,0:0:0:0:
365,231,94506,2,0,P|399:196|362:128,1,130,8|0,0:3|0:0,0:0:0:0:
335,130,94784,1,0,0:0:0:0:
302,130,94839,1,8,0:3:0:0:
370,103,94951,1,0,0:0:0:0:
140,44,95062,5,8,0:3:0:0:
113,76,95136,1,0,0:0:0:0:
119,117,95210,1,0,0:0:0:0:
155,140,95284,2,0,L|237:144,1,65,0|0,0:0|0:0,0:0:0:0:
127,173,95506,2,0,L|122:243,1,65,8|0,0:3|0:0,0:0:0:0:
34,259,95728,2,0,L|29:329,1,65,0|0,0:0|0:0,0:0:0:0:
294,318,95951,6,0,L|371:321,1,65,8|0,0:3|0:0,0:0:0:0:
171,348,96173,1,0,0:0:0:0:
106,351,96284,2,0,P|96:284|167:262,1,130,8|0,0:3|0:0,0:0:0:0:
384,243,96617,2,0,L|385:167,1,65,8|0,0:3|0:0,0:0:0:0:
215,193,96839,5,8,0:3:0:0:
173,186,96913,1,0,0:0:0:0:
144,155,96987,1,0,0:0:0:0:
139,113,97062,2,0,L|203:107,1,65,0|0,0:0|0:0,0:0:0:0:
298,86,97284,2,0,L|233:90,1,65,8|0,0:3|0:0,0:0:0:0:
23,117,97506,2,0,L|15:191,1,65,0|0,0:0|0:0,0:0:0:0:
236,261,97728,5,8,0:3:0:0:
268,259,97783,1,0,0:0:0:0:
300,258,97839,1,0,0:0:0:0:
210,297,97951,1,0,0:0:0:0:
243,296,98006,1,0,0:0:0:0:
275,294,98062,1,8,0:3:0:0:
465,298,98173,1,8,0:3:0:0:
494,241,98284,1,8,0:3:0:0:
484,178,98395,1,8,0:3:0:0:
438,134,98506,1,8,0:3:0:0:
243,88,98617,6,0,L|154:88,1,65,8|0,0:3|0:0,0:0:0:0:
145,86,98784,1,0,0:0:0:0:
112,86,98839,1,0,0:0:0:0:
291,190,98951,2,0,L|380:190,1,65,8|0,0:3|0:0,0:0:0:0:
389,188,99118,1,0,0:0:0:0:
422,188,99173,1,0,0:0:0:0:
229,321,99284,2,0,L|225:249,1,65,8|0,0:3|0:0,0:0:0:0:
472,276,99506,5,8,0:3:0:0:
497,241,99580,1,0,0:0:0:0:
492,199,99654,1,0,0:0:0:0:
461,171,99728,2,0,L|384:167,1,65,0|0,0:0|0:0,0:0:0:0:
216,179,99951,1,8,0:3:0:0:
190,144,100025,1,0,0:0:0:0:
195,102,100099,1,0,0:0:0:0:
226,74,100173,2,0,L|303:69,1,65,8|8,0:3|0:3,0:0:0:0:
55,35,100395,6,0,L|48:103,1,65,8|0,0:3|0:0,0:0:0:0:
47,132,100562,1,0,0:0:0:0:
45,164,100617,1,0,0:0:0:0:
142,167,100728,2,0,L|149:235,1,65,8|0,0:3|0:0,0:0:0:0:
150,264,100895,1,0,0:0:0:0:
152,296,100950,1,0,0:0:0:0:
55,35,101062,2,0,L|128:37,1,65,8|0,0:3|0:0,0:0:0:0:
335,89,101284,6,0,L|342:157,1,65,8|0,0:3|0:0,0:0:0:0:
343,186,101451,1,0,0:0:0:0:
345,218,101506,1,0,0:0:0:0:
248,221,101617,2,0,L|241:289,1,65,8|0,0:3|0:0,0:0:0:0:
240,318,101784,1,0,0:0:0:0:
238,350,101839,1,0,0:0:0:0:
335,89,101951,2,0,L|262:91,1,65,8|0,0:3|0:0,0:0:0:0:
475,67,102173,5,8,0:3:0:0:
498,102,102247,1,0,0:0:0:0:
505,145,102321,1,0,0:0:0:0:
494,186,102395,1,0,0:0:0:0:
466,219,102469,1,0,0:0:0:0:
427,237,102543,1,0,0:0:0:0:
338,235,102617,5,8,0:3:0:0:
314,199,102691,1,0,0:0:0:0:
308,157,102765,1,0,0:0:0:0:
319,115,102839,2,0,L|397:109,1,65,0|0,0:0|0:0,0:0:0:0:
167,56,103062,6,0,P|116:67|60:137,1,130,8|0,0:3|0:0,0:0:0:0:
271,214,103395,2,0,P|322:225|378:295,1,130,8|0,0:3|0:0,0:0:0:0:
148,297,103728,2,0,L|144:224,1,65,0|0,0:0|0:0,0:0:0:0:
338,175,103951,6,0,P|384:174|465:134,1,130,8|0,0:3|0:0,0:0:0:0:
416,134,104247,1,0,0:0:0:0:
372,130,104321,1,0,0:0:0:0:
328,126,104395,1,8,0:3:0:0:
419,93,104506,1,0,0:0:0:0:
309,46,104617,1,0,0:0:0:0:
279,76,104691,1,0,0:0:0:0:
272,119,104765,1,0,0:0:0:0:
291,157,104839,6,0,L|364:165,1,65,8|0,0:3|0:0,0:0:0:0:
165,297,105062,2,0,L|81:299,1,65,8|0,0:3|0:0,0:0:0:0:
197,292,105284,2,0,L|202:217,1,65,8|0,0:3|0:0,0:0:0:0:
15,153,105506,2,0,L|97:152,1,65,0|0,0:0|0:0,0:0:0:0:
300,119,105728,6,0,L|351:61,2,65,8|0|0,0:3|0:0|0:0,0:0:0:0:
201,125,106062,1,0,0:0:0:0:
391,145,106173,1,8,0:3:0:0:
416,178,106247,1,0,0:0:0:0:
416,221,106321,1,0,0:0:0:0:
389,253,106395,2,0,L|296:258,1,65,8|0,0:3|0:0,0:0:0:0:
128,249,106617,5,8,0:3:0:0:
105,226,106672,1,0,0:0:0:0:
98,195,106728,1,0,0:0:0:0:
109,165,106783,1,0,0:0:0:0:
134,145,106839,1,8,0:3:0:0:
232,135,106951,1,0,0:0:0:0:
266,136,107006,1,0,0:0:0:0:
298,134,107062,1,8,0:3:0:0:
234,120,107173,1,0,0:0:0:0:
15,40,107284,2,0,L|93:37,1,65,8|8,0:3|0:3,0:0:0:0:
348,32,107506,6,0,P|405:42|265:102,1,506.999984527588,12|0,0:3|0:0,0:0:0:0:
362,99,109062,1,0,0:0:0:0:
362,99,109117,1,0,0:0:0:0:
362,99,109173,1,0,0:0:0:0:
180,332,109284,6,0,P|123:314|82:248,1,130,8|0,0:3|0:0,0:0:0:0:
293,242,109617,2,0,P|327:203|273:138,1,130,8|0,0:3|0:0,0:0:0:0:
120,123,109951,2,0,L|55:127,1,65,8|8,0:3|0:3,0:0:0:0:
331,78,110173,6,0,P|387:61|460:97,1,130,8|0,0:3|0:0,0:0:0:0:
256,27,110617,1,0,0:0:0:0:
