osu file format v14

[General]
AudioFilename: audio.mp3
AudioLeadIn: 0
PreviewTime: 38118
Countdown: 0
SampleSet: Normal
StackLeniency: 1
Mode: 2
LetterboxInBreaks: 0
WidescreenStoryboard: 1

[Editor]
DistanceSpacing: 1.2
BeatDivisor: 4
GridSize: 8
TimelineZoom: 3.999999

[Metadata]
Title:World's end
TitleUnicode:World's end
Artist:Noah
ArtistUnicode:Noah
Creator:Kyptoric
Version:AutoLs's Overdose
Source:SOUND VOLTEX III GRAVITY WARS
Tags:sdvx konami the 4th kac original song contest オリジナル楽曲コンテスト voltenizer maxima iv autols ascendance RoseusJaeger Wei Wuxian Tsumugi Aoba metal instrumental
BeatmapID:2108787
BeatmapSetID:1006480

[Difficulty]
HPDrainRate:4.5
CircleSize:4.1
OverallDifficulty:9.6
ApproachRate:9.6
SliderMultiplier:1.7
SliderTickRate:2

[Events]
//Background and Video events
0,0,"bg.png",0,0
//Break Periods
//Storyboard Layer 0 (Background)
//Storyboard Layer 1 (Fail)
//Storyboard Layer 2 (Pass)
//Storyboard Layer 3 (Foreground)
//Storyboard Layer 4 (Overlay)
//Storyboard Sound Samples

[TimingPoints]
840,222.222222222222,4,1,1,65,1,0
37729,-100,4,1,1,70,0,0
38173,-100,4,1,1,75,0,1
45062,-100,4,1,1,75,0,0
45284,-100,4,1,1,75,0,1
52395,-166.666666666667,4,1,1,65,0,0
53173,-100,4,1,1,65,0,0
77284,-100,4,1,1,75,0,1
84173,-100,4,1,1,75,0,0
84395,-100,4,1,1,75,0,1
91506,-100,4,1,1,65,0,0
107506,-166.666666666667,4,1,1,65,0,0
108951,-100,4,1,1,65,0,0

[HitObjects]
324,347,840,5,8,0:3:0:0:
376,317,914,1,0,0:0:0:0:
407,274,988,1,0,0:0:0:0:
408,232,1062,1,0,0:0:0:0:
392,192,1136,1,0,0:0:0:0:
368,168,1210,1,0,0:0:0:0:
123,251,1284,5,8,0:3:0:0:
139,207,1358,1,0,0:0:0:0:
180,183,1432,1,0,0:0:0:0:
352,242,1506,1,0,0:0:0:0:
408,239,1580,1,0,0:0:0:0:
425,218,1654,1,0,0:0:0:0:
89,340,1729,5,8,0:3:0:0:
55,302,1802,1,0,0:0:0:0:
43,254,1877,1,0,0:0:0:0:
51,204,1951,1,0,0:0:0:0:
83,169,2025,1,0,0:0:0:0:
122,152,2099,1,0,0:0:0:0:
384,329,2173,5,0,0:0:0:0:
393,276,2247,1,0,0:0:0:0:
361,233,2321,1,0,0:0:0:0:
307,233,2395,1,0,0:0:0:0:
264,209,2469,1,0,0:0:0:0:
265,167,2543,1,0,0:0:0:0:
444,168,2617,5,0,0:0:0:0:
408,168,2691,1,0,0:0:0:0:
160,320,2765,1,0,0:0:0:0:
136,280,2839,1,0,0:0:0:0:
272,296,2914,1,0,0:0:0:0:
320,312,2988,1,0,0:0:0:0:
464,320,3062,5,0,0:0:0:0:
472,280,3136,1,0,0:0:0:0:
240,208,3210,2,0,L|176:200,1,56.6666666666667
384,216,3358,2,0,L|392:136,1,56.6666666666667
112,304,3506,5,0,0:0:0:0:
152,288,3580,1,0,0:0:0:0:
320,272,3654,1,0,0:0:0:0:
352,224,3728,1,0,0:0:0:0:
336,176,3802,1,0,0:0:0:0:
288,160,3877,1,0,0:0:0:0:
91,334,3951,2,0,P|76:268|217:177,1,255,8|0,0:3|0:0,0:0:0:0:
384,272,4395,6,0,L|272:256,2,85,8|0|0,0:3|0:0|0:0,0:0:0:0:
136,296,4728,1,0,0:0:0:0:
224,288,4839,2,0,L|232:192,1,85,8|0,0:3|0:0,0:0:0:0:
128,224,5062,2,0,L|96:112,1,85,0|0,0:0|0:0,0:0:0:0:
352,144,5284,6,0,L|264:136,1,85,8|0,0:3|0:0,0:0:0:0:
72,272,5506,2,0,L|64:176,1,85,0|0,0:0|0:0,0:0:0:0:
360,280,5728,2,0,L|248:272,1,85,8|0,0:3|0:0,0:0:0:0:
208,224,5951,2,0,L|328:216,1,85,0|0,0:0|0:0,0:0:0:0:
72,224,6173,6,0,L|64:136,1,85,8|0,0:3|0:0,0:0:0:0:
344,192,6395,1,0,0:0:0:0:
160,288,6506,1,0,0:0:0:0:
368,296,6617,2,0,L|384:208,1,85,8|0,0:3|0:0,0:0:0:0:
104,280,6839,2,0,L|80:184,1,85,0|0,0:0|0:0,0:0:0:0:
385,305,7062,6,0,P|450:211|223:232,1,510,12|0,0:3|0:0,0:0:0:0:
272,288,7840,2,0,L|333:284,1,42.5,0|0,0:0|0:0,0:0:0:0:
112,328,7951,2,0,P|112:264|136:240,1,85,8|0,0:3|0:0,0:0:0:0:
424,304,8173,2,0,L|312:280,1,85,0|8,0:0|0:3,0:0:0:0:
128,256,8395,5,0,0:0:0:0:
104,216,8451,1,0,0:0:0:0:
120,176,8506,1,0,0:0:0:0:
160,160,8562,1,0,0:0:0:0:
304,168,8617,2,0,L|200:168,1,85,8|0,0:3|0:0,0:0:0:0:
408,232,8840,6,0,L|467:233,1,42.5,8|0,0:3|0:0,0:0:0:0:
288,200,8951,2,0,L|216:200,1,42.5
64,264,9062,1,0,0:0:0:0:
56,224,9117,1,0,0:0:0:0:
64,192,9173,1,0,0:0:0:0:
88,168,9228,1,0,0:0:0:0:
264,320,9284,6,0,L|307:320,1,42.5,8|0,0:3|0:0,0:0:0:0:
146,291,9395,1,0,0:0:0:0:
104,270,9451,1,0,0:0:0:0:
85,233,9506,1,8,0:3:0:0:
88,197,9562,1,0,0:0:0:0:
216,192,9618,2,0,L|264:193,1,42.5,0|0,0:0|0:0,0:0:0:0:
401,284,9729,6,0,P|411:204|386:182,1,85,8|0,0:3|0:0,0:0:0:0:
205,287,9951,2,0,L|296:288,1,85,0|0,0:0|0:0,0:0:0:0:
64,312,10173,2,0,L|60:208,1,85,8|0,0:3|0:0,0:0:0:0:
168,224,10395,1,0,0:0:0:0:
60,227,10506,1,0,0:0:0:0:
392,318,10618,6,0,P|440:245|424:144,1,170,8|0,0:3|0:0,0:0:0:0:
176,112,10951,2,0,L|360:112,1,170,8|0,0:3|0:0,0:0:0:0:
131,263,11284,2,0,L|256:264,1,85,8|0,0:3|0:0,0:0:0:0:
131,263,11506,5,8,0:3:0:0:
363,299,11618,1,0,0:0:0:0:
269,336,11729,1,0,0:0:0:0:
368,214,11840,1,0,0:0:0:0:
158,237,11951,2,0,L|152:144,1,85,8|0,0:3|0:0,0:0:0:0:
264,144,12173,1,0,0:0:0:0:
80,328,12284,2,0,L|144:328,1,42.5,0|0,0:0|0:0,0:0:0:0:
360,288,12395,6,0,P|392:208|344:120,1,170,8|0,0:3|0:0,0:0:0:0:
272,120,12728,1,0,0:0:0:0:
88,248,12839,2,0,L|272:248,1,170,8|0,0:3|0:0,0:0:0:0:
192,192,13173,1,0,0:0:0:0:
440,282,13284,6,0,P|435:232|387:201,1,85,8|0,0:3|0:0,0:0:0:0:
232,240,13506,2,0,L|144:240,1,85,0|0,0:0|0:0,0:0:0:0:
363,333,13729,1,8,0:3:0:0:
363,333,13840,1,0,0:0:0:0:
272,280,13951,1,0,0:0:0:0:
376,256,14062,1,0,0:0:0:0:
80,152,14173,5,8,0:3:0:0:
80,152,14284,1,0,0:0:0:0:
176,152,14395,1,0,0:0:0:0:
80,232,14506,1,0,0:0:0:0:
366,327,14618,1,8,0:3:0:0:
405,234,14729,1,0,0:0:0:0:
304,232,14840,2,0,L|206:230,1,85,0|0,0:0|0:0,0:0:0:0:
400,144,15062,6,0,L|464:144,1,42.5,8|0,0:3|0:0,0:0:0:0:
188,322,15173,1,0,0:0:0:0:
189,281,15229,1,0,0:0:0:0:
208,246,15284,1,0,0:0:0:0:
236,223,15340,1,0,0:0:0:0:
384,248,15395,2,0,L|320:248,1,42.5
168,216,15506,6,0,L|104:216,1,42.5
304,168,15617,2,0,L|352:168,1,42.5
136,296,15728,1,0,0:0:0:0:
104,280,15784,1,0,0:0:0:0:
88,240,15839,1,0,0:0:0:0:
88,200,15895,1,0,0:0:0:0:
328,232,15951,6,2,L|368:143,1,85,8|0,0:3|0:0,0:0:0:0:
272,328,16173,2,2,L|362:327,1,85,0|0,0:0|0:0,0:0:0:0:
65,318,16395,2,0,P|51:216|116:171,1,170,8|8,0:3|0:3,0:0:0:0:
192,176,16729,1,0,0:0:0:0:
424,344,16839,6,0,B|400:280|400:280|296:272,1,170,8|0,0:3|0:0,0:0:0:0:
200,264,17173,1,0,0:0:0:0:
392,176,17284,1,8,0:3:0:0:
304,176,17395,1,0,0:0:0:0:
392,176,17506,1,0,0:0:0:0:
224,176,17618,1,0,0:0:0:0:
396,316,17729,6,0,L|392:200,1,85,8|0,0:3|0:0,0:0:0:0:
286,205,17951,1,0,0:0:0:0:
85,261,18062,1,8,0:3:0:0:
176,264,18173,1,0,0:0:0:0:
85,261,18284,1,0,0:0:0:0:
280,317,18395,2,0,L|288:216,1,85,8|0,0:3|0:0,0:0:0:0:
80,192,18618,6,0,L|177:193,1,85,8|0,0:3|0:0,0:0:0:0:
256,192,18839,1,0,0:0:0:0:
64,328,18951,1,0,0:0:0:0:
64,328,19062,1,8,0:3:0:0:
158,333,19173,1,0,0:0:0:0:
158,333,19284,1,0,0:0:0:0:
264,336,19395,1,0,0:0:0:0:
80,320,19506,6,0,P|56:224|120:184,1,170,8|0,0:3|0:0,0:0:0:0:
208,248,19840,2,0,L|195:126,1,85,0|8,0:0|0:3,0:0:0:0:
120,160,20062,1,0,0:0:0:0:
240,208,20173,2,0,L|184:128,1,85,0|0,0:0|0:0,0:0:0:0:
392,240,20395,6,0,L|200:240,1,170,8|0,0:3|0:0,0:0:0:0:
112,240,20729,1,0,0:0:0:0:
280,208,20839,2,0,L|168:200,1,85,8|0,0:3|0:0,0:0:0:0:
384,224,21062,2,0,L|408:136,1,85,0|0,0:0|0:0,0:0:0:0:
312,139,21284,5,8,0:3:0:0:
392,288,21395,1,0,0:0:0:0:
416,288,21506,1,0,0:0:0:0:
312,139,21618,1,0,0:0:0:0:
194,128,21729,1,8,0:3:0:0:
312,139,21840,1,0,0:0:0:0:
82,324,21951,2,0,L|88:225,1,85,0|0,0:0|0:0,0:0:0:0:
305,226,22173,6,0,L|480:224,1,170,8|0,0:3|0:0,0:0:0:0:
224,312,22506,1,8,0:3:0:0:
304,312,22617,1,0,0:0:0:0:
384,312,22728,1,0,0:0:0:0:
80,336,22839,2,0,L|80:232,1,85,8|0,0:3|0:0,0:0:0:0:
368,224,23062,6,0,L|184:224,1,170,8|0,0:3|0:0,0:0:0:0:
400,168,23395,1,8,0:3:0:0:
195,315,23506,2,0,L|288:312,1,85,0|0,0:0|0:0,0:0:0:0:
96,280,23729,2,0,L|212:277,1,85,8|0,0:3|0:0,0:0:0:0:
374,207,23951,5,8,0:3:0:0:
280,208,24062,1,0,0:0:0:0:
374,207,24173,1,0,0:0:0:0:
374,307,24284,1,0,0:0:0:0:
152,304,24395,1,8,0:3:0:0:
248,304,24506,1,0,0:0:0:0:
152,304,24617,2,0,L|144:208,1,85,0|0,0:0|0:0,0:0:0:0:
364,231,24840,6,0,L|248:216,1,85,8|0,0:3|0:0,0:0:0:0:
176,200,25062,2,0,L|264:192,1,85,0|0,0:0|0:0,0:0:0:0:
152,304,25284,2,0,L|148:213,1,85,8|0,0:3|0:0,0:0:0:0:
385,262,25506,1,8,0:3:0:0:
296,264,25618,1,0,0:0:0:0:
400,264,25728,6,0,L|415:162,1,85,8|0,0:3|0:0,0:0:0:0:
320,176,25951,1,0,0:0:0:0:
128,248,26062,1,0,0:0:0:0:
224,248,26173,1,8,0:3:0:0:
128,248,26284,1,0,0:0:0:0:
252,339,26395,2,0,L|245:252,1,85,0|0,0:0|0:0,0:0:0:0:
147,175,26618,5,8,0:3:0:0:
240,176,26729,1,0,0:0:0:0:
147,175,26840,1,0,0:0:0:0:
362,243,26951,1,0,0:0:0:0:
280,240,27062,1,8,0:3:0:0:
362,243,27173,1,0,0:0:0:0:
112,328,27284,2,0,L|216:328,1,85,8|0,0:3|0:0,0:0:0:0:
272,328,27506,5,8,0:3:0:0:
168,328,27618,2,0,L|160:242,1,85,0|0,0:0|0:0,0:0:0:0:
256,248,27840,1,8,0:3:0:0:
161,246,27951,1,0,0:0:0:0:
288,328,28062,1,0,0:0:0:0:
384,328,28173,1,8,0:3:0:0:
256,140,28284,1,0,0:0:0:0:
87,322,28395,6,0,L|184:320,1,85,8|0,0:3|0:0,0:0:0:0:
360,272,28618,2,0,L|258:267,1,85,0|8,0:0|0:3,0:0:0:0:
448,304,28839,2,0,L|456:192,1,85,0|0,0:0|0:0,0:0:0:0:
144,312,29062,2,0,L|128:208,1,85,8|0,0:3|0:0,0:0:0:0:
248,232,29284,6,0,L|435:231,1,170,8|0,0:3|0:0,0:0:0:0:
339,313,29618,1,0,0:0:0:0:
79,313,29729,2,0,L|176:312,1,85,8|0,0:3|0:0,0:0:0:0:
400,320,29951,2,0,L|396:216,1,85,8|0,0:3|0:0,0:0:0:0:
151,202,30173,6,0,L|336:200,1,170,8|0,0:3|0:0,0:0:0:0:
144,312,30506,1,0,0:0:0:0:
232,320,30617,1,8,0:3:0:0:
144,312,30728,1,0,0:0:0:0:
232,320,30839,1,0,0:0:0:0:
56,240,30951,1,0,0:0:0:0:
307,202,31062,6,0,L|353:98,1,85,8|0,0:3|0:0,0:0:0:0:
152,168,31284,2,0,L|108:64,1,85,0|0,0:0|0:0,0:0:0:0:
307,252,31506,2,0,L|411:247,2,85,8|0|0,0:3|0:0|0:0,0:0:0:0:
112,272,31840,1,0,0:0:0:0:
208,272,31951,5,8,0:3:0:0:
112,272,32062,1,0,0:0:0:0:
359,321,32173,1,0,0:0:0:0:
272,320,32284,1,8,0:3:0:0:
180,322,32395,1,0,0:0:0:0:
383,206,32506,1,0,0:0:0:0:
295,162,32618,2,0,L|174:160,1,85,8|0,0:3|0:0,0:0:0:0:
334,250,32840,6,0,L|371:138,1,85,8|0,0:3|0:0,0:0:0:0:
115,301,33062,2,0,L|207:302,2,85,0|8|0,0:0|0:3|0:0,0:0:0:0:
304,304,33395,1,0,0:0:0:0:
80,288,33506,2,0,L|56:192,1,85,8|0,0:3|0:0,0:0:0:0:
336,152,33729,6,0,L|224:104,1,85,8|0,0:3|0:0,0:0:0:0:
256,232,33951,1,0,0:0:0:0:
449,307,34062,1,8,0:3:0:0:
356,261,34173,1,0,0:0:0:0:
448,208,34284,1,0,0:0:0:0:
96,312,34395,2,0,L|72:208,1,85
299,203,34618,5,8,0:3:0:0:
196,126,34729,1,0,0:0:0:0:
398,321,34840,1,0,0:0:0:0:
445,199,34951,1,0,0:0:0:0:
164,264,35062,1,8,0:3:0:0:
240,240,35210,1,0,0:0:0:0:
72,176,35284,6,0,L|144:152,1,56.6666666666667
360,224,35506,1,0,0:0:0:0:
360,176,35580,1,0,0:0:0:0:
328,144,35654,1,0,0:0:0:0:
139,334,35729,6,0,L|64:328,1,56.6666666666667
352,280,35877,1,0,0:0:0:0:
392,240,35951,1,8,0:3:0:0:
392,200,36025,1,0,0:0:0:0:
170,199,36099,1,0,0:0:0:0:
170,199,36173,1,0,0:0:0:0:
256,200,36284,1,0,0:0:0:0:
58,337,36395,5,8,0:3:0:0:
46,208,36506,1,0,0:0:0:0:
376,296,36618,1,0,0:0:0:0:
312,200,36729,1,0,0:0:0:0:
124,181,36840,1,8,0:3:0:0:
230,155,36951,1,0,0:0:0:0:
441,290,37062,2,0,L|409:198,1,85,0|0,0:0|0:0,0:0:0:0:
119,322,37284,5,8,0:3:0:0:
224,320,37395,1,0,0:0:0:0:
119,322,37506,1,8,0:3:0:0:
304,264,37618,1,0,0:0:0:0:
208,264,37729,1,8,0:3:0:0:
304,184,37840,1,8,0:3:0:0:
408,264,37951,2,0,L|400:160,1,85,8|8,0:3|0:3,0:0:0:0:
102,316,38173,6,0,L|284:317,1,170,12|0,0:3|0:0,0:0:0:0:
374,317,38506,1,0,0:0:0:0:
136,296,38618,2,0,L|136:191,1,85,8|0,0:3|0:0,0:0:0:0:
320,208,38839,2,0,L|208:208,1,85,0|0,0:0|0:0,0:0:0:0:
441,322,39062,2,0,P|450:254|389:176,1,170,8|0,0:3|0:0,0:0:0:0:
272,176,39395,1,8,0:3:0:0:
110,248,39506,6,0,L|311:249,1,170,0|8,0:0|0:3,0:0:0:0:
392,248,39839,1,0,0:0:0:0:
113,323,39951,6,0,P|96:264|208:224,1,170,8|0,0:3|0:0,0:0:0:0:
264,224,40284,1,8,0:3:0:0:
80,256,40395,2,0,L|56:144,1,85,0|0,0:0|0:0,0:0:0:0:
176,184,40617,2,0,L|184:72,1,85,8|0,0:3|0:0,0:0:0:0:
400,184,40839,6,0,L|208:176,1,170,8|0,0:3|0:0,0:0:0:0:
136,176,41173,1,0,0:0:0:0:
410,340,41284,2,0,L|424:243,1,85,8|0,0:3|0:0,0:0:0:0:
199,194,41506,1,0,0:0:0:0:
414,167,41617,1,0,0:0:0:0:
70,337,41728,6,0,P|58:267|96:244,1,85,8|0,0:3|0:0,0:0:0:0:
279,247,41951,2,0,L|169:246,1,85,8|0,0:3|0:0,0:0:0:0:
428,213,42173,1,0,0:0:0:0:
436,108,42284,1,0,0:0:0:0:
254,308,42395,2,0,L|347:308,1,85,8|0,0:3|0:0,0:0:0:0:
104,158,42617,6,0,L|196:154,2,85,8|0|8,0:3|0:0|0:3,0:0:0:0:
376,280,42951,2,0,L|355:164,1,85,0|0,0:0|0:0,0:0:0:0:
251,194,43173,1,0,0:0:0:0:
448,117,43284,2,0,L|296:110,1,127.5,8|0,0:3|0:0,0:0:0:0:
88,304,43506,6,0,L|64:240,1,56.6666666666667
312,280,43654,2,0,L|344:216,1,56.6666666666667
144,208,43802,2,0,L|200:168,1,56.6666666666667
416,264,43951,5,0,0:0:0:0:
432,216,44025,1,0,0:0:0:0:
408,176,44099,1,0,0:0:0:0:
360,160,44173,1,0,0:0:0:0:
120,256,44247,2,0,L|200:256,1,56.6666666666667
448,304,44395,6,0,P|459:206|392:168,1,170,8|8,0:3|0:3,0:0:0:0:
120,192,44728,2,0,L|224:208,2,85
304,304,45062,1,8,0:3:0:0:
112,304,45173,1,8,0:3:0:0:
368,120,45284,6,0,L|491:119,1,85,12|0,0:3|0:0,0:0:0:0:
384,216,45506,2,0,L|262:216,1,85,0|0,0:0|0:0,0:0:0:0:
74,260,45728,1,8,0:3:0:0:
55,219,45802,1,0,0:0:0:0:
76,184,45877,1,0,0:0:0:0:
285,166,45951,2,0,L|160:165,1,85,0|0,0:0|0:0,0:0:0:0:
380,338,46173,6,0,P|397:278|361:247,1,85,8|0,0:3|0:0,0:0:0:0:
188,225,46395,2,0,L|301:225,1,85,0|8,0:0|0:3,0:0:0:0:
55,325,46617,2,0,P|50:247|76:222,1,85,0|0,0:0|0:0,0:0:0:0:
420,321,46839,2,0,L|450:202,1,85,8|0,0:3|0:0,0:0:0:0:
208,288,47062,6,0,L|296:288,1,85,8|0,0:3|0:0,0:0:0:0:
103,294,47284,2,0,L|93:203,1,85,0|8,0:0|0:3,0:0:0:0:
381,324,47506,2,0,P|408:246|334:174,1,170,0|8,0:3|0:3,0:0:0:0:
141,147,47839,1,8,0:3:0:0:
382,137,47951,6,0,L|184:128,1,170,8|0,0:3|0:0,0:0:0:0:
112,160,48284,1,0,0:0:0:0:
371,316,48395,2,0,P|372:211|297:154,1,170,8|0,0:3|0:0,0:0:0:0:
110,240,48729,1,0,0:0:0:0:
333,266,48840,6,0,L|239:261,2,85,12|0|0,0:3|0:0|0:0,0:0:0:0:
147,163,49173,2,0,L|240:168,2,85,0|8|0,0:0|0:3|0:0,0:0:0:0:
360,175,49506,2,0,L|374:76,1,85,0|0,0:0|0:0,0:0:0:0:
83,325,49728,6,0,P|55:232|94:172,1,170,8|0,0:3|0:0,0:0:0:0:
432,320,50062,1,8,0:3:0:0:
264,304,50173,2,0,L|248:200,1,85,0|0,0:0|0:0,0:0:0:0:
64,232,50395,2,0,L|80:128,1,85,8|0,0:3|0:0,0:0:0:0:
368,256,50618,6,0,L|427:148,1,85,8|0,0:3|0:0,0:0:0:0:
205,146,50840,2,0,L|104:136,1,85,0|0,0:0|0:0,0:0:0:0:
402,329,51062,2,0,L|406:212,1,85,8|0,0:3|0:0,0:0:0:0:
90,306,51284,2,0,L|80:216,1,85,8|0,0:3|0:0,0:0:0:0:
375,216,51506,6,0,L|184:216,1,170,8|0,0:3|0:0,0:0:0:0:
387,335,51840,2,0,L|314:324,1,42.5,0|0,0:0|0:0,0:0:0:0:
155,346,51951,1,8,0:3:0:0:
121,319,52006,1,0,0:0:0:0:
107,284,52062,1,8,0:3:0:0:
107,251,52118,1,0,0:0:0:0:
125,215,52173,1,8,0:3:0:0:
146,192,52229,1,0,0:0:0:0:
177,171,52284,1,0,0:0:0:0:
208,159,52340,1,0,0:0:0:0:
433,134,52395,6,0,P|242:132|231:274,1,356.999989105225,12|0,0:3|0:0,0:0:0:0:
416,336,53284,6,0,L|360:328,1,42.5,8|0,0:3|0:0,0:0:0:0:
216,312,53395,1,0,0:0:0:0:
169,305,53451,1,0,0:0:0:0:
135,279,53506,1,0,0:0:0:0:
122,241,53562,1,0,0:0:0:0:
332,236,53618,2,0,L|211:209,1,85,8|0,0:3|0:0,0:0:0:0:
332,236,53840,1,0,0:0:0:0:
110,303,53951,2,0,L|207:292,1,85,8|0,0:3|0:0,0:0:0:0:
433,304,54173,6,0,L|443:205,1,85,8|0,0:3|0:0,0:0:0:0:
196,221,54395,2,0,L|356:199,1,85,0|8,0:0|0:3,0:0:0:0:
76,308,54618,2,0,L|56:171,1,85,0|0,0:0|0:0,0:0:0:0:
330,232,54840,1,8,0:3:0:0:
128,194,54951,1,0,0:0:0:0:
357,332,55062,6,0,L|373:217,1,85,8|0,0:3|0:0,0:0:0:0:
104,296,55284,2,0,L|88:184,1,85,0|8,0:0|0:3,0:0:0:0:
336,288,55506,2,0,L|350:183,1,85,0|0,0:0|0:0,0:0:0:0:
104,208,55729,2,0,L|240:208,1,113.333333333333,8|0,0:3|0:0,0:0:0:0:
368,328,55951,5,0,0:0:0:0:
368,328,56025,1,0,0:0:0:0:
311,330,56099,1,0,0:0:0:0:
464,280,56173,1,0,0:0:0:0:
464,280,56247,1,0,0:0:0:0:
407,284,56321,1,0,0:0:0:0:
92,328,56395,1,8,0:3:0:0:
295,285,56506,1,0,0:0:0:0:
69,253,56618,2,0,L|49:159,1,85,8|0,0:3|0:0,0:0:0:0:
364,268,56840,6,0,P|392:193|333:127,1,170,8|0,0:3|0:0,0:0:0:0:
80,208,57173,1,0,0:0:0:0:
271,241,57284,1,8,0:3:0:0:
182,335,57395,1,0,0:0:0:0:
384,216,57506,6,0,L|280:200,1,85,0|0,0:0|0:0,0:0:0:0:
120,168,57728,2,0,L|217:162,2,85,8|0|0,0:3|0:0|0:0,0:0:0:0:
304,304,58062,1,0,0:0:0:0:
128,280,58173,2,0,L|148:185,1,85,8|0,0:3|0:0,0:0:0:0:
320,208,58395,1,0,0:0:0:0:
224,208,58506,1,0,0:0:0:0:
416,328,58617,6,0,P|432:240|376:176,1,170,8|0,0:3|0:0,0:0:0:0:
149,238,58951,2,0,L|248:240,1,85,0|8,0:0|0:3,0:0:0:0:
320,240,59173,1,0,0:0:0:0:
104,312,59284,2,0,L|65:222,1,85,0|0,0:0|0:0,0:0:0:0:
286,261,59506,5,8,0:3:0:0:
70,234,59618,1,0,0:0:0:0:
401,319,59729,2,0,L|423:224,1,85,0|0,0:0|0:0,0:0:0:0:
173,215,59951,1,8,0:3:0:0:
376,182,60062,1,0,0:0:0:0:
102,328,60173,2,0,L|84:211,1,85,8|0,0:3|0:0,0:0:0:0:
296,263,60395,6,0,L|193:259,2,85,8|0|0,0:3|0:0|0:0,0:0:0:0:
88,296,60729,2,0,L|83:183,1,85,0|8,0:0|0:3,0:0:0:0:
339,123,60951,1,0,0:0:0:0:
88,329,61062,2,0,L|209:329,1,85,8|8,0:3|0:3,0:0:0:0:
421,332,61284,6,0,P|444:247|382:195,1,170,8|0,0:3|0:0,0:0:0:0:
152,269,61618,2,0,L|66:268,2,85,0|8|0,0:0|0:3|0:0,0:0:0:0:
384,189,61951,2,0,L|486:191,2,85,0|0|8,0:0|0:0|0:3,0:0:0:0:
190,325,62284,6,0,L|293:324,1,85,0|8,0:0|0:3,0:0:0:0:
71,261,62506,2,0,L|190:255,1,85,0|8,0:0|0:3,0:0:0:0:
371,249,62728,1,0,0:0:0:0:
287,234,62839,1,8,0:3:0:0:
333,211,62951,2,0,L|312:169,1,42.5,0|0,0:0|0:0,0:0:0:0:
145,352,63062,6,0,P|100:306|148:219,1,170,8|0,0:3|0:0,0:0:0:0:
254,225,63395,1,8,0:3:0:0:
358,223,63506,2,0,P|368:149|346:126,1,85,0|0,0:0|0:0,0:0:0:0:
124,271,63728,2,0,L|220:271,1,85,8|0,0:3|0:0,0:0:0:0:
413,333,63951,6,0,L|313:333,1,85,8|0,0:3|0:0,0:0:0:0:
112,336,64173,2,0,L|234:336,1,85,0|8,0:0|0:3,0:0:0:0:
376,248,64395,1,0,0:0:0:0:
281,250,64506,1,0,0:0:0:0:
376,248,64618,1,8,0:3:0:0:
281,250,64729,1,0,0:0:0:0:
90,291,64839,5,0,0:0:0:0:
71,257,64914,1,0,0:0:0:0:
95,225,64988,1,0,0:0:0:0:
360,168,65062,5,0,0:0:0:0:
320,168,65117,1,0,0:0:0:0:
280,168,65173,1,0,0:0:0:0:
320,168,65228,1,0,0:0:0:0:
360,168,65284,1,0,0:0:0:0:
320,168,65339,1,0,0:0:0:0:
144,128,65395,6,0,L|88:128,1,42.5
232,352,65506,1,0,0:0:0:0:
256,312,65562,1,0,0:0:0:0:
248,272,65617,1,0,0:0:0:0:
208,248,65673,1,0,0:0:0:0:
64,288,65728,6,0,L|120:288,1,42.5
288,256,65839,1,0,0:0:0:0:
328,224,65895,1,0,0:0:0:0:
320,176,65951,1,0,0:0:0:0:
280,144,66006,1,0,0:0:0:0:
120,208,66062,5,0,0:0:0:0:
80,176,66117,1,0,0:0:0:0:
80,136,66173,1,0,0:0:0:0:
112,104,66228,1,0,0:0:0:0:
240,96,66284,2,0,L|320:96,1,42.5
416,248,66395,5,0,0:0:0:0:
424,208,66451,1,0,0:0:0:0:
400,168,66506,1,0,0:0:0:0:
360,152,66562,1,0,0:0:0:0:
124,255,66617,5,8,0:3:0:0:
124,255,66673,1,0,0:0:0:0:
160,256,66728,1,0,0:0:0:0:
352,208,66839,2,0,L|251:206,1,85,0|8,0:0|0:3,0:0:0:0:
464,144,67062,5,0,0:0:0:0:
464,144,67117,1,0,0:0:0:0:
432,144,67173,1,0,0:0:0:0:
216,296,67284,2,0,L|312:296,1,85,8|0,0:3|0:0,0:0:0:0:
72,296,67506,1,8,0:3:0:0:
72,296,67562,1,0,0:0:0:0:
112,296,67617,1,0,0:0:0:0:
304,240,67728,5,8,0:3:0:0:
192,176,67839,1,0,0:0:0:0:
370,313,67951,1,8,0:3:0:0:
160,336,68062,1,8,0:3:0:0:
370,313,68173,2,0,L|389:204,1,85,8|8,0:3|0:3,0:0:0:0:
160,240,68395,6,0,L|338:238,1,170,8|8,0:3|0:3,0:0:0:0:
159,157,68729,2,0,L|37:156,1,85,0|8,0:0|0:3,0:0:0:0:
364,324,68951,2,0,L|253:322,2,85,0|8|0,0:0|0:3|0:0,0:0:0:0:
91,334,69284,6,0,P|79:242|154:206,1,170,8|8,0:3|0:3,0:0:0:0:
330,224,69618,2,0,L|213:222,2,85,0|8|0,0:0|0:3|0:0,0:0:0:0:
132,337,69951,2,0,L|141:220,1,85,8|0,0:3|0:0,0:0:0:0:
397,284,70173,6,0,P|412:189|358:149,1,170,8|8,0:3|0:3,0:0:0:0:
157,181,70506,2,0,L|296:183,2,85,0|8|0,0:0|0:3|0:0,0:0:0:0:
344,342,70840,2,0,L|346:252,1,85,8|0,0:3|0:0,0:0:0:0:
116,273,71062,6,0,P|86:173|171:123,1,170,8|8,0:3|0:3,0:0:0:0:
326,183,71395,2,0,L|221:180,2,85,0|8|0,0:0|0:3|0:0,0:0:0:0:
82,334,71729,2,0,L|65:227,1,85,8|0,0:3|0:0,0:0:0:0:
315,250,71951,6,0,L|479:244,1,85,8|0,0:3|0:0,0:0:0:0:
173,336,72173,2,0,L|160:232,1,85,8|0,0:3|0:0,0:0:0:0:
414,213,72395,2,0,L|277:216,1,85,8|0,0:3|0:0,0:0:0:0:
83,171,72618,2,0,L|236:169,1,85,8|0,0:3|0:0,0:0:0:0:
431,343,72840,6,0,L|446:232,1,85,8|0,0:3|0:0,0:0:0:0:
113,340,73062,2,0,L|88:243,1,85,8|0,0:3|0:0,0:0:0:0:
361,279,73284,2,0,L|391:177,1,85,8|0,0:3|0:0,0:0:0:0:
124,201,73506,2,0,L|83:88,1,85,8|0,0:3|0:0,0:0:0:0:
304,152,73728,5,8,0:3:0:0:
344,160,73784,1,0,0:0:0:0:
368,192,73839,1,0,0:0:0:0:
376,224,73895,1,0,0:0:0:0:
368,256,73951,1,0,0:0:0:0:
352,288,74006,1,0,0:0:0:0:
320,304,74062,1,0,0:0:0:0:
288,312,74117,1,0,0:0:0:0:
96,312,74173,6,0,P|96:280|112:224,1,85,8|0,0:3|0:0,0:0:0:0:
376,224,74395,2,0,L|256:224,1,85,0|0,0:0|0:0,0:0:0:0:
96,240,74617,1,8,0:3:0:0:
80,208,74673,1,0,0:0:0:0:
88,168,74728,1,0,0:0:0:0:
120,152,74784,1,0,0:0:0:0:
448,336,74839,2,0,L|432:296,1,42.5,0|0,0:0|0:0,0:0:0:0:
296,328,74951,2,0,L|248:344,1,42.5,0|0,0:0|0:0,0:0:0:0:
137,338,75062,5,8,0:3:0:0:
100,311,75118,1,0,0:0:0:0:
81,273,75173,1,0,0:0:0:0:
101,240,75229,1,0,0:0:0:0:
143,239,75284,1,8,0:3:0:0:
179,221,75340,1,0,0:0:0:0:
189,183,75395,1,0,0:0:0:0:
158,146,75451,1,0,0:0:0:0:
80,96,75506,6,0,L|160:96,1,56.6666666666667
296,312,75654,1,0,0:0:0:0:
232,264,75728,2,0,L|232:192,1,56.6666666666667
296,176,75877,1,0,0:0:0:0:
64,336,75951,6,0,L|64:264,1,56.6666666666667
128,256,76099,1,0,0:0:0:0:
416,344,76173,2,0,L|416:288,1,56.6666666666667
336,264,76321,1,0,0:0:0:0:
112,177,76395,2,0,L|215:167,2,85,0|8|8,0:0|0:3|0:3,0:0:0:0:
371,263,76728,6,0,L|272:256,2,85,8|0|8,0:3|0:0|0:3,0:0:0:0:
192,264,77062,2,0,L|279:231,1,85,8|8,0:3|0:3,0:0:0:0:
93,297,77284,6,0,P|89:202|159:169,1,170,12|0,0:3|0:0,0:0:0:0:
382,211,77618,1,0,0:0:0:0:
147,326,77729,2,0,L|136:240,1,85,8|0,0:3|0:0,0:0:0:0:
335,243,77951,2,0,L|229:233,1,85,0|0,0:0|0:0,0:0:0:0:
440,200,78173,6,0,L|248:184,1,170,8|0,0:3|0:0,0:0:0:0:
48,320,78506,2,0,L|240:328,1,170,8|0,0:3|0:0,0:0:0:0:
26,282,78839,2,0,L|127:287,1,85,8|0,0:3|0:0,0:0:0:0:
434,272,79062,6,0,L|337:266,3,85,8|0|0|8,0:3|0:0|0:0|0:3,0:0:0:0:
177,292,79506,2,0,L|190:187,1,85,0|0,0:0|0:0,0:0:0:0:
283,194,79728,2,0,L|389:178,1,85,8|8,0:3|0:3,0:0:0:0:
136,280,79951,6,0,L|336:288,1,170,8|0,0:3|0:0,0:0:0:0:
416,296,80284,1,0,0:0:0:0:
112,344,80395,2,0,P|96:264|184:208,1,170,8|0,0:3|0:0,0:0:0:0:
288,248,80728,1,0,0:0:0:0:
443,292,80840,6,0,P|450:197|376:157,1,170,8|0,0:3|0:0,0:0:0:0:
149,278,81173,2,0,L|246:271,2,85,8|0|0,0:3|0:0|0:0,0:0:0:0:
362,195,81506,2,0,L|248:192,1,85,8|0,0:3|0:0,0:0:0:0:
56,296,81729,6,0,L|149:215,1,85,8|0,0:3|0:0,0:0:0:0:
396,290,81951,2,0,L|294:288,2,85,0|8|0,0:0|0:3|0:0,0:0:0:0:
92,157,82284,2,0,L|209:158,2,85,0|8|0,0:0|0:3|0:0,0:0:0:0:
361,251,82618,6,0,L|411:156,1,85,8|0,0:3|0:0,0:0:0:0:
131,336,82840,2,0,L|107:223,1,85,8|0,0:3|0:0,0:0:0:0:
396,328,83062,2,0,L|470:222,1,85,8|0,0:3|0:0,0:0:0:0:
96,288,83284,2,0,L|44:200,1,85,8|0,0:3|0:0,0:0:0:0:
326,240,83506,5,8,0:3:0:0:
216,240,83618,1,0,0:0:0:0:
405,292,83729,2,0,L|416:172,1,85,8|0,0:3|0:0,0:0:0:0:
163,189,83951,1,8,0:3:0:0:
352,192,84062,1,0,0:0:0:0:
163,189,84173,1,8,0:3:0:0:
349,227,84284,1,8,0:3:0:0:
100,329,84395,6,0,P|133:241|221:217,1,170,12|0,0:3|0:0,0:0:0:0:
421,237,84729,2,0,L|306:228,1,85,0|8,0:0|0:3,0:0:0:0:
86,202,84951,1,0,0:0:0:0:
315,338,85062,2,0,L|366:250,1,85,0|0,0:0|0:0,0:0:0:0:
163,202,85284,6,0,L|341:200,1,170,8|0,0:3|0:0,0:0:0:0:
148,335,85618,2,0,P|112:296|184:216,1,170,8|0,0:3|0:0,0:0:0:0:
424,256,85951,2,0,L|376:184,1,85,8|0,0:3|0:0,0:0:0:0:
139,169,86173,6,0,L|339:171,1,170,8|0,0:3|0:0,0:0:0:0:
400,176,86506,1,8,0:3:0:0:
85,329,86617,2,0,L|63:237,1,85,0|0,0:0|0:0,0:0:0:0:
176,240,86839,2,0,L|80:240,1,85,8|8,0:3|0:3,0:0:0:0:
368,320,87062,6,0,L|184:320,1,170,8|0,0:3|0:0,0:0:0:0:
109,321,87395,1,0,0:0:0:0:
368,336,87506,2,0,P|392:248|328:192,1,170,8|0,0:3|0:0,0:0:0:0:
97,193,87839,1,0,0:0:0:0:
208,240,87951,5,12,0:3:0:0:
97,193,88062,1,0,0:0:0:0:
321,327,88173,1,0,0:0:0:0:
97,193,88284,1,0,0:0:0:0:
184,192,88395,1,8,0:3:0:0:
264,192,88506,1,0,0:0:0:0:
88,336,88618,2,0,L|118:241,1,85,0|0,0:0|0:0,0:0:0:0:
397,321,88840,6,0,L|376:232,1,85,8|0,0:3|0:0,0:0:0:0:
171,223,89062,2,0,L|272:224,2,85,0|8|0,0:0|0:3|0:0,0:0:0:0:
352,152,89395,2,0,L|448:152,2,85,0|8|0,0:0|0:3|0:0,0:0:0:0:
85,332,89729,6,0,L|276:334,1,170,8|0,0:3|0:0,0:0:0:0:
177,263,90062,1,0,0:0:0:0:
389,253,90173,2,0,L|418:159,1,85,8|0,0:3|0:0,0:0:0:0:
190,159,90395,2,0,L|91:151,2,85,8|0|8,0:3|0:0|0:3,0:0:0:0:
384,336,90728,6,0,P|400:256|320:208,1,170,0|8,0:0|0:3,0:0:0:0:
88,336,91062,2,0,L|288:328,1,170,8|8,0:3|0:3,0:0:0:0:
144,272,91395,1,0,0:0:0:0:
383,311,91506,6,0,P|415:208|174:274,1,510,12|0,0:3|0:0,0:0:0:0:
256,296,92284,2,0,L|192:296,1,42.5,0|0,0:0|0:0,0:0:0:0:
75,262,92395,5,8,0:3:0:0:
160,264,92506,1,0,0:0:0:0:
75,262,92618,1,8,0:3:0:0:
329,208,92729,1,8,0:3:0:0:
85,112,92840,1,0,0:0:0:0:
288,120,92951,1,8,0:3:0:0:
121,324,93062,1,8,0:3:0:0:
200,320,93173,1,8,0:3:0:0:
397,333,93284,5,8,0:3:0:0:
420,286,93340,1,0,0:0:0:0:
416,244,93395,1,0,0:0:0:0:
391,218,93451,1,0,0:0:0:0:
201,207,93506,2,0,L|119:203,1,42.5,0|0,0:0|0:0,0:0:0:0:
317,284,93617,5,0,0:0:0:0:
362,267,93673,1,0,0:0:0:0:
385,230,93729,1,8,0:3:0:0:
384,196,93784,1,0,0:0:0:0:
125,138,93840,2,0,L|225:134,2,85,0|0|0,0:0|0:0|0:0,0:0:0:0:
344,332,94173,6,0,L|249:328,1,85,8|0,0:3|0:0,0:0:0:0:
48,278,94395,2,0,L|34:171,1,85,0|8,0:0|0:3,0:0:0:0:
319,207,94618,2,0,L|216:208,2,85,0|0|8,0:0|0:0|0:3,0:0:0:0:
126,330,94951,1,0,0:0:0:0:
384,240,95062,6,0,L|336:159,1,85,8|0,0:3|0:0,0:0:0:0:
141,230,95284,2,0,L|309:220,1,85,0|0,0:0|0:0,0:0:0:0:
56,296,95506,2,0,L|36:162,1,85,8|0,0:3|0:0,0:0:0:0:
341,336,95729,2,0,L|361:234,1,85,0|0,0:0|0:0,0:0:0:0:
133,228,95951,5,8,0:3:0:0:
384,224,96062,1,0,0:0:0:0:
288,176,96173,1,0,0:0:0:0:
384,224,96284,2,0,L|200:224,1,170,8|0,0:3|0:0,0:0:0:0:
416,176,96617,5,8,0:3:0:0:
432,144,96673,1,0,0:0:0:0:
408,112,96728,1,0,0:0:0:0:
216,240,96839,5,0,0:0:0:0:
312,240,96988,1,0,0:0:0:0:
64,144,97062,1,0,0:0:0:0:
152,144,97210,1,0,0:0:0:0:
320,328,97284,1,0,0:0:0:0:
224,328,97432,1,0,0:0:0:0:
448,256,97506,1,0,0:0:0:0:
352,256,97654,1,0,0:0:0:0:
96,248,97728,5,8,0:3:0:0:
96,248,97802,1,0,0:0:0:0:
96,248,97877,1,0,0:0:0:0:
360,160,97951,1,0,0:0:0:0:
360,160,98025,1,0,0:0:0:0:
360,160,98099,1,8,0:3:0:0:
176,336,98173,5,0,0:0:0:0:
256,336,98284,1,0,0:0:0:0:
336,336,98395,1,8,0:3:0:0:
48,256,98506,1,8,0:3:0:0:
248,256,98617,5,8,0:3:0:0:
464,256,98728,1,0,0:0:0:0:
248,256,98839,6,0,P|224:208|256:168,1,85,0|8,0:0|0:3,0:0:0:0:
464,176,99062,1,0,0:0:0:0:
288,176,99173,1,0,0:0:0:0:
104,176,99284,1,8,0:3:0:0:
288,176,99395,1,0,0:0:0:0:
88,320,99506,6,0,L|24:272,1,56.6666666666667
264,288,99654,2,0,L|312:248,1,56.6666666666667
96,280,99802,2,0,L|72:208,1,56.6666666666667
240,208,99951,6,0,L|176:208,1,56.6666666666667
120,208,100099,1,0,0:0:0:0:
288,160,100173,1,0,0:0:0:0:
240,160,100247,1,0,0:0:0:0:
192,160,100321,1,0,0:0:0:0:
336,336,100395,5,8,0:3:0:0:
264,328,100506,1,0,0:0:0:0:
216,304,100562,1,0,0:0:0:0:
200,272,100617,1,0,0:0:0:0:
199,224,100672,1,0,0:0:0:0:
220,188,100728,1,8,0:3:0:0:
400,104,100839,5,0,0:0:0:0:
432,128,100895,1,0,0:0:0:0:
440,168,100951,1,0,0:0:0:0:
432,200,101006,1,0,0:0:0:0:
400,224,101062,1,8,0:3:0:0:
136,232,101173,6,0,L|200:232,1,42.5
408,336,101284,2,0,P|416:288|368:248,1,85
208,280,101506,2,0,L|312:280,1,85,0|8,0:0|0:3,0:0:0:0:
112,304,101728,1,0,0:0:0:0:
88,272,101784,1,0,0:0:0:0:
96,232,101839,1,0,0:0:0:0:
128,208,101895,1,0,0:0:0:0:
304,240,101951,2,0,L|198:240,1,85,8|0,0:3|0:0,0:0:0:0:
426,316,102173,5,8,0:3:0:0:
441,273,102247,1,0,0:0:0:0:
426,231,102321,1,0,0:0:0:0:
277,245,102395,1,0,0:0:0:0:
254,213,102469,1,0,0:0:0:0:
262,168,102543,1,0,0:0:0:0:
395,164,102617,5,8,0:3:0:0:
400,127,102691,1,0,0:0:0:0:
376,96,102765,1,0,0:0:0:0:
221,222,102839,1,0,0:0:0:0:
220,180,102914,1,0,0:0:0:0:
252,153,102988,1,0,0:0:0:0:
408,296,103062,5,8,0:3:0:0:
376,296,103136,1,0,0:0:0:0:
344,296,103210,1,0,0:0:0:0:
144,304,103284,5,0,0:0:0:0:
128,256,103358,1,0,0:0:0:0:
152,216,103432,1,0,0:0:0:0:
288,200,103506,1,0,0:0:0:0:
272,152,103580,1,0,0:0:0:0:
224,136,103654,1,0,0:0:0:0:
379,320,103729,2,0,L|412:212,1,85,8|0,0:3|0:0,0:0:0:0:
179,156,103951,6,0,L|297:155,1,85,8|0,0:3|0:0,0:0:0:0:
82,328,104173,2,0,L|48:233,1,85,0|0,0:0|0:0,0:0:0:0:
303,237,104395,2,0,L|198:224,1,85,8|0,0:3|0:0,0:0:0:0:
431,171,104618,2,0,L|308:157,1,85,0|0,0:0|0:0,0:0:0:0:
84,250,104840,6,0,L|276:243,1,170,8|8,0:3|0:3,0:0:0:0:
172,176,105173,1,0,0:0:0:0:
424,300,105284,2,0,L|432:195,1,85,8|0,0:3|0:0,0:0:0:0:
198,216,105506,2,0,L|94:203,1,85,0|0,0:0|0:0,0:0:0:0:
416,256,105728,5,8,0:3:0:0:
432,216,105784,1,0,0:0:0:0:
424,176,105839,1,0,0:0:0:0:
232,328,105951,1,0,0:0:0:0:
224,288,106006,1,0,0:0:0:0:
232,256,106062,1,0,0:0:0:0:
264,232,106117,1,0,0:0:0:0:
104,232,106173,6,0,L|8:232,2,56.6666666666667,8|0|0,0:3|0:0|0:0,0:0:0:0:
307,162,106395,2,0,L|384:160,2,56.6666666666667,8|0|0,0:3|0:0|0:0,0:0:0:0:
112,288,106617,5,8,0:3:0:0:
144,288,106691,1,0,0:0:0:0:
176,288,106765,1,0,0:0:0:0:
320,256,106839,1,8,0:3:0:0:
336,224,106914,1,0,0:0:0:0:
320,192,106988,1,0,0:0:0:0:
128,160,107062,5,8,0:3:0:0:
200,160,107136,1,0,0:0:0:0:
272,160,107210,1,0,0:0:0:0:
64,280,107284,2,0,L|56:184,1,85,8|8,0:3|0:3,0:0:0:0:
396,97,107506,6,0,P|256:330|93:91,1,662.999979766846,12|0,0:3|0:0,0:0:0:0:
342,249,109062,1,0,0:0:0:0:
385,167,109173,1,0,0:0:0:0:
102,241,109284,6,0,L|216:240,2,85,8|0|0,0:3|0:0|0:0,0:0:0:0:
303,313,109618,2,0,L|320:232,1,42.5,8|0,0:3|0:0,0:0:0:0:
144,288,109728,1,0,0:0:0:0:
104,272,109784,1,0,0:0:0:0:
88,240,109839,1,0,0:0:0:0:
80,200,109895,1,0,0:0:0:0:
304,208,109951,6,0,L|384:200,1,42.5,8|0,0:3|0:0,0:0:0:0:
160,168,110062,2,0,L|88:152,1,42.5,8|0,0:3|0:0,0:0:0:0:
400,160,110173,1,8,0:3:0:0:
