osu file format v14

[General]
AudioFilename: audio.mp3
AudioLeadIn: 0
PreviewTime: 89384
Countdown: 0
SampleSet: Soft
StackLeniency: 0.7
Mode: 0
LetterboxInBreaks: 0
WidescreenStoryboard: 0

[Editor]
Bookmarks: 12949,21297,29645,37993,42167,44254,48427,56775,65123,73471,83906,90167,98514,106862,115210,123558,131906,140254,142341,149645
DistanceSpacing: 0.5
BeatDivisor: 6
GridSize: 4
TimelineZoom: 3.599999

[Metadata]
Title:Touch and Go
TitleUnicode:Touch and Go
Artist:Noah
ArtistUnicode:Noah
Creator:skro
Version:CONQUEST
Source:オンゲキ
Tags:ongeki rhythm video game instrumental soundtrack sound collection 03 splash dance!! iamtickrate shoyeu MakiDonalds -kemsyt WashedUp Player
BeatmapID:3240923
BeatmapSetID:1586804

[Difficulty]
HPDrainRate:6
CircleSize:4.4
OverallDifficulty:9.4
ApproachRate:9.8
SliderMultiplier:1.7
SliderTickRate:1

[Events]
//Background and Video events
0,0,"bg.jpg",0,0
//Break Periods
//Storyboard Layer 0 (Background)
//Storyboard Layer 1 (Fail)
//Storyboard Layer 2 (Pass)
//Storyboard Layer 3 (Foreground)
//Storyboard Layer 4 (Overlay)
//Storyboard Sound Samples

[TimingPoints]
428,260.869565217391,4,2,1,30,1,0
4601,-83.3333333333333,4,3,1,75,0,1
4993,-83.3333333333333,4,3,2,75,0,1
5384,-71.4285714285714,4,3,3,75,0,1
5775,-83.3333333333333,4,3,2,75,0,1
6167,-83.3333333333333,4,3,1,75,0,1
6688,-83.3333333333333,4,3,3,75,0,1
7080,-83.3333333333333,4,3,2,75,0,1
7471,-83.3333333333333,4,3,1,75,0,1
7862,-83.3333333333333,4,3,3,75,0,1
8775,-100,4,3,2,65,0,0
9231,-100,4,3,2,5,0,0
9297,-90.9090909090909,4,3,2,65,0,0
9753,-90.9090909090909,4,3,2,5,0,0
9819,-83.3333333333333,4,3,3,65,0,0
10275,-83.3333333333333,4,3,3,5,0,0
10341,-76.9230769230769,4,3,1,65,0,0
10797,-76.9230769230769,4,3,1,5,0,0
10862,-76.9230769230769,4,3,2,65,0,0
12167,-76.9230769230769,4,3,2,5,0,0
12427,-76.9230769230769,4,3,2,70,0,0
12949,-83.3333333333333,4,3,3,70,0,0
14057,-83.3333333333333,4,3,3,5,0,0
14123,-83.3333333333333,4,3,3,70,0,0
17123,-83.3333333333333,4,3,1,70,0,0
19210,-83.3333333333333,4,3,3,70,0,0
19455,-83.3333333333333,4,3,69,70,0,0
19487,-83.3333333333333,4,3,1,70,0,0
19666,-83.3333333333333,4,3,1,5,0,0
19732,-83.3333333333333,4,3,1,70,0,0
21297,-83.3333333333333,4,3,2,70,0,0
24949,-55.5555555555556,4,3,3,70,0,0
25210,-83.3333333333333,4,3,1,70,0,0
25471,-83.3333333333333,4,3,2,70,0,0
25666,-83.3333333333333,4,3,2,5,0,0
25732,-83.3333333333333,4,3,2,70,0,0
26384,-83.3333333333333,4,3,3,70,0,0
26970,-83.3333333333333,4,3,3,5,0,0
27036,-83.3333333333333,4,3,3,70,0,0
27427,-83.3333333333333,4,3,1,70,0,0
27819,-83.3333333333333,4,3,3,70,0,0
28014,-83.3333333333333,4,3,3,5,0,0
28080,-83.3333333333333,4,3,3,70,0,0
28471,-83.3333333333333,4,3,1,70,0,0
29645,-83.3333333333333,4,3,3,70,0,0
29840,-83.3333333333333,4,3,3,5,0,0
29906,-83.3333333333333,4,3,3,70,0,0
33036,-83.3333333333333,4,3,1,70,0,0
33558,-83.3333333333333,4,3,3,70,0,0
33753,-83.3333333333333,4,3,3,5,0,0
33819,-83.3333333333333,4,3,2,70,0,0
36167,-83.3333333333333,4,3,3,70,0,0
36688,-83.3333333333333,4,3,1,70,0,0
36949,-83.3333333333333,4,3,3,70,0,0
37341,-83.3333333333333,4,3,1,70,0,0
38254,-83.3333333333333,4,3,2,70,0,0
40536,-83.3333333333333,4,3,2,5,0,0
40601,-83.3333333333333,4,3,2,70,0,0
41123,-83.3333333333333,4,3,1,70,0,0
41906,-76.9230769230769,4,3,1,70,0,0
42101,-76.9230769230769,4,3,1,5,0,0
42167,-76.9230769230769,4,3,3,75,0,0
43210,-76.9230769230769,4,3,1,75,0,0
43732,-76.9230769230769,4,3,3,75,0,0
44254,-71.4285714285714,4,3,1,70,0,0
45036,-71.4285714285714,4,3,3,70,0,0
45231,-71.4285714285714,4,3,3,5,0,0
45297,-142.857142857143,4,3,2,70,0,0
46080,-142.857142857143,4,3,2,75,0,0
46341,-83.3333333333333,4,3,1,75,0,0
46732,-83.3333333333333,4,3,3,75,0,0
47123,-83.3333333333333,4,3,1,75,0,0
47514,-83.3333333333333,4,3,3,75,0,0
47906,-83.3333333333333,4,3,1,75,0,0
48427,-83.3333333333333,4,3,2,80,0,1
48949,-76.9230769230769,4,3,2,80,0,1
52601,-76.9230769230769,4,3,1,80,0,1
52993,-76.9230769230769,4,3,3,80,0,1
53514,-76.9230769230769,4,3,2,80,0,1
54036,-76.9230769230769,4,3,1,80,0,1
54231,-76.9230769230769,4,3,1,5,0,1
54297,-76.9230769230769,4,3,1,80,0,1
55210,-76.9230769230769,4,3,3,80,0,1
55601,-71.4285714285714,4,3,2,80,0,1
56775,-83.3333333333333,4,3,2,75,0,0
60949,-83.3333333333333,4,3,1,75,0,0
61341,-83.3333333333333,4,3,3,75,0,0
61862,-83.3333333333333,4,3,2,75,0,0
62384,-83.3333333333333,4,3,1,75,0,0
64080,-83.3333333333333,4,3,1,60,0,0
65123,-166.666666666667,4,3,2,60,0,0
68775,-66.6666666666667,4,3,1,75,0,0
68970,-66.6666666666667,4,3,1,5,0,0
69036,-66.6666666666667,4,3,1,75,0,0
69231,-66.6666666666667,4,3,1,5,0,0
69297,-66.6666666666667,4,3,2,65,0,0
69427,-125,4,3,1,65,0,0
70862,-71.4285714285714,4,3,1,75,0,0
73080,-71.4285714285714,4,3,3,75,0,0
73471,-71.4285714285714,4,3,2,80,0,1
73732,-76.9230769230769,4,3,2,80,0,1
77645,-83.3333333333333,4,3,2,80,0,0
81949,-83.3333333333333,4,3,2,75,0,0
82341,-83.3333333333333,4,3,3,75,0,0
82732,-83.3333333333333,4,3,1,75,0,0
83123,-83.3333333333333,4,3,3,75,0,0
83514,-71.4285714285714,4,3,1,75,0,0
83840,-71.4285714285714,4,3,1,5,0,0
83906,-71.4285714285714,4,3,2,80,0,1
85993,-83.3333333333333,4,3,2,75,0,1
86384,-76.9230769230769,4,3,1,75,0,1
86775,-71.4285714285714,4,3,3,75,0,1
87167,-66.6666666666667,4,3,1,75,0,1
88601,-100,4,3,1,75,0,1
89123,-133.333333333333,4,3,3,65,0,0
90167,-133.333333333333,4,3,3,80,0,1
90427,-133.333333333333,4,3,1,80,0,1
90688,-76.9230769230769,4,3,1,80,0,1
92449,-76.9230769230769,4,3,1,5,0,1
92514,-76.9230769230769,4,3,1,80,0,1
94732,-76.9230769230769,4,3,3,80,0,1
95254,-76.9230769230769,4,3,2,80,0,1
95775,-76.9230769230769,4,3,3,80,0,1
96427,-76.9230769230769,4,3,1,80,0,1
96949,-76.9230769230769,4,3,3,80,0,1
97341,-76.9230769230769,4,3,2,80,0,1
98514,-83.3333333333333,4,3,1,75,0,0
103080,-83.3333333333333,4,3,3,75,0,0
103601,-83.3333333333333,4,3,1,75,0,0
104123,-83.3333333333333,4,3,2,75,0,0
104775,-83.3333333333333,4,3,1,75,0,0
106862,-83.3333333333333,4,3,3,75,0,0
111036,-83.3333333333333,4,3,1,75,0,0
111427,-83.3333333333333,4,3,3,75,0,0
111949,-83.3333333333333,4,3,1,75,0,0
113123,-83.3333333333333,4,3,2,75,0,0
115210,-76.9230769230769,4,3,3,80,0,1
119384,-76.9230769230769,4,3,1,80,0,1
119775,-76.9230769230769,4,3,3,80,0,1
120297,-76.9230769230769,4,3,1,80,0,1
123558,-133.333333333333,4,3,3,65,0,0
127210,-100,4,3,1,70,0,0
127732,-133.333333333333,4,3,1,65,0,0
131906,-133.333333333333,4,3,2,75,0,0
132297,-100,4,3,2,75,0,0
134123,-83.3333333333333,4,3,2,75,0,0
135558,-83.3333333333333,4,3,3,75,0,0
136080,-83.3333333333333,4,3,2,80,0,1
137906,-83.3333333333333,4,3,1,80,0,1
138688,-76.9230769230769,4,3,1,80,0,1
138949,-76.9230769230769,4,3,3,80,0,1
140254,-76.9230769230769,4,3,3,75,0,0
140384,-83.3333333333333,4,3,1,75,0,0
140775,-83.3333333333333,4,3,3,75,0,0
141167,-83.3333333333333,4,3,2,75,0,0
141558,-83.3333333333333,4,3,3,75,0,0
141949,-83.3333333333333,4,3,1,75,0,0
142341,-83.3333333333333,4,3,2,80,0,1
142732,-71.4285714285714,4,3,2,80,0,1
144427,-100,4,3,3,80,0,1
144819,-90.9090909090909,4,3,1,80,0,1
145210,-76.9230769230769,4,3,2,80,0,1
145601,-76.9230769230769,4,3,1,80,0,1
148471,-200,4,3,3,80,0,1
149645,-200,4,3,3,75,0,0

[Colours]
Combo1 : 158,149,191
Combo2 : 214,199,169
Combo3 : 117,103,165
Combo4 : 202,167,115

[HitObjects]
94,34,428,6,0,B|68:70|68:70|56:113,1,85,2|0,2:3|2:3,2:3:0:0:
39,179,688,1,2,2:3:0:0:
143,106,819,2,0,B|130:148|130:148|133:193,1,85,2|0,2:3|2:3,2:3:0:0:
141,259,1080,1,2,2:3:0:0:
213,169,1210,2,0,B|215:213|215:213|234:254,1,85,2|0,2:3|2:3,2:3:0:0:
401,103,1471,5,2,2:3:0:0:
401,103,1601,2,0,B|321:96|321:96|306:86|306:86|234:80,1,170,2|2,2:3|2:3,2:3:0:0:
438,272,1993,6,0,B|426:208|426:208|424:241,1,85,2|0,2:3|2:3,2:3:0:0:
307,299,2254,2,0,B|318:235|318:235|320:268,1,85,2|0,2:3|2:3,2:3:0:0:
103,171,2514,6,0,P|146:153|197:163,1,85,2|0,2:3|2:3,2:3:0:0:
257,191,2775,1,2,2:3:0:0:
75,249,2906,2,0,P|37:220|21:171,1,85,2|0,2:3|2:3,2:3:0:0:
15,105,3167,1,2,2:3:0:0:
156,236,3297,2,0,P|150:282|115:321,1,85,2|0,2:3|2:3,2:3:0:0:
284,112,3558,5,2,2:3:0:0:
284,112,3688,2,0,B|316:103|340:116|340:116|363:101|363:101|398:122|455:106,1,170,2|2,2:3|2:3,2:3:0:0:
319,256,4080,6,0,B|307:192|307:192|320:222,1,85,2|0,2:3|2:3,2:3:0:0:
448,272,4341,2,0,B|437:336|437:336|435:303,1,85,2|0,2:3|2:3,2:3:0:0:
142,62,4601,6,0,B|133:109|133:109|136:113|136:113|128:161,1,101.999996887207,14|0,3:0|3:0,3:0:0:0:
230,271,4862,1,2,3:0:0:0:
25,137,4993,2,0,B|33:184|33:184|37:187|37:187|46:234,1,101.999996887207,14|0,3:0|3:0,3:0:0:0:
235,95,5254,1,2,3:0:0:0:
65,313,5384,2,0,B|117:275|191:309|152:347|230:376|288:329,1,238,14|2,3:0|3:0,3:0:0:0:
381,152,5775,6,0,B|378:197|365:238|365:238|377:265|377:265|365:310|362:351,1,204,14|2,3:0|3:0,3:0:0:0:
334,90,6167,2,0,B|382:74|382:74|430:90,1,102,14|0,3:0|3:0,3:0:0:0:
278,234,6427,2,0,B|230:250|230:250|182:234,1,102,14|0,3:0|3:0,3:0:0:0:
29,79,6688,5,14,3:0:0:0:
76,83,6754,1,2,3:0:0:0:
116,86,6819,1,8,3:1:0:0:
156,90,6884,1,2,3:0:0:0:
188,92,6949,2,0,P|194:124|190:147,1,51,2|2,3:0|3:0,3:0:0:0:
43,278,7080,5,14,3:0:0:0:
23,254,7145,1,2,3:0:0:0:
19,223,7210,1,4,3:1:0:0:
28,199,7275,1,2,3:0:0:0:
45,180,7341,2,0,P|74:171|100:175,1,51,2|2,3:0|3:0,3:0:0:0:
260,263,7471,5,14,3:0:0:0:
295,291,7536,1,2,3:0:0:0:
329,297,7601,1,8,3:1:0:0:
363,286,7667,1,2,3:0:0:0:
389,262,7732,2,0,L|376:191,1,51,2|2,3:0|3:0,3:0:0:0:
258,47,7862,5,14,3:0:0:0:
258,87,7927,1,2,3:0:0:0:
258,119,7993,1,4,3:1:0:0:
258,151,8058,1,2,3:0:0:0:
258,181,8123,2,0,L|313:190,1,51,2|2,3:0|3:0,3:0:0:0:
146,79,8254,6,0,B|98:87|98:87|95:91|95:91|48:100,1,101.999996887207,14|0,3:0|3:0,3:0:0:0:
104,231,8514,1,8,3:1:0:0:
164,159,8645,1,4,3:1:0:0:
243,351,8775,6,0,B|183:374|150:327|150:327|201:224|337:274,1,297.5,6|0,3:0|3:0,3:0:0:0:
325,275,9297,6,0,P|322:349|381:249,1,327.250009986878,2|0,3:0|3:0,3:0:0:0:
341,191,9819,6,0,B|365:39|244:118|267:-78|435:-47|419:64|359:106,1,357,4|0,3:0|3:0,3:0:0:0:
201,220,10341,6,0,B|235:169|185:114|136:133|115:159|115:159|117:126|117:126|97:159|52:178|-2:137|12:75|53:60,1,386.75,6|0,3:0|3:0,3:0:0:0:
61,58,10862,1,6,3:0:0:0:
256,192,10927,12,0,12167,3:0:0:0:
94,71,12427,5,8,1:1:0:0:
90,111,12493,1,0,1:3:0:0:
87,152,12558,1,0,1:3:0:0:
83,192,12623,1,0,1:3:0:0:
80,233,12688,1,8,1:3:0:0:
425,91,12949,6,0,B|377:82|377:82|373:85|373:85|325:77,1,101.999996887207,6|0,3:0|3:0,3:0:0:0:
223,217,13210,2,0,B|270:208|270:208|274:211|274:211|322:203,1,101.999996887207,8|0,3:0|3:0,3:0:0:0:
236,72,13471,5,2,3:0:0:0:
160,305,13601,1,2,3:0:0:0:
424,185,13732,1,10,3:0:0:0:
150,18,13862,2,0,B|125:90|125:90|150:162,1,153,2|0,3:0|3:0,3:0:0:0:
156,177,14123,1,2,3:0:0:0:
326,65,14254,1,8,3:0:0:0:
236,194,14384,2,0,B|228:219|208:242|208:242|279:191|364:242,1,204,2|0,3:0|3:0,3:0:0:0:
35,204,14775,2,0,L|54:101,1,102,8|0,3:0|3:0,3:0:0:0:
156,323,15036,6,0,B|108:331|108:331|105:335|105:335|58:344,1,101.999996887207,2|0,3:0|3:0,3:0:0:0:
245,84,15297,2,0,B|292:92|292:92|295:96|295:96|342:105,1,101.999996887207,10|0,3:0|3:0,3:0:0:0:
149,214,15558,5,2,3:0:0:0:
342,28,15688,1,2,3:0:0:0:
384,266,15819,1,10,3:0:0:0:
168,52,15949,2,0,B|151:177|249:120|227:254,1,204,2|0,3:0|3:0,3:0:0:0:
70,44,16341,2,0,B|62:86|62:86|53:92|53:92|44:139,1,102,8|0,3:0|3:0,3:0:0:0:
439,128,16601,5,2,3:0:0:0:
411,104,16667,1,2,3:0:0:0:
376,94,16732,1,2,3:0:0:0:
340,99,16797,1,2,3:0:0:0:
310,119,16862,1,10,3:0:0:0:
298,152,16927,1,2,3:0:0:0:
302,187,16993,2,0,L|357:196,1,51,2|2,3:0|3:0,3:0:0:0:
262,60,17123,5,6,3:0:0:0:
232,52,17188,1,2,3:0:0:0:
196,60,17254,1,2,3:0:0:0:
169,83,17319,1,2,3:0:0:0:
157,121,17384,1,10,3:0:0:0:
170,159,17449,1,2,3:0:0:0:
196,189,17514,2,0,P|207:207|209:247,1,51,2|2,3:0|3:0,3:0:0:0:
33,295,17645,5,2,3:0:0:0:
64,297,17710,1,2,3:0:0:0:
104,301,17775,1,2,3:0:0:0:
144,304,17841,1,2,3:0:0:0:
192,308,17906,5,10,3:0:0:0:
187,322,17971,1,2,3:0:0:0:
182,336,18036,2,0,L|237:331,1,51,2|2,3:0|3:0,3:0:0:0:
440,147,18167,5,2,3:0:0:0:
404,126,18232,1,2,3:0:0:0:
363,122,18297,1,2,3:0:0:0:
329,143,18362,1,2,3:0:0:0:
307,177,18427,2,0,P|298:204|300:238,1,51,10|2,3:0|3:0,3:0:0:0:
395,382,18558,5,2,3:0:0:0:
402,342,18623,1,2,3:0:0:0:
408,302,18688,1,2,3:0:0:0:
415,262,18754,1,2,3:0:0:0:
422,223,18819,2,0,P|395:212|365:215,1,51,2|2,3:0|3:0,3:0:0:0:
196,145,18949,5,10,3:0:0:0:
190,159,19014,1,2,3:0:0:0:
189,174,19080,1,2,3:0:0:0:
192,188,19145,1,2,3:0:0:0:
199,200,19210,2,0,B|265:208|291:144|291:144|247:102|151:75|186:160|90:142|63:114,1,357,6|0,3:0|3:0,3:0:0:0:
53,111,19732,2,0,B|37:159|37:159|53:207,1,102,2|2,3:0|3:0,3:0:0:0:
188,32,19993,1,8,3:0:0:0:
241,331,20123,6,0,B|150:381|41:297|123:74|321:224|281:269|358:313|453:252,1,509.999984436036,6|2,3:0|3:0,3:0:0:0:
511,129,20906,1,2,3:0:0:0:
361,61,21036,2,0,L|379:162,1,102,8|0,3:0|3:0,3:0:0:0:
139,36,21297,6,0,B|186:44|186:44|195:37|195:37|242:46,1,102,6|0,3:0|3:0,3:0:0:0:
196,289,21558,1,10,3:0:0:0:
58,143,21688,2,0,B|100:135|100:135|106:126|106:126|153:117,1,102,2|0,3:0|3:0,3:0:0:0:
299,297,21949,1,2,3:0:0:0:
13,267,22080,1,8,3:0:0:0:
256,181,22210,2,0,B|295:189|334:194|334:194|352:230|352:230|396:235|439:245,1,204,2|2,3:0|3:0,3:0:0:0:
162,368,22601,5,10,3:0:0:0:
153,186,22732,1,2,3:0:0:0:
299,297,22862,1,2,3:0:0:0:
91,276,22993,5,2,3:0:0:0:
256,181,23123,1,10,3:0:0:0:
248,366,23254,1,2,3:0:0:0:
9,199,23384,5,2,3:0:0:0:
22,166,23449,1,2,3:0:0:0:
50,145,23514,1,2,3:0:0:0:
85,138,23580,1,2,3:0:0:0:
114,142,23645,1,10,3:0:0:0:
138,161,23710,1,2,3:0:0:0:
153,186,23775,2,0,P|161:215|156:248,1,51,2|2,3:0|3:0,3:0:0:0:
207,67,23906,6,0,L|262:57,1,51,2|2,3:0|3:0,3:0:0:0:
350,252,24036,2,0,L|294:242,1,51,2|2,3:0|3:0,3:0:0:0:
432,64,24167,5,10,3:0:0:0:
450,88,24232,1,2,3:0:0:0:
456,117,24297,2,0,P|454:142|435:171,1,51,2|2,3:0|3:0,3:0:0:0:
217,149,24427,5,2,3:0:0:0:
247,143,24493,1,2,3:0:0:0:
279,137,24558,1,2,3:0:0:0:
318,130,24623,1,2,3:0:0:0:
358,123,24688,2,0,L|367:178,3,51,10|2|2|2,3:0|3:0|3:0|3:0,3:0:0:0:
231,294,24949,2,0,L|243:219,1,76.4999976654053,4|0,3:0|3:0,3:0:0:0:
242,293,25080,2,0,L|254:218,1,76.4999976654053,0|0,3:0|3:0,3:0:0:0:
115,104,25210,2,0,B|99:152|99:152|115:200,1,102,14|0,3:0|3:0,3:0:0:0:
364,53,25471,6,0,P|289:35|213:26,1,153,6|0,3:0|3:0,3:0:0:0:
200,34,25732,2,0,P|186:82|215:136,1,102,8|0,3:0|3:0,3:0:0:0:
474,244,25993,1,2,3:0:0:0:
279,121,26123,1,2,3:0:0:0:
293,351,26254,1,10,3:0:0:0:
423,128,26384,6,0,B|362:122|337:178|337:178|298:216|246:196,1,204,6|0,3:0|3:0,3:0:0:0:
101,83,26775,2,0,B|122:41|122:41|143:156,1,152.999995330811,8|0,3:0|3:0,3:0:0:0:
144,164,27036,1,2,3:0:0:0:
27,17,27167,1,2,3:0:0:0:
228,60,27297,1,10,3:0:0:0:
62,256,27427,6,0,B|46:208|46:208|62:160,1,102,6|0,3:0|3:0,3:0:0:0:
196,336,27688,1,2,3:0:0:0:
260,184,27819,2,0,B|284:177|309:183|309:183|328:172|328:172|366:197|411:183,1,153,14|0,3:0|3:0,3:0:0:0:
381,92,28080,5,2,3:0:0:0:
286,277,28210,1,2,3:0:0:0:
486,215,28341,1,10,3:0:0:0:
248,80,28471,5,6,3:0:0:0:
211,62,28536,1,2,3:0:0:0:
175,64,28601,1,2,3:0:0:0:
148,80,28667,1,2,3:0:0:0:
133,106,28732,1,2,3:0:0:0:
134,136,28797,1,2,3:0:0:0:
154,165,28862,5,10,3:0:0:0:
193,172,28927,1,2,3:0:0:0:
228,178,28993,1,2,3:0:0:0:
260,184,29058,1,2,3:0:0:0:
294,190,29123,2,0,L|349:180,3,51,0|0|0|0,1:0|1:0|1:0|1:0,1:3:0:0:
120,253,29384,2,0,B|104:301|104:301|120:349,1,102,10|0,3:0|3:0,3:0:0:0:
416,51,29645,6,0,P|336:60|266:77,1,153,6|0,3:0|3:0,3:0:0:0:
256,85,29906,2,0,P|246:136|266:193,1,102,8|0,3:0|3:0,3:0:0:0:
405,266,30167,2,0,B|420:186|420:186|406:208,1,102,2|0,3:0|3:0,3:0:0:0:
265,333,30427,1,8,3:0:0:0:
483,359,30558,1,0,3:0:0:0:
176,156,30688,6,0,B|160:204|160:204|176:252,1,102,2|0,3:0|3:0,3:0:0:0:
334,203,30949,1,8,3:0:0:0:
201,69,31080,1,2,3:0:0:0:
191,71,31145,1,2,3:0:0:0:
181,73,31210,2,0,L|78:91,1,102,2|0,3:0|3:0,3:0:0:0:
70,93,31406,2,0,P|69:121|83:145,1,51,2|8,3:0|3:0,3:0:0:0:
270,245,31601,1,2,3:0:0:0:
32,231,31732,6,0,B|80:201|138:246|99:285|177:306|216:278,1,204,2|8,3:0|3:0,3:0:0:0:
44,346,32123,1,0,3:0:0:0:
157,99,32254,2,0,L|176:209,1,102,2|0,3:0|3:0,3:0:0:0:
177,209,32449,1,2,3:0:0:0:
179,218,32514,1,8,3:0:0:0:
315,66,32645,1,2,3:0:0:0:
451,243,32775,5,2,3:0:0:0:
246,157,32906,1,0,3:0:0:0:
324,331,33036,2,0,B|337:253|337:253|346:289,1,102,14|0,3:0|3:0,3:0:0:0:
193,294,33297,1,2,1:3:0:0:
178,296,33362,1,0,1:0:0:0:
162,296,33427,1,0,1:0:0:0:
147,290,33493,1,0,1:0:0:0:
135,279,33558,2,0,P|81:238|4:263,1,153,14|0,3:0|3:0,3:0:0:0:
64,318,33819,6,0,L|82:215,1,102,6|0,3:0|3:0,3:0:0:0:
23,66,34080,1,8,3:0:0:0:
208,219,34210,2,0,P|183:161|190:119,1,102,2|0,3:0|3:0,3:0:0:0:
217,6,34471,1,0,3:0:0:0:
81,217,34601,1,10,3:0:0:0:
325,107,34732,1,0,3:0:0:0:
117,31,34862,2,0,L|99:131,1,102,2|0,3:0|3:0,3:0:0:0:
304,211,35123,5,8,3:0:0:0:
135,327,35254,1,0,3:0:0:0:
288,206,35384,2,0,P|339:192|394:211,1,102,2|0,3:0|3:0,3:0:0:0:
397,214,35580,1,2,3:0:0:0:
408,224,35645,1,8,3:0:0:0:
279,339,35775,1,2,3:0:0:0:
147,135,35906,6,0,L|165:237,1,102,2|0,3:0|3:0,3:0:0:0:
314,109,36167,1,12,3:0:0:0:
72,37,36297,2,0,L|53:139,1,102,2|0,3:0|3:0,3:0:0:0:
255,218,36558,1,2,3:0:0:0:
252,201,36623,1,2,3:0:0:0:
249,185,36688,2,0,B|235:106|235:106|231:131,1,102,14|0,3:0|3:0,3:0:0:0:
31,322,36949,5,14,3:0:0:0:
71,326,37014,1,2,3:0:0:0:
111,329,37080,1,2,3:0:0:0:
151,333,37145,1,2,3:0:0:0:
191,336,37210,2,0,L|202:273,1,51,2|2,3:0|3:0,3:0:0:0:
327,180,37341,5,14,3:0:0:0:
357,162,37406,1,2,3:0:0:0:
392,159,37471,1,2,3:0:0:0:
425,170,37536,1,2,3:0:0:0:
451,193,37601,2,0,P|464:218|464:248,1,51,2|2,3:0|3:0,3:0:0:0:
395,339,37732,5,14,3:0:0:0:
376,321,37797,1,2,3:0:0:0:
369,296,37862,2,0,P|368:271|379:247,1,50.9999984436036,2|2,3:0|3:0,3:0:0:0:
181,78,37993,5,2,1:3:0:0:
225,89,38058,1,0,1:0:0:0:
251,126,38123,1,0,1:0:0:0:
249,171,38188,1,0,1:0:0:0:
222,205,38254,2,0,B|174:221|174:221|126:205,1,102,12|0,3:0|3:0,3:0:0:0:
373,53,38514,2,0,L|391:155,1,102,2|0,3:0|3:0,3:0:0:0:
171,76,38775,1,10,3:0:0:0:
485,25,38906,1,2,3:0:0:0:
326,288,39036,6,0,B|310:240|310:240|326:192,1,102,2|0,3:0|3:0,3:0:0:0:
450,280,39297,1,10,3:0:0:0:
176,247,39427,1,0,3:0:0:0:
416,131,39558,2,0,B|429:209|429:209|415:179,1,102,2|0,3:0|3:0,3:0:0:0:
281,67,39819,1,10,3:0:0:0:
505,39,39949,1,0,3:0:0:0:
205,115,40080,6,0,P|192:60|207:16,1,102,2|0,3:0|3:0,3:0:0:0:
234,177,40341,2,0,B|199:196|155:178|172:166|128:137|91:156,1,152.999995330811,8|0,3:0|3:0,3:0:0:0:
85,165,40601,2,0,L|66:267,1,102,2|0,3:0|3:0,3:0:0:0:
64,275,40797,1,2,3:0:0:0:
62,285,40862,1,8,3:0:0:0:
26,87,40993,1,2,3:0:0:0:
336,214,41123,5,14,3:0:0:0:
319,245,41188,1,0,3:0:0:0:
290,266,41254,2,0,P|269:273|236:267,1,51,0|0,3:0|3:0,3:0:0:0:
380,102,41384,1,14,3:0:0:0:
413,102,41449,1,0,3:0:0:0:
443,121,41514,2,0,P|455:137|461:169,1,51,0|0,3:0|3:0,3:0:0:0:
148,215,41645,6,0,L|157:165,1,50.9999984436036,14|0,0:0|0:0,0:0:0:0:
263,20,41775,2,0,L|271:70,1,50.9999984436036,14|0,0:0|0:0,0:0:0:0:
143,93,41906,2,0,B|188:86|216:122|216:122|248:155|297:143,1,165.749992412568,14|0,3:0|3:0,3:0:0:0:
302,141,42167,5,14,3:0:0:0:
49,32,42297,1,2,0:3:0:0:
148,215,42427,1,10,3:0:0:0:
182,13,42558,1,2,0:3:0:0:
43,177,42688,5,10,3:0:0:0:
271,230,42819,1,0,0:0:0:0:
143,93,42949,1,10,3:0:0:0:
353,60,43080,1,0,0:0:0:0:
133,360,43210,5,14,3:0:0:0:
245,134,43341,1,0,0:3:0:0:
369,348,43471,1,14,3:0:0:0:
148,215,43601,1,0,0:3:0:0:
365,188,43732,5,6,3:0:0:0:
370,220,43797,1,2,3:0:0:0:
362,252,43862,1,2,3:0:0:0:
341,277,43927,1,2,3:0:0:0:
309,288,43993,2,0,L|230:274,2,73.6666666666667,8|12|4,3:1|3:1|3:1,3:0:0:0:
410,93,44254,6,0,B|355:48|280:96|312:120|248:161|179:113,1,238,14|0,3:0|3:0,3:0:0:0:
184,112,44580,1,0,3:0:0:0:
176,102,44645,2,0,P|231:74|268:199,1,238,14|0,3:0|3:0,3:0:0:0:
258,205,44971,1,0,3:0:0:0:
246,209,45036,2,0,B|174:209|174:209|156:238|156:238|85:238,1,178.5,14|0,3:0|3:0,3:0:0:0:
105,314,45297,6,0,P|161:258|73:160,1,237.999992736817,14|0,3:0|3:0,3:0:0:0:
432,80,46080,5,8,3:1:0:0:
413,71,46145,1,8,3:1:0:0:
392,69,46210,1,4,3:1:0:0:
372,75,46275,1,4,3:1:0:0:
357,88,46341,2,0,B|341:136|341:136|357:184,1,102,14|0,3:0|3:0,3:0:0:0:
420,361,46601,1,2,3:0:0:0:
280,201,46732,6,0,L|260:311,1,102,14|0,3:0|3:0,3:0:0:0:
482,167,46993,1,2,3:0:0:0:
186,127,47123,2,0,L|205:237,1,102,14|0,3:0|3:0,3:0:0:0:
356,91,47384,1,2,3:0:0:0:
127,45,47514,2,0,L|107:155,1,102,14|0,3:0|3:0,3:0:0:0:
270,34,47775,5,2,3:0:0:0:
15,135,47906,1,12,3:0:0:0:
280,201,48036,1,0,3:0:0:0:
46,50,48167,1,12,3:0:0:0:
88,299,48297,1,0,3:0:0:0:
276,122,48427,5,6,3:0:0:0:
55,216,48558,1,2,3:0:0:0:
314,296,48688,1,10,3:0:0:0:
68,212,48819,1,2,3:0:0:0:
179,97,48949,1,2,0:0:0:0:
179,97,49014,1,2,0:0:0:0:
179,97,49080,1,2,0:0:0:0:
309,280,49210,1,8,3:0:0:0:
241,48,49341,2,0,B|296:27|334:73|334:73|389:134|444:82,1,221,2|2,3:0|3:0,3:0:0:0:
309,381,49732,5,10,3:0:0:0:
271,117,49862,1,2,3:0:0:0:
489,274,49993,1,2,3:0:0:0:
489,274,50058,1,2,3:0:0:0:
489,274,50123,1,2,3:0:0:0:
161,269,50254,1,10,3:0:0:0:
454,159,50384,1,2,3:0:0:0:
368,327,50514,2,0,B|352:242|352:242|367:268,1,110.5,2|0,3:0|3:0,3:0:0:0:
209,150,50775,5,10,3:0:0:0:
489,274,50906,1,2,3:0:0:0:
175,358,51036,1,2,3:0:0:0:
175,358,51101,1,2,3:0:0:0:
175,358,51167,1,2,3:0:0:0:
348,119,51297,1,10,3:0:0:0:
280,349,51427,2,0,B|290:225|197:286|210:138,1,221,2|0,3:0|3:0,3:0:0:0:
405,181,51819,6,0,B|349:197|349:197|261:173,1,110.5,10|2,3:0|3:0,3:0:0:0:
235,35,52080,1,2,3:0:0:0:
235,35,52145,1,2,3:0:0:0:
235,35,52210,1,2,3:0:0:0:
327,263,52341,1,10,3:0:0:0:
104,132,52471,1,2,3:0:0:0:
335,83,52601,5,6,3:0:0:0:
278,355,52732,1,2,3:0:0:0:
278,355,52797,1,2,3:0:0:0:
278,355,52862,1,10,3:0:0:0:
131,209,52993,2,0,B|183:180|229:234|229:234|268:282|333:262,1,221,6|2,3:0|3:0,3:0:0:0:
159,354,53384,1,10,3:0:0:0:
97,55,53514,2,0,B|79:155|79:155|60:168|60:168|44:263,1,221,6|2,3:0|3:0,3:0:0:0:
43,263,53841,1,2,3:0:0:0:
43,263,53906,1,10,3:0:0:0:
335,163,54036,6,0,B|223:182|223:182|275:183,1,165.75,6|0,3:0|3:0,3:0:0:0:
276,184,54297,1,2,3:0:0:0:
97,55,54427,1,10,3:0:0:0:
151,274,54558,1,2,3:0:0:0:
288,78,54688,6,0,L|161:55,1,110.5,14|0,3:0|3:0,3:0:0:0:
35,192,54949,2,0,L|161:169,1,110.5,14|0,3:0|3:0,3:0:0:0:
383,59,55210,1,14,3:0:0:0:
232,315,55341,1,0,3:0:0:0:
502,183,55471,1,2,3:0:0:0:
288,78,55601,6,0,B|276:141|276:141|283:150|283:150|270:221|270:221|306:251|357:236,1,238,14|0,3:0|3:0,3:0:0:0:
130,94,55993,1,10,3:0:0:0:
136,133,56058,1,10,3:0:0:0:
143,172,56123,1,10,3:0:0:0:
150,212,56188,1,10,3:0:0:0:
157,251,56254,1,10,3:0:0:0:
219,119,56384,1,4,3:1:0:0:
13,230,56514,1,8,3:1:0:0:
243,241,56645,1,8,3:0:0:0:
49,68,56775,6,0,B|33:116|33:116|49:164,1,102,6|0,3:0|3:0,3:0:0:0:
197,359,57036,1,10,3:0:0:0:
219,119,57167,1,2,3:0:0:0:
68,303,57297,1,2,3:0:0:0:
68,303,57362,1,2,3:0:0:0:
68,303,57427,1,2,3:0:0:0:
316,275,57558,1,8,3:0:0:0:
184,40,57688,2,0,B|263:46|263:46|292:89|292:89|363:95,1,204,2|0,3:0|3:0,3:0:0:0:
124,178,58080,6,0,B|110:99|110:99|124:117,1,101.999996887207,10|0,3:0|3:0,3:0:0:0:
316,359,58341,1,2,3:0:0:0:
316,359,58406,1,2,3:0:0:0:
316,359,58471,1,2,3:0:0:0:
77,255,58601,1,10,3:0:0:0:
320,192,58732,1,2,3:0:0:0:
150,349,58862,6,0,L|169:238,1,102,2|0,3:0|3:0,3:0:0:0:
402,337,59123,1,10,3:0:0:0:
277,129,59254,1,2,3:0:0:0:
236,370,59384,1,2,3:0:0:0:
236,370,59449,1,2,3:0:0:0:
236,370,59514,1,2,3:0:0:0:
430,217,59645,1,10,3:0:0:0:
134,172,59775,2,0,B|178:141|224:185|224:185|271:223|322:191,1,203.999993774414,2|0,3:0|3:0,3:0:0:0:
34,238,60167,5,10,3:0:0:0:
214,49,60297,1,2,3:0:0:0:
177,310,60427,1,2,3:0:0:0:
177,310,60493,1,2,3:0:0:0:
177,310,60558,1,2,3:0:0:0:
69,67,60688,1,10,3:0:0:0:
319,193,60819,1,2,3:0:0:0:
134,172,60949,5,6,3:0:0:0:
381,46,61080,1,2,3:0:0:0:
270,278,61210,1,10,3:0:0:0:
148,14,61341,2,0,B|137:130|226:78|215:207,1,204,6|2,3:0|3:0,3:0:0:0:
46,151,61732,1,10,3:0:0:0:
288,38,61862,2,0,B|303:127|303:127|321:139|321:139|337:229,1,204,6|2,3:0|3:0,3:0:0:0:
340,240,62188,1,2,3:0:0:0:
342,249,62254,1,10,3:0:0:0:
72,265,62384,6,0,B|103:251|136:266|136:266|159:249|159:249|212:291|276:253,1,204,6|0,3:0|3:0,3:0:0:0:
147,131,62775,1,10,3:0:0:0:
102,341,62906,1,2,3:0:0:0:
241,147,63036,5,2,1:3:0:0:
242,154,63101,1,0,1:3:0:0:
243,162,63167,1,0,1:3:0:0:
245,170,63232,1,0,1:3:0:0:
246,178,63297,1,8,1:1:0:0:
247,186,63362,1,12,1:1:0:0:
249,194,63427,1,4,1:1:0:0:
250,202,63493,1,0,1:3:0:0:
252,210,63558,2,0,L|261:265,3,51,0|0|0|0,1:3|1:3|1:3|1:3,1:3:0:0:
229,78,63819,1,8,1:3:0:0:
203,316,64080,5,6,3:0:0:0:
305,334,64254,5,6,3:0:0:0:
415,353,64427,5,6,3:0:0:0:
227,149,64601,5,8,3:1:0:0:
138,165,64775,5,12,3:1:0:0:
43,181,64949,5,4,3:1:0:0:
411,184,65123,6,0,P|427:240|411:280,1,102,4|0,3:0|3:0,3:0:0:0:
363,125,65514,2,0,P|419:109|459:125,1,102,2|0,3:0|3:0,3:0:0:0:
304,173,65906,2,0,P|288:139|292:107,1,50.9999984436036,0|0,3:0|3:0,3:0:0:0:
288,115,66101,1,0,0:0:0:0:
291,105,66167,1,0,0:0:0:0:
352,234,66297,2,0,P|296:250|256:234,1,102,2|0,3:0|3:0,3:0:0:0:
404,25,66688,6,0,L|413:80,1,50.9999999999999,2|0,3:0|3:0,3:0:0:0:
178,141,66949,2,0,L|187:85,1,50.9999999999999,2|0,3:0|3:0,3:0:0:0:
171,224,67210,5,0,3:0:0:0:
100,289,67341,2,0,L|44:279,1,50.9999999999999,0|0,3:0|3:0,3:0:0:0:
257,234,67601,1,2,3:0:0:0:
212,341,67732,2,0,L|156:350,1,50.9999999999999,0|0,3:0|3:0,3:0:0:0:
342,213,67993,1,0,3:0:0:0:
342,336,68123,2,0,L|293:363,1,50.9999999999999,0|0,3:0|3:0,3:0:0:0:
416,162,68384,1,2,3:0:0:0:
459,278,68514,2,0,L|423:320,1,50.9999999999999,0|0,3:0|3:0,3:0:0:0:
94,118,68775,6,0,P|144:47|270:73,1,191.25,4|0,3:0|3:0,3:0:0:0:
339,128,69036,2,0,P|230:96|244:44,1,191.25,4|0,3:0|3:0,3:0:0:0:
478,80,69297,5,4,3:0:0:0:
416,162,69427,2,0,L|404:95,1,68,0|0,3:0|3:0,3:0:0:0:
492,175,69688,1,2,3:0:0:0:
405,230,69819,2,0,L|416:163,1,68,0|0,3:0|3:0,3:0:0:0:
473,269,70080,1,0,3:0:0:0:
372,290,70210,2,0,L|405:231,1,68,0|0,3:0|3:0,3:0:0:0:
424,349,70471,1,2,3:0:0:0:
321,334,70601,2,0,L|373:290,1,68,0|0,3:0|3:0,3:0:0:0:
159,128,70862,6,0,L|180:246,1,119,4|0,3:0|3:0,3:0:0:0:
275,122,71123,1,0,3:0:0:0:
58,212,71254,1,0,3:0:0:0:
180,245,71384,5,2,3:0:0:0:
83,31,71514,1,10,3:0:0:0:
80,46,71580,1,10,3:0:0:0:
77,62,71645,1,10,3:0:0:0:
98,278,71775,5,2,3:0:0:0:
195,64,71906,1,10,3:0:0:0:
198,79,71971,1,10,3:0:0:0:
201,95,72036,1,10,3:0:0:0:
372,336,72167,5,2,3:0:0:0:
275,122,72297,1,8,3:0:0:0:
272,137,72362,1,8,3:0:0:0:
269,153,72427,1,8,3:0:0:0:
202,341,72558,5,2,3:0:0:0:
402,180,72688,1,8,3:0:0:0:
417,182,72754,1,8,3:0:0:0:
433,185,72819,1,8,3:0:0:0:
109,134,72949,5,0,3:0:0:0:
302,349,73080,2,0,B|339:210|241:256|275:118,1,238,14|0,3:0|3:0,3:0:0:0:
4,308,73471,5,6,3:0:0:0:
55,317,73536,1,2,3:0:0:0:
106,326,73601,1,2,3:0:0:0:
157,335,73667,1,2,3:0:0:0:
208,344,73732,2,0,L|227:291,1,55.25,10|2,3:0|3:0,3:0:0:0:
35,104,73862,5,2,3:0:0:0:
30,153,73927,1,2,3:0:0:0:
51,198,73993,1,2,1:3:0:0:
99,214,74058,1,2,3:0:0:0:
148,211,74123,2,0,P|172:198|190:168,1,55.25,2|2,1:3|3:0,3:0:0:0:
281,60,74254,5,10,3:0:0:0:
326,40,74319,1,2,3:0:0:0:
374,49,74384,1,2,3:0:0:0:
411,81,74449,1,2,3:0:0:0:
417,130,74514,2,0,L|361:139,1,55.25,2|2,3:0|3:0,3:0:0:0:
124,119,74645,5,2,3:0:0:0:
167,96,74710,1,2,3:0:0:0:
216,100,74775,1,10,3:0:0:0:
254,132,74841,1,2,3:0:0:0:
270,178,74906,2,0,L|259:237,1,55.25,2|2,3:0|3:0,3:0:0:0:
217,324,75036,5,2,1:3:0:0:
179,331,75101,1,2,3:0:0:0:
142,316,75167,1,2,1:3:0:0:
124,281,75232,1,2,3:0:0:0:
123,242,75297,5,10,3:0:0:0:
92,219,75362,1,2,3:0:0:0:
52,217,75427,2,0,P|30:221|1:241,1,55.25,2|2,3:0|3:0,3:0:0:0:
194,255,75558,1,2,3:0:0:0:
36,337,75688,1,2,3:0:0:0:
192,165,75819,1,10,3:0:0:0:
231,171,75884,1,2,3:0:0:0:
270,178,75949,1,2,3:0:0:0:
310,185,76014,1,2,3:0:0:0:
349,192,76080,5,2,1:3:0:0:
357,223,76145,1,2,3:0:0:0:
351,255,76210,2,0,P|338:284|318:302,1,55.25,2|2,1:3|3:0,3:0:0:0:
263,110,76341,5,10,3:0:0:0:
285,87,76406,1,2,3:0:0:0:
316,76,76471,2,0,P|346:71|373:81,1,55.25,2|2,3:0|3:0,3:0:0:0:
163,228,76601,5,2,3:0:0:0:
138,241,76667,1,2,3:0:0:0:
106,240,76732,1,2,3:0:0:0:
76,225,76797,1,2,3:0:0:0:
56,191,76862,1,10,3:0:0:0:
57,151,76927,1,2,3:0:0:0:
85,114,76993,1,2,3:0:0:0:
128,103,77058,1,2,3:0:0:0:
176,119,77123,5,2,1:3:0:0:
146,158,77188,1,2,3:0:0:0:
96,167,77254,1,2,1:3:0:0:
57,151,77319,1,2,3:0:0:0:
35,119,77384,1,10,3:0:0:0:
32,86,77449,1,2,3:0:0:0:
45,55,77514,1,2,3:0:0:0:
67,38,77580,1,2,3:0:0:0:
97,34,77645,6,0,P|110:57|113:82,1,51,6|0,3:0|3:0,3:0:0:0:
53,304,77775,1,2,3:0:0:0:
301,159,77906,1,8,3:0:0:0:
5,241,78036,6,0,P|28:228|53:225,1,51,2|0,3:0|3:0,3:0:0:0:
289,266,78167,2,0,B|210:279|210:279|236:267,1,102,2|0,3:0|3:0,3:0:0:0:
394,77,78427,6,0,L|383:136,1,51,10|0,3:0|3:0,3:0:0:0:
345,350,78558,2,0,P|404:366|446:352,1,102,2|0,3:0|3:0,3:0:0:0:
172,188,78819,6,0,L|231:177,1,51,2|0,3:0|3:0,3:0:0:0:
473,268,78949,2,0,L|366:249,1,102,10|0,3:0|3:0,3:0:0:0:
181,79,79210,6,0,B|229:63|229:63|277:79,1,102,2|0,3:0|3:0,3:0:0:0:
229,269,79471,2,0,B|181:285|181:285|133:269,1,102,10|0,3:0|3:0,3:0:0:0:
61,50,79732,5,2,3:0:0:0:
90,77,79797,1,2,3:0:0:0:
103,115,79862,1,2,3:0:0:0:
98,155,79927,1,2,3:0:0:0:
76,190,79993,5,10,3:0:0:0:
55,187,80058,1,2,3:0:0:0:
39,174,80123,2,0,P|25:147|25:119,1,51,2|2,3:0|3:0,3:0:0:0:
181,79,80254,5,2,3:0:0:0:
220,85,80319,1,2,3:0:0:0:
259,92,80384,1,2,3:0:0:0:
299,99,80449,1,2,3:0:0:0:
319,134,80514,5,10,3:0:0:0:
354,128,80580,1,2,3:0:0:0:
389,122,80645,1,2,3:0:0:0:
425,116,80710,1,2,3:0:0:0:
446,80,80775,6,0,L|501:89,3,51,0|0|0|0,1:3|1:0|1:0|1:0,1:0:0:0:
317,208,81036,2,0,L|261:198,3,51,0|0|0|0,1:3|1:0|1:0|1:0,1:0:0:0:
421,351,81297,2,0,L|472:343,3,51,0|0|0|0,1:3|1:0|1:0|1:0,1:0:0:0:
355,295,81558,1,10,3:0:0:0:
316,281,81623,1,2,3:0:0:0:
276,291,81688,1,2,3:0:0:0:
257,328,81754,1,2,3:0:0:0:
262,368,81819,5,2,1:3:0:0:
508,176,81949,2,0,B|428:176|428:176|396:208|396:208|316:208,1,204,14|0,3:0|1:3,3:0:0:0:
271,34,82341,2,0,P|324:24|367:142,1,204,14|0,3:0|1:3,3:0:0:0:
125,68,82732,2,0,B|171:32|230:71|198:96|266:128|308:96,1,204,14|0,3:0|1:3,3:0:0:0:
229,333,83123,1,14,3:0:0:0:
81,192,83254,1,8,3:1:0:0:
83,184,83319,1,12,3:1:0:0:
84,176,83384,1,4,1:1:0:0:
435,249,83514,6,0,B|373:299|309:251|309:251|293:267|293:267|229:219|165:267,1,297.5,14|0,3:0|3:0,3:0:0:0:
229,333,83906,5,14,3:0:0:0:
256,294,83971,1,2,3:0:0:0:
258,246,84036,1,2,3:0:0:0:
233,205,84101,1,2,3:0:0:0:
193,177,84167,1,10,3:0:0:0:
175,133,84232,1,2,3:0:0:0:
194,89,84297,2,0,P|220:71|254:70,1,59.5,2|2,3:0|3:0,3:0:0:0:
416,190,84427,5,10,3:0:0:0:
379,211,84493,1,2,3:0:0:0:
338,204,84558,1,2,3:0:0:0:
305,177,84623,1,2,3:0:0:0:
300,135,84688,2,0,L|363:123,1,59.5,10|2,3:0|3:0,3:0:0:0:
443,314,84819,2,0,L|384:303,1,59.5,2|2,3:0|3:0,3:0:0:0:
233,205,84949,5,10,3:0:0:0:
189,186,85014,1,2,3:0:0:0:
142,197,85080,1,2,3:0:0:0:
119,238,85145,1,2,3:0:0:0:
119,285,85210,1,10,3:0:0:0:
105,330,85275,1,2,3:0:0:0:
64,355,85341,1,2,3:0:0:0:
18,342,85406,1,2,3:0:0:0:
0,297,85471,5,10,3:0:0:0:
44,192,85601,1,8,3:1:0:0:
103,285,85732,1,12,3:1:0:0:
58,206,85862,1,4,3:1:0:0:
250,351,85993,6,0,B|293:381|359:346|331:324|390:291|440:323,1,203.999993774414,14|0,3:0|3:0,3:0:0:0:
453,105,86384,2,0,P|371:172|436:240,1,221,14|0,3:0|3:0,3:0:0:0:
440,172,86775,2,0,B|344:163|344:163|323:121|323:121|228:113,1,238,14|0,3:0|3:0,3:0:0:0:
16,108,87167,2,0,B|53:163|127:155|153:97|153:97|145:158|202:183,1,255,14|0,3:0|3:0,3:0:0:0:
193,179,87493,1,0,3:0:0:0:
205,182,87558,1,14,3:0:0:0:
83,68,87688,1,8,3:1:0:0:
109,245,87819,1,12,3:1:0:0:
228,113,87949,1,4,3:1:0:0:
254,290,88080,5,6,1:3:0:0:
255,282,88145,1,0,1:3:0:0:
256,274,88210,1,0,1:3:0:0:
258,266,88275,1,0,1:3:0:0:
259,258,88341,1,0,1:3:0:0:
260,250,88406,1,0,1:3:0:0:
262,242,88471,1,0,1:3:0:0:
263,234,88536,1,0,1:3:0:0:
265,226,88601,2,0,L|273:178,3,42.5,0|0|0|0,1:3|1:3|1:3|1:3,1:3:0:0:
362,356,88862,2,0,L|314:347,3,42.5,0|0|0|0,1:3|1:3|1:3|1:3,1:3:0:0:
415,182,89123,1,4,0:0:0:0:
465,320,89254,1,4,0:0:0:0:
139,319,89514,5,0,3:0:0:0:
139,319,89580,1,0,3:0:0:0:
139,319,89645,1,8,3:0:0:0:
334,84,89775,1,8,3:0:0:0:
77,168,89906,1,8,3:0:0:0:
348,273,90036,1,8,3:0:0:0:
196,48,90167,1,2,3:0:0:0:
193,63,90232,1,2,3:0:0:0:
190,79,90297,2,0,L|180:125,1,31.8750012159348,2|2,3:0|3:0,3:0:0:0:
146,303,90427,5,14,3:0:0:0:
432,153,90558,1,2,3:0:0:0:
266,337,90688,2,0,B|250:250|250:250|264:280,1,110.5,2|2,3:0|3:0,3:0:0:0:
465,350,90949,1,10,3:0:0:0:
289,191,91080,2,0,B|231:158|173:200|206:229|140:272|79:221,1,221,2|0,3:0|3:0,3:0:0:0:
248,74,91471,5,10,3:0:0:0:
362,319,91601,1,2,3:0:0:0:
132,172,91732,1,2,3:0:0:0:
132,172,91797,1,2,3:0:0:0:
132,172,91862,1,2,3:0:0:0:
392,172,91993,1,10,3:0:0:0:
196,320,92123,1,2,3:0:0:0:
326,102,92254,2,0,B|312:180|312:180|318:190|318:190|304:268,1,165.75,2|0,3:0|3:0,3:0:0:0:
304,274,92514,5,10,3:0:0:0:
223,118,92645,1,2,3:0:0:0:
497,212,92775,1,2,3:0:0:0:
497,212,92841,1,2,3:0:0:0:
497,212,92906,1,2,3:0:0:0:
142,254,93036,1,10,3:0:0:0:
396,44,93167,2,0,B|414:81|394:119|394:119|419:142|419:142|381:192|407:251,1,221,2|0,3:0|3:0,3:0:0:0:
276,35,93558,5,10,3:0:0:0:
482,99,93688,1,2,3:0:0:0:
229,208,93819,1,2,3:0:0:0:
229,208,93884,1,2,3:0:0:0:
229,208,93949,1,2,3:0:0:0:
396,44,94080,1,10,3:0:0:0:
334,279,94210,1,2,3:0:0:0:
100,140,94341,5,6,3:0:0:0:
139,133,94406,1,2,3:0:0:0:
178,126,94471,1,2,3:0:0:0:
218,119,94536,1,2,3:0:0:0:
257,112,94601,1,10,3:0:0:0:
73,216,94732,2,0,P|23:161|103:60,1,221,6|0,3:0|3:0,3:0:0:0:
197,289,95123,5,10,3:0:0:0:
246,34,95254,2,0,B|333:41|333:41|362:84|362:84|449:91,1,221,6|10,3:0|3:0,3:0:0:0:
454,92,95580,1,10,3:0:0:0:
464,93,95645,1,10,3:0:0:0:
354,272,95775,6,0,B|312:244|322:203|322:203|406:181|447:263,1,221,6|10,3:0|3:0,3:0:0:0:
243,354,96167,5,2,3:0:0:0:
333,127,96297,1,2,3:0:0:0:
460,340,96427,2,0,L|341:360,1,110.5,14|0,3:0|3:0,3:0:0:0:
198,188,96688,2,0,L|306:207,1,110.5,14|0,3:0|3:0,3:0:0:0:
64,273,96949,6,0,B|50:220|102:187|161:213|151:277|123:347,1,221,14|2,3:0|3:0,3:0:0:0:
45,80,97341,2,0,B|93:39|161:79|138:105|203:135|250:100,1,221,14|0,3:0|3:0,3:0:0:0:
12,180,97732,1,8,3:0:0:0:
206,42,97862,1,8,3:0:0:0:
206,42,97927,1,8,3:0:0:0:
206,42,97993,1,8,3:0:0:0:
314,301,98123,5,4,3:1:0:0:
147,175,98254,1,8,3:1:0:0:
438,141,98384,1,8,3:0:0:0:
226,276,98514,2,0,B|239:199|239:199|241:236,1,102,6|0,3:0|3:0,3:0:0:0:
364,368,98775,5,10,3:0:0:0:
95,238,98906,1,2,3:0:0:0:
367,183,99036,1,2,3:0:0:0:
367,183,99101,1,2,3:0:0:0:
367,183,99167,1,2,3:0:0:0:
177,359,99297,1,8,3:0:0:0:
300,112,99427,2,0,P|274:178|366:263,1,204,2|0,3:0|3:0,3:0:0:0:
123,74,99819,5,10,3:0:0:0:
417,65,99949,1,2,3:0:0:0:
187,234,100080,1,2,3:0:0:0:
187,234,100145,1,2,3:0:0:0:
187,234,100210,1,2,3:0:0:0:
316,33,100341,1,10,3:0:0:0:
357,262,100471,1,2,3:0:0:0:
203,111,100601,2,0,B|251:95|251:95|299:111,1,102,2|0,3:0|3:0,3:0:0:0:
205,323,100862,5,10,3:0:0:0:
49,152,100993,1,2,3:0:0:0:
286,210,101123,1,2,3:0:0:0:
286,210,101188,1,2,3:0:0:0:
286,210,101254,1,2,3:0:0:0:
49,285,101384,1,10,3:0:0:0:
318,145,101514,2,0,B|270:114|212:145|244:167|182:206|131:170,1,204,2|0,3:0|3:0,3:0:0:0:
385,275,101906,5,10,3:0:0:0:
171,114,102036,1,2,3:0:0:0:
445,85,102167,1,2,3:0:0:0:
445,85,102232,1,2,3:0:0:0:
445,85,102297,1,2,3:0:0:0:
247,305,102427,1,10,3:0:0:0:
305,32,102558,1,2,3:0:0:0:
471,283,102688,5,6,3:0:0:0:
274,148,102819,1,2,3:0:0:0:
464,300,102949,1,10,3:0:0:0:
205,182,103080,6,0,P|281:225|350:142,1,204,6|0,3:0|3:0,3:0:0:0:
308,354,103471,1,10,3:0:0:0:
130,110,103601,2,0,B|122:197|122:197|129:206|129:206|120:309,1,203.999993774414,6|2,3:0|3:0,3:0:0:0:
119,327,103927,1,2,3:0:0:0:
117,343,103993,1,10,3:0:0:0:
411,190,104123,2,0,B|296:180|353:270|224:251,1,204,6|0,3:0|3:0,3:0:0:0:
388,269,104514,5,10,3:0:0:0:
203,118,104645,1,2,3:0:0:0:
415,53,104775,1,6,1:3:0:0:
413,60,104841,1,0,1:3:0:0:
412,68,104906,1,0,1:3:0:0:
410,76,104971,1,0,1:3:0:0:
409,84,105036,1,0,1:3:0:0:
408,92,105101,1,0,1:3:0:0:
406,100,105167,1,0,1:3:0:0:
405,108,105232,1,0,1:3:0:0:
403,116,105297,2,0,L|391:179,3,51,0|0|0|0,1:3|1:3|1:3|1:3,1:3:0:0:
330,52,105558,1,8,3:0:0:0:
118,89,105819,5,2,3:0:0:0:
220,71,105993,5,2,3:0:0:0:
330,52,106167,5,2,3:0:0:0:
251,206,106341,5,8,3:1:0:0:
157,190,106514,5,12,3:1:0:0:
69,174,106688,5,4,3:1:0:0:
300,280,106862,6,0,P|337:238|337:181,1,102,6|0,3:0|3:0,3:0:0:0:
132,325,107123,1,8,3:0:0:0:
388,345,107254,1,0,3:0:0:0:
240,147,107384,2,0,L|221:249,1,102,2|0,3:0|3:0,3:0:0:0:
412,162,107645,2,0,L|393:59,1,102,8|0,3:0|3:0,3:0:0:0:
300,280,107906,5,2,3:0:0:0:
262,72,108036,1,2,3:0:0:0:
436,278,108167,1,10,3:0:0:0:
144,134,108297,5,2,3:0:0:0:
341,163,108427,1,2,3:0:0:0:
75,245,108558,1,2,3:0:0:0:
240,147,108688,1,8,3:0:0:0:
37,316,108819,2,0,B|75:334|109:317|109:317|133:333|133:333|178:306|230:325,1,204,2|2,3:0|3:0,3:0:0:0:
217,14,109210,5,10,3:0:0:0:
152,248,109341,1,2,3:0:0:0:
300,96,109471,1,2,3:0:0:0:
300,96,109536,1,2,3:0:0:0:
300,96,109601,1,2,3:0:0:0:
68,113,109732,1,10,3:0:0:0:
280,227,109862,2,0,P|262:170|135:151,1,204,2|0,3:0|3:0,3:0:0:0:
169,366,110254,5,10,3:0:0:0:
347,144,110384,1,2,3:0:0:0:
70,251,110514,1,2,3:0:0:0:
70,251,110580,1,2,3:0:0:0:
70,251,110645,1,2,3:0:0:0:
328,319,110775,1,10,3:0:0:0:
134,151,110906,1,2,3:0:0:0:
251,349,111036,6,0,B|257:269|257:269|228:234|228:234|235:154,1,204,6|8,3:0|3:0,3:0:0:0:
57,48,111427,2,0,B|99:18|165:49|133:70|200:99|248:67,1,204,6|2,3:0|3:0,3:0:0:0:
152,282,111819,1,10,3:0:0:0:
386,137,111949,2,0,P|333:176|385:292,1,204,6|2,3:0|3:0,3:0:0:0:
384,291,112275,1,2,3:0:0:0:
394,292,112341,1,10,3:0:0:0:
234,155,112471,2,0,L|131:173,1,102,6|0,3:0|3:0,3:0:0:0:
254,323,112732,5,10,3:0:0:0:
256,63,112862,1,2,3:0:0:0:
120,277,112993,1,2,3:0:0:0:
349,197,113123,1,14,3:0:0:0:
389,190,113188,1,2,3:0:0:0:
427,208,113254,1,2,3:0:0:0:
446,243,113319,1,2,3:0:0:0:
444,283,113384,2,0,L|388:292,1,51,10|2,3:0|3:0,3:0:0:0:
187,211,113514,5,2,3:0:0:0:
164,176,113580,1,2,3:0:0:0:
160,135,113645,1,10,3:0:0:0:
176,97,113710,1,2,3:0:0:0:
207,71,113775,2,0,P|229:63|258:64,1,50.9999984436036,2|2,3:0|3:0,3:0:0:0:
435,129,113906,5,2,3:0:0:0:
435,129,114036,2,0,B|390:94|329:127|352:148|293:184|248:151,1,204,14|0,3:0|3:0,3:0:0:0:
80,101,114427,5,10,3:0:0:0:
60,131,114493,1,2,3:0:0:0:
61,166,114558,1,2,3:0:0:0:
85,191,114623,1,2,3:0:0:0:
119,198,114688,5,8,3:1:0:0:
168,40,114819,1,8,3:0:0:0:
178,132,114949,1,4,3:1:0:0:
97,91,115080,1,4,3:1:0:0:
201,206,115210,6,0,L|311:225,1,110.5,14|0,3:0|3:0,3:0:0:0:
375,42,115471,2,0,L|266:61,1,110.5,8|0,3:0|3:0,3:0:0:0:
475,290,115732,5,10,3:0:0:0:
505,19,115862,1,2,3:0:0:0:
505,19,115927,1,2,3:0:0:0:
505,19,115993,1,8,3:0:0:0:
309,225,116123,1,2,3:0:0:0:
475,101,116254,6,0,B|490:157|490:157|474:211,1,110.5,10|0,3:0|3:0,3:0:0:0:
205,120,116514,2,0,B|190:64|190:64|206:10,1,110.5,8|0,3:0|3:0,3:0:0:0:
376,183,116775,5,10,3:0:0:0:
115,120,116906,1,2,3:0:0:0:
115,120,116971,1,2,3:0:0:0:
115,120,117036,1,8,3:0:0:0:
216,328,117167,1,2,3:0:0:0:
295,75,117297,6,0,B|310:161|310:161|313:136,1,110.5,10|0,3:0|3:0,3:0:0:0:
65,337,117558,2,0,B|80:250|80:250|68:272,1,110.5,8|0,3:0|3:0,3:0:0:0:
230,155,117819,5,10,3:0:0:0:
270,137,117884,1,2,3:0:0:0:
313,139,117949,1,2,3:0:0:0:
348,164,118014,1,2,3:0:0:0:
361,206,118080,1,10,3:0:0:0:
353,249,118145,1,2,3:0:0:0:
319,277,118210,2,0,L|255:265,1,55.25,2|2,3:0|3:0,3:0:0:0:
106,178,118341,5,10,3:0:0:0:
94,141,118406,1,2,3:0:0:0:
103,103,118471,1,2,3:0:0:0:
128,74,118536,1,2,3:0:0:0:
165,64,118601,1,10,3:0:0:0:
171,85,118667,1,2,3:0:0:0:
172,106,118732,2,0,P|169:130|150:156,1,55.25,2|2,3:0|3:0,3:0:0:0:
258,46,118862,5,10,3:0:0:0:
304,53,118927,1,10,3:0:0:0:
351,61,118993,1,10,3:0:0:0:
399,70,119058,1,10,3:0:0:0:
446,78,119123,5,8,3:1:0:0:
434,95,119188,1,8,3:1:0:0:
433,117,119254,1,4,3:1:0:0:
440,137,119319,1,4,3:1:0:0:
455,152,119384,6,0,P|386:140|386:267,1,221,6|8,3:0|3:0,3:0:0:0:
68,149,119775,6,0,B|97:124|134:128|155:165|155:165|158:176|158:176|176:212|219:221|255:201,1,221,6|0,3:0|3:0,3:0:0:0:
201,30,120167,5,8,3:0:0:0:
12,303,120297,2,0,B|40:317|72:311|93:289|100:263|100:263|108:293|134:313|164:315|188:303,1,221,6|0,3:0|3:0,3:0:0:0:
202,294,120623,1,0,0:0:0:0:
212,280,120688,1,8,3:0:0:0:
475,290,120819,6,0,B|442:262|405:276|428:274|387:279|410:290|357:294|395:283|377:341|351:277|372:329|369:338|314:343|321:324|345:329|304:348|282:334|263:294,1,221,6|0,3:0|3:0,3:0:0:0:
446,97,121210,2,0,L|465:207,1,110.5,8|0,3:0|3:0,3:0:0:0:
102,142,121471,5,2,3:0:0:0:
121,108,121536,1,2,3:0:0:0:
156,93,121601,1,2,3:0:0:0:
194,102,121667,1,2,3:0:0:0:
216,133,121732,1,2,3:0:0:0:
219,171,121797,1,2,3:0:0:0:
195,202,121862,2,0,P|169:216|136:218,1,55.25,2|2,3:0|3:0,3:0:0:0:
252,42,121993,5,2,3:0:0:0:
283,44,122058,1,2,3:0:0:0:
315,47,122123,1,2,3:0:0:0:
347,50,122188,1,2,3:0:0:0:
379,53,122254,2,0,L|434:57,2,55.25,2|2|2,3:0|3:0|3:0,3:0:0:0:
346,349,122514,5,6,3:0:0:0:
328,247,122688,5,6,3:0:0:0:
309,137,122862,5,6,3:0:0:0:
168,333,123036,5,8,3:1:0:0:
184,246,123210,5,12,3:1:0:0:
200,153,123384,5,4,3:1:0:0:
391,236,123558,6,0,L|320:248,1,63.7500000000002,6|0,3:0|3:0,3:0:0:0:
438,306,123819,1,2,3:0:0:0:
381,105,123949,1,10,3:0:0:0:
381,105,124210,5,10,3:0:0:0:
203,137,124341,2,0,L|273:149,1,63.7500000000002,2|0,3:0|3:0,3:0:0:0:
215,42,124601,1,2,3:0:0:0:
106,228,124732,1,10,3:0:0:0:
106,228,124993,5,10,3:0:0:0:
264,147,125123,2,0,P|272:178|265:213,1,63.7500000000002,2|0,3:0|3:0,3:0:0:0:
77,117,125384,2,0,P|69:86|76:51,1,63.7500000000002,10|0,3:0|3:0,3:0:0:0:
248,309,125645,6,0,L|177:296,1,63.7500000000002,2|0,3:0|3:0,3:0:0:0:
343,330,125906,1,2,3:0:0:0:
197,178,126036,1,10,3:0:0:0:
343,330,126297,5,10,3:0:0:0:
429,204,126427,2,0,L|440:267,1,63.7500000000002,2|0,3:0|3:0,3:0:0:0:
335,243,126688,1,2,3:0:0:0:
505,122,126819,1,10,3:0:0:0:
189,82,127080,5,2,3:0:0:0:
189,82,127145,1,2,3:0:0:0:
189,82,127210,2,0,L|275:66,1,85,6|0,3:0|3:0,3:0:0:0:
137,185,127471,2,0,L|50:169,1,85,4|0,3:0|3:0,3:0:0:0:
248,288,127732,6,0,P|253:327|245:358,1,63.7500000000002,2|0,3:0|3:0,3:0:0:0:
167,288,127993,1,2,3:0:0:0:
315,197,128123,1,10,3:0:0:0:
481,342,128384,5,10,3:0:0:0:
393,186,128514,2,0,L|381:249,1,63.7500000000002,2|0,3:0|3:0,3:0:0:0:
362,353,128775,1,2,3:0:0:0:
481,240,128906,1,10,3:0:0:0:
481,240,129167,5,10,3:0:0:0:
327,62,129297,2,0,P|316:99|329:136,1,63.7500000000002,2|0,3:0|3:0,3:0:0:0:
470,76,129558,2,0,P|481:39|468:2,1,63.7500000000002,10|0,3:0|3:0,3:0:0:0:
185,204,129819,6,0,L|248:215,1,63.7500000000002,2|0,3:0|3:0,3:0:0:0:
214,117,130080,1,2,3:0:0:0:
117,290,130210,1,10,3:0:0:0:
117,290,130471,5,10,3:0:0:0:
322,198,130601,2,0,L|333:261,1,63.7500000000002,2|0,3:0|3:0,3:0:0:0:
254,329,130862,1,2,3:0:0:0:
451,249,130993,1,10,3:0:0:0:
138,48,131254,5,0,3:0:0:0:
138,48,131319,1,0,3:0:0:0:
138,48,131384,1,8,3:0:0:0:
226,254,131514,1,8,3:0:0:0:
50,93,131645,1,8,3:0:0:0:
275,145,131775,1,8,3:0:0:0:
76,320,131906,5,6,3:0:0:0:
51,304,131971,1,2,3:0:0:0:
37,278,132036,1,2,3:0:0:0:
39,249,132101,1,2,3:0:0:0:
53,223,132167,1,10,3:0:0:0:
78,210,132232,1,2,3:0:0:0:
107,207,132297,2,0,P|134:208|159:223,1,42.5,2|2,3:0|3:0,3:0:0:0:
264,318,132427,5,2,3:0:0:0:
293,336,132493,1,2,3:0:0:0:
326,341,132558,1,2,3:0:0:0:
357,327,132623,1,2,3:0:0:0:
379,301,132688,1,10,3:0:0:0:
408,283,132754,1,2,3:0:0:0:
441,285,132819,2,0,P|467:295|481:312,1,42.5,2|2,3:0|3:0,3:0:0:0:
316,260,132949,5,2,3:0:0:0:
319,220,133014,1,2,3:0:0:0:
322,180,133080,1,2,3:0:0:0:
326,140,133145,1,2,3:0:0:0:
329,100,133210,2,0,L|376:91,1,42.5,10|2,3:0|3:0,3:0:0:0:
186,211,133341,2,0,L|138:202,1,42.5,2|2,3:0|3:0,3:0:0:0:
55,68,133471,5,2,3:0:0:0:
92,47,133536,1,2,3:0:0:0:
134,48,133601,1,2,3:0:0:0:
170,70,133667,1,2,3:0:0:0:
179,111,133732,1,10,3:0:0:0:
219,141,133797,1,2,3:0:0:0:
269,144,133862,1,2,3:0:0:0:
307,110,133927,1,2,3:0:0:0:
314,58,133993,5,2,3:0:0:0:
186,211,134123,2,0,L|296:230,1,102,2|10,3:0|3:0,3:0:0:0:
14,134,134384,1,2,3:0:0:0:
99,278,134514,2,0,L|117:175,1,102,2|2,3:0|3:0,3:0:0:0:
8,366,134775,1,10,3:0:0:0:
232,316,134906,1,2,3:0:0:0:
19,213,135036,5,2,3:0:0:0:
146,373,135167,1,2,3:0:0:0:
182,105,135297,1,10,3:0:0:0:
30,296,135427,1,2,3:0:0:0:
30,296,135493,1,2,3:0:0:0:
30,296,135558,1,4,3:0:0:0:
243,189,135688,1,8,3:1:0:0:
116,177,135819,1,4,3:1:0:0:
176,272,135949,1,4,3:1:0:0:
43,113,136080,5,14,3:0:0:0:
264,276,136210,1,0,3:0:0:0:
264,276,136275,1,0,0:0:0:0:
264,276,136341,1,10,0:0:0:0:
320,74,136471,1,0,0:0:0:0:
98,258,136601,1,10,0:0:0:0:
268,180,136732,1,0,0:0:0:0:
32,89,136862,1,10,0:0:0:0:
257,163,136993,1,0,0:0:0:0:
164,32,137123,5,10,0:0:0:0:
264,276,137254,1,0,0:0:0:0:
264,276,137319,1,0,0:0:0:0:
264,276,137384,1,10,0:0:0:0:
335,92,137514,1,0,0:0:0:0:
140,231,137645,1,8,0:0:0:0:
360,347,137775,1,0,0:0:0:0:
259,141,137906,1,14,0:0:0:0:
340,335,138036,1,0,0:0:0:0:
178,120,138167,5,14,3:0:0:0:
139,138,138232,1,2,3:0:0:0:
120,175,138297,1,2,3:0:0:0:
124,216,138362,1,2,3:0:0:0:
153,246,138427,5,14,3:0:0:0:
181,277,138493,1,2,3:0:0:0:
185,318,138558,1,2,3:0:0:0:
166,355,138623,1,2,3:0:0:0:
126,371,138688,2,0,L|114:307,3,55.25,14|2|2|2,3:0|3:0|3:0|3:0,3:0:0:0:
302,210,138949,2,0,L|290:273,3,55.25,14|2|2|2,3:0|3:0|3:0|3:0,3:0:0:0:
80,73,139210,5,14,3:0:0:0:
119,66,139275,1,10,3:0:0:0:
158,59,139341,1,2,3:0:0:0:
198,52,139406,1,2,3:0:0:0:
218,84,139471,5,0,1:3:0:0:
253,90,139536,1,0,1:3:0:0:
289,96,139601,1,0,1:3:0:0:
326,103,139667,1,0,1:3:0:0:
363,111,139732,2,0,L|426:122,3,55.25,0|0|0|0,1:3|1:3|1:3|1:3,1:3:0:0:
343,32,139993,1,10,3:0:0:0:
24,306,140254,5,2,3:0:0:0:
247,234,140384,2,0,L|228:336,1,102,14|0,3:0|3:0,3:0:0:0:
78,205,140645,1,2,3:0:0:0:
316,142,140775,2,0,L|334:244,1,102,14|0,3:0|3:0,3:0:0:0:
160,101,141036,1,2,3:0:0:0:
424,68,141167,2,0,L|405:170,2,102,14|0|2,3:0|3:0|3:0,3:0:0:0:
241,156,141558,5,14,3:0:0:0:
241,156,141623,1,0,3:0:0:0:
241,156,141688,1,0,3:0:0:0:
482,237,141819,1,0,3:0:0:0:
316,142,141949,2,0,B|300:228|300:228|328:257|328:257|314:336,1,204,14|0,3:0|3:0,3:0:0:0:
17,208,142341,5,14,3:0:0:0:
56,196,142406,1,2,3:0:0:0:
95,209,142471,1,2,3:0:0:0:
119,242,142536,1,2,3:0:0:0:
139,278,142601,1,10,3:0:0:0:
167,297,142667,1,2,3:0:0:0:
201,304,142732,2,0,P|227:299|254:282,1,59.5,2|2,3:0|3:0,3:0:0:0:
52,273,142862,5,10,3:0:0:0:
34,296,142927,1,2,3:0:0:0:
28,325,142993,2,0,P|26:341|45:377,1,59.5,2|2,3:0|3:0,3:0:0:0:
311,226,143123,5,10,3:0:0:0:
288,208,143188,1,2,3:0:0:0:
259,202,143254,2,0,P|242:200|206:219,1,59.5,2|2,3:0|3:0,3:0:0:0:
451,368,143384,5,10,3:0:0:0:
476,343,143449,1,2,3:0:0:0:
484,308,143514,1,2,3:0:0:0:
472,273,143580,1,2,3:0:0:0:
444,250,143645,1,10,3:0:0:0:
414,220,143710,1,2,3:0:0:0:
406,179,143775,1,2,3:0:0:0:
429,144,143841,1,2,3:0:0:0:
468,131,143906,5,10,3:0:0:0:
327,218,144036,1,8,3:0:0:0:
460,146,144167,1,12,3:1:0:0:
357,97,144297,1,4,3:1:0:0:
458,314,144427,6,0,B|325:337|325:337|382:343,1,187,14|0,3:0|3:0,3:0:0:0:
135,255,144819,2,0,B|268:278|268:278|211:284,1,187,14|0,3:0|3:0,3:0:0:0:
65,45,145210,6,0,B|98:23|127:32|112:29|153:34|130:45|183:49|145:38|163:96|189:32|168:84|171:93|226:98|219:79|195:84|236:103|258:89|277:49,1,221,14|0,3:0|3:0,3:0:0:0:
108,102,145601,2,0,B|92:188|92:188|55:214|55:214|40:301,1,221,14|2,3:0|3:0,3:0:0:0:
38,313,145927,1,2,3:0:0:0:
35,328,145993,1,14,3:0:0:0:
210,167,146123,1,8,3:1:0:0:
27,144,146254,1,12,3:1:0:0:
122,262,146384,1,4,3:1:0:0:
356,139,146514,5,10,1:3:0:0:
338,127,146580,1,0,1:3:0:0:
318,119,146645,1,0,1:3:0:0:
297,116,146710,1,0,1:3:0:0:
276,118,146775,1,0,1:3:0:0:
256,124,146841,1,0,1:3:0:0:
237,134,146906,1,0,1:3:0:0:
221,148,146971,1,0,1:3:0:0:
210,167,147036,2,0,L|200:222,3,55.25,0|0|0|0,1:3|1:3|1:3|1:3,1:3:0:0:
396,69,147297,2,0,L|386:13,3,55.25,0|0|0|0,1:3|1:3|1:3|1:3,1:3:0:0:
302,221,147558,5,4,3:0:0:0:
477,40,147688,1,10,3:0:0:0:
202,68,147819,1,10,3:0:0:0:
372,162,147949,1,2,3:0:0:0:
372,162,148014,1,2,3:0:0:0:
372,162,148080,1,10,3:0:0:0:
267,11,148210,1,2,3:0:0:0:
372,162,148471,6,0,B|335:127|307:114|254:143|309:133|298:123|221:130|216:143|246:215|209:126|184:207|237:192|163:197|195:213|140:225|155:217|117:234|69:195,1,340,14|0,3:0|1:0,3:0:0:0:
67,193,149558,1,0,1:0:0:0:
66,186,149601,2,0,P|69:171|76:162,1,14.1666666666667,0|0,1:0|1:0,0:0:0:0:
