osu file format v14

[General]
AudioFilename: audio.mp3
AudioLeadIn: 0
PreviewTime: 53146
Countdown: 0
SampleSet: Soft
StackLeniency: 0.7
Mode: 0
LetterboxInBreaks: 0
WidescreenStoryboard: 0

[Editor]
DistanceSpacing: 0.6
BeatDivisor: 4
GridSize: 32
TimelineZoom: 2.3

[Metadata]
Title:Reflection
TitleUnicode:Reflection
Artist:Noah
ArtistUnicode:Noah
Creator:Adinda
Version:Illusion
Source:
Tags:doujin c95 comiket 95 instrumental metal symphonic existruth artcore rock orchestral
BeatmapID:2938138
BeatmapSetID:1426912

[Difficulty]
HPDrainRate:6
CircleSize:4
OverallDifficulty:9
ApproachRate:9.4
SliderMultiplier:1.9
SliderTickRate:1

[Events]
//Background and Video events
0,0,"a.jpg",0,0
//Break Periods
2,109156,115572
//Storyboard Layer 0 (Background)
//Storyboard Layer 1 (Fail)
//Storyboard Layer 2 (Pass)
//Storyboard Layer 3 (Foreground)
//Storyboard Layer 4 (Overlay)
//Storyboard Sound Samples

[TimingPoints]
1067,275.229357798165,4,2,1,70,1,0
1067,-200,4,2,1,50,0,0
5056,-200,4,2,1,70,0,0
5744,-200,4,2,1,50,0,0
8359,-100,4,2,1,70,0,0
9873,-90.9090909090909,4,2,1,80,0,0
18680,-133.333333333333,4,2,1,65,0,0
26249,-100,4,2,1,65,0,0
27488,-133.333333333333,4,2,1,65,0,0
36295,-111.111111111111,4,2,1,70,0,0
53911,-83.3333333333333,4,2,1,85,0,1
54942,-83.3333333333333,4,2,1,5,0,1
55010,-83.3333333333333,4,2,1,85,0,1
55217,-83.3333333333333,4,2,1,5,0,1
55285,-83.3333333333333,4,2,1,85,0,1
57419,-83.3333333333333,4,2,1,5,0,1
57487,-83.3333333333333,4,2,1,85,0,1
60446,-83.3333333333333,4,2,1,5,0,1
60514,-83.3333333333333,4,2,1,85,0,1
60721,-83.3333333333333,4,2,1,5,0,1
60789,-83.3333333333333,4,2,1,85,0,1
61823,-83.3333333333333,4,2,1,5,0,1
61891,-83.3333333333333,4,2,1,85,0,1
62717,-74.0740740740741,4,2,1,85,0,1
63749,-74.0740740740741,4,2,1,5,0,1
63818,-74.0740740740741,4,2,1,85,0,1
64024,-74.0740740740741,4,2,1,5,0,1
64093,-74.0740740740741,4,2,1,85,0,1
66226,-74.0740740740741,4,2,1,5,0,1
66295,-74.0740740740741,4,2,1,85,0,1
68428,-74.0740740740741,4,2,1,5,0,1
68497,-74.0740740740741,4,2,1,85,0,1
69529,-74.0740740740741,4,2,1,5,0,1
69598,-74.0740740740741,4,2,1,85,0,1
71525,-111.111111111111,4,2,1,70,0,0
91341,-90.9090909090909,4,2,1,80,0,0
117763,-100,4,2,1,75,0,0
126570,-111.111111111111,4,2,1,70,0,0
144186,-83.3333333333333,4,2,1,85,0,1
145217,-83.3333333333333,4,2,1,5,0,1
145286,-83.3333333333333,4,2,1,85,0,1
145492,-83.3333333333333,4,2,1,5,0,1
145561,-83.3333333333333,4,2,1,85,0,1
147694,-83.3333333333333,4,2,1,5,0,1
147763,-83.3333333333333,4,2,1,85,0,1
150721,-83.3333333333333,4,2,1,5,0,1
150790,-83.3333333333333,4,2,1,85,0,1
150997,-83.3333333333333,4,2,1,5,0,1
151065,-83.3333333333333,4,2,1,85,0,1
152098,-83.3333333333333,4,2,1,5,0,1
152166,-83.3333333333333,4,2,1,85,0,1
152992,-74.0740740740741,4,2,1,85,0,1
154024,-74.0740740740741,4,2,1,5,0,1
154093,-74.0740740740741,4,2,1,85,0,1
154299,-74.0740740740741,4,2,1,5,0,1
154368,-74.0740740740741,4,2,1,85,0,1
156501,-74.0740740740741,4,2,1,5,0,1
156570,-74.0740740740741,4,2,1,85,0,1
158703,-74.0740740740741,4,2,1,5,0,1
158772,-74.0740740740741,4,2,1,85,0,1
159804,-74.0740740740741,4,2,1,5,0,1
159873,-74.0740740740741,4,2,1,85,0,1
161800,-111.111111111111,4,2,1,70,0,0
179414,-111.111111111111,4,2,1,80,0,0
181617,-76.9230769230769,4,2,1,85,0,1
181822,-76.9230769230769,4,2,1,5,0,1
181891,-76.9230769230769,4,2,1,85,0,1
188428,-76.9230769230769,4,2,1,5,0,1
188497,-76.9230769230769,4,2,1,85,0,1
197235,-76.9230769230769,4,2,1,5,0,1
197304,-76.9230769230769,4,2,1,85,0,1
203841,-76.9230769230769,4,2,1,5,0,1
203910,-76.9230769230769,4,2,1,85,0,1
212648,-76.9230769230769,4,2,1,5,0,1
212717,-76.9230769230769,4,2,1,85,0,1
216846,550.45871559633,4,2,1,70,1,0
216846,-76.9230769230769,4,2,1,75,0,0
217395,-76.9230769230769,4,2,1,30,0,0
234459,-90.9090909090909,4,2,1,50,0,0
268588,-90.9090909090909,4,2,1,65,0,0
269689,-66.6666666666667,4,2,1,70,0,0
313726,-66.6666666666667,4,2,1,30,0,0
313795,-66.6666666666667,4,2,1,75,0,0
316891,-66.6666666666667,4,2,1,5,0,0
317029,-133.333333333333,4,2,1,75,0,0
317030,275.229357798165,4,2,1,70,1,0
317854,-74.0740740740741,4,2,1,75,0,0
322534,-83.3333333333333,4,2,1,85,0,1
324666,-83.3333333333333,4,2,1,5,0,1
324734,-83.3333333333333,4,2,1,85,0,1
324942,-83.3333333333333,4,2,1,5,0,1
325010,-83.3333333333333,4,2,1,85,0,1
326043,-83.3333333333333,4,2,1,5,0,1
326111,-83.3333333333333,4,2,1,85,0,1
326937,-74.0740740740741,4,2,1,85,0,1
327969,-74.0740740740741,4,2,1,5,0,1
328038,-74.0740740740741,4,2,1,85,0,1
328244,-74.0740740740741,4,2,1,5,0,1
328313,-74.0740740740741,4,2,1,85,0,1
330446,-74.0740740740741,4,2,1,5,0,1
330515,-74.0740740740741,4,2,1,85,0,1
332648,-74.0740740740741,4,2,1,5,0,1
332717,-74.0740740740741,4,2,1,85,0,1
333749,-74.0740740740741,4,2,1,5,0,1
333818,-74.0740740740741,4,2,1,85,0,1
338428,-74.0740740740741,4,2,1,5,0,1
338497,-74.0740740740741,4,2,1,85,0,1
345584,-74.0740740740741,4,2,1,5,0,1
345653,-74.0740740740741,4,2,1,85,0,1
345859,-74.0740740740741,4,2,1,5,0,1
345928,-74.0740740740741,4,2,1,85,0,1
348061,-74.0740740740741,4,2,1,5,0,1
348130,-74.0740740740741,4,2,1,85,0,1
353360,-200,4,2,1,80,0,0
353634,-200,4,2,1,50,0,0
357350,-200,4,2,1,70,0,0
357763,-200,4,2,1,50,0,0
360377,-200,4,2,1,60,0,0
360515,-200,4,2,1,70,0,0
360653,-200,4,2,1,80,0,0
360790,-200,4,2,1,90,0,0
360928,-83.3333333333333,4,2,1,80,0,0
370974,-100,4,2,1,70,0,0
374001,-83.3333333333333,4,2,1,70,0,0
375309,-83.3333333333333,4,2,1,60,0,0
379368,-83.3333333333333,4,2,1,5,0,0
379506,-83.3333333333333,4,2,1,50,0,0

[Colours]
Combo1 : 192,192,192
Combo2 : 0,128,255

[HitObjects]
110,105,1067,5,12,0:1:0:0:
19,128,1342,2,0,P|72:111|120:105,1,95,2|0,0:0|0:0,0:0:0:0:
35,100,1892,2,0,P|88:83|136:77,1,95,2|0,0:0|0:0,0:0:0:0:
210,246,2443,2,0,P|157:229|109:223,1,95,2|0,0:0|0:0,0:0:0:0:
194,218,2993,2,0,P|141:201|93:195,1,95,2|0,0:0|0:0,0:0:0:0:
277,50,3544,6,0,P|330:33|378:27,1,95,2|0,0:0|0:0,0:0:0:0:
293,22,4094,2,0,P|346:5|394:-1,1,95,2|0,0:0|0:0,0:0:0:0:
468,168,4645,2,0,P|415:151|367:145,1,95,2|0,0:0|0:0,0:0:0:0:
265,334,5057,5,8,0:0:0:0:
376,145,5195,1,8,0:3:0:0:
445,266,5333,1,4,0:3:0:0:
194,218,5470,1,12,0:1:0:0:
171,125,5745,6,0,L|196:226,1,95,2|0,0:0|0:0,0:0:0:0:
183,95,6296,2,0,L|208:196,1,95,2|0,0:0|0:0,0:0:0:0:
45,49,6846,2,0,L|20:150,1,95,2|0,0:0|0:0,0:0:0:0:
33,19,7397,2,0,L|8:120,1,95,2|0,0:0|0:0,0:0:0:0:
22,378,7947,2,0,L|0:285,1,95,2|0,0:0|0:0,0:0:0:0:
183,95,8360,5,8,0:3:0:0:
158,295,8498,1,4,0:3:0:0:
20,86,8635,2,0,B|88:66|88:66|105:22|105:22|185:0,1,190,12|10,0:0|0:3,0:0:0:0:
315,0,8979,1,8,0:1:0:0:
297,28,9047,1,8,0:3:0:0:
291,60,9116,1,8,0:1:0:0:
295,93,9185,1,8,0:0:0:0:
311,122,9254,1,8,0:1:0:0:
335,144,9323,1,8,0:3:0:0:
366,157,9391,1,8,0:1:0:0:
399,159,9460,1,4,0:3:0:0:
430,149,9529,1,4,0:3:0:0:
457,129,9598,5,8,0:0:0:0:
384,44,9736,1,8,0:0:0:0:
309,258,9874,5,14,0:1:0:0:
309,258,10011,1,2,0:0:0:0:
235,175,10149,2,0,P|294:152|341:142,1,104.500003189087,10|0,0:0|0:0,0:0:0:0:
488,350,10424,2,8,P|429:324|383:313,1,104.500003189087,10|8,0:1|0:1,0:1:0:0:
235,175,10700,5,10,0:0:0:0:
193,259,10837,2,8,P|197:348|102:315,1,209.000006378174,10|8,0:1|0:1,0:1:0:0:
14,354,11250,2,0,P|28:292|57:232,1,104.500003189087,10|0,0:0|0:0,0:0:0:0:
241,0,11525,5,10,0:1:0:0:
124,102,11663,1,10,0:1:0:0:
235,175,11800,2,0,P|221:113|192:53,1,104.500003189087,8|0,0:0|0:0,0:0:0:0:
279,363,12076,5,10,0:1:0:0:
279,363,12213,1,2,0:0:0:0:
311,281,12351,2,0,L|427:249,1,104.500003189087,10|0,0:0|0:0,0:0:0:0:
390,92,12626,2,8,L|506:124,1,104.500003189087,10|8,0:1|0:1,0:1:0:0:
241,0,12901,5,10,0:0:0:0:
206,74,13039,2,8,B|182:154|72:162|72:162|38:115,1,209.000006378174,10|8,0:1|0:1,0:1:0:0:
124,298,13452,2,0,B|72:289|72:289|4:306,1,104.500003189087,10|8,0:0|0:1,0:0:0:0:
176,366,13727,2,0,B|227:354|227:354|279:363,1,104.500003189087,2|8,0:0|0:1,0:0:0:0:
465,144,14002,5,8,0:0:0:0:
279,363,14140,1,8,0:0:0:0:
459,297,14278,5,14,0:1:0:0:
459,297,14415,1,2,0:0:0:0:
300,195,14553,2,0,P|325:247|343:306,1,104.500003189087,8|0,0:0|0:0,0:0:0:0:
206,74,14828,2,8,P|181:126|163:185,1,104.500003189087,10|8,0:1|0:1,0:1:0:0:
176,366,15103,5,10,0:0:0:0:
19,271,15241,2,8,B|94:259|94:259|128:284|128:284|227:266,1,209.000006378174,10|8,0:1|0:1,0:1:0:0:
206,74,15654,2,0,P|156:57|109:34,1,104.500003189087,10|0,0:0|0:0,0:0:0:0:
386,22,15929,5,10,0:1:0:0:
287,13,16066,1,10,0:1:0:0:
384,48,16204,2,0,P|433:31|480:8,1,104.500003189087,8|0,0:0|0:0,0:0:0:0:
492,269,16479,5,10,0:1:0:0:
492,269,16617,1,2,0:0:0:0:
356,160,16755,2,0,L|399:271,1,104.500003189087,10|0,0:0|0:0,0:0:0:0:
206,74,17030,2,8,L|163:185,1,104.500003189087,10|8,0:1|0:1,0:1:0:0:
270,239,17305,5,10,0:0:0:0:
11,374,17443,2,8,B|59:354|104:378|104:378|172:341|132:278,1,209.000006378174,12|8,0:1|0:1,0:1:0:0:
78,32,17855,5,12,0:0:0:0:
137,286,17993,1,8,0:1:0:0:
137,286,18062,1,8,0:1:0:0:
137,286,18131,1,12,0:0:0:0:
8,224,18268,1,10,0:1:0:0:
8,224,18337,1,8,0:1:0:0:
8,224,18406,1,10,0:0:0:0:
206,74,18544,1,2,0:0:0:0:
270,239,18681,6,0,P|246:290|236:398,1,142.500005435944,14|8,0:1|0:0,0:0:0:0:
233,374,19094,1,0,0:0:0:0:
336,315,19232,1,10,0:1:0:0:
336,315,19369,2,8,B|373:308|373:308|412:315,1,71.2500027179719,10|8,0:1|0:0,0:0:0:0:
482,171,19644,6,0,P|480:133|509:106,1,71.2500027179719,2|8,0:0|0:1,0:0:0:0:
479,26,19920,2,0,P|446:49|347:9,1,142.500005435944,2|8,0:0|0:1,0:0:0:0:
354,21,20333,1,0,0:0:0:0:
206,74,20470,1,10,0:1:0:0:
206,74,20608,2,0,P|242:63|282:60,1,71.2500027179719,10|0,0:0|0:0,0:0:0:0:
133,9,20883,6,8,B|64:32|64:32|-18:-2,1,142.500005435944,10|8,0:1|0:0,0:0:0:0:
0,5,21296,1,0,0:0:0:0:
45,191,21433,1,10,0:1:0:0:
45,191,21571,2,0,L|19:110,1,71.2500027179719,10|8,0:1|0:0,0:0:0:0:
206,74,21846,6,0,L|184:141,1,71.2500027179719,2|8,0:0|0:1,0:0:0:0:
279,194,22122,2,0,P|323:182|370:176,1,71.2500027179719,2|8,0:0|0:0,0:0:0:0:
348,177,22397,1,8,0:1:0:0:
435,267,22534,2,0,P|479:279|526:285,1,71.2500027179719,2|8,0:0|0:1,0:0:0:0:
348,177,22810,5,10,0:0:0:0:
441,163,22947,1,2,0:0:0:0:
336,289,23085,2,0,P|338:342|253:339,1,142.500005435944,14|10,0:1|0:0,0:0:0:0:
263,352,23498,1,0,0:0:0:0:
153,295,23635,1,10,0:1:0:0:
153,295,23773,2,8,P|166:335|171:371,1,71.2500027179719,10|8,0:1|0:0,0:1:0:0:
6,322,24048,6,0,P|10:287|43:175,1,142.500005435944,2|0,0:0|0:0,0:0:0:0:
90,74,24461,2,0,B|52:84|52:84|14:75,1,71.2500027179719,10|8,0:0|0:1,0:0:0:0:
198,0,24736,2,0,B|160:10|160:10|122:1,1,71.2500027179719,2|8,0:0|0:1,0:0:0:0:
230,84,25011,6,0,P|244:131|270:129,1,71.2500027179719,10|0,0:0|0:0,0:0:0:0:
300,206,25287,2,0,L|449:173,2,142.500005435944,10|8|10,0:1|0:0|0:1,0:0:0:0:
381,86,25975,5,10,0:1:0:0:
393,310,26112,1,10,0:0:0:0:
230,84,26250,2,8,B|165:60|105:100|105:100|55:33,1,190,14|8,0:1|0:1,0:1:0:0:
10,208,26663,2,0,P|32:266|45:318,1,95,14|0,0:0|0:0,0:0:0:0:
238,347,26938,5,10,0:1:0:0:
195,328,27006,1,8,0:1:0:0:
171,287,27075,1,8,0:1:0:0:
177,241,27144,1,8,0:1:0:0:
209,207,27213,2,0,B|254:221|254:221|310:199,1,95,14|0,0:0|0:0,0:0:0:0:
352,93,27489,6,0,B|326:29|397:2|397:2|432:32,1,142.500005435944,14|10,0:1|0:0,0:0:0:0:
416,18,27901,1,0,0:0:0:0:
485,113,28039,1,10,0:1:0:0:
485,113,28177,2,8,P|470:150|463:184,1,71.2500027179719,10|8,0:1|0:0,0:1:0:0:
298,204,28452,6,0,P|313:241|320:275,1,71.2500027179719,2|8,0:0|0:1,0:0:0:0:
377,345,28727,2,0,B|434:337|434:337|458:350|458:350|524:342,1,142.500005435944,2|8,0:0|0:1,0:0:0:0:
512,343,29140,1,0,0:0:0:0:
468,247,29278,1,10,0:1:0:0:
468,247,29415,2,8,B|477:214|477:214|457:167,1,71.2500027179719,10|0,0:0|0:0,0:0:0:0:
322,24,29690,6,8,P|327:73|246:67,1,142.500005435944,10|10,0:1|0:0,0:0:0:0:
251,77,30103,1,0,0:0:0:0:
123,46,30241,1,10,0:1:0:0:
123,46,30378,2,0,P|165:31|203:13,1,71.2500027179719,10|8,0:1|0:0,0:0:0:0:
170,151,30654,2,0,P|212:166|250:184,1,71.2500027179719,2|8,0:0|0:1,0:0:0:0:
90,35,30929,2,0,P|132:20|170:2,1,71.2500027179719,2|8,0:0|0:0,0:0:0:0:
81,197,31204,6,8,B|83:252|20:282|20:282|-13:246,1,142.500005435944,10|10,0:1|0:1,0:1:0:0:
205,262,31617,1,10,0:0:0:0:
250,349,31755,1,2,0:0:0:0:
227,247,31892,6,0,P|228:208|237:174,1,71.2500027179719,14|0,0:1|0:0,0:0:0:0:
369,198,32167,2,0,P|368:159|359:125,1,71.2500027179719,10|0,0:0|0:0,0:0:0:0:
426,41,32443,1,10,0:1:0:0:
426,41,32580,2,0,B|460:49|460:49|508:30,1,71.2500027179719,10|8,0:1|0:0,0:0:0:0:
502,275,32855,6,8,P|508:342|437:333,1,142.500005435944,14|8,0:1|0:1,0:1:0:0:
337,307,33268,2,0,P|384:289|417:270,1,71.2500027179719,10|0,0:0|0:0,0:0:0:0:
235,176,33544,2,8,P|188:158|155:139,1,71.2500027179719,10|8,0:1|0:1,0:1:0:0:
421,66,33819,2,0,P|468:48|501:29,1,71.2500027179719,10|0,0:0|0:0,0:0:0:0:
239,17,34094,6,0,B|263:2|263:2|334:13|328:86,2,142.500005435944,14|8|10,0:1|0:0|0:1,0:0:0:0:
5,84,34782,2,0,L|35:18,1,71.2500027179719,10|8,0:1|0:0,0:0:0:0:
12,189,35057,6,8,B|7:257|81:280|81:280|123:255,1,142.500005435944,14|8,0:1|0:1,0:1:0:0:
390,209,35470,2,0,B|353:199|353:199|309:207,1,71.2500027179719,12|8,0:0|0:3,0:0:0:0:
294,198,35677,1,8,0:3:0:0:
294,198,35745,1,8,0:3:0:0:
359,312,35883,5,10,0:0:0:0:
206,210,36021,1,10,0:3:0:0:
359,113,36158,1,6,0:3:0:0:
206,10,36296,6,0,B|273:2|273:2|300:21|300:21|380:10,1,170.999994781494,14|8,0:1|0:0,0:0:0:0:
369,11,36709,1,0,0:0:0:0:
233,106,36846,2,8,P|179:85|130:73,1,85.4999973907472,10|8,0:1|0:1,0:1:0:0:
91,150,37122,2,0,P|37:129|-12:117,1,85.4999973907472,8|0,0:0|0:0,0:0:0:0:
63,257,37397,6,0,L|11:346,1,85.4999973907472,10|0,0:1|0:0,0:0:0:0:
206,210,37672,2,0,L|258:299,1,85.4999973907472,10|8,0:0|0:1,0:0:0:0:
43,244,37947,2,0,L|-9:333,1,85.4999973907472,2|8,0:0|0:1,0:0:0:0:
186,197,38222,2,0,L|238:286,1,85.4999973907472,10|0,0:0|0:0,0:0:0:0:
366,110,38498,6,0,B|345:35|433:-3|433:-3|465:37,1,170.999994781494,10|10,0:1|0:0,0:0:0:0:
432,183,38911,2,0,P|472:243|494:373,1,170.999994781494,2|8,0:0|0:1,0:0:0:0:
186,197,39323,5,8,0:0:0:0:
186,197,39461,2,8,P|146:257|124:387,1,170.999994781494,8|8,0:1|0:1,0:1:0:0:
249,375,39874,6,0,P|245:328|251:278,1,85.4999973907472,10|0,0:0|0:0,0:0:0:0:
40,237,40149,2,8,P|36:190|42:140,1,85.4999973907472,10|8,0:1|0:1,0:1:0:0:
273,288,40424,2,0,P|269:241|275:191,1,85.4999973907472,10|0,0:0|0:0,0:0:0:0:
219,16,40700,6,8,B|137:43|137:43|54:7,1,170.999994781494,14|8,0:1|0:0,0:0:0:0:
59,9,41112,1,0,0:0:0:0:
313,25,41250,6,8,P|315:88|342:108,1,85.4999973907472,10|8,0:1|0:1,0:1:0:0:
421,151,41525,2,0,P|423:88|450:68,1,85.4999973907472,8|0,0:0|0:0,0:0:0:0:
355,272,41800,6,0,L|449:245,1,85.4999973907472,10|0,0:1|0:0,0:0:0:0:
346,384,42076,2,0,L|440:357,1,85.4999973907472,10|8,0:0|0:1,0:0:0:0:
261,270,42351,2,0,L|355:243,1,85.4999973907472,2|8,0:0|0:1,0:0:0:0:
252,382,42627,2,0,L|346:355,1,85.4999973907472,10|0,0:0|0:0,0:0:0:0:
139,228,42901,6,0,P|141:286|39:273,1,170.999994781494,14|10,0:1|0:0,0:0:0:0:
48,291,43314,1,2,0:0:0:0:
76,109,43452,5,12,0:1:0:0:
139,228,43589,1,8,0:1:0:0:
208,142,43727,2,0,B|195:101|195:101|216:48,1,85.4999973907472,8|0,0:0|0:0,0:0:0:0:
459,80,44002,5,12,0:1:0:0:
339,17,44140,1,8,0:1:0:0:
390,229,44278,5,10,0:0:0:0:
510,166,44416,1,8,0:1:0:0:
317,281,44553,5,10,0:0:0:0:
338,316,44621,1,8,0:0:0:0:
324,355,44690,1,8,0:0:0:0:
285,368,44759,1,8,0:0:0:0:
248,346,44828,5,10,0:3:0:0:
246,337,44896,1,8,0:3:0:0:
244,329,44965,1,8,0:3:0:0:
243,320,45034,1,8,0:3:0:0:
242,311,45103,6,0,B|212:378|136:366|136:366|115:317,1,170.999994781494,14|10,0:1|0:0,0:0:0:0:
6,242,45516,2,0,P|5:291|32:327,1,85.4999973907472,2|8,0:0|0:1,0:0:0:0:
78,164,45791,2,0,P|99:127|96:85,1,85.4999973907472,10|8,0:1|0:0,0:0:0:0:
242,11,46066,6,8,B|307:9|334:51|334:51|410:9,1,170.999994781494,10|8,0:1|0:1,0:1:0:0:
308,151,46479,2,0,P|327:193|339:246,1,85.4999973907472,10|0,0:0|0:0,0:0:0:0:
512,198,46755,2,8,P|466:193|414:177,1,85.4999973907472,10|8,0:1|0:1,0:1:0:0:
365,355,47030,2,0,P|391:317|431:280,1,85.4999973907472,10|0,0:0|0:0,0:0:0:0:
221,161,47305,6,8,B|253:139|253:139|337:165|337:245,1,170.999994781494,10|10,0:1|0:0,0:0:0:0:
308,40,47718,2,0,L|407:14,1,85.4999973907472,2|8,0:0|0:1,0:0:0:0:
96,85,47993,2,0,L|-3:59,1,85.4999973907472,10|8,0:1|0:0,0:0:0:0:
52,231,48268,6,8,P|35:289|137:289,1,170.999994781494,10|8,0:1|0:1,0:1:0:0:
256,286,48681,2,0,P|273:344|171:344,1,170.999994781494,10|10,0:0|0:1,0:0:0:0:
337,162,49094,5,8,0:1:0:0:
256,286,49232,1,10,0:0:0:0:
221,161,49369,1,8,0:1:0:0:
379,299,49507,2,0,P|422:283|461:276,1,85.4999973907472,14|8,0:0|0:1,0:0:0:0:
431,100,49782,2,0,P|474:116|513:123,1,85.4999973907472,8|8,0:0|0:1,0:0:0:0:
340,0,50057,5,10,0:0:0:0:
461,24,50195,1,8,0:1:0:0:
308,75,50333,2,0,P|268:59|226:52,1,85.4999973907472,8|8,0:0|0:1,0:0:0:0:
47,218,50608,5,14,0:0:0:0:
124,172,50745,5,8,0:3:0:0:
124,172,50814,1,8,0:3:0:0:
124,172,50883,1,6,0:3:0:0:
124,172,50952,1,8,0:1:0:0:
124,172,51021,2,0,L|100:79,1,85.4999973907472,12|10,0:0|0:3,0:0:0:0:
204,134,51227,1,8,0:3:0:0:
204,134,51296,1,4,0:3:0:0:
204,134,51365,1,8,0:1:0:0:
204,134,51434,2,0,L|228:41,1,85.4999973907472,14|0,0:0|0:0,0:0:0:0:
307,280,51709,6,0,B|266:289|266:289|220:279,1,85.4999973907472,10|8,0:0|0:3,0:0:0:0:
205,251,51915,1,8,0:3:0:0:
205,251,51984,1,8,0:3:0:0:
411,154,52122,2,0,B|370:163|370:163|324:153,1,85.4999973907472,12|8,0:0|0:1,0:0:0:0:
328,43,52328,1,8,0:1:0:0:
339,52,52397,6,0,B|399:35|444:76|444:76|494:26,2,170.999994781494,12|8|8,0:0|0:0|0:1,0:0:0:0:
254,0,53085,1,8,0:1:0:0:
254,0,53154,1,8,0:1:0:0:
254,0,53222,1,10,0:0:0:0:
319,315,53498,5,10,0:3:0:0:
362,324,53566,1,8,0:3:0:0:
308,334,53635,1,10,0:3:0:0:
351,343,53703,1,8,0:3:0:0:
300,351,53773,1,10,0:3:0:0:
343,360,53841,1,8,0:3:0:0:
343,360,53911,6,0,B|301:278|362:204|362:204|319:140,2,227.999993041992,14|8|8,0:1|0:0|0:1,0:0:0:0:
343,360,54599,1,8,0:1:0:0:
242,231,54736,2,0,P|157:226|58:231,1,170.999994781494,10|0,0:0|0:0,0:0:0:0:
20,157,55011,6,0,B|34:117|-1:83|-1:83|24:30|82:50,1,170.999994781494,10|0,0:1|0:0,0:0:0:0:
85,27,55287,1,8,0:0:0:0:
267,25,55424,2,8,B|285:124|164:143|164:143|140:76,1,227.999993041992,8|8,0:1|0:1,0:1:0:0:
361,37,55837,2,0,B|417:52|417:52|479:33,1,113.999996520996,10|2,0:0|0:0,0:0:0:0:
432,140,56044,1,2,0:0:0:0:
429,159,56112,6,8,B|453:129|453:129|525:181|525:181|472:284,1,227.999993041992,10|8,0:1|0:0,0:0:0:0:
478,270,56525,1,0,0:0:0:0:
217,276,56663,5,10,0:1:0:0:
325,169,56800,1,8,0:1:0:0:
365,377,56938,2,0,L|337:258,1,113.999996520996,8|0,0:0|0:0,0:0:0:0:
204,14,57213,6,0,P|201:80|106:68,1,170.999994781494,10|0,0:1|0:0,0:0:0:0:
110,54,57489,1,8,0:0:0:0:
0,267,57626,2,8,B|72:251|72:251|85:291|85:291|195:348,1,227.999993041992,8|8,0:1|0:1,0:1:0:0:
19,353,58039,1,10,0:0:0:0:
19,353,58108,1,2,0:0:0:0:
19,353,58177,1,2,0:0:0:0:
84,150,58314,6,0,P|76:91|112:52,1,113.999996520996,10|0,0:1|0:0,0:0:0:0:
287,161,58589,2,0,P|279:220|315:259,1,113.999996520996,10|0,0:0|0:0,0:0:0:0:
394,186,58865,5,10,0:1:0:0:
475,333,59002,1,8,0:1:0:0:
492,57,59140,1,10,0:0:0:0:
402,24,59278,6,8,B|323:-6|243:46|243:46|187:-10,1,227.999993041992,10|8,0:1|0:1,0:1:0:0:
84,150,59690,2,0,P|142:125|195:114,1,113.999996520996,10|0,0:0|0:0,0:0:0:0:
129,328,59966,2,8,P|71:303|18:292,1,113.999996520996,10|8,0:1|0:1,0:1:0:0:
221,215,60241,2,0,B|230:287|299:315|299:315|356:300,1,170.999994781494,10|0,0:0|0:0,0:0:0:0:
389,233,60516,6,0,B|374:199|345:191|345:191|334:118|399:113,1,170.999994781494,10|0,0:1|0:0,0:0:0:0:
412,137,60791,1,10,0:0:0:0:
490,255,60929,2,0,P|465:323|459:379,1,113.999996520996,2|8,0:0|0:1,0:0:0:0:
459,363,61204,1,8,0:1:0:0:
251,323,61342,2,0,P|241:266|220:214,1,113.999996520996,8|0,0:0|0:0,0:0:0:0:
219,37,61617,6,0,B|139:71|139:71|50:27,1,170.999994781494,12|0,0:1|0:0,0:0:0:0:
45,46,61892,1,8,0:0:0:0:
342,32,62030,2,8,B|379:-2|379:-2|491:20|488:122,1,227.999993041992,12|8,0:1|0:0,0:1:0:0:
392,190,62374,1,8,0:0:0:0:
359,235,62442,1,8,0:0:0:0:
368,289,62511,1,8,0:3:0:0:
413,322,62580,1,4,0:3:0:0:
468,312,62649,1,4,0:3:0:0:
498,267,62718,6,0,B|403:285|358:195|358:195|266:195,2,256.50000097847,14|8|8,0:1|0:0|0:1,0:0:0:0:
498,267,63406,1,8,0:1:0:0:
286,359,63544,2,0,P|208:351|87:358,1,192.375000733852,10|0,0:0|0:0,0:0:0:0:
104,259,63819,6,0,B|103:171|12:169|12:169|-4:234,1,192.375000733852,10|0,0:1|0:0,0:0:0:0:
6,252,64094,1,8,0:0:0:0:
192,109,64232,2,8,B|281:91|281:91|301:34|301:34|417:13,1,256.50000097847,8|8,0:1|0:1,0:1:0:0:
166,24,64644,2,0,B|106:46|106:46|40:23,1,128.250000489235,10|0,0:0|0:0,0:0:0:0:
386,114,64920,6,8,P|431:252|441:367,1,256.50000097847,10|8,0:1|0:0,0:0:0:0:
259,210,65333,1,2,0:0:0:0:
259,210,65401,1,2,0:0:0:0:
259,210,65470,2,0,B|85:156|167:257|-2:222,1,256.50000097847,10|8,0:1|0:0,0:0:0:0:
12,224,65883,1,0,0:0:0:0:
166,24,66021,6,0,B|138:5|138:5|31:13|46:122,1,192.375000733852,10|0,0:1|0:0,0:0:0:0:
66,130,66296,1,8,0:0:0:0:
279,17,66433,2,8,B|377:3|377:3|412:31|412:31|526:12,1,256.50000097847,8|10,0:1|0:1,0:1:0:0:
333,112,66846,1,10,0:0:0:0:
333,112,66915,1,2,0:0:0:0:
333,112,66984,1,2,0:0:0:0:
511,373,67122,6,0,P|497:245|455:124,2,256.50000097847,14|8|8,0:1|0:0|0:1,0:0:0:0:
46,264,67810,5,10,0:1:0:0:
333,112,67947,1,10,0:0:0:0:
252,357,68085,1,2,0:0:0:0:
116,31,68222,2,0,B|103:115|208:156|208:156|255:137,1,192.375000733852,14|0,0:1|0:0,0:0:0:0:
231,127,68498,2,0,B|213:68|213:68|228:0,1,128.250000489235,10|8,0:0|0:1,0:0:0:0:
237,238,68773,6,0,B|275:229|275:229|296:244|296:244|378:228,1,128.250000489235,2|8,0:0|0:1,0:0:0:0:
121,364,69048,2,0,B|83:355|83:355|62:370|62:370|-20:354,1,128.250000489235,10|0,0:0|0:0,0:0:0:0:
51,16,69323,6,0,B|46:51|4:65|4:65|-13:154|52:169,1,192.375000733852,14|0,0:1|0:0,0:0:0:0:
76,182,69599,2,0,P|91:122|130:62,1,128.250000489235,10|0,0:0|0:0,0:0:0:0:
331,24,69874,1,10,0:1:0:0:
472,115,70011,2,0,P|457:55|418:-5,1,128.250000489235,10|8,0:1|0:0,0:0:0:0:
421,0,70287,1,0,0:0:0:0:
268,178,70424,5,10,0:0:0:0:
244,235,70492,1,8,0:0:0:0:
270,292,70561,1,8,0:1:0:0:
329,311,70630,1,8,0:1:0:0:
383,280,70700,2,0,L|446:255,1,64.1250002446175,8|0,0:3|0:0,0:0:0:0:
121,364,70837,5,8,0:1:0:0:
121,364,70906,1,8,0:1:0:0:
121,364,70975,2,0,L|58:339,1,64.1250002446175,4|0,0:3|0:0,0:0:0:0:
32,186,71112,5,8,0:1:0:0:
75,186,71181,1,8,0:1:0:0:
105,145,71250,2,0,B|123:88|123:88|86:21,1,128.250000489235,8|0,0:0|0:0,0:0:0:0:
219,147,71525,6,0,B|284:139|284:139|310:156|310:156|404:143,1,170.999994781494,14|10,0:1|0:0,0:0:0:0:
384,146,71938,1,0,0:0:0:0:
253,228,72076,2,8,P|271:268|283:317,1,85.4999973907472,10|8,0:1|0:1,0:1:0:0:
368,373,72351,2,0,P|378:331|396:292,1,85.4999973907472,10|0,0:0|0:0,0:0:0:0:
439,76,72626,6,8,B|517:84|516:181|516:181|479:212,1,170.999994781494,10|8,0:1|0:0,0:0:0:0:
368,19,73039,2,8,B|286:46|286:46|198:8,1,170.999994781494,8|8,0:1|0:1,0:1:0:0:
54,8,73452,2,8,P|40:55|144:57,1,170.999994781494,8|8,0:0|0:1,0:0:0:0:
37,370,74002,6,0,L|12:281,1,85.4999973907472,10|0,0:0|0:0,0:0:0:0:
100,229,74278,1,10,0:1:0:0:
100,229,74415,1,8,0:1:0:0:
190,347,74553,2,0,L|215:258,1,85.4999973907472,10|0,0:0|0:0,0:0:0:0:
410,183,74828,6,0,B|378:166|378:166|297:184|310:269,1,170.999994781494,10|8,0:1|0:0,0:0:0:0:
310,265,75241,1,8,0:1:0:0:
340,381,75378,2,0,P|395:364|431:361,1,85.4999973907472,2|8,0:0|0:1,0:0:0:0:
511,288,75654,2,0,P|468:282|428:268,1,85.4999973907472,8|0,0:0|0:0,0:0:0:0:
208,124,75929,6,0,B|222:57|140:26|140:26|92:73,2,170.999994781494,14|8|10,0:1|0:0|0:1,0:0:0:0:
208,124,76617,1,8,0:1:0:0:
375,42,76755,2,0,B|331:52|331:52|290:42,1,85.4999973907472,8|0,0:0|0:0,0:0:0:0:
458,6,77030,6,0,P|476:54|493:188,1,170.999994781494,14|8,0:1|0:0,0:0:0:0:
396,337,77443,2,0,L|486:300,1,85.4999973907472,10|0,0:1|0:0,0:0:0:0:
414,139,77718,1,10,0:1:0:0:
414,139,77855,2,0,L|504:176,1,85.4999973907472,10|0,0:0|0:0,0:0:0:0:
276,282,78131,6,0,B|214:269|174:315|174:315|126:270,1,170.999994781494,14|10,0:1|0:0,0:0:0:0:
131,275,78544,1,2,0:0:0:0:
13,187,78681,5,10,0:1:0:0:
125,149,78819,1,8,0:1:0:0:
20,165,78956,2,8,P|28:80|55:0,1,170.999994781494,8|10,0:0|0:1,0:1:0:0:
208,36,79369,2,0,B|164:51|164:51|128:31,1,85.4999973907472,2|8,0:0|0:0,0:0:0:0:
489,117,79644,6,0,P|475:68|450:33,1,85.4999973907472,14|0,0:1|0:0,0:0:0:0:
385,277,79920,5,14,0:1:0:0:
305,166,80057,1,8,0:0:0:0:
439,214,80195,1,8,0:1:0:0:
253,248,80333,2,0,P|223:296|308:317,1,170.999994781494,14|10,0:1|0:0,0:0:0:0:
305,320,80745,5,0,0:0:0:0:
134,288,80883,2,8,P|90:308|42:315,1,85.4999973907472,10|8,0:1|0:1,0:1:0:0:
102,189,81158,2,0,P|58:169|10:162,1,85.4999973907472,10|0,0:0|0:0,0:0:0:0:
223,107,81433,6,8,B|288:97|288:97|311:122|311:122|399:109,1,170.999994781494,10|8,0:1|0:0,0:0:0:0:
511,37,81846,2,8,P|484:113|475:223,1,170.999994781494,8|8,0:1|0:1,0:1:0:0:
305,320,82259,2,8,B|355:307|384:344|384:344|439:320|415:266,1,170.999994781494,8|8,0:0|0:1,0:0:0:0:
223,107,82810,6,0,P|227:151|276:177,1,85.4999973907472,10|0,0:0|0:0,0:0:0:0:
89,81,83085,2,8,P|93:37|142:11,1,85.4999973907472,10|8,0:1|0:1,0:1:0:0:
223,107,83360,5,10,0:0:0:0:
123,13,83498,1,2,0:0:0:0:
44,210,83635,2,0,P|17:286|8:396,1,170.999994781494,10|8,0:1|0:0,0:0:0:0:
7,375,84048,5,8,0:1:0:0:
182,367,84186,2,0,L|95:333,1,85.4999973907472,2|8,0:0|0:1,0:0:0:0:
265,302,84461,2,0,L|178:268,1,85.4999973907472,8|0,0:0|0:0,0:0:0:0:
326,373,84736,6,8,B|413:341|413:341|495:372,1,170.999994781494,14|8,0:1|0:0,0:0:0:0:
486,368,85149,1,0,0:0:0:0:
381,222,85287,2,8,P|362:180|359:140,1,85.4999973907472,10|8,0:1|0:1,0:1:0:0:
453,138,85562,2,0,P|434:96|431:56,1,85.4999973907472,8|0,0:0|0:0,0:0:0:0:
173,24,85837,6,0,B|211:6|211:6|289:25|283:103,1,170.999994781494,14|10,0:1|0:0,0:0:0:0:
252,199,86250,1,10,0:1:0:0:
283,97,86388,1,2,0:2:0:0:
358,141,86525,1,8,0:1:0:0:
165,165,86663,2,0,P|128:153|68:144,1,85.4999973907472,10|0,0:0|0:0,0:0:0:0:
0,284,86938,6,0,P|37:272|178:252,2,170.999994781494,14|8|8,0:1|0:0|0:1,0:0:0:0:
275,65,87626,1,8,0:1:0:0:
135,53,87764,5,10,0:0:0:0:
165,165,87901,1,2,0:0:0:0:
265,49,88039,2,0,B|299:22|299:22|352:53|437:53,1,170.999994781494,10|12,0:1|0:0,0:0:0:0:
512,295,88452,2,8,P|531:255|502:127,1,170.999994781494,8|8,0:1|0:1,0:1:0:0:
502,53,88797,1,8,0:1:0:0:
502,53,88865,2,0,B|458:66|458:66|398:44,1,85.4999973907472,12|0,0:0|0:0,0:0:0:0:
246,237,89140,5,14,0:0:0:0:
265,49,89278,1,8,0:1:0:0:
116,207,89415,5,8,0:0:0:0:
97,19,89553,1,8,0:1:0:0:
180,70,89690,5,8,0:0:0:0:
32,161,89828,1,8,0:1:0:0:
32,161,89897,1,8,0:1:0:0:
32,161,89966,1,10,0:0:0:0:
205,342,90103,1,10,0:1:0:0:
246,237,90241,5,10,0:0:0:0:
271,233,90309,1,8,0:0:0:0:
297,232,90378,1,8,0:1:0:0:
322,235,90447,1,8,0:1:0:0:
345,246,90516,1,8,0:3:0:0:
366,260,90585,1,8,0:3:0:0:
391,268,90653,1,8,0:1:0:0:
416,269,90722,1,8,0:1:0:0:
445,267,90791,5,4,0:3:0:0:
434,225,90859,1,4,0:3:0:0:
437,183,90928,1,4,0:3:0:0:
451,143,90997,1,8,0:1:0:0:
477,109,91066,2,0,B|435:122|435:122|396:109,1,85.4999973907472,8|0,0:0|0:0,0:0:0:0:
157,11,91342,5,14,0:1:0:0:
157,11,91479,1,2,0:0:0:0:
276,41,91617,2,0,P|283:105|326:143,1,104.500003189087,10|0,0:0|0:0,0:0:0:0:
124,103,91892,2,8,P|154:61|156:10,1,104.500003189087,10|8,0:1|0:1,0:1:0:0:
12,161,92167,5,10,0:0:0:0:
115,236,92305,2,8,B|177:215|177:215|192:257|192:257|279:318,1,209.000006378174,10|8,0:1|0:1,0:1:0:0:
114,330,92718,2,0,P|54:352|11:378,1,104.500003189087,10|0,0:0|0:0,0:0:0:0:
273,313,92993,5,10,0:1:0:0:
223,249,93131,1,10,0:1:0:0:
380,230,93268,2,0,P|440:252|483:278,1,104.500003189087,8|0,0:0|0:0,0:0:0:0:
386,66,93544,5,10,0:1:0:0:
386,66,93681,1,2,0:0:0:0:
479,115,93819,2,0,B|492:66|492:66|471:11,1,104.500003189087,10|0,0:0|0:0,0:0:0:0:
286,25,94094,2,8,B|273:74|273:74|294:129,1,104.500003189087,10|8,0:1|0:1,0:1:0:0:
92,38,94369,5,10,0:0:0:0:
22,126,94507,2,8,B|92:106|92:106|105:55|105:55|196:31,1,209.000006378174,10|8,0:1|0:1,0:1:0:0:
102,229,94920,2,0,P|124:293|132:340,1,104.500003189087,10|8,0:0|0:1,0:0:0:0:
311,269,95195,2,0,P|289:333|281:380,1,104.500003189087,2|8,0:0|0:1,0:0:0:0:
351,69,95470,5,8,0:0:0:0:
311,269,95608,1,8,0:0:0:0:
248,131,95745,5,14,0:1:0:0:
248,131,95883,1,2,0:0:0:0:
413,210,96021,2,0,L|520:173,1,104.500003189087,10|0,0:0|0:0,0:0:0:0:
411,0,96296,2,8,L|518:37,1,104.500003189087,10|8,0:1|0:1,0:1:0:0:
246,21,96571,5,10,0:0:0:0:
248,131,96709,2,8,B|253:211|150:231|150:231|101:172,1,209.000006378174,10|8,0:1|0:1,0:1:0:0:
28,88,97122,2,0,P|22:140|30:210,1,104.500003189087,10|0,0:0|0:0,0:0:0:0:
327,381,97397,5,10,0:1:0:0:
279,310,97534,1,10,0:1:0:0:
246,234,97672,2,0,P|241:181|247:130,1,104.500003189087,8|0,0:0|0:0,0:0:0:0:
423,206,97947,5,10,0:1:0:0:
423,206,98085,1,2,0:0:0:0:
367,129,98222,2,0,B|418:110|418:110|474:123,1,104.500003189087,10|0,0:0|0:0,0:0:0:0:
371,283,98498,2,8,B|422:302|422:302|478:289,1,104.500003189087,10|8,0:1|0:1,0:1:0:0:
512,377,98773,5,10,0:0:0:0:
367,129,98911,2,8,B|317:111|267:139|267:139|200:105|215:39,1,209.000006378174,14|10,0:1|0:1,0:1:0:0:
138,0,99323,5,10,0:0:0:0:
26,280,99461,2,8,P|31:194|64:67,1,209.000006378174,14|10,0:1|0:1,0:1:0:0:
318,327,99874,5,10,0:0:0:0:
143,153,100011,1,8,0:0:0:0:
192,290,100149,5,14,0:1:0:0:
192,290,100287,1,2,0:0:0:0:
271,168,100424,2,0,P|337:146|370:126,1,104.500003189087,10|0,0:0|0:0,0:0:0:0:
318,327,100700,2,8,P|384:349|417:369,1,104.500003189087,10|8,0:1|0:1,0:1:0:0:
477,61,100975,5,10,0:0:0:0:
495,172,101112,2,8,B|507:256|403:268|403:268|388:229|347:211,1,209.000006378174,10|8,0:1|0:1,0:1:0:0:
271,168,101525,2,0,P|268:98|240:64,1,104.500003189087,10|0,0:0|0:0,0:0:0:0:
85,0,101800,5,10,0:1:0:0:
249,71,101938,1,10,0:1:0:0:
69,124,102076,2,0,P|43:168|47:220,1,104.500003189087,8|0,0:0|0:0,0:0:0:0:
212,355,102351,5,10,0:1:0:0:
212,355,102489,1,2,0:0:0:0:
104,354,102626,2,0,P|35:352|-21:357,1,104.500003189087,10|0,0:0|0:0,0:0:0:0:
151,219,102901,2,8,P|82:217|26:222,1,104.500003189087,10|8,0:1|0:1,0:1:0:0:
249,71,103177,5,10,0:0:0:0:
271,168,103314,2,8,B|306:195|298:248|298:248|359:293|398:219,1,209.000006378174,10|8,0:1|0:1,0:1:0:0:
481,109,103727,2,0,B|428:124|428:124|376:108,1,104.500003189087,10|8,0:0|0:1,0:0:0:0:
496,222,104002,2,0,B|443:237|443:237|391:221,1,104.500003189087,2|8,0:0|0:1,0:0:0:0:
61,294,104278,5,8,0:0:0:0:
148,107,104415,1,8,0:0:0:0:
202,235,104553,5,14,0:1:0:0:
202,235,104690,1,2,0:0:0:0:
1,168,104828,2,0,P|1:114|31:61,1,104.500003189087,10|0,0:0|0:0,0:0:0:0:
260,98,105103,2,8,P|260:44|230:-9,1,104.500003189087,10|8,0:1|0:1,0:1:0:0:
313,180,105378,5,10,0:0:0:0:
363,92,105516,2,8,B|399:68|399:68|502:98|486:212,1,209.000006378174,10|8,0:1|0:1,0:1:0:0:
405,295,105929,2,0,P|458:278|513:269,1,104.500003189087,10|0,0:0|0:0,0:0:0:0:
298,357,106204,5,10,0:1:0:0:
433,380,106342,1,10,0:1:0:0:
254,279,106479,2,0,P|202:269|152:253,1,104.500003189087,8|0,0:0|0:0,0:0:0:0:
25,30,106755,5,10,0:1:0:0:
25,30,106892,1,2,0:0:0:0:
60,133,107030,2,0,B|45:186|45:186|63:241,1,104.500003189087,10|0,0:0|0:0,0:0:0:0:
324,107,107305,5,10,0:1:0:0:
325,359,107443,1,10,0:1:0:0:
168,230,107580,1,10,0:0:0:0:
474,221,107718,2,8,B|490:195|526:189|526:189|543:94|459:67,1,209.000006378174,14|8,0:1|0:1,0:1:0:0:
304,11,108131,2,0,B|354:28|354:28|419:4,1,104.500003189087,14|8,0:0|0:1,0:0:0:0:
468,71,108337,1,8,0:1:0:0:
468,71,108406,5,14,0:0:0:0:
351,227,108544,1,10,0:1:0:0:
351,227,108612,1,8,0:1:0:0:
351,227,108681,1,10,0:0:0:0:
402,10,108819,1,2,0:0:0:0:
420,287,108956,1,14,0:1:0:0:
144,230,116112,5,10,0:0:0:0:
304,334,116250,1,10,0:3:0:0:
354,181,116388,1,10,0:3:0:0:
159,247,116525,6,0,B|116:265|116:265|48:190|106:111,1,209.000006378174,14|8,0:1|0:1,0:0:0:0:
195,8,116938,2,0,P|190:60|226:106,1,104.500003189087,14|8,0:0|0:0,0:0:0:0:
302,70,117144,1,8,0:0:0:0:
294,55,117213,2,0,B|346:38|346:38|395:50,1,104.500003189087,10|8,0:1|0:0,0:0:0:0:
469,0,117489,5,10,0:0:0:0:
469,0,117626,1,8,0:0:0:0:
498,238,117764,6,0,P|483:189|462:148,1,95,14|0,0:1|0:0,0:0:0:0:
295,288,118039,2,0,P|273:330|260:375,1,95,10|0,0:0|0:0,0:0:0:0:
379,367,118314,1,10,0:1:0:0:
379,367,118452,2,0,L|488:342,1,95,10|8,0:1|0:0,0:0:0:0:
278,181,118727,6,0,L|387:206,1,95,2|8,0:0|0:1,0:0:0:0:
215,110,119002,2,0,B|127:148|127:148|40:92,1,190,2|8,0:0|0:1,0:0:0:0:
47,97,119415,1,0,0:0:0:0:
137,31,119553,1,10,0:1:0:0:
12,177,119690,5,10,0:0:0:0:
102,243,119828,1,2,0:0:0:0:
13,273,119966,2,0,P|6:328|56:367,1,95,10|0,0:1|0:0,0:0:0:0:
262,264,120241,2,0,P|255:209|305:170,1,95,10|0,0:0|0:0,0:0:0:0:
374,117,120516,5,10,0:1:0:0:
374,117,120654,2,8,B|423:129|423:129|494:101,1,95,10|8,0:1|0:0,0:1:0:0:
421,321,120929,2,0,B|470:333|470:333|541:305,1,95,2|8,0:0|0:1,0:0:0:0:
482,205,121204,6,0,P|475:156|463:109,1,95,2|8,0:0|0:0,0:0:0:0:
392,23,121479,2,0,P|385:72|373:119,1,95,10|0,0:1|0:0,0:0:0:0:
257,62,121755,5,10,0:1:0:0:
260,191,121892,1,10,0:0:0:0:
373,116,122030,1,2,0:0:0:0:
134,146,122167,2,0,B|52:140|46:47|46:47|89:24,2,190,14|10|10,0:1|0:0|0:1,0:0:0:0:
103,247,122855,6,0,B|57:235|57:235|5:249,1,95,10|8,0:1|0:0,0:0:0:0:
155,365,123131,2,8,B|220:357|220:357|249:383|249:383|343:368,1,190,14|8,0:1|0:1,0:1:0:0:
260,191,123544,2,0,P|268:257|298:289,1,95,10|0,0:0|0:0,0:0:0:0:
470,247,123819,2,8,P|494:206|494:159,1,95,10|8,0:1|0:1,0:1:0:0:
283,0,124094,2,0,P|291:66|321:98,1,95,10|0,0:0|0:0,0:0:0:0:
163,26,124369,6,0,B|111:34|92:68|92:68|26:77|16:18,2,190,14|8|10,0:1|0:0|0:1,0:0:0:0:
136,178,125057,2,0,P|86:175|23:176,1,95,10|8,0:1|0:0,0:0:0:0:
307,87,125333,6,8,B|271:73|271:73|192:131|241:211,1,190,14|8,0:1|0:1,0:1:0:0:
358,307,125745,2,0,P|350:259|387:215,1,95,12|8,0:0|0:3,0:0:0:0:
391,200,125952,1,8,0:3:0:0:
391,200,126021,1,8,0:3:0:0:
503,200,126158,5,10,0:0:0:0:
307,87,126296,1,10,0:3:0:0:
499,168,126433,1,6,0:3:0:0:
303,55,126571,6,0,B|223:84|223:84|139:46,1,170.999994781494,14|8,0:1|0:0,0:0:0:0:
144,48,126984,1,0,0:0:0:0:
12,141,127122,2,8,P|35:188|43:234,1,85.4999973907472,10|8,0:1|0:1,0:1:0:0:
121,282,127397,2,0,P|98:329|90:375,1,85.4999973907472,8|0,0:0|0:0,0:0:0:0:
218,215,127672,6,0,L|127:184,1,85.4999973907472,10|0,0:1|0:0,0:0:0:0:
224,75,127947,2,0,L|133:44,1,85.4999973907472,10|8,0:0|0:1,0:0:0:0:
294,169,128222,2,0,L|385:200,1,85.4999973907472,2|8,0:0|0:1,0:0:0:0:
288,309,128497,2,0,L|379:340,1,85.4999973907472,10|0,0:0|0:0,0:0:0:0:
475,131,128773,6,8,B|484:217|397:220|397:220|361:182,1,170.999994781494,10|10,0:1|0:0,0:0:0:0:
186,298,129186,2,0,B|217:278|217:278|313:296|297:385,1,170.999994781494,2|8,0:0|0:1,0:0:0:0:
145,193,129599,5,8,0:0:0:0:
145,193,129736,2,8,B|66:160|66:160|-31:197,1,170.999994781494,8|8,0:1|0:1,0:1:0:0:
129,14,130149,6,0,P|126:59|141:113,1,85.4999973907472,10|0,0:0|0:0,0:0:0:0:
278,131,130424,2,8,P|286:89|283:46,1,85.4999973907472,10|8,0:1|0:1,0:1:0:0:
105,0,130700,2,0,P|102:45|117:99,1,85.4999973907472,10|0,0:0|0:0,0:0:0:0:
278,131,130975,6,0,B|328:111|365:136|365:136|417:109|403:52,1,170.999994781494,14|8,0:1|0:0,0:0:0:0:
405,72,131388,1,0,0:0:0:0:
346,242,131525,2,8,P|346:295|386:321,1,85.4999973907472,10|8,0:1|0:1,0:1:0:0:
455,330,131800,2,0,P|455:277|495:251,1,85.4999973907472,8|0,0:0|0:0,0:0:0:0:
225,264,132076,6,0,L|254:357,1,85.4999973907472,10|0,0:1|0:0,0:0:0:0:
71,233,132351,2,0,L|42:326,1,85.4999973907472,10|8,0:0|0:1,0:0:0:0:
222,207,132626,2,0,L|251:300,1,85.4999973907472,2|8,0:0|0:1,0:0:0:0:
68,176,132901,2,0,L|39:269,1,85.4999973907472,10|0,0:0|0:0,0:0:0:0:
17,40,133177,6,0,B|99:73|99:73|179:35,1,170.999994781494,14|10,0:1|0:0,0:0:0:0:
173,37,133589,1,2,0:0:0:0:
362,119,133727,5,12,0:1:0:0:
222,207,133865,1,8,0:1:0:0:
374,98,134002,2,0,P|370:54|405:24,1,85.4999973907472,8|0,0:0|0:0,0:0:0:0:
485,192,134278,5,12,0:1:0:0:
397,26,134415,1,8,0:1:0:0:
411,230,134553,5,10,0:0:0:0:
501,64,134690,1,8,0:1:0:0:
461,294,134828,5,10,0:0:0:0:
467,335,134896,1,8,0:0:0:0:
444,370,134965,1,8,0:0:0:0:
404,379,135034,1,8,0:0:0:0:
364,357,135103,5,10,0:3:0:0:
362,348,135171,1,8,0:3:0:0:
360,340,135240,1,8,0:3:0:0:
358,332,135309,1,8,0:3:0:0:
357,324,135378,6,0,B|305:288|241:321|241:321|205:284,1,170.999994781494,14|10,0:1|0:0,0:0:0:0:
71,277,135791,2,0,P|68:325|93:363,1,85.4999973907472,2|8,0:1|0:1,0:0:0:0:
222,206,136066,2,0,P|225:254|200:292,1,85.4999973907472,10|8,0:1|0:0,0:0:0:0:
339,176,136342,2,8,B|376:188|376:188|439:128|373:63,1,170.999994781494,10|8,0:1|0:1,0:1:0:0:
217,38,136755,6,0,P|268:24|312:9,1,85.4999973907472,10|0,0:0|0:0,0:0:0:0:
144,93,137030,2,8,P|195:79|239:64,1,85.4999973907472,10|8,0:1|0:1,0:1:0:0:
72,138,137305,2,0,P|123:124|167:109,1,85.4999973907472,10|0,0:0|0:0,0:0:0:0:
130,275,137580,6,8,B|132:332|57:360|57:360|24:316,1,170.999994781494,10|10,0:1|0:0,0:0:0:0:
214,354,137993,2,0,B|260:343|260:343|305:352,1,85.4999973907472,2|8,0:0|0:1,0:0:0:0:
266,229,138268,2,0,B|312:218|312:218|357:227,1,85.4999973907472,10|8,0:1|0:0,0:0:0:0:
481,153,138544,6,8,P|452:233|438:331,1,170.999994781494,10|8,0:1|0:1,0:1:0:0:
349,225,138956,2,0,P|335:140|306:60,1,170.999994781494,10|10,0:0|0:1,0:0:0:0:
181,9,139369,5,8,0:1:0:0:
181,154,139507,1,10,0:0:0:0:
306,60,139644,1,8,0:1:0:0:
40,111,139782,2,0,L|72:215,1,85.4999973907472,14|8,0:0|0:1,0:0:0:0:
124,361,140057,2,0,L|149:279,1,85.4999973907472,8|8,0:0|0:1,0:0:0:0:
248,283,140333,5,10,0:0:0:0:
41,330,140470,1,8,0:1:0:0:
234,306,140608,2,0,P|281:290|328:282,1,85.4999973907472,8|8,0:0|0:1,0:0:0:0:
500,71,140883,5,14,0:0:0:0:
419,107,141021,1,8,0:3:0:0:
419,107,141089,1,8,0:3:0:0:
419,107,141158,1,6,0:3:0:0:
419,107,141227,1,8,0:1:0:0:
419,107,141296,2,0,P|372:91|325:83,1,85.4999973907472,12|10,0:0|0:3,0:0:0:0:
424,23,141502,1,8,0:3:0:0:
424,23,141571,1,4,0:3:0:0:
424,23,141640,1,8,0:1:0:0:
424,23,141709,2,0,P|377:7|330:-1,1,85.4999973907472,14|0,0:0|0:0,0:0:0:0:
443,246,141984,6,0,B|435:289|435:289|446:340,1,85.4999973907472,10|8,0:0|0:3,0:0:0:0:
465,349,142190,1,8,0:3:0:0:
465,349,142259,1,8,0:3:0:0:
315,199,142397,2,0,B|307:242|307:242|318:293,1,85.4999973907472,12|8,0:0|0:1,0:0:0:0:
263,354,142603,1,8,0:1:0:0:
254,361,142672,6,0,B|195:346|195:346|161:373|161:373|81:352,2,170.999994781494,12|8|8,0:0|0:0|0:3,0:0:0:0:
315,282,143360,1,8,0:1:0:0:
315,282,143429,1,8,0:1:0:0:
315,282,143498,1,10,0:0:0:0:
59,71,143773,5,10,0:3:0:0:
102,62,143841,1,8,0:3:0:0:
48,52,143910,1,10,0:3:0:0:
91,43,143978,1,8,0:3:0:0:
40,35,144048,1,10,0:3:0:0:
83,26,144116,1,8,0:3:0:0:
83,26,144186,6,0,P|53:91|17:278,2,227.999993041992,14|8|8,0:1|0:0|0:1,0:0:0:0:
83,26,144874,1,8,0:1:0:0:
197,129,145011,2,0,B|268:121|268:121|292:136|292:136|395:126,1,170.999994781494,10|0,0:0|0:0,0:0:0:0:
401,211,145287,6,0,B|432:189|432:189|512:205|500:291,1,170.999994781494,10|0,0:1|0:0,0:0:0:0:
490,308,145562,1,8,0:0:0:0:
216,269,145700,2,8,B|138:245|67:294|67:294|15:239,1,227.999993041992,8|8,0:1|0:1,0:1:0:0:
83,26,146112,2,0,B|63:82|63:82|85:137,1,113.999996520996,10|2,0:0|0:0,0:0:0:0:
170,44,146319,1,2,0:0:0:0:
158,60,146388,6,8,P|222:49|252:180,1,227.999993041992,10|8,0:1|0:0,0:0:0:0:
254,177,146800,1,0,0:0:0:0:
512,173,146938,5,10,0:1:0:0:
434,69,147076,1,8,0:1:0:0:
336,267,147213,2,0,P|357:322|370:382,1,113.999996520996,8|0,0:0|0:0,0:0:0:0:
512,173,147489,6,0,B|437:206|437:206|352:153,1,170.999994781494,10|0,0:1|0:0,0:0:0:0:
361,136,147764,1,8,0:0:0:0:
119,67,147901,2,8,B|178:49|225:91|225:91|303:75|282:2,1,227.999993041992,8|10,0:1|0:1,0:1:0:0:
161,157,148314,1,10,0:0:0:0:
161,157,148383,1,2,0:0:0:0:
161,157,148452,1,2,0:0:0:0:
18,87,148589,6,0,P|39:142|52:202,1,113.999996520996,10|0,0:1|0:0,0:0:0:0:
112,372,148865,2,0,P|124:316|145:263,1,113.999996520996,10|0,0:0|0:0,0:0:0:0:
457,178,149140,5,10,0:1:0:0:
327,294,149278,1,8,0:1:0:0:
450,150,149415,1,10,0:0:0:0:
320,266,149553,2,8,B|417:221|483:332|483:332|446:384,1,227.999993041992,10|8,0:1|0:1,0:1:0:0:
352,109,149966,6,0,B|409:122|409:122|479:100,1,113.999996520996,10|0,0:0|0:0,0:0:0:0:
241,7,150241,2,8,B|298:20|298:20|368:-2,1,113.999996520996,10|8,0:1|0:1,0:1:0:0:
134,99,150516,2,0,B|141:22|54:4|54:4|32:36,1,170.999994781494,10|0,0:0|0:0,0:0:0:0:
11,109,150791,6,0,B|10:151|47:164|47:164|74:233|14:250,1,170.999994781494,10|0,0:1|0:0,0:0:0:0:
34,274,151066,1,10,0:0:0:0:
145,365,151204,2,0,P|129:306|181:255,1,113.999996520996,2|8,0:0|0:1,0:0:0:0:
156,265,151479,1,8,0:1:0:0:
307,316,151617,2,0,P|323:257|271:206,1,113.999996520996,8|0,0:0|0:0,0:0:0:0:
362,29,151892,6,0,B|393:7|393:7|479:35|453:119,1,170.999994781494,14|0,0:1|0:0,0:0:0:0:
486,128,152167,1,8,0:0:0:0:
307,316,152305,2,0,B|418:364|418:364|516:302,1,227.999993041992,14|8,0:1|0:0,0:0:0:0:
491,225,152649,1,8,0:0:0:0:
434,216,152717,1,8,0:0:0:0:
384,191,152786,1,8,0:3:0:0:
351,145,152855,1,4,0:3:0:0:
300,123,152924,1,4,0:3:0:0:
247,118,152993,6,0,B|345:106|345:106|385:142|385:142|506:123,2,256.50000097847,14|8|8,0:1|0:0|0:1,0:0:0:0:
247,118,153681,1,8,0:1:0:0:
92,6,153819,2,8,P|125:53|156:187,1,192.375000733852,10|8,0:0|0:0,0:0:0:0:
210,256,154094,6,0,B|237:234|237:234|292:255|292:255|294:327|357:343,1,192.375000733852,10|0,0:1|0:0,0:0:0:0:
365,323,154369,1,8,0:0:0:0:
29,383,154507,2,8,B|70:286|-7:210|-7:210|45:158,1,256.50000097847,8|8,0:1|0:1,0:1:0:0:
210,3,154920,2,0,B|151:28|151:28|80:1,1,128.250000489235,10|0,0:0|0:0,0:0:0:0:
344,32,155195,6,0,P|342:98|503:92,1,256.50000097847,10|8,0:1|0:0,0:0:0:0:
365,323,155608,1,2,0:0:0:0:
365,323,155677,1,2,0:0:0:0:
365,323,155745,2,0,B|280:298|280:298|253:223|253:223|161:197,1,256.50000097847,10|8,0:1|0:0,0:0:0:0:
168,199,156158,1,0,0:0:0:0:
14,98,156296,6,0,P|51:173|75:285,1,192.375000733852,10|0,0:1|0:0,0:0:0:0:
93,302,156571,1,8,0:0:0:0:
205,78,156709,2,8,B|245:162|356:128|356:128|356:78|390:48,1,256.50000097847,8|10,0:1|0:1,0:1:0:0:
280,14,157122,1,10,0:0:0:0:
280,14,157190,1,2,0:0:0:0:
280,14,157259,1,2,0:0:0:0:
361,232,157397,6,0,B|392:199|392:199|511:234|486:367,2,256.50000097847,14|8|8,0:1|0:0|0:1,0:0:0:0:
205,78,158085,5,10,0:1:0:0:
364,351,158222,1,10,0:0:0:0:
455,112,158360,1,2,0:0:0:0:
96,331,158498,2,0,B|141:329|172:373|172:373|234:352|239:298,1,192.375000733852,14|0,0:1|0:0,0:0:0:0:
213,285,158773,2,0,P|182:228|176:162,1,128.250000489235,10|8,0:0|0:1,0:0:0:0:
114,22,159048,6,0,B|54:48|54:48|-15:15,1,128.250000489235,2|8,0:0|0:1,0:0:0:0:
292,166,159323,2,0,B|232:192|232:192|163:159,1,128.250000489235,10|0,0:0|0:0,0:0:0:0:
336,5,159599,6,0,P|330:85|437:72,1,192.375000733852,14|0,0:1|0:0,0:0:0:0:
448,127,159874,2,0,B|456:92|456:92|445:65|445:65|461:-7,1,128.250000489235,10|0,0:0|0:0,0:0:0:0:
400,216,160149,1,10,0:1:0:0:
499,213,160287,2,0,B|526:275|526:275|512:335,1,128.250000489235,10|8,0:1|0:0,0:0:0:0:
512,334,160562,1,0,0:0:0:0:
265,253,160700,5,10,0:0:0:0:
282,309,160768,1,8,0:0:0:0:
251,359,160837,1,8,0:1:0:0:
193,369,160906,1,8,0:1:0:0:
148,331,160975,2,0,L|134:261,1,64.1250002446175,8|0,0:3|0:0,0:0:0:0:
52,128,161112,5,8,0:1:0:0:
52,128,161181,1,8,0:1:0:0:
52,128,161250,2,0,L|39:190,1,64.1250002446175,8|0,0:3|0:0,0:0:0:0:
118,11,161388,5,8,0:1:0:0:
132,53,161456,1,8,0:1:0:0:
173,68,161525,2,0,P|237:46|300:40,1,128.250000489235,8|0,0:0|0:0,0:0:0:0:
502,100,161800,6,0,B|483:155|407:144|407:144|397:109|375:87,1,170.999994781494,14|10,0:1|0:0,0:0:0:0:
381,94,162213,1,0,0:0:0:0:
448,241,162351,2,8,P|432:286|425:332,1,85.4999973907472,10|8,0:1|0:1,0:1:0:0:
309,316,162626,2,0,P|316:273|331:233,1,85.4999973907472,10|0,0:0|0:0,0:0:0:0:
208,337,162901,6,0,B|126:369|126:369|45:325,1,170.999994781494,10|8,0:1|0:0,0:0:0:0:
25,133,163314,2,8,P|9:198|101:203,1,170.999994781494,8|8,0:1|0:1,0:1:0:0:
203,28,163727,2,0,B|223:105|143:124|143:124|101:90,1,170.999994781494,8|8,0:0|0:1,0:0:0:0:
484,101,164278,6,0,L|454:4,1,85.4999973907472,10|0,0:0|0:0,0:0:0:0:
357,32,164553,1,10,0:1:0:0:
357,32,164690,1,8,0:1:0:0:
455,50,164828,2,0,L|481:132,1,85.4999973907472,10|0,0:0|0:0,0:0:0:0:
341,207,165103,6,0,B|377:188|377:188|460:217|435:308,1,170.999994781494,10|8,0:1|0:0,0:0:0:0:
440,289,165516,1,8,0:1:0:0:
334,374,165654,2,0,P|366:340|337:300,1,85.4999973907472,2|8,0:0|0:1,0:0:0:0:
230,311,165929,2,0,P|198:277|227:237,1,85.4999973907472,8|0,0:0|0:0,0:0:0:0:
97,55,166204,6,0,B|105:100|140:113|140:113|135:186|76:184,2,170.999994781494,14|8|10,0:1|0:0|0:1,0:0:0:0:
97,55,166892,1,8,0:1:0:0:
274,29,167030,2,0,B|232:43|232:43|186:27,1,85.4999973907472,8|0,0:0|0:0,0:0:0:0:
20,97,167305,6,0,P|1:150|97:175,1,170.999994781494,14|10,0:1|0:0,0:0:0:0:
87,309,167718,2,0,P|35:291|-3:282,1,85.4999973907472,10|0,0:1|0:0,0:0:0:0:
170,208,167993,1,10,0:1:0:0:
170,208,168131,2,0,P|118:190|80:181,1,85.4999973907472,10|0,0:0|0:0,0:0:0:0:
207,373,168406,6,0,B|264:356|314:378|314:378|346:317,1,170.999994781494,14|10,0:1|0:0,0:0:0:0:
342,323,168819,1,2,0:0:0:0:
382,110,168956,5,10,0:1:0:0:
290,196,169094,1,8,0:1:0:0:
437,231,169232,2,0,B|509:251|499:341|499:341|467:365,1,170.999994781494,8|10,0:0|0:1,0:0:0:0:
290,196,169644,2,0,L|254:81,1,85.4999973907472,2|8,0:0|0:0,0:0:0:0:
0,299,169920,6,0,L|36:184,1,85.4999973907472,14|0,0:1|0:0,0:0:0:0:
204,0,170195,5,14,0:1:0:0:
264,114,170333,1,8,0:0:0:0:
131,55,170470,1,8,0:1:0:0:
350,65,170608,2,0,B|409:52|409:52|426:10|426:10|494:-2,1,170.999994781494,14|10,0:1|0:0,0:0:0:0:
490,0,171021,5,0,0:0:0:0:
401,155,171158,2,8,P|423:204|432:244,1,85.4999973907472,10|8,0:1|0:1,0:1:0:0:
352,332,171433,2,0,P|330:283|321:243,1,85.4999973907472,10|0,0:0|0:0,0:0:0:0:
202,75,171709,6,0,B|220:150|135:173|135:173|101:143,1,170.999994781494,10|8,0:1|0:0,0:0:0:0:
0,17,172122,2,8,B|62:3|98:56|98:56|154:7,1,170.999994781494,8|8,0:1|0:1,0:1:0:0:
108,149,172534,2,8,P|86:198|72:329,1,170.999994781494,8|8,0:0|0:1,0:0:0:0:
283,74,173085,6,0,B|236:87|236:87|196:73,1,85.4999973907472,10|0,0:0|0:0,0:0:0:0:
387,196,173360,2,8,B|340:209|340:209|300:195,1,85.4999973907472,10|8,0:1|0:1,0:1:0:0:
509,182,173635,5,10,0:0:0:0:
455,264,173773,1,2,0:0:0:0:
445,130,173911,2,8,B|436:89|403:69|403:69|415:6|469:-2,1,170.999994781494,10|8,0:1|0:0,0:0:0:0:
459,0,174323,1,8,0:1:0:0:
305,196,174461,6,0,P|328:249|336:286,1,85.4999973907472,2|8,0:0|0:1,0:0:0:0:
245,279,174736,2,0,P|268:332|276:369,1,85.4999973907472,8|0,0:0|0:0,0:0:0:0:
158,199,175011,6,8,B|76:228|76:228|0:192,1,170.999994781494,14|8,0:1|0:0,0:0:0:0:
0,192,175424,1,0,0:0:0:0:
75,92,175562,2,8,L|33:6,1,85.4999973907472,10|8,0:1|0:1,0:1:0:0:
137,8,175837,2,0,L|174:84,1,85.4999973907472,8|0,0:0|0:0,0:0:0:0:
399,31,176112,6,8,B|336:15|336:15|299:42|299:42|223:21,1,170.999994781494,14|10,0:1|0:0,0:0:0:0:
281,165,176525,1,10,0:1:0:0:
241,26,176663,1,2,0:0:0:0:
259,146,176800,1,8,0:1:0:0:
219,6,176938,2,0,B|176:19|176:19|135:7,1,85.4999973907472,10|0,0:0|0:0,0:0:0:0:
259,146,177213,6,0,P|232:202|210:329,2,170.999994781494,14|8|8,0:1|0:0|0:1,0:0:0:0:
140,163,177901,5,8,0:1:0:0:
324,265,178039,1,10,0:0:0:0:
348,164,178177,1,2,0:0:0:0:
116,263,178314,2,0,B|81:254|81:254|12:300|35:379,1,170.999994781494,10|12,0:1|0:0,0:0:0:0:
299,372,178727,6,8,B|386:349|386:349|479:375,1,170.999994781494,8|8,0:1|0:1,0:1:0:0:
498,300,179071,1,8,0:1:0:0:
498,300,179140,2,0,P|491:256|456:230,1,85.4999973907472,12|0,0:0|0:0,0:0:0:0:
426,1,179415,5,10,0:0:0:0:
348,164,179553,1,8,0:1:0:0:
382,68,179690,1,8,0:0:0:0:
460,231,179828,1,8,0:1:0:0:
246,78,179966,5,8,0:0:0:0:
76,139,180103,1,8,0:1:0:0:
76,139,180172,1,8,0:1:0:0:
76,139,180241,1,10,0:0:0:0:
137,12,180378,1,10,0:1:0:0:
202,223,180516,5,10,0:0:0:0:
224,248,180584,1,8,0:0:0:0:
235,280,180653,1,8,0:1:0:0:
232,314,180722,1,8,0:1:0:0:
217,345,180791,1,8,0:3:0:0:
192,367,180860,1,8,0:3:0:0:
160,378,180928,1,8,0:1:0:0:
126,376,180997,1,8,0:1:0:0:
98,364,181066,5,8,0:3:0:0:
139,354,181134,1,8,0:3:0:0:
181,361,181203,1,8,0:1:0:0:
222,374,181272,1,8,0:1:0:0:
260,373,181342,2,0,B|303:385|303:385|356:367,1,85.4999973907472,8|0,0:0|0:0,0:0:0:0:
512,168,181617,6,0,B|539:72|425:35|425:35|400:123,1,246.999988693238,14|10,0:1|0:0,0:0:0:0:
269,5,182030,2,8,B|290:57|244:89|244:89|248:197|338:183,1,246.999988693238,10|8,0:1|0:1,0:1:0:0:
114,60,182443,2,0,B|54:80|54:80|-4:58,1,123.499994346619,10|0,0:0|0:0,0:0:0:0:
152,169,182718,5,10,0:1:0:0:
114,60,182855,5,2,0:0:0:0:
49,275,182993,1,10,0:0:0:0:
152,169,183131,1,10,0:1:0:0:
217,384,183269,1,2,0:0:0:0:
366,271,183406,5,10,0:1:0:0:
140,318,183544,1,10,0:0:0:0:
445,343,183681,1,2,0:0:0:0:
303,163,183819,5,10,0:1:0:0:
350,377,183956,1,2,0:0:0:0:
413,57,184094,1,10,0:0:0:0:
366,271,184231,1,10,0:1:0:0:
240,47,184369,5,2,0:0:0:0:
479,154,184507,1,10,0:1:0:0:
152,169,184644,1,10,0:0:0:0:
325,9,184782,5,2,0:0:0:0:
325,9,184851,1,2,0:0:0:0:
325,9,184920,1,10,0:1:0:0:
471,234,185057,1,10,0:1:0:0:
145,57,185195,1,10,0:0:0:0:
0,286,185333,6,8,B|41:303|41:303|93:227|93:227|30:127,1,246.999988693238,10|10,0:1|0:1,0:1:0:0:
207,268,185745,2,0,P|204:339|254:380,1,123.499994346619,10|0,0:0|0:0,0:0:0:0:
474,367,186021,5,14,0:1:0:0:
337,158,186158,1,2,0:1:0:0:
443,361,186296,1,10,0:0:0:0:
306,152,186433,2,8,B|422:209|422:209|512:113,1,246.999988693238,10|10,0:1|0:1,0:1:0:0:
366,8,186846,5,10,0:0:0:0:
277,47,186984,1,2,0:0:0:0:
491,28,187122,1,10,0:1:0:0:
154,34,187259,5,10,0:1:0:0:
128,68,187327,1,2,0:0:0:0:
121,110,187396,1,10,0:0:0:0:
132,152,187465,1,2,0:0:0:0:
160,184,187534,1,10,0:1:0:0:
199,201,187603,1,2,0:0:0:0:
242,199,187671,1,2,0:0:0:0:
280,179,187740,1,2,0:0:0:0:
306,152,187810,5,10,0:1:0:0:
357,183,187878,1,2,0:0:0:0:
380,239,187947,1,10,0:0:0:0:
366,298,188016,1,2,0:0:0:0:
319,337,188085,1,2,0:0:0:0:
258,340,188154,1,2,0:0:0:0:
205,304,188222,6,0,B|125:282|55:334|55:334|6:245,1,246.999988693238,10|8,0:1|0:0,0:0:0:0:
55,40,188635,1,10,0:1:0:0:
55,40,188704,1,2,0:1:0:0:
55,40,188773,2,0,P|58:114|208:119,1,246.999988693238,2|8,0:0|0:0,0:0:0:0:
201,128,189186,1,0,0:0:0:0:
506,72,189323,6,0,B|446:54|403:100|403:100|315:66|339:-10,1,246.999988693238,10|10,0:1|0:0,0:0:0:0:
481,260,189736,1,10,0:1:0:0:
386,204,189874,2,0,B|362:262|362:262|389:319,1,123.499994346619,2|8,0:0|0:1,0:0:0:0:
482,157,190149,5,8,0:0:0:0:
482,157,190287,1,8,0:0:0:0:
220,250,190424,5,14,0:1:0:0:
261,238,190492,1,2,0:0:0:0:
303,227,190561,1,2,0:0:0:0:
345,215,190630,1,2,0:0:0:0:
386,204,190699,1,10,0:0:0:0:
182,12,190838,5,10,0:1:0:0:
223,24,190906,1,2,0:0:0:0:
265,35,190975,1,2,0:0:0:0:
307,47,191044,1,2,0:0:0:0:
348,58,191113,1,10,0:1:0:0:
148,251,191250,5,10,0:0:0:0:
189,239,191318,1,2,0:0:0:0:
231,228,191387,1,2,0:0:0:0:
273,216,191456,1,2,0:0:0:0:
314,205,191525,1,10,0:1:0:0:
110,13,191664,5,10,0:1:0:0:
151,25,191732,1,2,0:0:0:0:
193,36,191801,1,10,0:0:0:0:
235,48,191870,1,2,0:0:0:0:
276,59,191939,1,10,0:1:0:0:
149,173,192076,5,2,0:0:0:0:
163,212,192144,1,2,0:0:0:0:
148,251,192213,1,10,0:1:0:0:
109,269,192282,1,2,0:0:0:0:
66,260,192351,1,10,0:0:0:0:
51,299,192419,1,2,0:0:0:0:
66,338,192488,1,2,0:0:0:0:
105,356,192557,1,2,0:0:0:0:
146,345,192626,6,0,B|263:304|263:304|389:349,1,246.999988693238,10|10,0:1|0:0,0:0:0:0:
511,156,193039,2,8,B|532:66|410:25|410:25|377:116,1,246.999988693238,10|10,0:1|0:1,0:1:0:0:
240,141,193452,5,10,0:0:0:0:
388,83,193589,1,2,0:0:0:0:
275,0,193727,5,10,0:1:0:0:
275,0,193865,1,8,0:1:0:0:
354,224,194002,2,0,P|372:286|379:355,1,123.499994346619,10|8,0:0|0:1,0:0:0:0:
66,260,194278,2,0,P|73:198|90:139,1,123.499994346619,2|8,0:0|0:1,0:0:0:0:
382,252,194553,2,0,P|400:314|407:383,1,123.499994346619,10|0,0:0|0:0,0:0:0:0:
457,119,194828,6,0,B|372:91|372:91|362:26|362:26|241:-11,1,246.999988693238,14|8,0:1|0:0,0:0:0:0:
90,139,195241,1,10,0:1:0:0:
90,139,195310,1,2,0:0:0:0:
90,139,195378,2,0,B|130:113|130:113|248:150|213:269,1,246.999988693238,2|8,0:0|0:0,0:0:0:0:
213,266,195791,1,0,0:0:0:0:
457,119,195929,6,8,L|406:-7,1,123.499994346619,10|8,0:1|0:1,0:1:0:0:
364,246,196204,2,0,L|313:120,1,123.499994346619,10|8,0:0|0:1,0:0:0:0:
512,202,196479,2,0,L|461:76,1,123.499994346619,2|8,0:0|0:1,0:0:0:0:
419,329,196754,2,0,L|368:203,1,123.499994346619,10|0,0:0|0:0,0:0:0:0:
215,0,197030,6,0,B|200:84|300:102|300:102|330:67,1,185.249991519928,10|0,0:1|0:0,0:0:0:0:
318,0,197305,1,12,0:0:0:0:
133,190,197443,5,10,0:1:0:0:
133,190,197511,1,2,0:0:0:0:
133,190,197580,2,0,P|71:169|6:155,1,123.499994346619,2|8,0:0|0:1,0:0:0:0:
70,384,197855,2,0,P|130:370|188:350,1,123.499994346619,12|2,0:0|0:0,0:0:0:0:
261,300,198062,1,2,0:0:0:0:
242,286,198131,6,8,B|221:228|221:228|243:165,1,123.499994346619,10|8,0:1|0:1,0:1:0:0:
435,15,198406,2,0,P|469:95|488:209,1,185.249991519928,12|8,0:0|0:0,0:0:0:0:
503,215,198681,5,8,0:3:0:0:
242,286,198819,1,8,0:3:0:0:
342,160,198956,1,4,0:3:0:0:
408,335,199094,1,4,0:3:0:0:
139,374,199232,6,0,B|98:360|98:360|69:374|69:374|17:353,1,123.499994346619,14|0,0:1|0:0,0:0:0:0:
115,114,199507,2,0,B|74:100|74:100|45:114|45:114|-7:93,1,123.499994346619,10|0,0:0|0:0,0:0:0:0:
238,19,199782,5,10,0:1:0:0:
126,203,199920,1,8,0:1:0:0:
263,34,200057,1,10,0:0:0:0:
151,218,200195,2,8,B|225:185|225:185|247:229|247:229|363:271,1,246.999988693238,10|8,0:1|0:1,0:1:0:0:
481,128,200608,6,0,P|465:62|408:20,1,123.499994346619,10|0,0:0|0:0,0:0:0:0:
499,211,200883,2,8,P|483:145|426:103,1,123.499994346619,10|8,0:1|0:1,0:1:0:0:
512,305,201158,2,0,P|496:239|439:197,1,123.499994346619,10|0,0:0|0:0,0:0:0:0:
313,153,201433,6,0,L|361:280,1,123.499994346619,10|0,0:1|0:0,0:0:0:0:
80,60,201709,2,0,L|32:187,1,123.499994346619,10|0,0:0|0:0,0:0:0:0:
313,153,201984,5,10,0:1:0:0:
203,36,202122,1,8,0:1:0:0:
184,259,202259,1,10,0:0:0:0:
306,129,202397,2,8,B|338:94|338:94|418:161|418:161|364:256,1,246.999988693238,10|10,0:1|0:1,0:1:0:0:
400,344,202810,1,10,0:0:0:0:
512,38,202947,2,0,B|451:57|451:57|380:31,1,123.499994346619,2|8,0:0|0:1,0:0:0:0:
118,15,203222,5,10,0:1:0:0:
184,259,203360,1,10,0:0:0:0:
306,129,203498,1,2,0:0:0:0:
5,168,203635,2,0,P|27:239|46:363,1,185.249991519928,14|0,0:1|0:0,0:0:0:0:
80,377,203911,2,0,B|124:371|124:371|148:387|148:387|218:373,1,123.499994346619,10|0,0:0|0:0,0:0:0:0:
468,238,204186,5,10,0:1:0:0:
306,129,204323,1,8,0:1:0:0:
400,344,204461,1,10,0:0:0:0:
374,35,204599,2,8,B|439:128|376:222|376:222|319:215,1,246.999988693238,10|8,0:1|0:1,0:1:0:0:
191,122,205011,6,0,B|204:60|204:60|168:-7,1,123.499994346619,10|0,0:0|0:0,0:0:0:0:
14,29,205287,2,8,B|1:91|1:91|37:158,1,123.499994346619,10|8,0:1|0:1,0:1:0:0:
134,264,205562,6,0,P|67:240|-3:230,1,123.499994346619,10|0,0:0|0:0,0:0:0:0:
330,216,205837,2,0,P|390:204|448:183,1,123.499994346619,10|0,0:1|0:0,0:0:0:0:
475,93,206112,5,10,0:0:0:0:
508,264,206250,2,8,P|512:352|384:333,1,246.999988693238,2|8,0:1|0:1,0:1:0:0:
134,264,206663,5,8,0:0:0:0:
134,264,206800,2,8,P|130:352|258:333,1,246.999988693238,8|8,0:1|0:1,0:1:0:0:
243,156,207213,2,0,B|153:136|153:136|100:172|100:172|-6:146,1,246.999988693238,8|8,0:0|0:1,0:0:0:0:
386,61,207626,5,10,0:1:0:0:
243,156,207764,1,10,0:0:0:0:
283,13,207901,1,2,0:0:0:0:
352,211,208039,2,0,P|374:279|385:344,1,123.499994346619,14|0,0:1|0:0,0:0:0:0:
480,119,208314,6,0,P|491:58|511:0,1,123.499994346619,10|0,0:0|0:0,0:0:0:0:
352,211,208589,1,10,0:1:0:0:
352,211,208727,2,0,B|399:206|399:206|418:219|418:219|487:211,1,123.499994346619,10|8,0:1|0:0,0:0:0:0:
197,69,209002,6,8,B|238:117|238:117|172:225|172:225|128:180,1,246.999988693238,14|8,0:1|0:1,0:1:0:0:
169,370,209415,2,0,P|105:367|35:371,1,123.499994346619,10|0,0:0|0:0,0:0:0:0:
131,184,209690,2,8,P|67:181|-3:185,1,123.499994346619,10|8,0:1|0:1,0:1:0:0:
225,354,209966,2,0,P|161:351|91:355,1,123.499994346619,10|0,0:0|0:0,0:0:0:0:
347,325,210241,6,0,B|326:265|326:265|355:204,1,123.499994346619,14|0,0:1|0:0,0:0:0:0:
512,223,210516,2,0,B|533:283|533:283|504:344,1,123.499994346619,10|0,0:0|0:0,0:0:0:0:
386,107,210791,1,10,0:1:0:0:
386,107,210929,2,0,B|433:102|433:102|452:115|452:115|521:107,1,123.499994346619,10|8,0:1|0:0,0:0:0:0:
199,255,211204,6,8,B|140:237|76:274|76:274|11:241|7:178,1,246.999988693238,14|10,0:1|0:1,0:1:0:0:
25,0,211617,1,10,0:0:0:0:
114,56,211755,2,0,P|108:137|142:178,1,123.499994346619,2|8,0:0|0:1,0:0:0:0:
386,107,212030,5,10,0:1:0:0:
199,255,212167,1,10,0:0:0:0:
233,40,212305,1,2,0:0:0:0:
363,360,212443,2,0,B|336:289|419:237|419:237|459:272,1,185.249991519928,14|0,0:1|0:0,0:0:0:0:
488,263,212718,6,0,P|463:326|451:387,1,123.499994346619,10|0,0:0|0:0,0:0:0:0:
135,324,212993,1,10,0:1:0:0:
135,324,213131,2,0,B|78:350|78:350|15:321,1,123.499994346619,10|8,0:1|0:0,0:0:0:0:
4,87,213406,6,8,P|2:186|132:185,1,246.999988693238,14|8,0:1|0:1,0:1:0:0:
125,193,213819,1,8,0:0:0:0:
319,49,213956,2,0,B|200:86|200:86|85:24,1,246.999988693238,2|8,0:0|0:1,0:0:0:0:
273,184,214369,2,0,P|272:253|312:306,1,123.499994346619,10|0,0:0|0:0,0:0:0:0:
503,89,214644,6,0,B|526:201|404:229|404:229|346:180,2,246.999988693238,14|8|10,0:1|0:0|0:1,0:0:0:0:
319,49,215333,2,0,B|362:40|362:40|386:56|386:56|447:42,1,123.499994346619,10|8,0:1|0:0,0:0:0:0:
113,51,215608,6,8,B|143:11|143:11|222:68|222:68|172:171,1,246.999988693238,14|8,0:1|0:1,0:1:0:0:
52,331,216021,2,0,B|31:272|31:272|61:209,1,123.499994346619,8|8,0:0|0:0,0:0:0:0:
38,184,216227,1,8,0:0:0:0:
38,184,216296,5,8,0:0:0:0:
171,362,216433,1,8,0:3:0:0:
371,144,216571,1,4,0:3:0:0:
504,322,216709,1,4,0:3:0:0:
278,255,216846,5,14,0:1:0:0:
447,240,217396,1,0,0:0:0:0:
253,229,217946,1,0,0:0:0:0:
422,214,218497,1,0,0:0:0:0:
372,363,218772,5,2,0:0:0:0:
175,122,219597,5,0,0:0:0:0:
42,154,220148,1,0,0:0:0:0:
98,26,220699,1,0,0:0:0:0:
124,247,221249,1,2,0:0:0:0:
409,86,221799,5,0,0:0:0:0:
303,39,222350,1,0,0:0:0:0:
392,0,222900,5,0,0:0:0:0:
328,128,223176,1,2,0:0:0:0:
510,302,223726,5,0,0:0:0:0:
396,260,224001,1,0,0:0:0:0:
497,271,224277,1,0,0:0:0:0:
383,229,224552,1,0,0:0:0:0:
329,375,224827,5,0,0:0:0:0:
70,207,225377,5,0,0:0:0:0:
147,233,225515,1,0,0:0:0:0:
129,155,225653,1,2,0:0:0:0:
84,287,226203,5,0,0:0:0:0:
222,0,226754,5,0,0:0:0:0:
277,114,227304,1,0,0:0:0:0:
368,38,227579,1,2,0:0:0:0:
475,293,228405,5,0,0:0:0:0:
437,165,228956,1,0,0:0:0:0:
316,357,229506,1,0,0:0:0:0:
354,229,230057,1,2,0:0:0:0:
34,18,231708,5,0,0:0:0:0:
142,137,231983,1,0,0:0:0:0:
161,8,232258,1,2,0:0:0:0:
11,152,232809,1,0,0:0:0:0:
88,79,233290,5,2,0:0:0:0:
88,79,233359,1,2,0:0:0:0:
192,314,233910,1,0,0:0:0:0:
320,18,234460,6,0,P|292:78|296:229,1,209.000006378174,10|0,0:1|0:0,0:0:0:0:
504,291,235561,2,0,L|468:181,1,104.500003189087,2|0,0:0|0:0,0:0:0:0:
490,340,236111,2,0,L|454:230,1,104.500003189087
360,356,236662,6,0,B|241:335|241:335|187:372|187:372|57:346,1,313.500009567261,10|0,0:1|0:0,0:0:0:0:
58,91,237763,2,0,P|43:153|83:182,1,104.500003189087
14,17,238313,2,0,P|-1:79|39:108,1,104.500003189087
239,60,238864,6,0,L|123:31,1,104.500003189087,10|0,0:1|0:0,0:0:0:0:
342,25,239414,2,0,L|458:-4,1,104.500003189087
260,91,239965,6,0,L|144:62,1,104.500003189087
363,56,240515,2,0,L|479:27,1,104.500003189087
408,209,241065,6,0,P|412:243|345:255,3,104.500003189087,10|0|0|0,0:1|0:0|0:0|0:0,0:0:0:0:
460,313,242166,2,0,P|456:347|523:359,3,104.500003189087,2|0|0|0,0:0|0:0|0:0|0:0,0:0:0:0:
461,53,243267,6,0,B|433:174|290:133|290:133|293:66|257:23,1,313.500009567261,2|0,3:0|0:0,0:0:0:0:
3,0,244368,2,0,P|-28:72|145:129,1,313.500009567261,2|0,0:0|0:0,0:0:0:0:
270,41,245469,6,0,B|299:24|299:24|394:75|363:171,1,209.000006378174,10|0,1:0|0:0,0:0:0:0:
512,239,246570,2,0,B|483:222|483:222|388:273|419:369,1,209.000006378174,2|0,0:0|0:0,0:0:0:0:
89,280,247671,6,0,B|294:272|154:155|377:169,1,313.500009567261,10|0,0:1|0:0,0:0:0:0:
393,18,248772,2,0,P|417:56|474:68,1,104.500003189087
363,168,249322,2,0,P|339:206|282:218,1,104.500003189087
166,108,249873,6,0,L|140:-1,1,104.500003189087,10|0,0:1|0:0,0:0:0:0:
89,280,250423,2,0,L|64:381,1,104.500003189087
0,120,250974,2,0,L|24:221,1,104.500003189087
182,101,251524,2,0,L|156:-8,1,104.500003189087
157,0,251937,1,0,0:0:0:0:
291,84,252075,6,0,P|328:68|410:57,1,104.500003189087,10|0,0:1|0:0,0:0:0:0:
375,232,252625,1,0,0:0:0:0:
458,162,252900,2,0,P|482:222|372:222,1,209.000006378174,0|0,3:0|0:0,0:0:0:0:
217,374,253726,2,0,P|254:358|336:347,1,104.500003189087
168,209,254277,2,0,B|163:298|60:315|60:315|20:265,1,209.000006378174,10|0,0:1|0:0,0:0:0:0:
136,12,255102,5,0,0:0:0:0:
22,95,255377,2,0,B|101:84|101:84|135:117|135:117|235:103,1,209.000006378174
216,105,256203,1,0,0:0:0:0:
363,20,256478,2,0,P|337:65|325:126,1,104.500003189087,2|0,3:0|0:0,0:0:0:0:
512,144,257029,6,0,P|500:93|474:48,1,104.500003189087,0|0,0:0|3:0,0:0:0:0:
453,222,257579,2,0,P|464:272|490:317,1,104.500003189087
488,146,258130,6,0,P|476:95|450:50,1,104.500003189087
429,224,258680,2,0,P|440:274|466:319,1,104.500003189087,10|0,0:1|0:0,0:0:0:0:
277,367,259231,5,0,0:0:0:0:
277,367,259506,1,0,0:0:0:0:
331,251,259781,6,0,L|375:366,1,104.500003189087,2|0,0:0|0:0,0:0:0:0:
146,275,260332,5,0,0:0:0:0:
146,275,260607,1,0,0:0:0:0:
200,159,260882,6,0,L|244:274,1,104.500003189087,2|0,3:0|0:0,0:0:0:0:
237,256,261432,1,0,0:0:0:0:
242,75,261708,2,0,B|169:64|169:64|134:11|134:11|58:0,1,209.000006378174,0|0,3:0|0:0,0:0:0:0:
0,117,262533,2,0,P|64:120|65:78,1,104.500003189087
13,269,263084,6,0,B|43:236|43:236|103:299|103:299|62:369,1,209.000006378174,2|0,3:0|0:0,0:0:0:0:
324,248,264185,2,0,B|379:223|379:223|425:273|521:280,1,209.000006378174
480,1,265286,6,0,P|505:89|343:67,1,313.500009567261,2|0,3:0|3:0,0:0:0:0:
212,133,266387,2,0,P|228:91|203:29,1,104.500003189087
238,108,266937,2,0,P|254:66|229:4,1,104.500003189087
113,78,267488,2,0,P|131:125|114:174,1,104.500003189087,2|0,0:0|0:0,0:0:0:0:
354,261,268038,6,0,L|474:230,1,104.500003189087
62,280,268589,5,10,0:0:0:0:
70,246,268680,5,10,0:0:0:0:
78,212,268772,5,10,0:0:0:0:
87,178,268864,5,10,0:0:0:0:
95,144,268956,5,10,0:0:0:0:
103,110,269047,5,10,0:0:0:0:
113,78,269139,5,10,0:3:0:0:
115,98,269231,5,10,0:3:0:0:
124,117,269323,5,10,0:3:0:0:
139,131,269414,5,10,0:3:0:0:
158,139,269506,5,10,0:3:0:0:
178,140,269598,5,10,0:3:0:0:
197,137,269690,6,0,B|380:134|246:32|467:46,1,285.000010871888,14|0,0:1|0:0,0:0:0:0:
271,76,270515,1,8,0:1:0:0:
385,184,270790,2,0,P|381:260|453:315,1,142.500005435944,10|0,0:0|0:0,0:0:0:0:
512,261,271203,1,2,0:0:0:0:
512,261,271341,2,0,P|516:337|444:392,1,142.500005435944,0|2,0:0|0:0,0:0:0:0:
178,377,271891,6,0,L|25:344,2,142.500005435944,10|8|8,0:1|0:0|0:1,0:0:0:0:
139,9,272992,2,0,L|-14:42,1,142.500005435944,10|0,0:0|0:0,0:0:0:0:
194,137,273543,2,0,L|41:104,1,142.500005435944,10|0,0:1|0:0,0:0:0:0:
318,69,274093,6,0,B|359:37|359:37|496:84|477:229,1,285.000010871888,10|0,0:1|0:0,0:0:0:0:
412,13,274919,1,8,0:1:0:0:
370,287,275194,2,0,B|385:220|385:220|347:147,1,142.500005435944,10|0,0:0|0:0,0:0:0:0:
274,222,275607,1,2,0:0:0:0:
274,222,275744,2,0,B|259:289|259:289|297:362,1,142.500005435944,0|2,0:0|0:0,0:0:0:0:
201,133,276295,6,0,B|146:124|146:124|119:141|119:141|45:126,2,142.500005435944,10|8|8,0:1|0:0|0:1,0:0:0:0:
36,4,277396,5,14,0:0:0:0:
201,133,277579,1,4,0:3:0:0:
65,130,277763,1,4,0:3:0:0:
178,11,277946,5,10,0:3:0:0:
112,235,278130,1,4,0:3:0:0:
201,133,278313,1,4,0:3:0:0:
267,357,278497,6,0,B|281:302|224:266|224:266|247:146|361:194,1,285.000010871888,14|0,0:1|0:0,0:0:0:0:
489,110,279322,1,8,0:1:0:0:
498,325,279598,2,0,P|479:186|431:45,1,285.000010871888,10|0,0:0|0:0,0:0:0:0:
432,49,280423,1,0,0:0:0:0:
225,5,280699,6,0,P|228:47|145:34,2,142.500005435944,10|8|8,0:1|0:0|0:1,0:0:0:0:
225,5,281524,1,0,0:0:0:0:
0,212,281799,2,0,P|-3:254|80:241,1,142.500005435944,10|0,0:0|0:0,0:0:0:0:
194,299,282350,2,0,P|197:341|114:328,1,142.500005435944,10|0,0:1|0:0,0:0:0:0:
0,212,282900,6,0,P|82:217|286:209,1,285.000010871888,10|0,0:1|0:0,0:0:0:0:
433,49,283726,1,10,0:1:0:0:
149,47,284001,2,0,P|231:42|435:50,1,285.000010871888,8|0,0:0|0:0,0:0:0:0:
433,49,284827,1,0,0:0:0:0:
437,269,285102,6,0,B|459:204|459:204|425:120,2,142.500005435944,10|8|8,0:1|0:0|0:1,0:0:0:0:
291,366,286203,5,14,0:0:0:0:
197,132,286478,1,8,0:0:0:0:
190,329,286754,1,10,0:3:0:0:
283,96,287029,1,8,0:3:0:0:
34,1,287304,6,0,B|23:121|144:171|144:171|209:124,1,285.000010871888,14|0,0:1|0:0,0:0:0:0:
6,76,288130,1,8,0:1:0:0:
0,228,288405,2,0,P|20:283|39:383,1,142.500005435944,10|0,0:0|0:0,0:0:0:0:
114,371,288818,1,2,0:0:0:0:
194,371,288955,2,0,B|247:364|247:364|272:381|272:381|357:373,1,142.500005435944,0|2,0:0|0:0,0:0:0:0:
317,187,289506,5,10,0:1:0:0:
330,375,289781,1,8,0:0:0:0:
426,166,290056,1,8,0:1:0:0:
426,166,290607,6,0,L|463:318,1,142.500005435944,10|0,0:0|0:0,0:0:0:0:
350,48,291157,2,0,L|313:200,1,142.500005435944,10|0,0:1|0:0,0:0:0:0:
50,75,291708,6,0,B|102:169|211:115|211:115|206:52|245:8,1,285.000010871888,10|0,0:1|0:0,0:0:0:0:
74,157,292533,1,8,0:1:0:0:
234,23,292809,2,0,P|282:1|351:51,1,142.500005435944,10|0,0:0|0:0,0:0:0:0:
495,80,293221,1,2,0:0:0:0:
439,146,293359,2,0,P|391:124|322:174,1,142.500005435944,0|2,0:0|0:0,0:0:0:0:
238,321,293910,5,10,0:1:0:0:
323,170,294185,1,8,0:0:0:0:
396,379,294460,1,8,0:1:0:0:
74,157,295010,5,14,0:0:0:0:
23,247,295193,1,4,0:3:0:0:
70,45,295377,1,4,0:3:0:0:
187,231,295560,5,10,0:3:0:0:
191,119,295744,1,4,0:3:0:0:
238,321,295927,1,4,0:3:0:0:
346,229,296111,6,0,B|332:193|305:178|305:178|302:35|437:11,1,285.000010871888,14|0,0:1|0:0,0:0:0:0:
473,308,296937,1,8,0:1:0:0:
437,110,297212,2,0,P|476:197|501:395,1,285.000010871888,10|0,0:0|0:0,0:0:0:0:
501,383,298038,1,0,0:0:0:0:
346,229,298313,5,10,0:1:0:0:
212,384,298588,1,8,0:0:0:0:
57,230,298863,1,8,0:1:0:0:
57,230,299139,1,0,0:0:0:0:
128,153,299414,6,0,P|184:138|265:95,1,142.500005435944,10|0,0:0|0:0,0:0:0:0:
32,84,299965,2,0,P|88:69|169:26,1,142.500005435944,10|0,0:1|0:0,0:0:0:0:
190,237,300515,6,0,P|164:338|7:316,1,285.000010871888,14|0,0:1|0:0,0:0:0:0:
128,153,301341,1,8,0:1:0:0:
332,171,301616,2,0,P|358:272|515:250,1,285.000010871888,8|0,0:0|0:0,0:0:0:0:
443,165,302442,5,0,3:0:0:0:
443,165,302579,1,0,3:0:0:0:
511,256,302717,5,10,0:1:0:0:
332,171,302992,1,8,0:0:0:0:
512,28,303267,1,8,0:1:0:0:
258,99,303817,5,12,0:0:0:0:
161,0,304093,1,8,0:3:0:0:
320,18,304368,1,6,0:3:0:0:
90,86,304644,1,6,0:3:0:0:
144,280,304918,6,0,B|338:269|194:387|425:378,1,285.000010871888,14|0,0:1|0:0,0:0:0:0:
251,147,305745,5,8,0:1:0:0:
395,381,306020,1,10,0:0:0:0:
144,280,306295,1,8,0:1:0:0:
506,243,306570,5,8,0:3:0:0:
392,162,306845,1,8,0:3:0:0:
512,19,307121,1,14,0:1:0:0:
256,192,307258,12,8,309322,0:1:0:0:
256,192,311524,12,2,313726,0:0:0:0:
256,192,313795,12,0,316891,0:0:0:0:
68,60,317029,5,8,0:0:0:0:
32,112,317098,1,8,0:0:0:0:
23,175,317167,1,8,0:0:0:0:
42,236,317236,1,8,0:0:0:0:
85,277,317305,5,8,0:3:0:0:
99,248,317374,1,8,0:3:0:0:
122,226,317442,1,8,0:3:0:0:
150,211,317511,1,8,0:3:0:0:
183,206,317580,5,4,0:3:0:0:
178,224,317649,1,4,0:3:0:0:
183,243,317718,1,4,0:3:0:0:
196,257,317786,1,4,0:3:0:0:
217,264,317855,6,8,L|179:322,1,64.1250002446175,8|8,0:3|0:3,0:3:0:0:
313,227,317993,2,4,L|351:285,1,64.1250002446175,12|4,0:3|0:3,0:3:0:0:
220,0,318130,5,14,0:1:0:0:
220,0,319231,5,14,0:1:0:0:
220,0,320332,5,14,0:1:0:0:
220,0,321433,5,14,0:1:0:0:
291,86,321571,5,8,0:0:0:0:
277,134,321639,1,8,0:0:0:0:
284,185,321708,1,8,0:0:0:0:
313,227,321777,1,8,0:0:0:0:
356,254,321846,1,8,0:0:0:0:
407,259,321915,1,8,0:0:0:0:
455,242,321984,5,10,0:1:0:0:
447,197,322052,1,10,0:3:0:0:
463,156,322121,1,10,0:1:0:0:
483,117,322190,1,10,0:1:0:0:
482,72,322259,2,8,P|485:62|455:22,1,64.1250002446175,10|0,0:3|0:3,0:3:0:0:
158,99,322396,5,8,0:1:0:0:
144,69,322465,1,8,0:1:0:0:
127,45,322534,2,0,P|58:41|-2:48,1,113.999996520996,14|0,0:1|0:0,0:0:0:0:
334,0,322809,2,0,P|265:-4|205:3,1,113.999996520996,10|0,0:0|0:0,0:0:0:0:
313,227,323085,5,10,0:1:0:0:
248,128,323222,1,8,0:1:0:0:
276,364,323360,1,10,0:0:0:0:
336,210,323497,2,8,B|367:172|367:172|441:223|441:223|397:314,1,227.999993041992,10|8,0:1|0:1,0:1:0:0:
503,143,323910,6,0,P|481:69|457:39,1,113.999996520996,10|0,0:0|0:0,0:0:0:0:
226,214,324185,2,8,P|194:260|181:316,1,113.999996520996,10|8,0:1|0:1,0:1:0:0:
163,149,324461,2,0,B|97:134|97:134|68:153|68:153|-19:131,1,170.999994781494,10|0,0:0|0:0,0:0:0:0:
0,227,324736,6,0,P|4:302|94:274,1,170.999994781494,10|0,0:1|0:0,0:0:0:0:
97,268,325011,1,10,0:0:0:0:
299,22,325149,2,0,B|245:41|245:41|183:19,1,113.999996520996,2|8,0:0|0:1,0:0:0:0:
191,22,325424,1,8,0:1:0:0:
392,147,325562,2,0,B|434:141|434:141|450:150|450:150|519:140,1,113.999996520996,8|0,0:0|0:0,0:0:0:0:
489,357,325837,6,0,B|495:269|405:260|405:260|363:308,1,170.999994781494,14|0,0:1|0:0,0:0:0:0:
389,311,326112,1,8,0:0:0:0:
244,153,326250,2,0,P|272:237|287:402,1,227.999993041992,14|8,0:1|0:0,0:0:0:0:
195,341,326594,1,8,0:0:0:0:
144,364,326662,1,8,0:0:0:0:
89,353,326731,1,8,0:3:0:0:
50,312,326800,1,4,0:3:0:0:
43,257,326869,1,4,0:3:0:0:
73,208,326938,6,0,B|89:176|121:161|121:161|135:31|16:25,2,256.50000097847,14|8|8,0:1|0:0|0:1,0:0:0:0:
73,208,327626,1,8,0:1:0:0:
230,66,327764,2,0,B|307:77|345:17|345:17|413:27,1,192.375000733852,10|0,0:0|0:0,0:0:0:0:
383,133,328039,6,0,B|415:108|415:108|524:151|472:253,1,192.375000733852,10|0,0:1|0:0,0:0:0:0:
499,246,328314,1,8,0:0:0:0:
268,314,328452,2,8,B|339:301|339:301|366:339|366:339|520:391,1,256.50000097847,8|8,0:1|0:1,0:1:0:0:
153,365,328864,2,0,B|173:304|173:304|140:241,1,128.250000489235,10|0,0:0|0:0,0:0:0:0:
125,56,329140,6,0,P|130:132|0:105,1,256.50000097847,10|8,0:1|0:0,0:0:0:0:
262,90,329553,1,2,0:0:0:0:
262,90,329622,1,2,0:0:0:0:
262,90,329690,2,0,B|337:75|388:118|388:118|461:97|462:20,1,256.50000097847,10|8,0:1|0:0,0:0:0:0:
461,30,330103,1,0,0:0:0:0:
211,228,330241,6,0,B|200:266|151:274|151:274|129:356|196:375,1,192.375000733852,10|0,0:1|0:0,0:0:0:0:
216,377,330516,1,8,0:0:0:0:
512,188,330654,2,8,B|392:225|392:225|258:164,1,256.50000097847,8|10,0:1|0:1,0:1:0:0:
196,2,331066,1,10,0:0:0:0:
196,2,331135,1,2,0:0:0:0:
196,2,331204,1,2,0:0:0:0:
23,206,331342,6,0,B|50:238|50:238|135:171|135:171|78:79,2,256.50000097847,14|8|8,0:1|0:0|0:1,0:0:0:0:
196,2,332030,5,10,0:1:0:0:
256,345,332167,1,10,0:0:0:0:
23,206,332305,1,2,0:0:0:0:
412,130,332443,2,0,B|436:106|436:106|532:162|486:258,1,192.375000733852,14|0,0:1|0:0,0:0:0:0:
505,270,332718,2,0,B|444:291|444:291|378:273,1,128.250000489235,10|8,0:0|0:1,0:0:0:0:
239,119,332993,6,0,P|228:55|191:-4,1,128.250000489235,2|8,0:0|0:1,0:0:0:0:
23,206,333268,2,0,P|34:270|71:329,1,128.250000489235,10|0,0:0|0:0,0:0:0:0:
239,119,333544,6,0,B|172:114|120:152|120:152|66:102,1,192.375000733852,14|0,0:1|0:0,0:0:0:0:
37,114,333819,2,0,B|48:75|48:75|31:46|31:46|47:-9,1,128.250000489235,10|0,0:0|0:0,0:0:0:0:
307,191,334094,1,10,0:1:0:0:
218,218,334232,2,0,B|197:282|197:282|229:352,1,128.250000489235,10|8,0:1|0:0,0:0:0:0:
222,337,334507,1,0,0:0:0:0:
426,244,334644,5,10,0:0:0:0:
408,182,334712,1,8,0:0:0:0:
412,119,334781,1,8,0:1:0:0:
439,61,334850,1,8,0:1:0:0:
484,16,334920,2,0,L|497:84,1,64.1250002446175,8|0,0:3|0:0,0:0:0:0:
328,68,335057,5,8,0:1:0:0:
328,68,335126,1,8,0:1:0:0:
328,68,335195,2,0,L|339:4,1,64.1250002446175,8|0,0:3|0:0,0:0:0:0:
197,93,335333,5,10,0:1:0:0:
192,39,335401,1,8,0:1:0:0:
146,12,335470,2,0,B|80:29|80:29|21:8,1,128.250000489235,10|0,0:0|0:0,0:0:0:0:
301,233,335745,5,14,0:0:0:0:
328,68,335883,1,8,0:1:0:0:
105,175,336021,2,8,B|79:251|160:286|160:286|157:365|79:359,1,256.50000097847
301,233,336433,5,8,0:1:0:0:
197,93,336571,1,10,0:0:0:0:
319,320,336709,1,8,0:1:0:0:
328,68,336846,5,10,0:0:0:0:
105,175,336984,1,8,0:1:0:0:
334,39,337122,2,8,B|368:13|368:13|482:77|440:204,1,256.50000097847
200,368,337534,5,8,0:1:0:0:
200,368,337603,1,8,0:1:0:0:
200,368,337672,1,10,0:0:0:0:
197,93,337810,1,10,0:1:0:0:
57,289,337947,1,10,0:0:0:0:
336,169,338085,1,8,0:1:0:0:
53,25,338222,6,0,B|-36:45|-23:153|-23:153|10:183,1,192.375000733852,8|0,0:0|0:0,0:0:0:0:
24,184,338498,5,10,0:0:0:0:
163,4,338635,1,8,0:1:0:0:
441,217,338773,1,8,0:0:0:0:
302,37,338910,1,8,0:1:0:0:
402,0,339048,5,10,0:0:0:0:
353,277,339186,1,8,0:1:0:0:
353,277,339255,1,8,0:1:0:0:
353,277,339323,1,8,0:0:0:0:
393,95,339461,1,8,0:1:0:0:
442,372,339599,1,8,0:0:0:0:
244,181,339736,5,8,0:1:0:0:
244,181,339805,1,8,0:1:0:0:
244,181,339874,1,10,0:0:0:0:
441,217,340011,1,10,0:0:0:0:
224,326,340149,5,14,0:1:0:0:
185,320,340217,1,2,0:0:0:0:
147,318,340286,1,10,0:1:0:0:
110,325,340355,1,2,0:0:0:0:
77,345,340424,1,10,0:0:0:0:
41,358,340493,1,2,0:0:0:0:
0,357,340562,2,0,P|-9:330|33:292,1,64.1250002446175,2|0,0:0|0:0,0:0:0:0:
103,268,340700,1,10,0:0:0:0:
103,268,340768,1,2,0:0:0:0:
103,268,340837,2,0,P|118:295|109:325,1,64.1250002446175,10|0,0:1|0:0,0:0:0:0:
13,129,340975,5,10,0:0:0:0:
13,129,341043,1,2,0:0:0:0:
12,128,341112,2,0,P|-3:100|5:70,1,64.1250002446175,10|0,0:1|0:0,0:0:0:0:
223,19,341250,6,0,B|287:38|287:38|353:13,1,128.250000489235,10|10,0:0|0:1,0:0:0:0:
355,110,341456,1,2,0:0:0:0:
405,107,341524,1,10,0:0:0:0:
452,128,341593,1,2,0:0:0:0:
484,167,341662,1,2,0:0:0:0:
495,216,341731,1,2,0:0:0:0:
478,269,341800,5,10,0:0:0:0:
462,241,341868,1,2,0:0:0:0:
437,221,341937,1,10,0:1:0:0:
406,213,342006,1,10,0:1:0:0:
374,218,342076,2,0,L|394:288,1,64.1250002446175,10|0,0:0|0:0,0:0:0:0:
234,209,342213,2,0,L|251:147,1,64.1250002446175,10|0,0:1|0:0,0:0:0:0:
0,23,342351,6,0,P|-5:97|16:153,1,128.250000489235,10|10,0:0|0:1,0:0:0:0:
26,237,342557,1,2,0:1:0:0:
51,231,342625,1,10,0:0:0:0:
76,226,342694,1,2,0:0:0:0:
101,221,342763,1,2,0:0:0:0:
221,333,342901,2,0,P|240:272|233:208,1,128.250000489235,10|8,0:0|0:1,0:0:0:0:
19,20,343177,2,0,P|14:94|35:150,1,128.250000489235,8|8,0:0|0:1,0:0:0:0:
471,50,343452,6,0,B|420:43|420:43|399:55|399:55|334:46,1,128.250000489235,10|8,0:0|0:1,0:0:0:0:
330,32,343658,1,8,0:1:0:0:
330,32,343727,2,0,B|279:25|279:25|258:37|258:37|193:28,1,128.250000489235,10|8,0:0|0:1,0:0:0:0:
101,221,344002,5,10,0:0:0:0:
79,279,344070,1,8,0:0:0:0:
106,336,344139,1,8,0:0:0:0:
164,358,344208,1,8,0:0:0:0:
221,333,344277,5,10,0:3:0:0:
207,308,344346,1,8,0:3:0:0:
235,279,344415,1,8,0:3:0:0:
221,254,344484,1,8,0:3:0:0:
221,254,344553,6,0,B|365:226|365:226|400:272|466:276,2,256.50000097847,14|8|8,0:1|0:0|0:1,0:0:0:0:
221,254,345241,1,8,0:1:0:0:
18,31,345378,2,0,B|3:119|88:138|88:138|145:115,1,192.375000733852,10|0,0:0|0:0,0:0:0:0:
163,33,345654,6,0,B|194:1|194:1|299:33|270:130,1,192.375000733852,10|0,0:1|0:0,0:0:0:0:
254,128,345929,1,8,0:0:0:0:
512,168,346066,2,8,B|453:134|394:169|394:169|352:93|411:47,1,256.50000097847,8|8,0:1|0:1,0:1:0:0:
406,259,346479,2,0,B|435:320|435:320|422:381,1,128.250000489235,10|0,0:0|0:0,0:0:0:0:
180,373,346755,6,0,B|257:374|307:292|307:292|290:231|227:232,1,256.50000097847,10|8,0:1|0:0,0:0:0:0:
28,31,347167,1,2,0:0:0:0:
28,31,347236,1,2,0:0:0:0:
28,31,347305,2,0,B|-2:132|95:183|95:183|44:252,1,256.50000097847,10|8,0:1|0:0,0:0:0:0:
51,241,347718,1,0,0:0:0:0:
175,89,347855,6,8,B|242:81|242:81|265:36|265:36|360:25,1,192.375000733852,10|8,0:1|0:0,0:0:0:0:
352,1,348131,1,8,0:0:0:0:
512,270,348268,2,8,P|498:180|440:20,1,256.50000097847,8|8,0:1|0:1,0:1:0:0:
266,165,348681,2,0,B|330:186|330:186|395:158,1,128.250000489235,10|2,0:0|0:0,0:0:0:0:
376,265,348888,1,2,0:0:0:0:
390,255,348956,6,0,P|405:345|275:337,1,256.50000097847,14|8,0:1|0:0,0:0:0:0:
276,340,349369,5,0,0:0:0:0:
93,198,349507,1,10,0:1:0:0:
93,198,349576,1,2,0:0:0:0:
265,164,349713,1,2,0:0:0:0:
265,164,349782,1,10,0:0:0:0:
81,21,349920,1,2,0:0:0:0:
182,92,350057,6,0,B|270:73|270:73|294:15|294:15|409:-3,1,256.50000097847,14|10,0:1|0:0,0:0:0:0:
394,92,350401,1,2,0:0:0:0:
394,92,350470,2,0,P|380:121|370:175,1,64.1250002446175,10|0,0:1|0:0,0:0:0:0:
505,203,350608,1,2,0:0:0:0:
505,203,350676,1,2,0:0:0:0:
505,203,350745,2,0,P|486:176|445:140,1,64.1250002446175,10|0,0:1|0:0,0:0:0:0:
350,257,350883,1,10,0:0:0:0:
350,257,350952,1,2,0:0:0:0:
350,257,351021,2,0,P|382:254|433:236,1,64.1250002446175,2|0,0:0|0:0,0:0:0:0:
182,92,351158,6,0,B|173:196|50:204|50:204|4:130,1,256.50000097847,14|8,0:1|0:0,0:0:0:0:
75,360,351571,1,2,0:0:0:0:
75,360,351640,1,2,0:0:0:0:
75,360,351709,2,0,B|139:332|192:378|192:378|263:349|250:264,1,256.50000097847,10|8,0:1|0:0,0:0:0:0:
251,273,352122,1,0,0:0:0:0:
341,11,352259,5,10,0:0:0:0:
317,68,352327,1,8,0:0:0:0:
346,122,352396,1,8,0:1:0:0:
407,134,352465,1,8,0:1:0:0:
455,94,352534,2,0,L|426:26,1,64.1250002446175,8|0,0:3|0:0,0:0:0:0:
251,273,352672,5,8,0:1:0:0:
251,273,352741,1,8,0:1:0:0:
251,273,352810,2,0,L|280:204,1,64.1250002446175,8|0,0:3|0:0,0:0:0:0:
497,294,352947,5,8,0:1:0:0:
511,347,353016,1,8,0:1:0:0:
465,377,353085,2,0,B|420:368|420:368|399:384|399:384|323:371,1,128.250000489235,8|0,0:0|0:0,0:0:0:0:
75,360,353360,5,14,0:1:0:0:
43,275,353635,2,0,P|45:318|89:368,1,95,2|0,0:0|0:0,0:0:0:0:
11,258,354186,2,0,P|13:301|57:351,1,95,2|0,0:0|0:0,0:0:0:0:
282,188,354736,2,0,P|280:231|236:281,1,95,2|0,0:0|0:0,0:0:0:0:
314,171,355287,2,0,P|312:214|268:264,1,95,2|0,0:0|0:0,0:0:0:0:
201,162,355700,5,2,0:0:0:0:
201,162,355768,1,2,0:0:0:0:
201,162,355837,2,0,L|192:121,3,23.75,2|0|0|0,0:0|0:0|0:0|0:0,0:0:0:0:
250,272,356112,2,0,L|218:300,3,23.75,2|0|0|0,0:0|0:0|0:0|0:0,0:0:0:0:
314,171,356388,2,0,L|354:183,3,23.75,2|0|0|0,0:0|0:0|0:0|0:0,0:0:0:0:
348,20,356663,6,0,P|350:32|365:41,3,23.75,2|0|0|0,0:0|0:0|0:0|0:0,0:0:0:0:
419,111,356938,2,0,P|417:123|402:132,3,23.75,2|0|0|0,0:0|0:0|0:0|0:0,0:0:0:0:
508,55,357213,5,2,0:0:0:0:
508,55,357282,1,2,0:0:0:0:
508,55,357351,1,10,0:0:0:0:
314,171,357489,1,8,0:3:0:0:
348,20,357626,1,4,0:3:0:0:
484,212,357764,6,0,P|484:280|422:271,1,142.5,12|2,0:1|0:0,0:0:0:0:
320,271,358314,2,0,P|338:316|341:376,1,95,2|0,0:0|0:0,0:0:0:0:
240,332,358727,1,2,0:0:0:0:
240,332,358865,2,0,B|172:355|172:355|97:325,1,142.5,2|0,0:0|0:0,0:0:0:0:
34,262,359415,2,0,L|50:173,2,71.25,2|2|2,0:0|0:0|0:0,0:0:0:0:
141,125,359966,6,0,L|120:24,1,95,2|8,0:0|0:0,0:0:0:0:
354,188,360378,5,8,0:0:0:0:
141,125,360516,1,8,0:0:0:0:
268,0,360654,1,8,0:0:0:0:
225,314,360791,1,8,0:0:0:0:
482,229,360929,6,0,B|492:206|521:186|521:186|532:85|444:46,1,227.999993041992,12|8,0:1|0:3,0:0:0:0:
366,87,361273,1,8,0:3:0:0:
381,140,361341,1,8,0:3:0:0:
354,188,361410,1,8,0:3:0:0:
300,201,361479,1,12,0:0:0:0:
252,172,361548,2,0,L|276:106,1,56.9999982604981,8|0,0:1|0:0,0:0:0:0:
75,220,361686,5,8,0:1:0:0:
75,220,361755,1,8,0:1:0:0:
75,220,361823,1,8,0:1:0:0:
75,220,361892,2,0,L|50:154,1,56.9999982604981,8|0,0:0|0:0,0:0:0:0:
0,283,362030,2,0,L|19:336,1,56.9999982604981,8|0,0:0|0:0,0:0:0:0:
271,118,362167,6,0,B|208:97|159:131|159:131|99:114|95:40,2,227.999993041992,12|8|8,0:1|0:0|0:1,0:0:0:0:
271,118,362855,1,8,0:1:0:0:
242,240,362993,2,0,P|250:304|292:342,1,113.999996520996,10|8,0:0|0:1,0:0:0:0:
352,372,363200,1,2,0:0:0:0:
367,381,363268,6,0,P|404:339|408:283,1,113.999996520996,2|8,0:0|0:1,0:0:0:0:
384,183,363475,1,2,0:0:0:0:
399,192,363543,2,0,P|436:150|440:94,1,113.999996520996,10|2,0:0|0:0,0:0:0:0:
95,49,363819,5,10,0:1:0:0:
102,80,363887,1,2,0:0:0:0:
109,113,363956,1,10,0:1:0:0:
116,147,364025,1,2,0:0:0:0:
123,180,364094,1,10,0:0:0:0:
130,214,364163,1,2,0:0:0:0:
137,247,364231,1,2,0:0:0:0:
145,281,364300,1,2,0:0:0:0:
152,314,364369,5,10,0:1:0:0:
121,289,364437,1,2,0:0:0:0:
104,253,364506,1,2,0:0:0:0:
104,213,364575,1,2,0:0:0:0:
123,178,364644,1,10,0:0:0:0:
154,155,364713,1,2,0:0:0:0:
193,147,364781,1,2,0:0:0:0:
231,158,364850,1,2,0:0:0:0:
261,185,364920,1,10,0:1:0:0:
291,212,364989,1,2,0:0:0:0:
329,223,365058,1,10,0:1:0:0:
368,215,365126,1,2,0:0:0:0:
399,192,365195,1,10,0:0:0:0:
418,157,365264,1,0,0:0:0:0:
418,117,365333,6,0,B|376:204|452:279|452:279|412:319,1,227.999993041992,10|10,0:1|0:1,0:0:0:0:
29,356,365745,5,10,0:0:0:0:
166,182,365883,1,10,0:1:0:0:
194,328,366021,1,2,0:0:0:0:
0,215,366158,1,10,0:1:0:0:
41,63,366296,5,10,0:0:0:0:
91,264,366433,1,10,0:0:0:0:
201,42,366571,2,0,B|237:19|237:19|348:61|310:172,1,227.999993041992,14|10,0:1|0:0,0:0:0:0:
469,237,366984,5,2,0:0:0:0:
312,164,367122,1,10,0:1:0:0:
421,106,367259,1,10,0:1:0:0:
363,299,367397,5,10,0:0:0:0:
324,68,367534,1,10,0:1:0:0:
289,373,367672,1,2,0:0:0:0:
201,42,367810,5,10,0:1:0:0:
395,204,367947,1,10,0:0:0:0:
188,15,368085,2,0,P|192:93|70:68,1,227.999993041992,2|10,0:0|0:1,0:0:0:0:
86,49,368429,1,2,0:0:0:0:
86,49,368498,5,10,0:0:0:0:
220,181,368635,1,2,0:0:0:0:
28,335,368773,2,0,B|17:276|88:212|88:212|128:245|119:293,1,227.999993041992,10|8,0:1|0:0,0:0:0:0:
512,178,369186,5,0,0:0:0:0:
220,181,369323,1,10,0:1:0:0:
421,9,369461,1,8,0:1:0:0:
311,350,369599,1,8,0:0:0:0:
369,188,369736,6,8,B|465:210|458:326|458:326|417:367,1,227.999993041992,14|8,0:1|0:1,0:1:0:0:
220,181,370149,6,0,B|234:126|234:126|209:66,1,113.999996520996,12|10,0:0|0:1,0:0:0:0:
96,59,370355,1,2,0:0:0:0:
112,76,370424,2,0,B|89:128|89:128|103:183,1,113.999996520996,14|8,0:0|0:1,0:0:0:0:
151,286,370631,1,8,0:1:0:0:
164,269,370700,2,0,P|170:336|117:370,1,113.999996520996,8|0,0:0|0:0,0:0:0:0:
14,149,370975,6,0,B|-2:64|86:41|86:41|121:88,1,190,14|8,0:1|0:0,0:0:0:0:
417,66,371388,5,8,0:3:0:0:
308,35,371525,1,8,0:1:0:0:
407,40,371663,1,8,0:1:0:0:
298,9,371800,1,8,0:0:0:0:
311,173,371938,6,8,B|382:162|382:162|417:188|417:188|503:173,1,190,10|8,0:1|0:1,0:1:0:0:
354,250,372351,2,0,P|376:294|386:348,1,95,8|8,0:0|0:3,0:0:0:0:
397,349,372557,1,8,0:3:0:0:
413,362,372626,2,8,B|461:346|461:346|509:361,1,95,8|8,0:1|0:1,0:1:0:0:
163,319,372901,2,0,B|211:303|211:303|272:321,1,95,12|8,0:0|0:1,0:0:0:0:
272,345,373108,1,8,0:1:0:0:
272,345,373177,5,14,0:0:0:0:
211,47,373314,1,8,0:1:0:0:
211,47,373452,1,8,0:1:0:0:
15,299,373589,5,14,0:0:0:0:
76,1,373726,1,8,0:1:0:0:
76,1,373864,1,8,0:1:0:0:
7,92,374002,6,0,P|15:155|59:193,1,113.999996520996,14|10,0:0|0:3,0:0:0:0:
131,212,374209,1,10,0:3:0:0:
186,199,374277,1,10,0:3:0:0:
242,187,374346,1,10,0:3:0:0:
300,170,374415,2,0,P|338:129|342:73,1,113.999996520996,14|10,0:0|0:3,0:0:0:0:
483,83,374622,1,14,0:3:0:0:
491,139,374690,1,14,0:3:0:0:
500,195,374759,1,14,0:3:0:0:
508,252,374828,6,12,P|500:276|496:329,1,56.9999982604981,14|0,0:0|0:0,0:0:0:0:
288,90,374966,2,0,P|313:84|361:61,1,56.9999982604981,10|0,0:3|0:0,0:0:0:0:
263,359,375103,2,0,P|245:339|201:309,1,56.9999982604981,6|0,0:3|0:0,0:0:0:0:
359,243,375241,5,14,0:1:0:0:
256,192,375310,12,0,379369,0:0:0:0:
359,243,379507,5,8,0:3:0:0:
357,259,379576,1,8,0:3:0:0:
361,276,379645,1,8,0:1:0:0:
369,291,379714,1,8,0:1:0:0:
380,303,379782,1,8,0:1:0:0:
