osu file format v14

[General]
AudioFilename: audio.mp3
AudioLeadIn: 0
PreviewTime: 191899
Countdown: 0
SampleSet: Drum
StackLeniency: 0.7
Mode: 2
LetterboxInBreaks: 0
WidescreenStoryboard: 1

[Editor]
DistanceSpacing: 1
BeatDivisor: 4
GridSize: 8
TimelineZoom: 4.099998

[Metadata]
Title:Immortal saga - Again
TitleUnicode:Immortal saga - Again
Artist:Noah
ArtistUnicode:Noah
Creator:Verti
Version:A TALE OF AN IMMORTAL HERO
Source:SOUND VOLTEX IV HEAVENLY HAVEN
Tags:sdvx 4 metal Revolt from the abyss instrumental existruth symphonic doujin m3-44 video game Maaadbot
BeatmapID:3253933
BeatmapSetID:1593143

[Difficulty]
HPDrainRate:5
CircleSize:4.2
OverallDifficulty:9.7
ApproachRate:9.7
SliderMultiplier:2
SliderTickRate:2

[Events]
//Background and Video events
0,0,"thumb-1920-855587.png",0,0
//Break Periods
2,139496,148166
2,318471,325972
//Storyboard Layer 0 (Background)
//Storyboard Layer 1 (Fail)
//Storyboard Layer 2 (Pass)
//Storyboard Layer 3 (Foreground)
//Storyboard Layer 4 (Overlay)
//Storyboard Sound Samples

[TimingPoints]
1150,292.682926829268,3,3,1,45,1,0
1150,-100,3,3,1,45,0,0
2028,-100,3,3,1,45,0,0
2613,-100,3,3,1,5,0,0
2686,-100,3,3,1,45,0,0
8174,-100,3,3,1,45,0,0
8759,-100,3,3,1,45,0,0
9637,-100,3,3,1,5,0,0
9710,-100,3,3,1,45,0,0
15052,-100,3,3,1,5,0,0
15198,-133.333333333333,3,3,1,35,0,0
15710,-133.333333333333,3,3,1,5,0,0
15784,-133.333333333333,3,3,1,35,0,0
16589,-133.333333333333,3,3,1,5,0,0
16662,-133.333333333333,3,3,1,35,0,0
17467,-133.333333333333,3,3,1,5,0,0
17540,-133.333333333333,3,3,1,35,0,0
18637,-133.333333333333,3,3,1,5,0,0
18710,-133.333333333333,3,3,1,35,0,0
19223,-133.333333333333,3,3,1,5,0,0
19296,-133.333333333333,3,3,1,35,0,0
20101,-133.333333333333,3,3,1,5,0,0
20174,-133.333333333333,3,3,1,35,0,0
20393,-133.333333333333,3,3,1,5,0,0
20467,-133.333333333333,3,3,1,35,0,0
22735,-133.333333333333,3,3,1,5,0,0
22808,-133.333333333333,3,3,1,35,0,0
23613,-133.333333333333,3,3,1,5,0,0
23686,-133.333333333333,3,3,1,35,0,0
25662,-133.333333333333,3,3,1,5,0,0
25735,-133.333333333333,3,3,1,35,0,0
26247,-133.333333333333,3,3,1,5,0,0
26320,-133.333333333333,3,3,1,35,0,0
27125,-133.333333333333,3,3,1,5,0,0
27198,-133.333333333333,3,3,1,35,0,0
28003,-133.333333333333,3,3,1,5,0,0
28076,-133.333333333333,3,3,1,35,0,0
28296,-133.333333333333,3,3,1,5,0,0
28369,-133.333333333333,3,3,1,35,0,0
29247,-133.333333333333,3,3,1,45,0,0
30125,-100,3,3,1,45,0,0
30198,-100,3,3,1,5,0,0
30271,-100,3,3,1,45,0,0
31076,-100,3,3,1,5,0,0
31149,-100,3,3,1,45,0,0
32393,-100,3,3,1,5,0,0
32467,-100,3,3,1,45,0,0
32686,-100,3,3,1,5,0,0
32759,-100,3,3,1,45,0,0
33271,-100,3,3,1,5,0,0
33345,-100,3,3,1,45,0,0
33564,-100,3,3,1,5,0,0
33637,-100,3,3,1,45,0,0
35028,-100,3,3,1,5,0,0
35101,-100,3,3,1,45,0,0
37076,-100,3,3,1,5,0,0
37149,-100,3,3,1,45,0,0
37954,-100,3,3,1,5,0,0
38028,-100,3,3,1,45,0,0
39418,-100,3,3,1,5,0,0
39491,-100,3,3,1,45,0,0
39710,-100,3,3,1,5,0,0
39784,-100,3,3,1,45,0,0
40296,-100,3,3,1,5,0,0
40369,-100,3,3,1,45,0,0
40589,-100,3,3,1,5,0,0
40662,-100,3,3,1,45,0,0
43296,-100,3,3,1,55,0,0
44247,-100,3,3,1,5,0,0
44320,-100,3,3,1,55,0,0
45125,-100,3,3,1,5,0,0
45198,-100,3,3,1,55,0,0
46442,-100,3,3,1,5,0,0
46515,-100,3,3,1,55,0,0
46735,-100,3,3,1,5,0,0
46808,-100,3,3,1,55,0,0
47320,-100,3,3,1,5,0,0
47393,-100,3,3,1,55,0,0
47613,-100,3,3,1,5,0,0
47686,-100,3,3,1,55,0,0
50028,-100,3,3,9,55,0,0
50320,-100,3,3,1,55,0,0
51125,-100,3,3,1,5,0,0
51198,-100,3,3,1,55,0,0
52149,-100,3,3,1,5,0,0
52223,-100,3,3,1,55,0,0
53467,-100,3,3,1,5,0,0
53540,-100,3,3,1,55,0,0
53759,-100,3,3,1,5,0,0
53832,-100,3,3,1,55,0,0
54345,-100,3,3,1,5,0,0
54418,-100,3,3,1,55,0,0
54637,-100,3,3,1,5,0,0
54710,-100,3,3,1,55,0,0
60857,292.682926829268,4,3,1,65,1,0
63125,-100,4,3,1,5,0,0
63198,-100,4,3,1,65,0,0
64369,-100,4,3,1,65,0,0
64662,-100,4,3,9,65,0,0
64808,-100,4,3,1,65,0,0
65101,-100,4,3,9,65,0,0
65247,-100,4,3,1,65,0,0
65393,-100,4,3,9,65,0,0
65540,-100,4,3,1,65,0,0
69198,-100,4,3,9,65,0,0
69491,-100,4,3,1,65,0,0
69637,-100,4,3,9,65,0,0
69930,-100,4,3,1,65,0,0
71393,-100,4,3,1,65,0,0
76076,-100,4,3,1,65,0,0
85442,-100,4,3,1,65,0,0
89174,-100,4,3,9,65,0,0
89393,-100,4,3,1,65,0,0
89686,-100,4,3,9,65,0,0
90125,-100,4,3,1,65,0,0
94808,-100,4,3,1,65,0,0
101832,-100,4,3,1,75,0,1
110906,-100,4,3,9,75,0,1
111198,-100,4,3,1,75,0,1
115589,-100,4,3,9,75,0,1
115881,-100,4,3,1,75,0,1
117930,-100,4,3,9,75,0,1
118223,-100,4,3,1,75,0,1
122905,-100,4,3,1,75,0,1
129052,-100,4,3,9,75,0,1
129637,-100,4,3,1,75,0,1
134320,-100,4,3,9,75,0,1
134613,-100,4,3,1,75,0,1
134832,-100,4,3,1,5,0,1
134906,-100,4,3,1,75,0,1
136881,-100,4,3,1,5,0,1
136954,-100,4,3,1,75,0,1
138418,-100,4,3,9,75,0,1
138710,-100,4,3,1,75,0,1
139296,-100,4,3,1,75,0,0
145149,-100,4,3,1,45,0,0
148589,-100,4,3,1,5,0,0
148661,-100,4,3,1,45,0,0
149759,-100,4,3,1,5,0,0
149832,-100,4,3,1,45,0,0
150345,-100,4,3,1,5,0,0
150418,-100,4,3,1,45,0,0
150930,-100,4,3,1,5,0,0
151003,-100,4,3,1,45,0,0
152101,-100,4,3,1,5,0,0
152174,-100,4,3,1,45,0,0
152686,-100,4,3,1,5,0,0
152759,-100,4,3,1,45,0,0
154149,-100,4,3,1,5,0,0
154223,-100,4,3,1,45,0,0
155028,-100,4,3,1,5,0,0
155101,-100,4,3,1,45,0,0
156198,-100,4,3,1,5,0,0
156271,-100,4,3,1,45,0,0
156784,-100,4,3,1,5,0,0
156857,-100,4,3,1,75,0,0
157149,-100,4,3,1,65,0,0
157442,-100,4,3,1,55,0,0
157735,-100,4,3,1,45,0,0
158540,-100,4,3,1,5,0,0
158613,-100,4,3,1,45,0,0
159125,-100,4,3,1,5,0,0
159198,-100,4,3,1,45,0,0
159710,-100,4,3,1,5,0,0
159784,-100,4,3,1,45,0,0
160296,-100,4,3,1,5,0,0
160369,-100,4,3,1,45,0,0
162052,-100,4,3,1,5,0,0
162125,-100,4,3,1,45,0,0
163223,-100,4,3,1,5,0,0
163296,-100,4,3,1,45,0,0
163808,-100,4,3,1,5,0,0
163881,-100,4,3,1,45,0,0
164393,-100,4,3,1,5,0,0
164467,-100,4,3,1,45,0,0
166149,-100,4,3,1,5,0,0
166223,-100,4,3,1,45,0,0
166735,-100,4,3,1,5,0,0
166808,-100,4,3,1,45,0,0
169296,-100,4,3,9,45,0,0
169589,-100,4,3,1,45,0,0
169735,292.682926829268,3,3,1,45,1,0
175881,-100,3,3,9,45,0,0
176467,-100,3,3,1,45,0,0
176906,-100,3,3,1,5,0,0
177637,-100,3,3,1,45,0,0
177784,-100,3,3,1,5,0,0
178515,-100,3,3,1,45,0,0
178662,-100,3,3,1,5,0,0
178735,-100,3,3,9,45,0,0
179101,-100,3,3,1,45,0,0
179540,-100,3,3,9,45,0,0
180271,292.682926829268,4,3,1,65,1,0
180271,-100,4,3,1,65,0,0
184369,-100,4,3,9,65,0,0
184662,-100,4,3,1,65,0,0
184953,-100,4,3,1,65,0,0
191906,-100,4,3,1,5,0,0
191978,-100,4,3,1,75,0,1
201052,-100,4,3,9,75,0,1
201345,-100,4,3,1,75,0,1
205735,-100,4,3,9,75,0,1
206028,-100,4,3,1,75,0,1
206906,-100,4,3,9,75,0,1
207198,-100,4,3,1,75,0,1
208076,-100,4,3,9,75,0,1
208369,-100,4,3,1,75,0,1
210125,-100,4,3,9,75,0,1
210710,-100,4,3,1,75,0,0
211003,-100,4,3,9,75,0,0
211296,-100,4,3,1,75,0,0
213345,-100,4,3,9,75,0,0
213637,-100,4,3,1,75,0,0
213784,-100,4,3,1,5,0,0
213857,-100,4,3,1,75,0,0
214003,-100,4,3,1,5,0,0
214076,-100,4,3,1,75,0,0
215101,-100,4,3,9,75,0,0
215393,-100,4,3,1,75,0,0
224758,-100,4,3,1,55,0,0
230540,-100,4,3,1,5,0,0
230613,-100,4,3,1,55,0,0
232662,-100,4,3,9,55,0,0
232954,-100,4,3,1,55,0,0
238808,-100,4,3,9,55,0,0
238954,-100,4,3,1,55,0,0
239101,-100,4,3,1,5,0,0
239174,-100,4,3,1,55,0,0
239320,-100,4,3,1,5,0,0
239393,-100,4,3,1,55,0,0
239613,-100,4,3,1,5,0,0
239686,-100,4,3,1,55,0,0
243490,-100,4,3,1,65,0,0
248028,292.682926829268,4,3,1,75,1,0
248247,-100,4,3,1,5,0,0
248320,-100,4,3,1,75,0,0
250296,-100,4,3,1,5,0,0
250369,-100,4,3,1,75,0,0
250881,-100,4,3,1,75,0,0
251174,-100,4,3,1,75,0,0
251467,-100,4,3,1,75,0,0
251759,-100,4,3,1,5,0,0
251832,-100,4,3,1,75,0,0
251906,-100,4,3,1,5,0,0
251979,-100,4,3,1,75,0,0
252198,-100,4,3,1,5,0,0
252271,-100,4,3,1,75,0,0
252345,-100,4,3,1,5,0,0
252418,-100,4,3,1,75,0,0
252637,-100,4,3,1,5,0,0
252710,-100,4,3,1,75,0,0
255418,-100,4,3,1,5,0,0
255491,-100,4,3,1,75,0,0
255857,-100,4,3,1,5,0,0
255930,-100,4,3,1,75,0,0
256296,-100,4,3,1,5,0,0
256369,-100,4,3,1,75,0,0
256735,-100,4,3,1,5,0,0
256808,-100,4,3,1,75,0,0
257028,-100,4,3,1,5,0,0
257101,-100,4,3,1,75,0,0
257320,-100,4,3,1,5,0,0
257393,-100,4,3,1,75,0,0
260832,-100,4,3,1,5,0,0
260906,-100,4,3,1,75,0,0
262296,-100,4,3,1,5,0,0
262369,-100,4,3,1,75,0,0
262735,-100,4,3,1,5,0,0
262808,-100,4,3,1,75,0,0
263028,-100,4,3,1,5,0,0
263101,-100,4,3,1,75,0,0
266759,-100,4,3,1,65,0,0
270857,-100,4,3,9,65,0,0
271149,-100,4,3,1,65,0,0
271442,-100,4,3,1,55,0,0
272832,-100,4,3,1,5,0,0
272906,-100,4,3,1,55,0,0
273784,-100,4,3,1,55,0,0
274003,-100,4,3,1,5,0,0
274076,-100,4,3,1,55,0,0
278686,-100,4,3,1,5,0,0
278759,-100,4,3,1,55,0,0
281028,-100,4,3,1,5,0,0
281101,-100,4,3,1,55,0,0
283149,-100,4,3,1,65,0,0
290393,-100,4,3,1,5,0,0
290467,-100,4,3,1,65,0,0
291637,-100,4,3,9,65,0,0
292223,-100,4,3,1,65,0,0
292442,-100,4,3,1,5,0,0
292515,-100,4,3,1,55,0,0
297198,-100,4,3,1,55,0,0
311247,-100,4,3,1,65,0,0
316881,-100,4,3,1,5,0,0
316954,-100,4,3,1,65,0,0
317906,-100,4,3,9,65,0,0
318271,-100,4,3,1,45,0,0
326467,-100,4,3,1,65,0,0
327637,-100,4,3,1,75,0,1
339052,-100,4,3,9,75,0,1
339198,-100,4,3,1,75,0,0
339930,-100,4,3,1,5,0,0

[Colours]
Combo1 : 81,81,81
Combo2 : 236,0,0
Combo3 : 222,208,163
Combo4 : 252,236,39

[HitObjects]
368,320,1150,6,0,P|496:192|368:64,1,400,2|0,2:0|0:0,2:0:0:0:
160,176,2028,6,0,L|320:336,2,200,0|0|0,0:0|0:0|2:0,0:0:0:0:
376,176,2906,6,0,L|216:336,2,200
152,288,3784,5,0,0:0:0:0:
256,224,4076,1,0,0:0:0:0:
152,144,4369,1,0,0:0:0:0:
392,168,4662,5,0,0:0:0:0:
272,136,4954,1,0,0:0:0:0:
152,96,5247,1,0,0:0:0:0:
392,232,5540,5,0,0:0:0:0:
288,168,5832,1,0,0:0:0:0:
392,104,6125,1,0,0:0:0:0:
160,88,6418,5,0,0:0:0:0:
263,222,6710,1,0,0:0:0:0:
160,88,7003,1,0,0:0:0:0:
368,88,7296,5,0,0:0:0:0:
258,191,7589,1,0,0:0:0:0:
368,88,7881,1,0,0:0:0:0:
136,320,8174,6,0,P|16:184|152:48,1,400,2|0,2:0|0:0,2:0:0:0:
360,264,9052,6,0,L|208:112,2,200,0|0|0,0:0|0:0|2:0,0:0:0:0:
136,288,9930,6,0,L|296:128,2,200
344,304,10808,5,0,0:0:0:0:
226,249,11101,1,0,0:0:0:0:
348,256,11393,1,0,0:0:0:0:
129,281,11686,5,0,0:0:0:0:
245,228,11979,1,0,0:0:0:0:
133,233,12271,1,0,0:0:0:0:
328,64,12564,5,0,0:0:0:0:
224,40,12857,1,0,0:0:0:0:
120,48,13149,1,0,0:0:0:0:
344,96,13442,6,0,L|120:96,2,200
80,192,14320,2,0,L|80:80,1,100
288,136,14613,2,0,L|288:248,1,100
496,56,14906,2,0,L|384:56,1,100,0|0,0:0|2:0,0:0:0:0:
128,320,15198,6,0,P|16:264|128:208,1,300.000011444092,2|2,2:0|2:0,2:0:0:0:
332,156,16076,6,0,L|28:156,1,300.000011444092,2|2,2:0|2:0,2:0:0:0:
145,239,16808,1,2,2:0:0:0:
264,293,16954,6,0,P|368:205|264:101,1,300.000011444092,2|2,2:0|2:0,2:0:0:0:
55,310,17832,6,0,L|439:286,1,375.000014305115,2|0,2:0|0:0,2:0:0:0:
305,223,18710,6,0,P|193:135|305:55,1,300.000011444092,2|2,2:0|2:0,2:0:0:0:
496,320,19589,6,0,L|192:304,1,300.000011444092,2|2,2:0|2:0,2:0:0:0:
376,248,20467,6,0,L|240:160,2,150.000005722046,2|2|2,2:0|2:0|2:0,2:0:0:0:
168,288,21345,6,0,P|88:216|168:128,1,225.000008583069,2|2,2:0|2:0,2:0:0:0:
208,128,21857,1,2,2:0:0:0:
272,112,21930,2,0,L|328:112,1,37.5000014305115,2|2,2:0|2:0,2:0:0:0:
232,56,22076,2,0,L|168:56,1,37.5000014305115,2|2,2:0|2:0,2:0:0:0:
352,304,22223,6,0,P|464:240|352:176,1,300.000011444092,14|2,3:0|2:0,2:0:0:0:
136,160,23101,6,0,L|448:128,1,300.000011444092,2|2,2:0|2:0,2:0:0:0:
328,232,23832,1,2,2:0:0:0:
200,280,23979,6,0,L|328:160,2,150.000005722046,2|2|2,2:0|2:0|2:0,2:0:0:0:
424,336,24857,6,0,B|424:104|424:104|256:104,1,375.000014305115,2|0,2:0|0:0,2:0:0:0:
160,104,25735,6,0,L|456:176,1,300.000011444092,2|2,2:0|2:0,2:0:0:0:
240,304,26613,6,0,P|136:224|240:152,1,300.000011444092,2|2,2:0|2:0,2:0:0:0:
424,120,27491,6,0,L|112:112,1,300.000011444092,2|2,2:0|2:0,2:0:0:0:
336,272,28369,6,0,L|336:168,1,75.0000028610231,2|0,2:0|2:0,2:0:0:0:
208,168,28662,2,0,L|208:80,1,75.0000028610231,0|0,2:0|2:0,2:0:0:0:
392,224,28954,1,2,2:0:0:0:
40,352,29247,6,0,L|40:32,1,300.000011444092,14|0,3:0|0:0,2:0:0:0:
216,304,30125,6,0,P|336:248|104:192,2,600
384,288,32467,1,2,2:0:0:0:
176,384,32759,6,0,L|248:-24,1,400,2|2,2:0|2:0,2:0:0:0:
40,80,33637,1,2,2:0:0:0:
256,344,34223,6,0,L|272:280,3,50,2|2|10|10,2:0|2:0|3:0|3:0,0:0:0:0:
192,256,34515,1,10,3:0:0:0:
136,224,34589,1,10,3:0:0:0:
136,176,34662,1,2,2:0:0:0:
192,152,34735,1,0,0:0:0:0:
296,128,34808,1,8,2:3:0:0:
48,248,35101,6,0,L|48:168,1,50,10|2,3:0|2:0,0:0:0:0:
112,160,35247,2,0,L|184:160,1,50,2|2,2:0|2:0,0:0:0:0:
232,136,35393,2,0,L|232:72,1,50,10|2,3:0|2:0,0:0:0:0:
160,72,35540,2,0,L|96:72,1,50,2|2,2:0|2:0,0:0:0:0:
176,128,35686,2,0,L|240:128,2,50,10|2|2,3:0|2:0|2:0,0:0:0:0:
48,240,35979,1,8,3:0:0:0:
448,104,36271,5,14,3:0:0:0:
48,384,37149,6,0,L|480:-48,2,600,2|2|0,2:0|2:0|0:0,2:0:0:0:
384,288,39491,1,2,2:0:0:0:
176,384,39783,6,0,L|248:-24,1,400,2|2,2:0|2:0,2:0:0:0:
48,56,40661,1,2,2:0:0:0:
256,344,41247,6,0,L|272:280,3,50,0|0|8|8,2:0|0:0|3:0|3:0,0:0:0:0:
208,256,41540,2,0,L|152:256,1,50,8|0,3:0|0:0,2:0:0:0:
216,216,41686,2,0,L|272:216,1,50,0|0,2:0|0:0,0:0:0:0:
320,176,41832,2,0,L|384:176,1,50,0|0,2:0|0:0,2:0:0:0:
224,160,42125,6,0,L|168:160,1,50,0|0,2:0|0:0,2:0:0:0:
120,120,42271,2,0,L|176:120,1,50,10|10,3:0|3:0,0:0:0:0:
240,120,42418,2,0,L|240:176,1,50,10|0,3:0|0:0,2:0:0:0:
168,112,42564,2,0,L|112:112,1,50,0|0,2:0|0:0,0:0:0:0:
168,48,42710,2,0,L|232:48,2,50,2|0|0,2:0|0:0|2:0,2:0:0:0:
24,232,43003,1,0,2:0:0:0:
480,96,43296,5,14,3:0:0:0:
400,328,44174,6,0,P|184:272|400:168,2,600
184,104,46515,1,2,2:0:0:0:
416,200,46808,6,0,L|112:200,1,300,2|0,2:0|0:0,2:0:0:0:
16,200,47393,1,2,2:0:0:0:
240,320,47686,6,0,P|360:264|240:192,1,300,2|0,2:0|0:0,2:0:0:0:
144,216,48271,2,0,L|144:144,1,50,0|0,2:0|0:0,0:0:0:0:
216,128,48418,2,0,L|280:128,1,50,10|10,3:0|3:0,0:0:0:0:
200,72,48564,2,0,L|128:72,1,50,10|0,3:0|0:0,2:0:0:0:
64,80,48710,2,0,L|64:144,1,50,0|0,2:0|0:0,0:0:0:0:
288,272,49149,6,0,L|288:208,1,50,0|0,2:0|0:0,2:0:0:0:
216,208,49296,2,0,L|160:208,1,50,8|8,3:0|3:0,0:0:0:0:
232,152,49442,2,0,L|296:152,1,50,8|0,3:0|0:0,2:0:0:0:
360,144,49589,2,0,L|360:88,1,50,0|0,2:0|0:0,0:0:0:0:
288,88,49735,2,0,L|240:104,2,50,2|2|2,2:0|2:0|2:0,0:0:0:0:
464,184,50028,1,0,3:0:0:0:
32,96,50320,5,14,3:0:0:0:
496,376,51198,6,0,L|16:8,2,600,2|0|0,2:0|0:0|0:0,2:0:0:0:
141,281,53540,1,2,2:0:0:0:
357,300,53832,6,0,P|469:220|357:156,1,300,2|0,2:0|0:0,2:0:0:0:
280,144,54418,1,2,2:0:0:0:
72,320,54710,6,0,L|376:320,1,300,2|0,2:0|0:0,2:0:0:0:
248,232,55296,2,0,L|248:160,1,50,0|0,2:0|0:0,0:0:0:0:
320,168,55442,2,0,L|376:168,1,50,10|10,3:0|3:0,0:0:0:0:
304,112,55589,2,0,L|240:112,1,50,10|0,3:0|0:0,2:0:0:0:
424,56,55881,1,0,2:0:0:0:
200,264,56174,6,0,L|200:192,1,50,0|0,2:0|0:0,2:0:0:0:
264,192,56320,2,0,L|328:192,1,50,10|10,3:0|3:0,0:0:0:0:
384,200,56467,2,0,L|384:136,1,50,10|0,3:0|0:0,2:0:0:0:
320,144,56613,1,0,2:0:0:0:
264,104,56686,1,0,0:0:0:0:
264,48,56759,1,0,2:0:0:0:
320,32,56832,1,0,0:0:0:0:
376,32,56906,1,0,2:0:0:0:
488,168,57052,2,0,L|488:64,1,100,0|0,2:0|2:0,0:0:0:0:
272,312,57345,6,0,P|120:240|272:184,1,400,14|0,2:0|2:0,2:0:0:0:
368,176,58076,1,2,2:0:0:0:
232,336,58223,6,0,L|173:316,3,50,2|2|2|2,2:0|2:0|2:0|2:0,0:0:0:0:
296,240,58515,2,0,L|312:192,3,50,2|2|2|2,2:0|2:0|2:0|2:0,0:0:0:0:
240,176,58808,1,2,2:0:0:0:
184,136,58881,1,2,2:0:0:0:
184,96,58954,1,2,2:0:0:0:
240,80,59028,1,2,2:0:0:0:
400,280,59101,6,0,L|416:224,3,33.3333333333333,14|0|0|2,3:0|0:0|0:0|2:0,0:0:0:0:
336,184,59393,2,0,L|312:128,3,50,2|2|2|2,2:0|2:0|2:0|2:0,0:0:0:0:
240,192,59686,2,0,L|264:128,3,50,2|2|2|2,2:0|2:0|2:0|2:0,0:0:0:0:
176,272,59979,6,0,L|240:272,1,50,2|2,2:0|2:0,2:0:0:0:
296,272,60125,2,0,L|296:208,1,50,2|2,2:0|2:0,0:0:0:0:
232,208,60271,1,2,2:0:0:0:
176,168,60345,1,0,2:0:0:0:
176,120,60418,1,0,2:0:0:0:
232,96,60491,1,2,2:0:0:0:
376,88,60564,2,0,L|320:88,1,50,2|2,2:0|2:0,2:0:0:0:
176,88,60710,2,0,L|176:24,1,50,2|2,2:0|2:0,0:0:0:0:
384,192,60857,5,14,3:0:0:0:
264,368,63198,6,0,P|16:192|264:16,1,700,6|0,3:0|0:0,0:0:0:0:
480,176,64369,6,0,L|408:176,1,50,10|10,3:0|3:0,0:0:0:0:
248,216,64515,2,0,L|176:216,1,50,10|10,3:0|3:0,0:0:0:0:
376,280,64661,1,2,3:0:0:0:
432,256,64735,1,2,3:0:0:0:
432,200,64808,1,10,3:0:0:0:
376,168,64881,1,2,3:0:0:0:
200,312,64954,6,0,L|200:256,1,50,10|2,3:0|3:0,0:0:0:0:
272,248,65100,2,0,L|272:184,1,50,2|2,3:0|3:0,3:0:0:0:
88,176,65247,2,0,L|144:176,1,50,10|2,3:0|3:0,0:0:0:0:
312,112,65393,2,0,L|368:112,1,50,2|2,3:0|3:0,3:0:0:0:
184,312,65539,6,0,L|256:312,1,50,6|2,3:0|3:0,3:0:0:0:
304,312,65686,2,0,L|304:248,1,50,10|2,3:0|3:0,3:0:0:0:
128,128,65832,2,0,L|64:128,1,50,2|2,3:0|3:0,3:0:0:0:
256,152,65978,2,0,L|344:152,1,50,10|2,3:0|3:0,3:0:0:0:
96,200,66125,6,0,L|96:128,1,50,2|0,3:0|3:0,0:0:0:0:
160,128,66271,2,0,L|224:128,1,50,8|0,3:0|3:0,0:0:0:0:
280,128,66417,2,0,L|280:48,1,50,0|0,3:0|3:0,0:0:0:0:
72,296,66564,2,0,L|16:296,1,50,10|2,3:0|3:0,3:0:0:0:
200,336,66710,6,0,L|200:264,1,50,2|2,3:0|3:0,3:0:0:0:
128,256,66857,2,0,L|128:176,1,50,10|2,3:0|3:0,3:0:0:0:
304,168,67003,2,0,L|224:168,1,50,2|2,3:0|3:0,3:0:0:0:
80,120,67149,2,0,L|24:120,1,50,10|2,3:0|3:0,3:0:0:0:
232,184,67296,6,0,L|232:112,1,50,2|0,3:0|3:0,0:0:0:0:
168,128,67442,2,0,L|112:128,1,50,8|0,3:0|3:0,0:0:0:0:
56,128,67588,2,0,L|56:192,1,50,0|0,3:0|3:0,0:0:0:0:
264,248,67735,2,0,L|344:248,1,50,10|10,3:0|3:0,3:0:0:0:
104,312,67881,6,0,L|104:248,1,50,14|2,3:0|3:0,0:0:0:0:
168,256,68027,2,0,L|224:256,1,50,2|2,3:0|3:0,0:0:0:0:
152,200,68174,2,0,L|80:200,1,50,2|2,3:0|3:0,3:0:0:0:
280,312,68320,6,0,L|280:240,1,50,14|2,3:0|3:0,0:0:0:0:
216,224,68466,2,0,L|160:224,1,50,2|2,3:0|3:0,0:0:0:0:
96,208,68613,2,0,L|96:128,1,50,2|2,3:0|3:0,3:0:0:0:
272,176,68759,6,0,L|208:176,1,50,10|2,3:0|3:0,3:0:0:0:
152,168,68905,2,0,L|152:104,1,50,2|2,3:0|3:0,3:0:0:0:
328,192,69052,6,0,L|392:192,1,50,10|0,3:0|3:0,3:0:0:0:
156,321,69198,1,0,3:0:0:0:
125,311,69234,1,0,0:0:0:0:
103,288,69271,1,0,0:0:0:0:
95,256,69307,1,0,0:0:0:0:
103,224,69344,1,0,3:0:0:0:
126,202,69380,1,0,0:0:0:0:
157,194,69417,1,0,0:0:0:0:
384,80,69491,2,0,L|328:80,1,50,10|0,3:0|3:0,3:0:0:0:
144,64,69637,6,0,L|80:64,1,50,2|0,3:0|0:0,3:0:0:0:
345,261,69783,1,0,3:0:0:0:
376,250,69819,1,0,0:0:0:0:
398,228,69856,1,0,0:0:0:0:
406,196,69892,1,0,0:0:0:0:
397,164,69929,1,8,3:0:0:0:
374,142,69965,1,0,0:0:0:0:
344,133,70002,1,8,3:0:0:0:
144,128,70076,2,0,L|88:128,1,50,8|8,3:0|3:0,0:0:0:0:
275,57,70222,5,14,3:0:0:0:
335,60,70295,1,0,0:0:0:0:
379,98,70368,1,0,0:0:0:0:
390,156,70441,1,0,0:0:0:0:
364,208,70514,1,0,3:0:0:0:
310,232,70587,1,0,0:0:0:0:
120,160,70661,2,0,L|64:160,1,50,2|2,3:0|3:0,0:0:0:0:
248,320,70808,6,0,L|248:248,1,50,14|10,3:0|3:0,3:0:0:0:
176,240,70954,2,0,L|104:240,1,50,10|0,3:0|0:0,0:0:0:0:
320,272,71100,1,2,3:0:0:0:
376,240,71174,1,0,0:0:0:0:
376,192,71247,1,2,3:0:0:0:
320,152,71320,1,0,0:0:0:0:
136,248,71393,6,0,P|64:192|136:136,1,200,4|0,3:0|3:0,3:0:0:0:
184,128,71759,1,0,0:0:0:0:
360,192,71832,2,0,L|416:192,1,50,8|0,0:0|0:0,0:0:0:0:
216,224,71979,2,0,L|104:224,1,100,2|8,3:0|3:0,3:0:0:0:
168,176,72198,1,0,3:0:0:0:
224,176,72271,1,2,3:0:0:0:
16,272,72418,1,10,3:0:0:0:
256,296,72564,6,0,L|368:296,1,100,2|0,3:0|0:0,3:0:0:0:
304,240,72783,1,0,0:0:0:0:
152,240,72856,2,0,L|152:168,1,50,2|0,3:0|3:0,0:0:0:0:
224,224,73003,2,0,L|224:160,1,50,10|0,3:0|0:0,0:0:0:0:
72,88,73149,2,0,L|16:88,2,50,2|0|8,3:0|3:0|3:0,0:0:0:0:
296,80,73442,2,0,L|360:80,2,50,2|0|8,3:0|3:0|3:0,3:0:0:0:
72,168,73735,6,0,L|296:168,1,200,6|2,3:0|3:0,3:0:0:0:
216,112,74100,1,0,3:0:0:0:
160,112,74174,1,8,3:0:0:0:
384,296,74320,2,0,L|384:192,1,100,2|8,3:0|3:0,3:0:0:0:
200,144,74539,2,0,L|320:144,1,100,2|0,3:0|3:0,3:0:0:0:
128,224,74759,2,0,L|56:224,1,50,10|0,3:0|3:0,3:0:0:0:
248,256,74905,6,0,L|304:256,2,50,6|0|8,3:0|3:0|3:0,0:0:0:0:
80,144,75125,2,0,L|16:144,2,50,0|2|0,3:0|3:0|3:0,0:0:0:0:
248,304,75344,1,10,3:0:0:0:
295,312,75417,1,0,3:0:0:0:
335,283,75490,1,0,3:0:0:0:
341,235,75563,1,0,3:0:0:0:
311,197,75636,1,8,3:0:0:0:
263,192,75709,1,0,3:0:0:0:
104,208,75783,2,0,L|160:208,1,50,0|0,3:0|3:0,0:0:0:0:
336,224,75929,2,0,L|416:224,1,50,10|2,3:0|3:0,3:0:0:0:
216,152,76076,6,0,L|104:152,1,100,2|8,3:0|3:0,3:0:0:0:
296,248,76296,2,0,L|352:248,2,50,2|0|0,3:0|3:0|3:0,0:0:0:0:
120,216,76515,2,0,L|64:216,1,50,10|0,3:0|3:0,3:0:0:0:
256,152,76662,2,0,L|40:152,1,200,2|0,3:0|3:0,3:0:0:0:
112,208,77027,1,0,3:0:0:0:
288,72,77101,2,0,L|368:72,1,50,10|2,3:0|3:0,3:0:0:0:
160,248,77247,6,0,L|272:248,1,100,2|8,3:0|3:0,3:0:0:0:
88,136,77466,2,0,L|32:136,2,50,2|0|0,3:0|3:0|3:0,0:0:0:0:
272,120,77686,2,0,L|344:120,1,50,10|0,3:0|3:0,3:0:0:0:
152,184,77832,6,0,L|48:184,1,100,2|8,3:0|3:0,0:0:0:0:
104,144,78052,1,0,3:0:0:0:
280,304,78125,2,0,L|280:232,1,50,2|0,3:0|3:0,3:0:0:0:
216,240,78271,2,0,L|160:240,1,50,8|0,3:0|3:0,3:0:0:0:
344,152,78417,5,6,3:0:0:0:
440,152,78515,1,2,3:0:0:0:
344,152,78613,1,2,3:0:0:0:
160,72,78710,1,10,3:0:0:0:
256,56,78808,1,2,3:0:0:0:
160,32,78905,1,2,3:0:0:0:
344,96,79003,5,2,3:0:0:0:
256,96,79100,1,2,3:0:0:0:
168,96,79198,1,2,3:0:0:0:
344,152,79296,1,2,3:0:0:0:
248,152,79393,1,2,3:0:0:0:
344,152,79491,1,2,3:0:0:0:
128,264,79589,6,0,L|128:160,1,100,14|0,3:0|3:0,3:0:0:0:
304,104,79808,2,0,L|304:208,1,100,10|0,3:0|3:0,0:0:0:0:
136,192,80027,2,0,L|360:192,1,200,10|8,3:0|3:0,3:0:0:0:
280,144,80393,1,0,3:0:0:0:
104,288,80466,2,0,L|176:288,1,50,0|0,3:0|3:0,3:0:0:0:
336,288,80613,2,0,L|408:288,1,50,8|0,3:0|3:0,0:0:0:0:
168,336,80759,6,0,P|88:288|168:240,1,200,2|0,3:0|3:0,3:0:0:0:
208,232,81125,1,0,3:0:0:0:
144,200,81198,1,8,3:0:0:0:
352,192,81344,2,0,L|456:192,1,100,2|8,3:0|3:0,3:0:0:0:
392,136,81564,1,0,3:0:0:0:
216,328,81637,2,0,L|216:232,1,50,2|0,3:0|3:0,3:0:0:0:
296,248,81783,2,0,L|296:176,1,50,10|0,3:0|3:0,3:0:0:0:
136,256,81930,6,0,L|24:256,1,100,2|8,3:0|3:0,3:0:0:0:
88,200,82149,1,0,0:0:0:0:
240,200,82222,2,0,L|240:128,1,50,2|0,3:0|3:0,3:0:0:0:
168,184,82369,2,0,L|168:120,1,50,10|0,3:0|0:0,0:0:0:0:
344,48,82515,2,0,L|400:48,2,50,2|0|8,3:0|3:0|3:0,0:0:0:0:
136,72,82808,1,2,3:0:0:0:
72,72,82881,1,0,3:0:0:0:
136,72,82954,1,8,3:0:0:0:
200,72,83027,1,0,0:0:0:0:
360,288,83100,6,0,L|496:288,1,100,6|0,3:0|0:0,3:0:0:0:
408,248,83320,1,0,0:0:0:0:
216,144,83393,2,0,L|152:144,2,50,2|0|8,3:0|3:0|3:0,0:0:0:0:
440,192,83686,2,0,L|440:48,1,100,2|8,3:0|3:0,3:0:0:0:
280,224,83905,2,0,L|400:224,1,100,2|0,3:0|3:0,0:0:0:0:
224,208,84125,2,0,L|168:208,1,50,10|0,3:0|3:0,3:0:0:0:
352,336,84271,6,0,L|416:336,2,50,6|0|8,3:0|3:0|3:0,0:0:0:0:
176,272,84491,1,0,3:0:0:0:
240,264,84564,1,2,3:0:0:0:
304,248,84637,1,0,3:0:0:0:
112,248,84710,5,10,3:0:0:0:
64,256,84783,1,0,3:0:0:0:
24,227,84856,1,0,3:0:0:0:
18,179,84929,1,0,3:0:0:0:
48,141,85002,1,8,3:0:0:0:
96,136,85075,1,0,3:0:0:0:
288,120,85149,2,0,L|352:120,1,50,0|0,3:0|3:0,3:0:0:0:
152,200,85296,2,0,L|96:200,1,50,10|2,3:0|3:0,3:0:0:0:
288,312,85442,6,0,L|160:312,1,100,2|8,3:0|3:0,3:0:0:0:
360,240,85661,1,2,3:0:0:0:
424,224,85735,2,0,L|424:168,1,50,0|0,3:0|3:0,3:0:0:0:
240,200,85881,2,0,L|176:200,1,50,10|0,3:0|3:0,3:0:0:0:
360,136,86027,6,0,L|232:136,1,100,2|8,3:0|3:0,3:0:0:0:
200,136,86247,1,0,3:0:0:0:
376,312,86320,1,0,3:0:0:0:
432,288,86393,1,0,3:0:0:0:
432,232,86466,1,10,3:0:0:0:
376,200,86539,1,2,3:0:0:0:
192,224,86613,6,0,L|296:224,1,100,2|10,3:0|3:0,3:0:0:0:
120,288,86832,1,0,0:0:0:0:
64,264,86905,2,0,L|64:184,1,50,0|0,3:0|3:0,3:0:0:0:
248,136,87052,2,0,L|320:136,1,50,10|0,3:0|3:0,3:0:0:0:
112,336,87198,6,0,L|112:272,1,50,2|0,3:0|3:0,0:0:0:0:
176,264,87344,2,0,L|240:264,1,50,8|0,3:0|3:0,0:0:0:0:
160,216,87491,2,0,L|104:216,1,50,0|0,3:0|3:0,0:0:0:0:
288,104,87637,2,0,L|360:104,1,50,10|10,3:0|3:0,3:0:0:0:
160,168,87783,6,0,L|160:96,1,50,6|0,3:0|3:0,0:0:0:0:
224,72,87930,2,0,L|288:72,1,50,8|0,3:0|3:0,0:0:0:0:
344,64,88076,2,0,L|344:120,1,50,0|0,3:0|3:0,0:0:0:0:
280,120,88222,2,0,L|224:120,1,50,0|0,3:0|3:0,0:0:0:0:
400,272,88369,6,0,L|400:144,1,100,10|0,3:0|3:0,3:0:0:0:
224,120,88588,2,0,L|344:120,1,100,14|0,3:0|3:0,3:0:0:0:
152,200,88808,2,0,L|80:200,1,50,10|0,3:0|3:0,3:0:0:0:
264,240,88954,6,0,L|376:240,1,100,14|0,3:0|3:0,3:0:0:0:
312,184,89174,1,10,3:0:0:0:
152,264,89247,2,0,L|64:264,1,50,2|0,3:0|3:0,3:0:0:0:
280,328,89393,6,0,P|352:280|280:216,1,200,10|0,3:0|3:0,3:0:0:0:
224,216,89759,1,0,3:0:0:0:
16,256,89832,1,2,3:0:0:0:
152,232,89905,1,2,3:0:0:0:
288,200,89978,1,2,3:0:0:0:
424,160,90052,1,2,3:0:0:0:
224,160,90125,6,0,L|224:80,1,50,2|0,3:0|0:0,3:0:0:0:
296,72,90271,2,0,L|296:144,1,50,10|0,3:0|0:0,0:0:0:0:
120,64,90417,2,0,L|192:64,1,50,2|0,3:0|3:0,3:0:0:0:
352,272,90564,2,0,L|416:272,1,50,10|0,3:0|0:0,0:0:0:0:
224,312,90710,6,0,L|224:256,1,50,2|0,3:0|3:0,3:0:0:0:
296,248,90856,2,0,L|352:248,1,50,10|0,3:0|0:0,0:0:0:0:
168,128,91003,2,0,L|112:128,1,50,2|0,3:0|0:0,0:0:0:0:
296,192,91149,2,0,L|368:192,1,50,10|0,3:0|0:0,0:0:0:0:
168,192,91296,6,0,L|232:192,1,50,2|0,3:0|3:0,3:0:0:0:
288,184,91442,2,0,L|288:112,1,50,10|0,3:0|0:0,0:0:0:0:
120,80,91588,2,0,L|176:80,1,50,2|0,3:0|3:0,3:0:0:0:
376,72,91735,2,0,L|432:72,1,50,10|0,3:0|0:0,0:0:0:0:
288,320,91881,5,2,3:0:0:0:
152,296,91954,1,2,3:0:0:0:
16,272,92027,2,0,L|16:192,1,50,10|2,3:0|3:0,0:0:0:0:
152,216,92174,1,2,3:0:0:0:
296,224,92247,1,2,3:0:0:0:
152,216,92320,1,10,3:0:0:0:
16,216,92393,1,2,3:0:0:0:
208,152,92466,5,2,3:0:0:0:
272,152,92539,1,0,0:0:0:0:
208,152,92613,1,10,3:0:0:0:
144,152,92686,1,0,0:0:0:0:
312,304,92759,2,0,L|376:304,1,50,2|0,3:0|3:0,3:0:0:0:
192,224,92905,2,0,L|120:224,1,50,10|0,3:0|0:0,0:0:0:0:
312,248,93052,6,0,L|248:248,1,50,2|0,3:0|3:0,3:0:0:0:
192,248,93198,2,0,L|192:192,1,50,10|0,3:0|0:0,0:0:0:0:
368,128,93344,2,0,L|424:128,1,50,2|2,3:0|3:0,3:0:0:0:
232,40,93491,2,0,L|144:40,1,50,10|10,3:0|3:0,3:0:0:0:
368,192,93637,5,2,3:0:0:0:
424,160,93710,1,2,3:0:0:0:
424,112,93783,1,10,3:0:0:0:
368,80,93856,1,2,3:0:0:0:
192,208,93930,2,0,L|256:208,1,50,2|2,3:0|3:0,0:0:0:0:
416,272,94076,2,0,L|344:272,1,50,10|2,3:0|3:0,0:0:0:0:
192,304,94222,6,0,L|192:240,1,50,2|2,3:0|3:0,0:0:0:0:
272,232,94369,2,0,L|272:160,1,50,2|2,3:0|3:0,0:0:0:0:
96,136,94515,2,0,L|160:136,1,50,2|2,3:0|3:0,0:0:0:0:
320,112,94661,2,0,L|384:112,1,50,10|10,3:0|3:0,0:0:0:0:
144,200,94808,6,0,L|16:200,1,100,6|0,3:0|0:0,3:0:0:0:
96,152,95027,1,0,0:0:0:0:
272,200,95100,2,0,L|272:128,1,50,0|0,3:0|3:0,0:0:0:0:
200,128,95247,2,0,L|200:64,1,50,8|0,3:0|0:0,0:0:0:0:
376,248,95393,2,0,L|432:248,2,50,0|0|8,3:0|3:0|3:0,0:0:0:0:
160,160,95686,1,0,3:0:0:0:
376,192,95832,2,0,L|456:192,1,50,10|2,3:0|3:0,3:0:0:0:
238,263,95978,6,0,L|63:256,1,175,2|0,3:0|0:0,3:0:0:0:
193,193,96417,1,10,3:0:0:0:
407,280,96564,6,0,L|297:271,1,100,2|8,3:0|3:0,3:0:0:0:
238,263,96783,1,0,3:0:0:0:
436,273,96856,2,0,L|439:154,1,100,2|10,3:0|3:0,3:0:0:0:
365,159,97076,1,8,0:3:0:0:
192,288,97149,6,0,P|120:232|192:160,1,200,2|0,3:0|3:0,3:0:0:0:
240,160,97515,1,0,3:0:0:0:
424,136,97588,2,0,L|488:136,1,50,8|8,3:0|3:0,3:0:0:0:
280,168,97735,5,4,3:0:0:0:
336,168,97808,1,0,3:0:0:0:
392,168,97881,1,0,3:0:0:0:
208,208,97954,2,0,L|136:208,2,50,4|0|0,3:0|3:0|3:0,0:0:0:0:
392,80,98174,2,0,L|448:80,1,50,8|0,3:0|3:0,3:0:0:0:
248,328,98320,6,0,L|224:280,3,50,10|0|0|0,3:0|3:0|3:0|3:0,0:0:0:0:
384,304,98613,2,0,L|408:256,3,50,10|0|0|0,3:0|3:0|3:0|3:0,0:0:0:0:
248,328,98905,6,0,L|224:280,3,50,10|0|0|0,3:0|3:0|3:0|3:0,0:0:0:0:
384,304,99198,2,0,L|408:256,3,50,10|0|0|0,3:0|3:0|3:0|3:0,0:0:0:0:
240,152,99491,5,14,3:0:0:0:
176,152,99564,1,8,3:0:0:0:
240,152,99637,1,8,3:0:0:0:
304,152,99710,1,8,3:0:0:0:
128,240,99783,2,0,L|48:240,1,50,0|0,3:0|3:0,0:0:0:0:
256,288,99930,2,0,L|312:288,1,50,0|0,3:0|3:0,0:0:0:0:
144,288,100076,6,0,L|144:224,1,50,0|0,3:0|3:0,0:0:0:0:
208,232,100222,2,0,L|272:232,1,50,0|0,3:0|3:0,0:0:0:0:
192,184,100369,2,0,L|128:184,1,50,0|0,3:0|3:0,0:0:0:0:
360,72,100515,2,0,L|416:72,1,50,0|0,3:0|3:0,0:0:0:0:
248,224,100661,5,14,3:0:0:0:
224,217,100697,1,0,0:0:0:0:
206,200,100734,1,0,3:0:0:0:
200,176,100770,1,0,0:0:0:0:
206,152,100807,1,0,3:0:0:0:
223,134,100843,1,0,0:0:0:0:
247,127,100880,1,0,0:0:0:0:
432,160,100954,2,0,L|376:160,1,50,0|0,3:0|0:0,0:0:0:0:
208,64,101100,2,0,L|144:64,1,50,10|0,3:0|3:0,3:0:0:0:
384,248,101247,5,0,3:0:0:0:
407,241,101283,1,0,0:0:0:0:
425,224,101320,1,0,0:0:0:0:
431,200,101356,1,0,0:0:0:0:
425,176,101393,1,0,3:0:0:0:
408,158,101429,1,0,0:0:0:0:
384,151,101466,1,0,0:0:0:0:
200,184,101540,2,0,L|256:184,1,50,10|10,3:0|3:0,3:0:0:0:
424,88,101686,2,0,L|488:88,1,50,10|10,3:0|3:0,3:0:0:0:
256,328,101832,6,0,L|232:272,3,50,2|0|8|0,3:0|3:0|3:0|3:0,0:0:0:0:
432,120,102125,2,0,L|496:120,1,50,2|0,3:0|3:0,0:0:0:0:
296,120,102271,2,0,L|208:120,1,50,10|0,3:0|3:0,3:0:0:0:
416,320,102417,6,0,L|432:272,3,50,2|0|8|0,3:0|3:0|3:0|3:0,0:0:0:0:
264,240,102710,2,0,L|208:240,1,50,2|0,3:0|3:0,0:0:0:0:
416,144,102856,2,0,L|416:208,1,50,8|2,3:0|3:0,3:0:0:0:
232,136,103003,6,0,L|152:136,1,50,2|0,3:0|3:0,0:0:0:0:
248,80,103149,2,0,L|304:80,1,50,8|0,3:0|3:0,0:0:0:0:
368,80,103296,2,0,L|368:152,1,50,0|0,3:0|3:0,0:0:0:0:
184,168,103442,2,0,L|104:168,1,50,10|2,3:0|3:0,3:0:0:0:
312,240,103588,5,2,3:0:0:0:
256,240,103661,1,0,3:0:0:0:
200,240,103735,1,8,3:0:0:0:
376,312,103808,2,0,L|432:312,2,50,0|2|0,3:0|3:0|3:0,0:0:0:0:
184,112,104027,2,0,L|112:112,1,50,10|0,3:0|3:0,3:0:0:0:
336,328,104174,6,0,L|360:264,3,50,2|0|8|0,3:0|3:0|3:0|3:0,0:0:0:0:
216,264,104466,2,0,L|200:208,3,50,2|0|8|0,3:0|3:0|3:0|3:0,0:0:0:0:
40,296,104759,6,0,L|24:240,3,50,2|0|8|0,3:0|3:0|3:0|3:0,0:0:0:0:
176,184,105052,1,2,3:0:0:0:
232,184,105125,1,0,3:0:0:0:
176,184,105198,1,8,3:0:0:0:
120,184,105271,1,0,3:0:0:0:
288,248,105344,6,0,L|288:184,1,50,2|0,3:0|3:0,0:0:0:0:
216,176,105491,2,0,L|144:176,1,50,8|0,3:0|3:0,0:0:0:0:
88,176,105637,2,0,L|88:120,1,50,0|0,3:0|3:0,0:0:0:0:
264,353,105783,5,8,3:0:0:0:
317,341,105856,1,0,3:0:0:0:
344,293,105929,1,0,3:0:0:0:
328,241,106002,1,0,3:0:0:0:
279,217,106075,1,8,3:0:0:0:
128,80,106149,1,0,3:0:0:0:
184,80,106222,1,2,3:0:0:0:
240,80,106296,1,0,3:0:0:0:
72,160,106369,2,0,L|16:160,1,50,10|8,3:0|3:0,3:0:0:0:
200,160,106515,5,6,3:0:0:0:
144,160,106588,1,0,3:0:0:0:
88,160,106661,1,8,3:0:0:0:
272,160,106735,1,2,3:0:0:0:
328,160,106808,1,2,3:0:0:0:
384,160,106881,1,0,3:0:0:0:
208,264,106954,2,0,L|136:264,1,50,10|0,3:0|3:0,3:0:0:0:
336,248,107100,6,0,L|392:248,2,50,2|0|8,3:0|3:0|3:0,0:0:0:0:
152,216,107320,2,0,L|88:216,2,50,0|2|0,3:0|3:0|3:0,0:0:0:0:
336,192,107540,2,0,L|392:192,1,50,10|0,3:0|3:0,3:0:0:0:
208,328,107686,6,0,L|208:264,1,50,6|0,3:0|3:0,0:0:0:0:
280,272,107832,2,0,L|344:272,1,50,8|0,3:0|3:0,3:0:0:0:
152,168,107978,1,2,3:0:0:0:
96,136,108052,1,0,3:0:0:0:
96,88,108125,1,8,3:0:0:0:
152,64,108198,1,0,3:0:0:0:
328,104,108271,5,2,3:0:0:0:
272,104,108344,1,0,3:0:0:0:
216,104,108417,1,8,3:0:0:0:
400,208,108491,2,0,L|456:208,2,50,2|0|0,3:0|3:0|3:0,0:0:0:0:
216,168,108710,2,0,L|152:168,1,50,10|0,3:0|3:0,0:0:0:0:
328,312,108856,5,6,3:0:0:0:
384,312,108930,1,2,3:0:0:0:
328,312,109003,1,8,3:0:0:0:
272,312,109076,1,0,3:0:0:0:
440,288,109149,1,2,3:0:0:0:
496,264,109222,1,0,3:0:0:0:
496,208,109296,1,8,3:0:0:0:
440,168,109369,1,0,3:0:0:0:
264,96,109442,5,10,3:0:0:0:
320,96,109515,1,0,3:0:0:0:
376,96,109588,1,0,3:0:0:0:
200,184,109661,1,14,3:0:0:0:
256,184,109735,1,0,3:0:0:0:
312,184,109808,1,0,3:0:0:0:
136,264,109881,2,0,L|80:264,1,50,10|0,3:0|3:0,3:0:0:0:
265,321,110027,5,14,3:0:0:0:
320,327,110100,1,0,3:0:0:0:
365,293,110173,1,0,3:0:0:0:
372,238,110246,1,0,3:0:0:0:
338,193,110319,1,8,3:0:0:0:
283,183,110392,1,0,3:0:0:0:
104,144,110466,1,2,3:0:0:0:
240,120,110539,1,2,3:0:0:0:
400,200,110613,5,14,3:0:0:0:
472,200,110686,1,8,3:0:0:0:
256,48,110759,2,0,L|184:48,1,50,8|8,3:0|3:0,0:0:0:0:
392,304,110905,2,0,L|320:304,1,50,0|0,3:0|3:0,0:0:0:0:
160,280,111052,2,0,L|104:280,1,50,0|0,3:0|3:0,0:0:0:0:
312,240,111198,6,0,L|424:240,1,100,2|8,3:0|3:0,0:0:0:0:
200,128,111491,1,2,3:0:0:0:
256,128,111564,1,0,3:0:0:0:
312,128,111637,1,10,3:0:0:0:
104,224,111783,2,0,L|104:112,1,100,2|8,3:0|3:0,0:0:0:0:
328,64,112076,1,2,3:0:0:0:
112,264,112222,2,0,L|40:264,1,50,8|2,3:0|3:0,3:0:0:0:
272,240,112369,6,0,P|344:184|272:128,1,200,2|0,3:0|3:0,0:0:0:0:
224,120,112735,1,0,3:0:0:0:
72,64,112808,2,0,L|16:64,1,50,10|2,3:0|3:0,3:0:0:0:
224,184,112954,5,2,3:0:0:0:
280,184,113027,1,0,3:0:0:0:
224,184,113100,1,8,3:0:0:0:
168,184,113174,1,0,3:0:0:0:
352,320,113247,2,0,L|408:320,1,50,2|0,3:0|3:0,0:0:0:0:
224,248,113393,2,0,L|168:248,1,50,10|0,3:0|3:0,3:0:0:0:
336,216,113539,6,0,L|456:216,1,100,2|8,3:0|3:0,0:0:0:0:
232,136,113832,1,2,3:0:0:0:
288,136,113905,1,0,3:0:0:0:
344,136,113978,1,8,3:0:0:0:
136,264,114125,2,0,L|136:152,1,100,2|8,3:0|3:0,0:0:0:0:
200,176,114344,1,0,3:0:0:0:
384,264,114417,2,0,L|456:264,2,50,2|0|8,3:0|3:0|3:0,0:0:0:0:
168,192,114710,6,0,L|400:192,1,200,2|0,3:0|3:0,0:0:0:0:
312,128,115076,1,0,3:0:0:0:
136,88,115149,2,0,L|64:88,1,50,10|2,3:0|3:0,0:0:0:0:
256,304,115296,6,0,L|256:232,1,50,2|0,3:0|3:0,0:0:0:0:
192,232,115442,2,0,L|136:232,1,50,8|8,3:0|3:0,0:0:0:0:
336,176,115588,2,0,L|400:176,1,50,8|0,3:0|3:0,0:0:0:0:
192,176,115735,2,0,L|120:176,1,50,0|0,3:0|3:0,0:0:0:0:
336,248,115881,6,0,L|208:248,1,100,14|0,3:0|3:0,3:0:0:0:
400,320,116100,2,0,L|400:216,1,100,14|0,3:0|3:0,3:0:0:0:
208,80,116320,2,0,L|136:80,1,50,10|0,3:0|3:0,3:0:0:0:
344,144,116466,2,0,L|456:144,1,100,10|0,3:0|3:0,3:0:0:0:
264,184,116686,2,0,L|376:184,1,100,2|0,3:0|3:0,0:0:0:0:
168,256,116905,2,0,L|88:256,1,50,2|0,3:0|3:0,3:0:0:0:
296,320,117052,6,0,L|296:256,1,50,10|0,3:0|3:0,0:0:0:0:
232,248,117198,2,0,L|176:248,1,50,0|0,3:0|3:0,0:0:0:0:
112,240,117344,2,0,L|112:184,1,50,8|0,3:0|3:0,0:0:0:0:
304,160,117491,2,0,L|368:160,1,50,2|2,3:0|3:0,3:0:0:0:
168,336,117637,6,0,L|224:336,1,50,14|8,3:0|3:0,0:0:0:0:
288,336,117783,2,0,L|288:272,1,50,8|8,3:0|3:0,0:0:0:0:
104,176,117930,2,0,L|40:176,1,50,2|0,3:0|3:0,0:0:0:0:
232,120,118076,2,0,L|296:120,1,50,0|0,3:0|3:0,0:0:0:0:
104,248,118222,6,0,L|168:248,1,50,10|2,3:0|3:0,0:0:0:0:
336,240,118369,2,0,L|400:240,1,50,2|2,3:0|3:0,0:0:0:0:
208,176,118515,1,10,3:0:0:0:
144,176,118588,1,2,3:0:0:0:
208,176,118661,1,2,3:0:0:0:
272,176,118735,1,2,3:0:0:0:
96,320,118808,6,0,L|40:320,1,50,10|2,3:0|3:0,0:0:0:0:
224,320,118954,2,0,L|224:256,1,50,2|2,3:0|3:0,0:0:0:0:
160,240,119100,2,0,L|96:240,1,50,10|2,3:0|3:0,3:0:0:0:
288,144,119247,2,0,L|360:144,1,50,2|2,3:0|3:0,3:0:0:0:
160,240,119393,5,2,3:0:0:0:
104,208,119466,1,0,3:0:0:0:
104,152,119539,1,0,3:0:0:0:
160,128,119613,1,0,3:0:0:0:
344,264,119686,2,0,L|344:200,1,50,10|0,3:0|3:0,0:0:0:0:
272,192,119832,2,0,L|272:136,1,50,0|0,3:0|3:0,0:0:0:0:
408,120,119978,6,0,L|472:120,1,50,14|10,3:0|3:0,0:0:0:0:
264,56,120125,2,0,L|200:56,1,50,10|10,3:0|3:0,0:0:0:0:
408,184,120271,2,0,L|464:184,1,50,2|2,3:0|3:0,0:0:0:0:
224,112,120417,2,0,L|168:112,1,50,2|2,3:0|3:0,0:0:0:0:
384,272,120564,6,0,L|488:272,1,100,2|0,3:0|3:0,0:0:0:0:
264,184,120856,2,0,L|368:184,1,100,0|10,3:0|3:0,0:0:0:0:
144,272,121149,6,0,L|40:272,1,100,2|8,3:0|3:0,0:0:0:0:
264,184,121441,2,0,L|160:184,1,100,0|8,3:0|3:0,0:0:0:0:
384,320,121735,6,0,L|384:208,1,100,0|8,3:0|3:0,0:0:0:0:
176,88,122027,2,0,L|296:88,1,100,0|8,3:0|3:0,0:0:0:0:
48,304,122320,6,0,L|48:192,1,100,0|8,3:0|3:0,0:0:0:0:
256,72,122612,2,0,L|136:72,1,100,0|8,3:0|3:0,3:0:0:0:
360,272,122905,6,0,L|296:272,1,50,6|2,3:0|3:0,0:0:0:0:
240,264,123052,2,0,L|240:200,1,50,10|2,3:0|3:0,0:0:0:0:
312,192,123198,2,0,L|312:136,1,50,2|2,3:0|3:0,0:0:0:0:
136,88,123344,2,0,L|80:88,1,50,10|2,3:0|3:0,3:0:0:0:
264,336,123491,6,0,L|264:264,1,50,2|2,3:0|3:0,0:0:0:0:
200,256,123637,2,0,L|200:184,1,50,10|2,3:0|3:0,0:0:0:0:
376,80,123783,2,0,L|304:80,1,50,2|2,3:0|3:0,0:0:0:0:
152,56,123930,2,0,L|88:56,1,50,10|2,3:0|3:0,3:0:0:0:
280,200,124076,6,0,L|280:144,1,50,6|2,3:0|3:0,0:0:0:0:
216,112,124222,2,0,L|144:112,1,50,10|2,3:0|3:0,0:0:0:0:
344,288,124369,2,0,L|416:288,1,50,2|2,3:0|3:0,0:0:0:0:
216,176,124515,2,0,L|144:176,1,50,10|2,3:0|3:0,3:0:0:0:
336,216,124661,6,0,L|336:144,1,50,6|2,3:0|3:0,0:0:0:0:
272,136,124808,2,0,L|208:136,1,50,10|2,3:0|3:0,0:0:0:0:
288,72,124954,2,0,L|352:72,1,50,2|2,3:0|3:0,0:0:0:0:
160,224,125100,2,0,L|80:224,1,50,10|2,3:0|3:0,3:0:0:0:
272,200,125247,5,2,3:0:0:0:
328,200,125320,1,2,3:0:0:0:
272,200,125393,1,10,3:0:0:0:
216,200,125466,1,2,3:0:0:0:
384,320,125539,5,2,3:0:0:0:
440,288,125613,1,2,3:0:0:0:
440,232,125686,1,10,3:0:0:0:
384,208,125759,1,2,3:0:0:0:
208,304,125832,6,0,L|208:240,1,50,2|2,3:0|3:0,0:0:0:0:
288,240,125978,2,0,L|352:240,1,50,10|2,3:0|3:0,0:0:0:0:
160,200,126125,5,2,3:0:0:0:
104,168,126198,1,2,3:0:0:0:
104,112,126271,1,10,3:0:0:0:
160,88,126344,1,2,3:0:0:0:
336,64,126417,6,0,L|256:64,1,50,2|2,3:0|3:0,0:0:0:0:
112,32,126564,2,0,L|56:32,1,50,10|2,3:0|3:0,0:0:0:0:
224,304,126710,5,2,3:0:0:0:
280,304,126783,1,2,3:0:0:0:
224,304,126856,1,10,3:0:0:0:
168,304,126930,1,2,3:0:0:0:
344,304,127003,5,2,3:0:0:0:
400,272,127076,1,2,3:0:0:0:
400,224,127149,1,10,3:0:0:0:
344,200,127222,1,2,3:0:0:0:
168,192,127296,6,0,L|232:192,1,50,2|2,3:0|3:0,3:0:0:0:
288,192,127442,2,0,L|288:136,1,50,10|2,3:0|3:0,3:0:0:0:
112,248,127588,6,0,L|184:248,1,50,6|2,3:0|3:0,0:0:0:0:
336,256,127735,2,0,L|392:256,1,50,10|2,3:0|3:0,0:0:0:0:
216,296,127881,2,0,L|216:240,1,50,2|2,3:0|3:0,0:0:0:0:
280,192,128027,2,0,L|336:192,1,50,10|2,3:0|3:0,0:0:0:0:
152,96,128174,6,0,L|88:96,1,50,6|2,3:0|3:0,0:0:0:0:
280,152,128320,2,0,L|352:152,1,50,10|2,3:0|3:0,0:0:0:0:
144,160,128466,2,0,L|144:232,1,50,2|2,3:0|3:0,0:0:0:0:
216,160,128613,2,0,L|216:88,1,50,10|2,3:0|3:0,0:0:0:0:
40,248,128759,6,0,L|112:248,1,50,10|10,3:0|3:0,0:0:0:0:
272,288,128905,2,0,L|336:288,1,50,2|2,3:0|3:0,0:0:0:0:
144,208,129052,2,0,L|80:208,1,50,2|2,3:0|3:0,0:0:0:0:
273,350,129198,5,2,3:0:0:0:
325,359,129271,1,2,3:0:0:0:
369,327,129344,1,2,3:0:0:0:
376,274,129417,1,2,3:0:0:0:
343,232,129490,1,2,3:0:0:0:
290,227,129563,1,2,3:0:0:0:
104,152,129637,2,0,L|168:152,1,50,10|2,3:0|3:0,0:0:0:0:
344,96,129783,2,0,L|416:96,1,50,10|10,3:0|3:0,0:0:0:0:
200,302,129930,5,6,3:0:0:0:
145,314,130003,1,0,3:0:0:0:
96,285,130076,1,8,3:0:0:0:
79,232,130149,1,0,3:0:0:0:
103,180,130222,1,0,3:0:0:0:
156,159,130295,1,0,3:0:0:0:
352,176,130369,2,0,L|416:176,1,50,10|2,3:0|3:0,3:0:0:0:
208,280,130515,6,0,L|208:224,1,50,2|0,3:0|3:0,0:0:0:0:
280,216,130661,2,0,L|344:216,1,50,8|0,3:0|3:0,0:0:0:0:
264,160,130808,2,0,L|200:160,1,50,0|0,3:0|3:0,0:0:0:0:
152,160,130954,2,0,L|152:88,1,50,8|0,3:0|3:0,0:0:0:0:
346,309,131100,5,2,3:0:0:0:
400,305,131173,1,0,3:0:0:0:
438,265,131246,1,8,3:0:0:0:
439,211,131319,1,0,3:0:0:0:
403,169,131392,1,0,3:0:0:0:
349,163,131465,1,0,3:0:0:0:
160,104,131539,2,0,L|104:104,1,50,10|2,3:0|3:0,3:0:0:0:
312,232,131686,6,0,L|368:232,1,50,2|0,3:0|3:0,0:0:0:0:
312,176,131832,2,0,L|248:176,1,50,8|0,3:0|3:0,0:0:0:0:
192,176,131978,2,0,L|192:112,1,50,0|0,3:0|3:0,0:0:0:0:
264,112,132125,2,0,L|336:112,1,50,8|0,3:0|3:0,0:0:0:0:
155,320,132271,5,6,3:0:0:0:
104,334,132344,1,0,3:0:0:0:
55,318,132417,1,8,3:0:0:0:
24,277,132490,1,0,3:0:0:0:
21,225,132563,1,0,3:0:0:0:
49,181,132636,1,0,3:0:0:0:
96,161,132710,1,10,3:0:0:0:
147,172,132783,1,2,3:0:0:0:
312,280,132856,6,0,L|368:280,1,50,2|0,3:0|3:0,3:0:0:0:
184,120,133003,2,0,L|112:120,1,50,10|0,3:0|3:0,3:0:0:0:
312,224,133149,2,0,L|376:224,1,50,2|0,3:0|3:0,3:0:0:0:
184,64,133296,2,0,L|120:64,1,50,10|0,3:0|3:0,3:0:0:0:
312,320,133442,6,0,L|368:320,2,50,6|0|8,3:0|0:0|3:0,3:0:0:0:
176,216,133661,1,8,3:0:0:0:
312,184,133735,1,8,3:0:0:0:
448,144,133808,1,8,3:0:0:0:
312,128,133881,1,6,3:0:0:0:
248,128,133954,1,2,3:0:0:0:
312,128,134027,1,6,3:0:0:0:
448,208,134100,5,0,3:0:0:0:
312,184,134174,1,10,3:0:0:0:
176,104,134247,1,8,3:0:0:0:
352,304,134320,1,2,3:0:0:0:
408,272,134393,1,0,3:0:0:0:
408,216,134466,1,2,3:0:0:0:
352,184,134539,1,0,3:0:0:0:
160,288,134613,6,0,P|104:240|160:184,1,150,6|0,3:0|3:0,3:0:0:0:
304,128,134905,2,0,L|416:128,1,100,10|0,3:0|3:0,3:0:0:0:
184,56,135198,2,0,L|368:56,1,150,6|0,3:0|0:0,0:0:0:0:
136,192,135491,2,0,L|136:72,1,100,14|0,3:0|3:0,0:0:0:0:
344,272,135783,6,0,L|192:272,1,150,2|0,3:0|0:0,3:0:0:0:
384,216,136076,2,0,L|488:216,1,100,10|0,3:0|3:0,3:0:0:0:
264,120,136369,1,10,3:0:0:0:
208,120,136442,1,2,3:0:0:0:
264,120,136515,1,2,3:0:0:0:
320,120,136588,1,2,3:0:0:0:
128,256,136661,2,0,P|80:208|128:152,1,150,14|0,3:0|3:0,3:0:0:0:
304,240,136954,6,0,L|408:240,1,100,10|0,3:0|3:0,0:0:0:0:
352,184,137174,1,0,3:0:0:0:
176,304,137247,1,8,3:0:0:0:
120,272,137320,1,0,3:0:0:0:
120,216,137393,1,0,3:0:0:0:
176,192,137466,1,0,3:0:0:0:
336,88,137539,5,14,3:0:0:0:
392,88,137613,1,0,3:0:0:0:
336,88,137686,1,0,3:0:0:0:
280,88,137759,1,0,3:0:0:0:
440,328,137832,1,8,3:0:0:0:
496,296,137905,1,0,3:0:0:0:
496,248,137978,1,0,3:0:0:0:
440,224,138052,1,0,3:0:0:0:
304,176,138125,5,10,3:0:0:0:
168,152,138198,1,8,3:0:0:0:
304,240,138271,2,0,L|304:168,1,50,0|0,3:0|3:0,0:0:0:0:
232,160,138417,2,0,L|232:104,1,50,8|8,3:0|3:0,0:0:0:0:
424,88,138564,2,0,L|496:88,1,50,2|2,3:0|3:0,0:0:0:0:
288,320,138710,6,0,P|232:272|288:216,1,150,10|8,3:0|3:0,0:0:0:0:
432,208,139003,2,0,P|488:160|432:120,1,150,8|0,3:0|0:0,3:0:0:0:
152,80,139296,5,6,3:0:0:0:
280,296,148661,6,0,P|16:176|288:64,1,700,2|0,2:0|0:0,3:0:0:0:
480,200,149832,5,10,0:0:0:0:
160,192,150417,1,2,3:0:0:0:
264,184,150564,1,2,3:0:0:0:
376,168,150710,1,2,3:0:0:0:
160,192,151003,6,0,L|296:88,2,150,2|0|2,3:0|0:0|3:0,3:0:0:0:
304,288,151588,2,0,P|416:224|304:160,1,300,2|0,0:0|0:0,3:0:0:0:
112,168,152174,6,0,L|384:8,1,300,10|0,3:0|0:0,3:0:0:0:
272,296,152759,1,2,3:0:0:0:
192,248,152905,1,2,3:0:0:0:
192,168,153052,1,2,3:0:0:0:
272,128,153198,1,2,3:0:0:0:
160,48,153344,6,0,P|40:176|168:312,1,400,6|0,0:0|0:0,3:0:0:0:
352,88,154222,2,0,L|464:88,1,100,2|2,3:0|3:0,3:0:0:0:
232,328,154515,6,0,P|112:272|232:200,1,300,10|0,0:0|0:0,3:0:0:0:
344,120,155100,2,0,L|208:8,2,150,2|0|2,3:0|0:0|3:0,0:0:0:0:
184,328,155686,6,0,B|183:135|183:135|184:360,1,400,2|0,0:0|3:0,3:0:0:0:
288,136,156417,1,0,0:0:0:0:
184,104,156564,1,0,0:0:0:0:
80,72,156710,1,0,0:0:0:0:
288,384,156856,6,0,P|496:192|272:0,1,650,10|2,0:0|0:0,3:0:0:0:
64,288,158027,6,0,B|336:112|336:112,1,300,2|0,0:0|0:0,3:0:0:0:
224,280,158613,2,0,P|112:192|224:104,1,300,2|0,3:0|0:0,0:0:0:0:
432,352,159198,6,0,L|432:40,1,300,10|0,3:0|0:0,3:0:0:0:
328,144,159783,1,2,3:0:0:0:
224,144,159930,1,0,3:0:0:0:
328,144,160076,1,0,3:0:0:0:
432,136,160222,1,0,0:0:0:0:
296,304,160369,6,0,L|192:304,1,100,2|0,3:0|3:0,3:0:0:0:
328,232,160661,2,0,L|328:128,1,100,0|0,3:0|3:0,3:0:0:0:
192,264,160954,1,0,3:0:0:0:
432,120,161247,1,0,3:0:0:0:
24,352,161539,6,0,B|24:72|24:72|24:112,1,300,14|0,3:0|0:0,3:0:0:0:
128,176,162124,1,0,3:0:0:0:
232,176,162270,1,0,3:0:0:0:
128,176,162417,1,0,3:0:0:0:
24,168,162564,1,0,3:0:0:0:
160,296,162710,6,0,P|272:224|160:152,1,300,4|0,3:0|0:0,3:0:0:0:
64,104,163296,2,0,L|304:296,1,300,2|0,0:0|0:0,3:0:0:0:
24,336,163881,6,0,B|24:152|24:152|24:304,1,300,10|0,0:0|0:0,3:0:0:0:
128,240,164466,1,2,3:0:0:0:
208,192,164613,1,0,3:0:0:0:
208,112,164759,1,0,3:0:0:0:
128,168,164905,1,0,3:0:0:0:
280,384,165052,6,0,P|480:192|280:0,1,600,2|0,0:0|0:0,3:0:0:0:
176,24,166076,1,0,0:0:0:0:
384,328,166222,6,0,L|384:16,1,300,12|0,3:0|0:0,3:0:0:0:
256,200,166808,1,0,3:0:0:0:
256,128,166954,1,0,3:0:0:0:
384,128,167100,1,0,3:0:0:0:
384,128,167247,1,0,3:0:0:0:
256,64,167393,6,0,L|144:64,1,100,6|0,3:0|3:0,3:0:0:0:
288,304,167686,2,0,L|400:304,1,100,0|0,3:0|3:0,3:0:0:0:
256,128,167978,1,0,3:0:0:0:
464,48,168271,1,0,3:0:0:0:
48,320,168564,6,0,L|360:224,1,300,8|0,3:0|3:0,3:0:0:0:
440,200,169149,2,0,L|144:128,1,300,0|0,3:0|3:0,3:0:0:0:
424,104,169735,5,0,3:0:0:0:
216,320,170320,2,0,L|376:160,3,200
176,264,171491,6,0,L|16:104,3,200
248,264,172661,2,0,L|88:104,1,200
496,304,173247,6,0,L|496:184,1,100,2|0,3:0|3:0,3:0:0:0:
352,128,173539,2,0,L|352:240,1,100,2|0,3:0|3:0,3:0:0:0:
208,208,173832,2,0,L|208:96,1,100,0|0,3:0|3:0,0:0:0:0:
64,56,174125,6,0,L|64:192,1,100,0|0,3:0|3:0,3:0:0:0:
208,240,174417,2,0,L|312:240,1,100,2|0,3:0|3:0,3:0:0:0:
160,112,174710,2,0,L|48:112,1,100,2|0,3:0|3:0,0:0:0:0:
272,336,175003,6,0,L|144:336,1,100,2|0,3:0|3:0,3:0:0:0:
320,280,175295,2,0,L|320:176,1,100,2|0,3:0|3:0,3:0:0:0:
168,112,175588,2,0,L|48:112,1,100,2|2,3:0|3:0,0:0:0:0:
320,328,175881,5,2,3:0:0:0:
368,334,175954,1,0,3:0:0:0:
414,315,176027,1,0,3:0:0:0:
442,274,176100,1,0,3:0:0:0:
446,225,176173,1,2,3:0:0:0:
423,181,176246,1,0,3:0:0:0:
381,155,176320,1,0,3:0:0:0:
331,155,176393,1,0,3:0:0:0:
176,104,176466,2,0,L|112:104,1,50,2|0,3:0|3:0,3:0:0:0:
328,104,176613,2,0,L|392:104,1,50,0|0,3:0|3:0,3:0:0:0:
104,168,176759,5,14,3:0:0:0:
416,192,177637,5,14,3:0:0:0:
104,288,178515,5,10,3:0:0:0:
48,256,178588,1,0,0:0:0:0:
48,200,178661,1,0,3:0:0:0:
104,184,178735,1,0,3:0:0:0:
280,160,178808,2,0,L|280:80,1,50,0|0,3:0|3:0,0:0:0:0:
216,64,178954,2,0,L|216:136,1,50,0|0,3:0|3:0,0:0:0:0:
384,264,179100,2,0,L|312:264,1,50,0|0,3:0|3:0,0:0:0:0:
152,248,179247,2,0,L|88:248,1,50,0|0,3:0|3:0,0:0:0:0:
280,224,179393,5,0,3:0:0:0:
336,184,179466,1,0,3:0:0:0:
336,128,179539,1,0,3:0:0:0:
280,104,179613,1,0,3:0:0:0:
112,96,179686,2,0,L|168:96,1,50,0|0,3:0|3:0,0:0:0:0:
336,272,179832,2,0,L|392:272,1,50,0|0,3:0|3:0,0:0:0:0:
184,184,179978,2,0,L|112:184,1,50,10|10,3:0|3:0,3:0:0:0:
272,320,180125,1,10,3:0:0:0:
408,328,180198,1,10,3:0:0:0:
267,264,180271,6,0,L|205:263,1,50,10|0,3:0|0:0,3:0:0:0:
396,192,180417,2,0,L|455:189,1,50,0|0,3:0|0:0,0:0:0:0:
265,219,180563,2,0,L|261:158,1,50,10|0,3:0|3:0,3:0:0:0:
331,151,180710,2,0,L|392:148,1,50,2|0,3:0|0:0,0:0:0:0:
171,169,180856,5,10,3:0:0:0:
104,147,180929,1,0,3:0:0:0:
104,147,181002,1,2,3:0:0:0:
171,169,181075,1,0,0:0:0:0:
363,300,181149,2,0,L|428:301,1,50,10|0,3:0|3:0,3:0:0:0:
221,214,181295,2,0,L|169:210,1,50,2|0,3:0|0:0,0:0:0:0:
344,224,181441,6,0,L|383:176,3,50,10|2|2|2,3:0|3:0|3:0|3:0,0:0:0:0:
192,176,181734,1,10,3:0:0:0:
144,136,181807,1,2,3:0:0:0:
144,80,181880,1,2,3:0:0:0:
200,64,181953,1,0,0:0:0:0:
384,320,182027,5,10,3:0:0:0:
248,304,182100,1,0,3:0:0:0:
112,280,182173,2,0,L|112:208,1,50,0|0,3:0|3:0,0:0:0:0:
288,192,182319,1,10,3:0:0:0:
424,120,182392,1,2,3:0:0:0:
288,120,182466,1,2,3:0:0:0:
152,120,182539,1,2,3:0:0:0:
328,320,182612,5,14,3:0:0:0:
384,288,182685,1,2,3:0:0:0:
384,232,182758,1,2,3:0:0:0:
328,192,182831,1,2,3:0:0:0:
144,192,182905,2,0,L|208:192,1,50,10|2,3:0|3:0,0:0:0:0:
376,160,183051,2,0,L|432:160,1,50,2|2,3:0|3:0,3:0:0:0:
248,280,183197,6,0,L|248:216,1,50,10|2,3:0|3:0,0:0:0:0:
320,176,183344,2,0,L|392:176,1,50,2|2,3:0|3:0,3:0:0:0:
208,192,183490,2,0,L|208:104,1,50,14|2,3:0|3:0,0:0:0:0:
280,80,183636,2,0,L|280:152,1,50,2|2,3:0|3:0,3:0:0:0:
112,224,183783,6,0,L|176:224,1,50,10|10,3:0|3:0,0:0:0:0:
336,248,183929,2,0,L|392:248,1,50,2|2,3:0|3:0,0:0:0:0:
208,296,184075,2,0,L|208:224,1,50,10|10,3:0|3:0,0:0:0:0:
280,232,184222,2,0,L|336:232,1,50,2|2,3:0|3:0,0:0:0:0:
152,128,184368,6,0,L|88:128,1,50,10|10,3:0|3:0,0:0:0:0:
280,176,184514,2,0,L|280:88,1,50,2|2,3:0|3:0,0:0:0:0:
216,80,184661,2,0,L|152:80,1,50,10|10,3:0|3:0,3:0:0:0:
232,224,184807,2,0,L|304:224,1,50,10|10,3:0|3:0,3:0:0:0:
104,320,184953,6,0,P|32:256|104:192,1,200,2|0,3:0|3:0,3:0:0:0:
152,184,185319,1,0,3:0:0:0:
88,144,185392,1,8,3:0:0:0:
304,152,185539,2,0,L|368:152,2,50,0|0|8,3:0|3:0|3:0,0:0:0:0:
96,240,185831,1,0,3:0:0:0:
304,72,185978,2,0,L|376:72,1,50,10|2,3:0|3:0,3:0:0:0:
191,273,186124,6,0,L|16:266,1,175,2|0,3:0|0:0,3:0:0:0:
146,203,186563,1,10,3:0:0:0:
360,290,186710,6,0,L|250:281,1,100,2|8,3:0|3:0,3:0:0:0:
191,273,186929,1,0,3:0:0:0:
389,283,187002,2,0,L|491:282,1,100,2|10,3:0|3:0,3:0:0:0:
435,241,187222,1,8,3:0:0:0:
272,320,187295,6,0,P|192:264|272:200,1,200,2|2,3:0|3:0,3:0:0:0:
304,192,187661,1,2,3:0:0:0:
240,152,187734,1,10,3:0:0:0:
24,280,187880,2,0,L|24:216,2,50,14|0|0,3:0|3:0|3:0,0:0:0:0:
200,112,188100,1,14,3:0:0:0:
144,112,188173,1,0,3:0:0:0:
88,112,188246,1,0,3:0:0:0:
272,248,188319,2,0,L|336:248,1,50,10|8,3:0|3:0,3:0:0:0:
144,328,188466,6,0,L|144:256,1,50,10|0,3:0|3:0,0:0:0:0:
216,232,188612,2,0,L|216:160,1,50,0|0,3:0|3:0,0:0:0:0:
40,176,188758,2,0,L|96:176,1,50,10|0,3:0|3:0,0:0:0:0:
272,168,188905,2,0,L|336:168,1,50,0|0,3:0|3:0,0:0:0:0:
144,296,189051,5,10,3:0:0:0:
88,264,189124,1,0,3:0:0:0:
88,208,189197,1,0,3:0:0:0:
144,184,189271,1,0,3:0:0:0:
320,224,189344,2,0,L|248:224,1,50,10|0,3:0|3:0,0:0:0:0:
96,96,189490,2,0,L|32:96,1,50,0|0,3:0|3:0,0:0:0:0:
232,224,189636,5,14,3:0:0:0:
288,224,189710,1,8,3:0:0:0:
232,224,189783,1,8,3:0:0:0:
176,224,189856,1,8,3:0:0:0:
368,248,189929,2,0,L|368:160,1,50,0|0,3:0|3:0,0:0:0:0:
216,128,190075,2,0,L|144:128,1,50,0|0,3:0|3:0,0:0:0:0:
16,120,190222,6,0,L|16:184,1,50,0|0,3:0|3:0,0:0:0:0:
216,184,190368,2,0,L|216:112,1,50,0|0,3:0|3:0,0:0:0:0:
144,88,190514,2,0,L|144:144,1,50,0|0,3:0|3:0,0:0:0:0:
312,72,190661,2,0,L|376:72,1,50,0|0,3:0|3:0,0:0:0:0:
184,320,190807,5,10,3:0:0:0:
159,317,190843,1,0,0:0:0:0:
139,303,190880,1,8,3:0:0:0:
128,280,190916,1,0,0:0:0:0:
130,255,190953,1,0,3:0:0:0:
144,235,190989,1,0,0:0:0:0:
166,224,191026,1,0,3:0:0:0:
344,152,191100,2,0,L|272:152,1,50,0|0,3:0|3:0,0:0:0:0:
128,128,191246,2,0,L|64:128,1,50,0|0,3:0|3:0,0:0:0:0:
280,256,191392,6,0,L|280:176,1,50,0|0,3:0|3:0,0:0:0:0:
208,168,191539,2,0,L|208:104,1,50,0|0,3:0|3:0,0:0:0:0:
416,80,191685,1,8,3:0:0:0:
56,304,191978,6,0,L|56:248,3,50,2|0|8|0,3:0|3:0|3:0|3:0,0:0:0:0:
232,208,192271,2,0,L|288:208,1,50,2|0,3:0|3:0,0:0:0:0:
104,184,192417,2,0,L|104:112,1,50,10|0,3:0|3:0,3:0:0:0:
280,320,192563,5,2,3:0:0:0:
336,288,192636,1,0,3:0:0:0:
336,232,192710,1,8,3:0:0:0:
280,200,192783,1,0,3:0:0:0:
96,120,192856,2,0,L|40:120,1,50,2|0,3:0|3:0,0:0:0:0:
224,112,193002,2,0,L|288:112,1,50,8|2,3:0|3:0,3:0:0:0:
104,232,193149,6,0,L|104:168,1,50,2|0,3:0|3:0,0:0:0:0:
168,160,193295,2,0,L|232:160,1,50,8|0,3:0|3:0,0:0:0:0:
288,152,193441,2,0,L|288:88,1,50,0|0,3:0|3:0,0:0:0:0:
216,88,193588,2,0,L|160:88,1,50,10|2,3:0|3:0,3:0:0:0:
344,272,193734,6,0,L|408:272,2,50,2|0|8,3:0|3:0|3:0,0:0:0:0:
168,192,193953,1,0,3:0:0:0:
224,192,194027,1,2,3:0:0:0:
280,192,194100,1,0,3:0:0:0:
104,256,194173,2,0,L|32:256,1,50,10|0,3:0|3:0,3:0:0:0:
232,280,194319,6,0,L|232:208,1,50,2|0,3:0|3:0,0:0:0:0:
160,208,194466,2,0,L|88:208,1,50,8|0,3:0|3:0,3:0:0:0:
288,264,194612,1,2,3:0:0:0:
344,240,194685,1,0,3:0:0:0:
344,192,194758,1,8,3:0:0:0:
288,152,194831,1,0,3:0:0:0:
112,328,194905,6,0,L|80:272,3,50,2|0|8|0,3:0|3:0|3:0|3:0,0:0:0:0:
272,320,195197,2,0,L|304:272,3,50,2|0|8|0,3:0|3:0|3:0|3:0,0:0:0:0:
128,232,195490,6,0,L|128:176,1,50,2|0,3:0|3:0,0:0:0:0:
192,168,195636,2,0,L|248:168,1,50,8|0,3:0|3:0,0:0:0:0:
312,168,195783,2,0,L|312:96,1,50,0|0,3:0|3:0,0:0:0:0:
123,342,195929,5,8,3:0:0:0:
70,334,196002,1,0,3:0:0:0:
43,288,196075,1,0,3:0:0:0:
63,238,196148,1,0,3:0:0:0:
114,225,196221,1,8,3:0:0:0:
304,248,196295,1,0,3:0:0:0:
248,224,196368,1,2,3:0:0:0:
192,208,196441,1,0,3:0:0:0:
368,200,196514,2,0,L|432:200,1,50,10|0,3:0|3:0,3:0:0:0:
232,144,196661,5,6,3:0:0:0:
288,144,196734,1,0,3:0:0:0:
344,144,196807,1,8,3:0:0:0:
168,296,196880,2,0,L|104:296,2,50,0|2|0,3:0|3:0|3:0,0:0:0:0:
344,88,197100,2,0,L|416:88,1,50,10|0,3:0|3:0,3:0:0:0:
216,320,197246,6,0,L|121:320,2,50,2|0|8,3:0|3:0|3:0,0:0:0:0:
400,224,197466,2,0,L|472:225,2,50,0|2|0,3:0|3:0|3:0,0:0:0:0:
216,176,197685,2,0,L|136:176,1,50,8|2,3:0|3:0,3:0:0:0:
344,320,197831,6,0,L|344:240,1,50,6|0,3:0|3:0,0:0:0:0:
272,240,197978,2,0,L|184:240,1,50,8|0,3:0|3:0,3:0:0:0:
400,272,198124,1,2,3:0:0:0:
456,240,198197,1,0,3:0:0:0:
456,176,198270,1,8,3:0:0:0:
400,144,198344,1,0,3:0:0:0:
208,208,198417,5,2,3:0:0:0:
264,200,198490,1,0,3:0:0:0:
320,184,198563,1,8,3:0:0:0:
152,160,198636,1,0,3:0:0:0:
96,128,198710,1,2,3:0:0:0:
40,88,198783,1,0,3:0:0:0:
216,144,198856,2,0,L|288:144,1,50,10|0,3:0|3:0,0:0:0:0:
88,328,199002,5,6,3:0:0:0:
32,296,199075,1,0,3:0:0:0:
32,240,199149,1,8,3:0:0:0:
88,208,199222,1,0,3:0:0:0:
264,288,199295,2,0,L|264:232,1,50,2|0,3:0|3:0,3:0:0:0:
208,216,199441,2,0,L|152:216,1,50,8|0,3:0|3:0,0:0:0:0:
336,136,199588,5,10,3:0:0:0:
280,136,199661,1,0,3:0:0:0:
224,136,199734,1,0,3:0:0:0:
408,264,199807,2,0,L|464:264,2,50,10|0|0,3:0|3:0|3:0,0:0:0:0:
232,184,200027,2,0,L|304:184,1,50,10|0,3:0|3:0,3:0:0:0:
107,319,200173,5,14,3:0:0:0:
56,317,200246,1,0,3:0:0:0:
20,281,200319,1,0,3:0:0:0:
20,232,200392,1,0,3:0:0:0:
55,196,200465,1,8,3:0:0:0:
105,194,200538,1,0,3:0:0:0:
304,208,200612,1,2,3:0:0:0:
168,176,200685,1,2,3:0:0:0:
32,144,200758,6,0,L|32:80,1,50,14|8,3:0|3:0,0:0:0:0:
216,80,200905,2,0,L|280:80,1,50,8|8,3:0|3:0,0:0:0:0:
88,112,201051,2,0,L|24:112,1,50,0|0,3:0|3:0,0:0:0:0:
216,128,201197,2,0,L|280:128,1,50,0|0,3:0|3:0,0:0:0:0:
88,264,201344,6,0,L|88:152,1,100,2|8,3:0|3:0,0:0:0:0:
304,120,201637,1,2,3:0:0:0:
248,120,201710,1,0,3:0:0:0:
192,120,201783,1,10,3:0:0:0:
400,216,201929,2,0,L|400:104,1,100,2|8,3:0|3:0,0:0:0:0:
176,56,202222,1,2,3:0:0:0:
392,256,202368,2,0,L|464:256,1,50,8|2,3:0|3:0,3:0:0:0:
232,232,202515,6,0,P|160:176|232:120,1,200,2|0,3:0|3:0,0:0:0:0:
280,112,202881,1,0,3:0:0:0:
432,56,202954,2,0,L|488:56,1,50,10|2,3:0|3:0,3:0:0:0:
296,304,203100,6,0,L|296:224,1,50,2|0,3:0|3:0,0:0:0:0:
368,224,203246,2,0,L|368:136,1,50,8|0,3:0|3:0,0:0:0:0:
176,136,203392,2,0,L|248:136,1,50,2|0,3:0|3:0,0:0:0:0:
408,104,203539,2,0,L|472:104,1,50,10|0,3:0|3:0,3:0:0:0:
280,200,203685,6,0,L|160:200,1,100,2|8,3:0|3:0,0:0:0:0:
416,272,203978,2,0,L|480:272,2,50,2|0|8,3:0|3:0|3:0,0:0:0:0:
200,256,204270,2,0,L|200:144,1,100,2|8,3:0|3:0,0:0:0:0:
272,128,204490,1,0,3:0:0:0:
424,104,204563,2,0,L|496:104,2,50,2|0|8,3:0|3:0|3:0,0:0:0:0:
216,184,204856,6,0,L|448:184,1,200,2|0,3:0|3:0,0:0:0:0:
360,120,205222,1,0,3:0:0:0:
184,80,205295,2,0,L|112:80,1,50,10|2,3:0|3:0,0:0:0:0:
304,296,205442,6,0,L|304:224,1,50,2|0,3:0|3:0,0:0:0:0:
240,224,205588,2,0,L|184:224,1,50,8|8,3:0|3:0,0:0:0:0:
384,168,205734,2,0,L|448:168,1,50,0|0,3:0|3:0,0:0:0:0:
240,168,205881,2,0,L|168:168,1,50,0|0,3:0|3:0,0:0:0:0:
384,240,206027,6,0,L|384:128,1,100,14|0,3:0|3:0,3:0:0:0:
208,104,206246,2,0,L|328:104,1,100,10|0,3:0|3:0,3:0:0:0:
136,184,206466,2,0,L|56:184,1,50,10|0,3:0|3:0,3:0:0:0:
256,280,206612,2,0,L|144:280,1,100,14|0,3:0|3:0,0:0:0:0:
328,168,206831,2,0,L|216:168,1,100,0|0,3:0|3:0,0:0:0:0:
400,256,207051,2,0,L|456:256,1,50,2|0,3:0|3:0,0:0:0:0:
272,328,207197,6,0,L|272:248,1,50,10|0,3:0|3:0,0:0:0:0:
336,240,207344,2,0,L|392:240,1,50,0|0,3:0|3:0,0:0:0:0:
320,184,207490,2,0,L|256:184,1,50,8|0,3:0|3:0,0:0:0:0:
440,112,207636,2,0,L|496:112,1,50,2|2,3:0|3:0,0:0:0:0:
312,256,207783,6,0,L|312:184,1,50,14|8,3:0|3:0,0:0:0:0:
392,184,207929,2,0,L|392:120,1,50,8|8,3:0|3:0,0:0:0:0:
216,88,208075,2,0,L|144:88,1,50,0|0,3:0|3:0,0:0:0:0:
344,264,208222,2,0,L|408:264,1,50,0|0,3:0|3:0,0:0:0:0:
216,144,208368,6,0,L|288:144,1,50,10|2,3:0|3:0,0:0:0:0:
344,144,208514,2,0,L|344:80,1,50,2|2,3:0|3:0,0:0:0:0:
168,224,208661,2,0,L|232:224,1,50,10|2,3:0|3:0,0:0:0:0:
384,248,208807,2,0,L|440:248,1,50,2|2,3:0|3:0,0:0:0:0:
265,334,208953,5,10,3:0:0:0:
235,330,208989,1,0,0:0:0:0:
212,314,209026,1,2,3:0:0:0:
198,287,209062,1,0,0:0:0:0:
201,257,209099,1,2,3:0:0:0:
217,233,209135,1,0,0:0:0:0:
244,220,209172,1,2,3:0:0:0:
432,144,209246,2,0,L|360:144,1,50,10|2,3:0|3:0,0:0:0:0:
208,112,209392,2,0,L|144:112,1,50,2|2,3:0|3:0,0:0:0:0:
361,287,209539,5,10,3:0:0:0:
389,288,209575,1,0,0:0:0:0:
414,273,209612,1,2,3:0:0:0:
428,246,209648,1,0,0:0:0:0:
423,217,209685,1,2,3:0:0:0:
402,195,209721,1,0,0:0:0:0:
375,188,209758,1,2,3:0:0:0:
184,176,209831,2,0,L|248:176,1,50,10|2,3:0|3:0,0:0:0:0:
416,112,209978,2,0,L|472:112,1,50,2|2,3:0|3:0,0:0:0:0:
288,336,210124,5,14,3:0:0:0:
232,336,210197,1,10,3:0:0:0:
288,336,210270,1,10,3:0:0:0:
344,336,210344,1,10,3:0:0:0:
168,256,210417,2,0,L|112:256,1,50,2|2,3:0|3:0,0:0:0:0:
296,184,210563,2,0,L|352:184,1,50,2|2,3:0|3:0,0:0:0:0:
144,192,210710,6,0,P|64:128|144:72,1,200,6|0,3:0|3:0,3:0:0:0:
176,64,211075,1,0,3:0:0:0:
352,248,211149,2,0,L|424:248,1,50,0|0,3:0|3:0,3:0:0:0:
224,264,211295,6,0,L|224:152,1,100,10|0,3:0|3:0,3:0:0:0:
408,80,211514,2,0,L|408:208,1,100,6|0,3:0|3:0,3:0:0:0:
224,264,211734,6,0,L|424:264,1,200,10|2,3:0|3:0,3:0:0:0:
208,168,212173,2,0,L|96:168,1,100,6|2,3:0|3:0,3:0:0:0:
168,112,212392,1,2,3:0:0:0:
336,264,212466,2,0,L|336:192,1,50,10|0,3:0|0:0,0:0:0:0:
264,192,212612,2,0,L|264:136,1,50,2|0,3:0|0:0,0:0:0:0:
432,96,212758,2,0,L|360:96,1,50,2|0,3:0|0:0,0:0:0:0:
216,80,212905,2,0,L|136:80,1,50,2|0,3:0|0:0,0:0:0:0:
352,200,213051,6,0,P|424:144|352:88,1,200,6|2,3:0|3:0,3:0:0:0:
304,80,213417,1,2,3:0:0:0:
152,176,213490,2,0,L|72:176,1,50,2|2,3:0|3:0,3:0:0:0:
272,280,213636,2,0,L|272:176,1,100,14|0,3:0|3:0,3:0:0:0:
96,232,213856,2,0,L|96:128,1,100,6|0,3:0|3:0,3:0:0:0:
272,320,214075,6,0,L|64:320,1,200,10|2,3:0|3:0,3:0:0:0:
288,248,214514,2,0,L|392:248,1,100,10|2,3:0|3:0,0:0:0:0:
176,184,214807,2,0,L|264:184,1,50,10|10,3:0|3:0,0:0:0:0:
304,176,214953,2,0,L|304:104,1,50,2|2,3:0|3:0,3:0:0:0:
136,72,215100,2,0,L|200:72,1,50,2|2,3:0|3:0,0:0:0:0:
344,72,215246,2,0,L|416:72,1,50,2|2,3:0|3:0,3:0:0:0:
224,320,215392,5,2,3:0:0:0:
168,288,215466,1,2,3:0:0:0:
168,232,215539,1,10,3:0:0:0:
224,200,215612,1,2,3:0:0:0:
400,128,215685,2,0,L|336:128,1,50,2|2,3:0|3:0,0:0:0:0:
176,112,215831,2,0,L|104:112,1,50,10|2,3:0|3:0,0:0:0:0:
312,248,215978,6,0,L|376:248,2,50,2|2|10,3:0|3:0|3:0,0:0:0:0:
152,152,216197,1,2,3:0:0:0:
208,152,216270,1,2,3:0:0:0:
264,152,216344,1,2,3:0:0:0:
104,224,216417,2,0,L|48:224,1,50,10|2,3:0|3:0,0:0:0:0:
232,304,216563,6,0,L|320:304,1,50,2|2,3:0|3:0,0:0:0:0:
216,248,216710,2,0,L|160:248,1,50,10|2,3:0|3:0,0:0:0:0:
112,248,216856,2,0,L|112:184,1,50,2|2,3:0|3:0,0:0:0:0:
288,168,217002,2,0,L|352:168,1,50,10|2,3:0|3:0,0:0:0:0:
160,88,217149,5,2,3:0:0:0:
216,88,217222,1,2,3:0:0:0:
272,88,217295,1,10,3:0:0:0:
104,168,217368,2,0,L|48:168,2,50,2|2|2,3:0|3:0|3:0,0:0:0:0:
288,208,217588,2,0,L|352:208,1,50,10|2,3:0|3:0,3:0:0:0:
160,288,217734,6,0,P|88:224|160:160,1,200,2|2,3:0|3:0,0:0:0:0:
200,144,218100,1,2,3:0:0:0:
376,144,218173,2,0,L|448:144,1,50,10|2,3:0|3:0,3:0:0:0:
256,296,218319,2,0,L|192:296,2,50,2|2|10,3:0|3:0|3:0,0:0:0:0:
440,192,218539,2,0,L|496:192,2,50,2|2|2,3:0|3:0|3:0,0:0:0:0:
256,240,218758,2,0,L|168:240,1,50,10|2,3:0|3:0,3:0:0:0:
376,296,218905,6,0,L|312:296,1,50,6|0,3:0|3:0,0:0:0:0:
256,288,219051,2,0,L|256:216,1,50,8|0,3:0|3:0,0:0:0:0:
432,144,219197,2,0,L|352:144,1,50,0|0,3:0|3:0,0:0:0:0:
208,128,219344,2,0,L|144:128,1,50,8|0,3:0|3:0,0:0:0:0:
336,232,219490,6,0,L|336:168,1,50,2|0,3:0|3:0,0:0:0:0:
264,168,219636,2,0,L|192:168,1,50,8|0,3:0|3:0,0:0:0:0:
144,168,219783,2,0,L|144:96,1,50,0|0,3:0|3:0,0:0:0:0:
336,280,219929,2,0,L|400:280,1,50,8|8,3:0|3:0,3:0:0:0:
208,288,220075,6,0,L|432:288,1,200,6|0,3:0|3:0,0:0:0:0:
344,232,220441,1,0,3:0:0:0:
168,168,220514,2,0,L|104:168,1,50,8|0,3:0|3:0,0:0:0:0:
296,128,220661,5,2,3:0:0:0:
240,128,220734,1,0,3:0:0:0:
184,128,220807,1,8,3:0:0:0:
360,184,220880,2,0,L|424:184,2,50,2|0|0,3:0|3:0|3:0,0:0:0:0:
192,72,221100,2,0,L|112:72,1,50,10|0,3:0|3:0,3:0:0:0:
320,248,221246,6,0,P|392:192|320:144,1,200,2|0,3:0|3:0,0:0:0:0:
264,136,221612,1,0,3:0:0:0:
104,104,221685,2,0,L|48:104,1,50,8|0,3:0|3:0,3:0:0:0:
264,192,221831,6,0,L|328:192,2,50,2|0|8,3:0|3:0|3:0,0:0:0:0:
104,168,222051,2,0,L|48:168,2,50,2|0|0,3:0|3:0|3:0,0:0:0:0:
264,232,222270,2,0,L|328:232,1,50,10|0,3:0|3:0,3:0:0:0:
104,224,222417,6,0,L|320:224,1,200,6|0,3:0|3:0,0:0:0:0:
248,152,222783,1,0,3:0:0:0:
104,152,222856,2,0,L|48:152,1,50,10|2,3:0|3:0,3:0:0:0:
240,200,223002,5,2,3:0:0:0:
296,200,223075,1,0,3:0:0:0:
240,200,223149,1,8,3:0:0:0:
184,200,223222,1,0,3:0:0:0:
360,288,223295,2,0,L|416:288,1,50,0|0,3:0|3:0,0:0:0:0:
224,264,223441,2,0,L|160:264,1,50,8|0,3:0|3:0,0:0:0:0:
360,224,223588,6,0,L|360:152,1,50,8|8,3:0|3:0,0:0:0:0:
208,120,223734,2,0,L|144:120,1,50,2|0,3:0|3:0,0:0:0:0:
16,112,223880,2,0,L|16:184,1,50,0|0,3:0|3:0,0:0:0:0:
208,184,224027,2,0,L|288:184,1,50,0|0,3:0|3:0,0:0:0:0:
80,320,224173,5,0,3:0:0:0:
24,288,224246,1,0,3:0:0:0:
24,232,224319,1,0,3:0:0:0:
80,216,224392,1,0,3:0:0:0:
264,232,224466,2,0,L|336:232,1,50,10|2,3:0|3:0,3:0:0:0:
176,152,224612,1,2,3:0:0:0:
40,104,224685,1,2,3:0:0:0:
264,296,224758,6,0,P|344:240|264:184,1,200,2|8,3:0|3:0,3:0:0:0:
80,88,225197,2,0,L|24:88,1,50,2|2,3:0|3:0,0:0:0:0:
208,224,225344,2,0,L|344:136,2,150,2|2|2,3:0|3:0|3:0,3:0:0:0:
424,296,225929,6,0,L|216:288,1,200,2|8,3:0|3:0,3:0:0:0:
440,208,226368,2,0,L|496:208,1,50,2|2,3:0|3:0,0:0:0:0:
312,200,226514,2,0,L|168:136,2,150,2|2|2,3:0|3:0|3:0,3:0:0:0:
96,200,227100,6,0,L|240:136,2,150,2|2|2,3:0|3:0|3:0,3:0:0:0:
304,272,227685,2,0,L|368:272,2,50,2|0|0,3:0|3:0|3:0,0:0:0:0:
88,216,227978,2,0,L|88:104,1,100,10|2,3:0|3:0,3:0:0:0:
304,208,228270,6,0,L|416:208,1,100,2|0,3:0|3:0,0:0:0:0:
256,120,228563,2,0,L|144:120,1,100,10|0,3:0|3:0,0:0:0:0:
304,176,228856,2,0,L|184:176,1,100,2|2,3:0|3:0,0:0:0:0:
344,280,229149,2,0,L|448:280,1,100,14|0,3:0|3:0,3:0:0:0:
232,280,229441,6,0,P|152:216|232:160,1,200,2|8,3:0|3:0,3:0:0:0:
416,160,229880,2,0,L|480:160,1,50,2|2,3:0|3:0,0:0:0:0:
296,288,230027,2,0,L|192:288,1,100,2|0,3:0|3:0,0:0:0:0:
336,168,230319,2,0,L|440:168,1,100,8|0,3:0|0:0,3:0:0:0:
216,216,230612,6,0,L|216:104,1,100,2|0,3:0|3:0,0:0:0:0:
352,72,230905,2,0,L|352:184,1,100,10|0,3:0|3:0,0:0:0:0:
216,240,231197,2,0,L|336:240,1,100,2|0,3:0|3:0,3:0:0:0:
176,168,231490,2,0,L|64:168,1,100,10|2,3:0|3:0,0:0:0:0:
296,328,231783,6,0,P|368:272|296:216,1,200,14|8,3:0|3:0,3:0:0:0:
96,120,232222,2,0,L|32:120,1,50,0|0,3:0|0:0,0:0:0:0:
232,288,232368,2,0,L|232:208,1,50,10|0,3:0|0:0,0:0:0:0:
160,208,232514,2,0,L|160:144,1,50,8|0,3:0|0:0,0:0:0:0:
336,136,232661,2,0,L|256:136,1,50,0|0,3:0|3:0,0:0:0:0:
112,96,232807,2,0,L|48:96,1,50,0|0,3:0|3:0,0:0:0:0:
264,224,232953,6,0,P|344:168|264:112,1,200,2|0,3:0|0:0,3:0:0:0:
192,96,233392,1,0,3:0:0:0:
416,288,233539,2,0,L|416:176,1,100,14|0,3:0|3:0,3:0:0:0:
248,168,233758,2,0,L|352:168,1,100,2|0,3:0|3:0,3:0:0:0:
168,248,233978,2,0,L|96:248,1,50,2|2,3:0|3:0,3:0:0:0:
288,296,234124,6,0,L|288:192,1,100,2|0,3:0|3:0,3:0:0:0:
144,200,234417,2,0,L|144:96,1,100,0|0,3:0|3:0,3:0:0:0:
288,296,234710,2,0,L|288:184,1,100,0|0,3:0|3:0,3:0:0:0:
432,184,235002,2,0,L|432:72,1,100,0|0,3:0|3:0,3:0:0:0:
208,184,235295,5,0,3:0:0:0:
336,160,235441,2,0,P|408:112|336:56,1,200,2|0,3:0|3:0,3:0:0:0:
200,256,235880,2,0,L|88:256,1,100,2|0,3:0|0:0,3:0:0:0:
224,192,236173,1,0,3:0:0:0:
104,160,236319,2,0,L|32:160,1,50,10|2,3:0|3:0,0:0:0:0:
224,240,236466,6,0,L|224:128,1,100,2|0,3:0|3:0,3:0:0:0:
80,80,236758,2,0,L|80:192,1,100,0|0,3:0|3:0,3:0:0:0:
224,184,237051,2,0,L|224:80,1,100,0|0,3:0|3:0,3:0:0:0:
368,64,237344,2,0,L|368:184,1,100,0|0,3:0|3:0,3:0:0:0:
152,304,237636,5,0,3:0:0:0:
280,256,237783,2,0,P|360:192|280:152,1,200,10|0,3:0|3:0,3:0:0:0:
80,224,238222,2,0,L|80:104,1,100,2|8,3:0|3:0,3:0:0:0:
192,136,238441,2,0,L|192:32,1,100,2|0,3:0|3:0,0:0:0:0:
304,104,238661,2,0,L|304:184,1,50,10|8,3:0|3:0,0:0:0:0:
168,280,238807,5,0,3:0:0:0:
32,240,238880,1,0,3:0:0:0:
208,224,238953,2,0,L|328:224,1,100,6|0,3:0|3:0,3:0:0:0:
152,152,239173,2,0,L|256:152,1,100,14|0,3:0|3:0,3:0:0:0:
72,272,239392,2,0,P|0:208|72:160,1,200,6|0,3:0|3:0,0:0:0:0:
280,112,239831,2,0,L|368:112,1,50,0|2,3:0|3:0,0:0:0:0:
192,272,239978,6,0,L|400:272,1,200,2|0,3:0|3:0,3:0:0:0:
280,208,240417,1,0,3:0:0:0:
64,208,240563,2,0,L|64:104,1,100,0|0,3:0|3:0,3:0:0:0:
134,94,240783,1,8,3:0:0:0:
311,265,240856,2,0,L|428:258,1,100,0|0,3:0|0:0,0:0:0:0:
356,209,241075,1,2,3:0:0:0:
88,312,241149,6,0,P|16:256|88:208,1,200,2|0,3:0|3:0,3:0:0:0:
296,216,241588,2,0,L|80:184,1,200,2|0,3:0|0:0,3:0:0:0:
312,272,242027,2,0,L|416:272,1,100,2|0,3:0|3:0,3:0:0:0:
184,152,242319,6,0,L|104:152,1,50,0|0,3:0|3:0,3:0:0:0:
312,336,242466,1,10,3:0:0:0:
360,334,242539,1,0,3:0:0:0:
395,300,242612,1,0,3:0:0:0:
398,251,242685,1,8,3:0:0:0:
367,213,242758,1,0,3:0:0:0:
319,205,242831,1,0,3:0:0:0:
176,216,242905,6,0,L|112:216,1,50,2|2,3:0|3:0,0:0:0:0:
288,144,243051,2,0,L|368:144,1,50,2|2,3:0|3:0,0:0:0:0:
160,120,243197,2,0,L|96:120,1,50,2|2,3:0|3:0,0:0:0:0:
320,80,243344,2,0,L|384:80,1,50,2|2,3:0|3:0,0:0:0:0:
160,224,243490,6,0,L|160:152,1,50,2|2,3:0|3:0,0:0:0:0:
224,160,243636,2,0,L|280:160,1,50,2|2,3:0|3:0,0:0:0:0:
344,152,243783,2,0,L|344:80,1,50,2|2,3:0|3:0,0:0:0:0:
168,304,243929,6,0,L|168:240,1,50,2|2,3:0|3:0,0:0:0:0:
232,240,244075,2,0,L|288:240,1,50,2|2,3:0|3:0,0:0:0:0:
216,168,244222,2,0,L|152:168,1,50,10|2,3:0|3:0,0:0:0:0:
344,312,244368,6,0,L|264:312,1,50,2|2,3:0|3:0,0:0:0:0:
224,304,244514,2,0,L|224:232,1,50,2|2,3:0|3:0,0:0:0:0:
304,224,244661,2,0,L|304:152,1,50,10|2,3:0|3:0,0:0:0:0:
128,192,244807,6,0,L|128:136,1,50,2|2,3:0|3:0,0:0:0:0:
200,112,244953,2,0,L|200:56,1,50,2|2,3:0|3:0,0:0:0:0:
128,104,245100,2,0,L|64:104,1,50,2|10,3:0|3:0,0:0:0:0:
256,280,245246,6,0,L|192:280,1,50,2|2,3:0|3:0,0:0:0:0:
136,272,245392,2,0,L|136:208,1,50,2|2,3:0|3:0,0:0:0:0:
208,208,245539,2,0,L|280:208,1,50,2|10,3:0|3:0,0:0:0:0:
96,152,245685,6,0,L|32:152,1,50,2|2,3:0|3:0,0:0:0:0:
208,96,245831,2,0,L|272:96,1,50,2|2,3:0|3:0,0:0:0:0:
72,64,245978,2,0,L|128:64,1,50,2|2,3:0|3:0,0:0:0:0:
296,200,246124,6,0,L|416:200,2,100,2|2|2,3:0|3:0|3:0,3:0:0:0:
80,128,246563,2,0,L|200:128,2,100,2|2|2,3:0|3:0|3:0,3:0:0:0:
296,304,247002,5,2,3:0:0:0:
344,303,247075,1,2,3:0:0:0:
379,268,247148,1,2,3:0:0:0:
379,220,247221,1,2,3:0:0:0:
345,185,247294,1,2,3:0:0:0:
296,183,247367,1,2,3:0:0:0:
128,192,247441,2,0,P|72:136|128:80,1,150,14|2,3:0|3:0,3:0:0:0:
296,136,247734,2,0,P|344:88|296:32,1,150,10|0,3:0|0:0,3:0:0:0:
128,232,248028,6,0,L|352:232,1,200,2|12,3:0|3:0,3:0:0:0:
224,168,248467,1,0,3:0:0:0:
16,192,248613,2,0,L|16:88,1,100,0|0,3:0|3:0,3:0:0:0:
80,144,248832,1,0,0:0:0:0:
264,376,248906,6,0,P|416:232|264:40,1,500,2|0,3:0|0:0,0:0:0:0:
136,48,249784,1,0,0:0:0:0:
264,24,249930,1,0,0:0:0:0:
48,304,250076,2,0,L|48:176,1,100
264,304,250369,6,0,B|32:304,1,200,2|0,0:0|0:0,3:0:0:0:
288,240,250808,2,0,L|288:128,1,100,0|0,3:0|0:0,0:0:0:0:
160,128,251101,2,0,L|160:24,1,100,0|0,3:0|0:0,0:0:0:0:
384,328,251393,6,0,L|184:320,1,200,8|0,3:0|0:0,0:0:0:0:
400,256,251832,1,10,0:0:0:0:
272,216,251979,2,0,L|272:104,1,100,2|0,0:0|0:0,3:0:0:0:
400,200,252271,1,2,0:0:0:0:
272,216,252418,2,0,L|136:216,1,100,10|0,0:0|0:0,3:0:0:0:
384,320,252710,5,6,3:0:0:0:
440,296,252784,1,2,3:0:0:0:
440,248,252857,1,2,3:0:0:0:
384,208,252930,1,2,3:0:0:0:
208,272,253003,2,0,L|208:192,1,50,10|2,3:0|3:0,0:0:0:0:
272,176,253149,2,0,L|336:176,1,50,2|2,3:0|3:0,0:0:0:0:
144,224,253296,6,0,L|144:160,1,50,2|2,3:0|3:0,0:0:0:0:
216,136,253442,2,0,L|288:136,1,50,2|2,3:0|3:0,0:0:0:0:
80,72,253588,2,0,L|16:72,1,50,2|2,3:0|3:0,0:0:0:0:
232,104,253735,2,0,L|296:104,1,50,10|2,3:0|3:0,0:0:0:0:
136,344,253881,6,0,L|136:272,1,50,2|2,3:0|3:0,0:0:0:0:
192,264,254028,2,0,L|264:264,1,50,2|2,3:0|3:0,0:0:0:0:
72,224,254174,1,10,3:0:0:0:
16,200,254247,1,2,3:0:0:0:
16,144,254320,1,2,3:0:0:0:
72,112,254393,1,2,3:0:0:0:
256,184,254467,6,0,L|256:104,1,50,2|2,3:0|3:0,0:0:0:0:
184,88,254613,2,0,L|184:152,1,50,2|2,3:0|3:0,0:0:0:0:
368,192,254759,2,0,L|296:192,1,50,10|2,3:0|3:0,0:0:0:0:
136,256,254906,2,0,L|64:256,1,50,2|2,3:0|3:0,0:0:0:0:
296,312,255052,6,0,P|368:264|296:200,1,200,2|0,0:0|0:0,3:0:0:0:
104,128,255491,2,0,L|304:120,1,200,2|0,0:0|0:0,3:0:0:0:
88,256,255930,6,0,P|16:200|88:136,1,200,2|0,0:0|0:0,3:0:0:0:
280,152,256369,2,0,L|80:120,1,200,2|0,0:0|0:0,3:0:0:0:
296,272,256808,2,0,L|296:168,1,100,2|0,0:0|0:0,3:0:0:0:
160,96,257101,2,0,L|56:96,1,100,10|0,0:0|0:0,3:0:0:0:
272,240,257393,6,0,L|64:216,2,200,2|0|0,0:0|0:0|0:0,3:0:0:0:
376,272,258125,1,0,0:0:0:0:
168,208,258271,2,0,L|368:208,1,200,0|0,0:0|3:0,0:0:0:0:
144,320,258710,6,0,L|40:320,2,100,2|10|2,3:0|3:0|3:0,0:0:0:0:
272,216,259149,2,0,L|136:216,2,100,2|2|10,3:0|3:0|3:0,0:0:0:0:
376,216,259588,1,2,3:0:0:0:
160,304,259735,6,0,P|80:240|160:192,1,200,2|0,0:0|0:0,3:0:0:0:
232,168,260174,1,0,0:0:0:0:
24,168,260320,2,0,L|24:64,1,100
143,159,260613,1,0,0:0:0:0:
24,192,260759,1,0,0:0:0:0:
232,184,260906,5,2,3:0:0:0:
288,184,260979,1,2,3:0:0:0:
232,184,261052,1,2,3:0:0:0:
176,184,261125,1,2,3:0:0:0:
352,296,261198,1,10,3:0:0:0:
408,272,261271,1,2,3:0:0:0:
408,216,261345,1,2,3:0:0:0:
352,184,261418,1,10,3:0:0:0:
176,280,261491,6,0,L|176:216,1,50,2|2,3:0|3:0,0:0:0:0:
240,208,261637,2,0,L|296:208,1,50,2|2,3:0|3:0,0:0:0:0:
224,144,261784,2,0,L|168:144,1,50,10|2,3:0|3:0,0:0:0:0:
352,88,261930,2,0,L|408:88,1,50,2|2,3:0|3:0,0:0:0:0:
224,96,262076,6,0,L|112:96,1,100,6|0,0:0|0:0,3:0:0:0:
352,136,262369,1,10,3:0:0:0:
224,144,262515,2,0,L|104:144,1,100,2|0,0:0|0:0,3:0:0:0:
352,224,262808,2,0,L|352:112,1,100,2|0,0:0|0:0,3:0:0:0:
136,208,263101,6,0,L|24:208,1,100,10|0,0:0|0:0,3:0:0:0:
248,152,263393,2,0,L|128:152,2,100,2|10|2,3:0|3:0|3:0,0:0:0:0:
376,80,263832,2,0,L|480:80,2,100,2|2|10,3:0|3:0|3:0,0:0:0:0:
264,80,264271,1,2,3:0:0:0:
480,208,264418,6,0,L|480:144,1,50,2|2,3:0|3:0,0:0:0:0:
304,176,264564,2,0,L|304:112,1,50,2|2,3:0|3:0,0:0:0:0:
376,104,264710,2,0,L|440:104,1,50,10|2,3:0|3:0,0:0:0:0:
240,224,264857,2,0,L|176:224,1,50,2|2,3:0|3:0,0:0:0:0:
376,168,265003,5,2,3:0:0:0:
432,192,265076,1,2,3:0:0:0:
432,248,265149,1,2,3:0:0:0:
376,280,265223,1,2,3:0:0:0:
192,296,265296,2,0,L|192:232,1,50,2|2,3:0|3:0,0:0:0:0:
264,240,265442,2,0,L|264:160,1,50,10|2,3:0|3:0,0:0:0:0:
88,152,265588,6,0,L|144:152,1,50,2|2,3:0|3:0,0:0:0:0:
312,128,265735,2,0,L|376:128,1,50,2|2,3:0|3:0,0:0:0:0:
192,224,265881,2,0,L|192:160,1,50,14|2,3:0|3:0,0:0:0:0:
264,160,266028,2,0,L|328:160,1,50,2|2,3:0|3:0,0:0:0:0:
144,288,266174,6,0,P|64:224|144:176,1,200,2|0,0:0|0:0,3:0:0:0:
224,128,266613,1,0,0:0:0:0:
432,272,266759,6,0,L|352:272,1,50,6|2,3:0|3:0,0:0:0:0:
304,264,266906,2,0,L|304:200,1,50,2|2,3:0|3:0,0:0:0:0:
480,144,267052,2,0,L|400:144,1,50,2|2,3:0|3:0,3:0:0:0:
256,136,267198,2,0,L|192:136,1,50,6|2,3:0|3:0,0:0:0:0:
384,200,267345,5,2,3:0:0:0:
440,168,267418,1,2,3:0:0:0:
440,120,267491,1,10,3:0:0:0:
384,80,267564,1,2,3:0:0:0:
208,80,267637,2,0,L|288:80,1,50,6|2,3:0|3:0,0:0:0:0:
432,264,267784,2,0,L|488:264,1,50,2|2,3:0|3:0,0:0:0:0:
344,176,267930,5,10,3:0:0:0:
208,144,268003,1,10,3:0:0:0:
384,288,268076,2,0,P|456:232|384:176,1,200,6|10,3:0|3:0,0:0:0:0:
176,232,268515,1,14,3:0:0:0:
176,136,268662,1,8,3:0:0:0:
312,64,268808,1,0,3:0:0:0:
176,72,268954,1,0,3:0:0:0:
392,184,269101,6,0,L|184:176,1,200,2|0,3:0|3:0,3:0:0:0:
416,304,269540,2,0,P|488:248|416:192,1,200,6|8,3:0|3:0,3:0:0:0:
216,168,269979,2,0,L|112:168,1,100,14|0,3:0|3:0,3:0:0:0:
176,112,270198,1,0,3:0:0:0:
232,104,270271,1,0,3:0:0:0:
16,248,270418,5,14,3:0:0:0:
16,208,270491,1,0,0:0:0:0:
16,168,270564,1,0,3:0:0:0:
128,112,270710,1,0,3:0:0:0:
352,304,270857,2,0,L|200:296,1,150,14|0,3:0|3:0,0:0:0:0:
376,240,271149,2,0,P|432:192|376:136,1,150,14|0,3:0|0:0,3:0:0:0:
192,304,271442,6,0,L|192:200,1,100,2|0,3:0|3:0,3:0:0:0:
328,184,271735,2,0,L|328:80,1,100,0|0,3:0|3:0,3:0:0:0:
112,152,272028,1,8,3:0:0:0:
328,152,272320,1,2,3:0:0:0:
224,88,272467,1,10,3:0:0:0:
432,296,272613,6,0,P|496:240|432:168,1,200,2|0,3:0|3:0,3:0:0:0:
328,152,273052,1,0,3:0:0:0:
112,160,273198,2,0,L|224:160,1,100,8|8,3:0|3:0,0:0:0:0:
64,104,273491,2,0,L|168:104,1,100,0|0,3:0|3:0,0:0:0:0:
384,320,273784,6,0,P|464:272|384:208,1,200,2|8,3:0|3:0,3:0:0:0:
200,112,274223,2,0,L|136:112,1,50,2|2,3:0|3:0,0:0:0:0:
320,256,274369,2,0,L|456:184,2,150,2|2|2,3:0|3:0|3:0,3:0:0:0:
104,240,274954,6,0,L|320:184,1,200,2|8,3:0|3:0,3:0:0:0:
80,144,275393,2,0,L|24:144,1,50,2|2,3:0|3:0,0:0:0:0:
208,312,275540,2,0,L|352:240,2,150,2|2|2,3:0|3:0|3:0,3:0:0:0:
432,336,276125,6,0,L|288:272,2,150,2|0|2,3:0|0:0|3:0,3:0:0:0:
216,200,276710,2,0,L|216:96,1,100,2|0,3:0|3:0,0:0:0:0:
352,72,277003,2,0,L|352:176,1,100,10|2,3:0|3:0,0:0:0:0:
144,304,277296,6,0,L|40:304,1,100,2|0,3:0|3:0,0:0:0:0:
176,240,277588,2,0,L|64:240,1,100,10|0,3:0|3:0,0:0:0:0:
208,192,277881,2,0,L|312:192,1,100,2|0,3:0|3:0,0:0:0:0:
184,128,278174,2,0,L|296:128,1,100,10|2,3:0|3:0,0:0:0:0:
80,296,278467,6,0,P|16:240|80:168,1,200,2|8,3:0|3:0,3:0:0:0:
304,184,278906,2,0,L|392:184,1,50,2|2,3:0|3:0,0:0:0:0:
176,272,279052,2,0,L|176:168,1,100,2|0,3:0|3:0,3:0:0:0:
304,128,279345,2,0,L|200:128,1,100,8|0,3:0|3:0,0:0:0:0:
416,304,279637,6,0,L|416:192,1,100,2|0,3:0|3:0,0:0:0:0:
288,192,279930,2,0,L|288:80,1,100,10|0,3:0|3:0,0:0:0:0:
160,64,280223,2,0,L|160:176,1,100,2|0,3:0|3:0,0:0:0:0:
288,240,280515,2,0,L|392:240,1,100,10|0,3:0|3:0,0:0:0:0:
160,136,280808,6,0,L|360:112,1,200,2|8,3:0|3:0,3:0:0:0:
136,224,281247,2,0,L|80:224,1,50,2|2,3:0|3:0,0:0:0:0:
272,280,281393,2,0,L|360:280,2,50,2|0|0,3:0|3:0|3:0,3:0:0:0:
56,240,281686,2,0,L|56:136,1,100,8|0,3:0|3:0,0:0:0:0:
272,216,281979,6,0,L|152:216,1,100,6|0,3:0|3:0,0:0:0:0:
304,216,282271,2,0,L|304:112,1,100,8|0,3:0|3:0,0:0:0:0:
176,80,282564,2,0,L|176:184,1,100,0|0,3:0|3:0,0:0:0:0:
48,88,282857,2,0,L|48:192,1,100,10|10,3:0|3:0,0:0:0:0:
112,80,283076,1,2,3:0:0:0:
280,248,283149,6,0,P|352:184|280:112,1,200,2|0,3:0|3:0,3:0:0:0:
96,152,283588,2,0,L|32:152,1,50,10|0,3:0|0:0,0:0:0:0:
232,288,283735,2,0,L|376:200,1,150,2|2,3:0|3:0,3:0:0:0:
320,232,284027,1,0,3:0:0:0:
272,272,284101,1,0,3:0:0:0:
224,296,284174,1,10,3:0:0:0:
432,288,284320,6,0,L|432:152,1,100,2|8,3:0|3:0,3:0:0:0:
216,112,284613,2,0,L|144:112,2,50,0|0|10,3:0|3:0|3:0,0:0:0:0:
440,96,284906,2,0,L|272:96,1,150,0|2,3:0|3:0,3:0:0:0:
344,192,285198,1,0,3:0:0:0:
400,192,285271,1,0,3:0:0:0:
456,192,285345,1,10,3:0:0:0:
224,248,285491,6,0,L|384:192,2,150,2|0|10,3:0|0:0|3:0,3:0:0:0:
448,296,286076,2,0,L|320:208,1,150,2|0,3:0|0:0,3:0:0:0:
376,168,286369,1,2,3:0:0:0:
432,160,286442,1,0,3:0:0:0:
488,152,286515,1,10,3:0:0:0:
264,336,286662,5,2,3:0:0:0:
208,304,286735,1,0,3:0:0:0:
208,248,286808,1,8,3:0:0:0:
264,216,286881,1,0,3:0:0:0:
440,176,286954,2,0,L|376:176,1,50,2|0,3:0|3:0,0:0:0:0:
216,112,287101,2,0,L|144:112,1,50,8|0,3:0|3:0,0:0:0:0:
328,264,287247,6,0,L|328:200,1,50,2|0,3:0|3:0,0:0:0:0:
264,168,287393,2,0,L|200:168,1,50,8|0,3:0|3:0,0:0:0:0:
280,112,287540,2,0,L|344:112,1,50,2|0,3:0|3:0,0:0:0:0:
192,32,287686,1,8,3:0:0:0:
56,24,287759,1,0,3:0:0:0:
272,304,287832,6,0,P|344:248|272:192,1,200,6|0,3:0|3:0,3:0:0:0:
72,208,288271,2,0,L|16:208,1,50,10|2,3:0|3:0,3:0:0:0:
208,200,288418,2,0,L|320:200,1,100,2|8,3:0|3:0,3:0:0:0:
248,136,288637,1,0,0:0:0:0:
80,136,288710,1,0,3:0:0:0:
24,104,288784,1,0,3:0:0:0:
24,48,288857,1,8,3:0:0:0:
80,24,288930,1,0,0:0:0:0:
280,288,289003,6,0,L|400:288,1,100,2|8,3:0|3:0,3:0:0:0:
168,144,289296,2,0,L|96:144,2,50,2|0|8,3:0|3:0|3:0,0:0:0:0:
376,184,289588,2,0,L|376:120,1,50,6|0,3:0|0:0,3:0:0:0:
304,104,289735,2,0,L|304:40,1,50,8|0,3:0|0:0,0:0:0:0:
480,272,289881,2,0,L|416:272,1,50,2|0,3:0|3:0,0:0:0:0:
256,184,290027,2,0,L|176:184,1,50,8|0,3:0|0:0,0:0:0:0:
392,304,290174,6,0,P|464:240|392:192,1,200,2|0,3:0|3:0,3:0:0:0:
192,88,290613,2,0,L|128:88,1,50,10|2,3:0|3:0,3:0:0:0:
320,160,290759,2,0,L|440:160,1,100,2|8,3:0|3:0,3:0:0:0:
352,104,290979,1,0,3:0:0:0:
168,272,291052,2,0,L|168:200,1,50,0|0,3:0|3:0,0:0:0:0:
240,208,291198,2,0,L|240:120,1,50,8|0,3:0|3:0,0:0:0:0:
64,160,291345,6,0,L|136:160,1,50,10|8,3:0|3:0,0:0:0:0:
288,264,291491,2,0,L|352:264,1,50,0|0,3:0|3:0,0:0:0:0:
160,328,291637,2,0,L|248:328,1,50,2|0,3:0|3:0,0:0:0:0:
296,320,291784,2,0,L|296:248,1,50,0|0,3:0|3:0,0:0:0:0:
120,208,291930,5,2,3:0:0:0:
64,168,292003,1,0,3:0:0:0:
64,104,292076,1,0,3:0:0:0:
120,80,292149,1,0,3:0:0:0:
304,192,292223,2,0,L|224:192,1,50,10|0,3:0|0:0,3:0:0:0:
80,248,292369,2,0,L|16:248,1,50,0|0,0:0|3:0,0:0:0:0:
208,320,292515,6,0,L|208:208,1,100,6|0,3:0|3:0,3:0:0:0:
80,248,292808,2,0,L|80:144,1,100,0|0,3:0|3:0,3:0:0:0:
336,152,293101,1,10,3:0:0:0:
136,167,293540,6,0,L|336:151,1,200,0|0,3:0|3:0,3:0:0:0:
224,128,293979,2,0,L|224:24,1,100,0|0,3:0|3:0,3:0:0:0:
472,320,294271,1,8,3:0:0:0:
280,216,294564,1,0,3:0:0:0:
472,256,294857,5,0,3:0:0:0:
280,160,295149,1,0,3:0:0:0:
88,184,295442,1,8,3:0:0:0:
216,128,295588,1,0,3:0:0:0:
24,80,295881,1,0,3:0:0:0:
248,288,296320,5,0,3:0:0:0:
440,152,296613,1,8,3:0:0:0:
232,240,296906,1,0,3:0:0:0:
360,320,297198,5,2,3:2:0:0:
390,333,297246,1,2,2:2:0:0:
423,333,297295,1,2,2:2:0:0:
454,322,297344,1,2,2:2:0:0:
479,300,297393,1,2,2:2:0:0:
493,270,297441,1,2,2:2:0:0:
495,237,297490,1,2,3:2:0:0:
485,205,297539,1,2,2:2:0:0:
464,180,297588,1,2,2:2:0:0:
434,164,297637,1,2,2:2:0:0:
401,161,297685,1,2,2:2:0:0:
370,170,297734,1,2,2:2:0:0:
232,272,297784,5,10,3:0:0:0:
202,285,297832,1,2,2:2:0:0:
169,285,297881,1,2,2:2:0:0:
138,274,297930,1,2,2:2:0:0:
113,252,297979,1,2,2:2:0:0:
99,222,298027,1,2,2:2:0:0:
97,189,298076,1,2,2:2:0:0:
107,157,298125,1,2,2:2:0:0:
128,132,298174,1,2,2:2:0:0:
158,116,298223,1,2,3:2:0:0:
191,113,298271,1,2,2:2:0:0:
222,122,298320,1,2,2:2:0:0:
360,328,298369,6,0,L|416:328,1,33.3333333333333,2|2,2:2|2:2,0:0:0:0:
248,240,298467,1,2,2:2:0:0:
216,256,298515,1,2,3:0:0:0:
187,231,298564,1,2,2:2:0:0:
175,200,298613,1,2,2:2:0:0:
186,170,298662,1,2,3:2:0:0:
214,153,298710,1,2,2:2:0:0:
246,159,298759,1,2,2:2:0:0:
384,304,298808,2,0,L|440:304,1,33.3333333333333,2|2,2:2|2:2,0:0:0:0:
272,216,298906,1,2,2:2:0:0:
240,222,298954,5,10,3:0:0:0:
211,207,299003,1,2,2:2:0:0:
199,176,299052,1,2,2:2:0:0:
210,146,299101,1,2,2:2:0:0:
238,129,299149,1,2,2:2:0:0:
270,135,299198,1,2,2:2:0:0:
128,256,299247,2,0,L|72:256,1,33.3333333333333,2|2,3:2|2:2,0:0:0:0:
264,304,299345,1,2,2:2:0:0:
294,294,299393,1,2,2:2:0:0:
302,264,299442,1,2,2:2:0:0:
281,240,299491,1,2,2:2:0:0:
128,336,299540,5,2,3:2:0:0:
95,341,299588,1,2,2:2:0:0:
63,331,299637,1,2,2:2:0:0:
40,308,299686,1,2,2:2:0:0:
30,277,299735,1,2,2:2:0:0:
35,244,299783,1,2,2:2:0:0:
55,218,299832,1,2,3:2:0:0:
85,203,299881,1,2,2:2:0:0:
118,204,299930,1,2,2:2:0:0:
248,208,299979,2,0,L|304:208,2,33.3333333333333,2|2|2,2:2|2:2|2:2,0:0:0:0:
112,120,300125,6,0,L|48:120,2,33.3333333333333,10|2|2,3:0|2:2|2:2,2:2:0:0:
248,296,300271,1,2,3:2:0:0:
279,306,300319,1,2,2:2:0:0:
311,301,300368,1,2,2:2:0:0:
337,281,300417,1,2,2:2:0:0:
351,251,300466,1,2,2:2:0:0:
348,218,300514,1,2,2:2:0:0:
331,190,300563,1,2,3:2:0:0:
302,174,300612,1,2,2:2:0:0:
269,174,300661,1,2,2:2:0:0:
136,64,300710,6,0,L|88:64,2,33.3333333333333,2|2|2,2:2|2:2|2:2,0:0:0:0:
272,104,300857,2,0,L|320:104,2,33.3333333333333,2|2|2,3:0|2:2|2:2,0:0:0:0:
144,176,301003,6,0,L|144:128,1,33.3333333333333,2|2,3:2|2:2,0:0:0:0:
280,144,301101,2,0,L|328:144,1,33.3333333333333,2|2,2:2|2:2,2:2:0:0:
448,144,301198,2,0,L|448:88,1,33.3333333333333,2|2,2:2|2:2,0:0:0:0:
280,264,301296,6,0,L|224:264,1,50,14|2,3:0|2:2,2:2:0:0:
424,208,301442,2,0,L|480:208,1,50,10|2,3:2|2:2,2:2:0:0:
280,200,301588,2,0,L|216:200,1,50,2|2,3:0|3:0,3:0:0:0:
416,144,301735,2,0,L|472:144,1,50,2|2,3:0|2:2,2:2:0:0:
216,320,301881,5,2,3:0:0:0:
183,314,301929,1,0,0:0:0:0:
159,292,301978,1,0,0:0:0:0:
152,260,302027,1,2,2:2:0:0:
163,229,302076,1,2,2:2:0:0:
190,210,302124,1,2,2:2:0:0:
328,184,302174,2,0,L|384:184,1,33.3333333333333,2|2,3:2|2:2,2:2:0:0:
184,224,302271,5,2,2:2:0:0:
151,218,302319,1,2,2:2:0:0:
127,196,302368,1,0,0:0:0:0:
120,164,302417,1,0,0:0:0:0:
131,133,302466,1,10,3:0:0:0:
158,114,302514,1,2,2:2:0:0:
296,88,302564,2,0,L|352:88,1,33.3333333333333,2|2,2:2|2:2,0:0:0:0:
192,48,302662,2,0,L|144:48,1,33.3333333333333,2|2,2:2|2:2,0:0:0:0:
296,240,302760,1,2,2:2:0:0:
328,236,302808,1,0,0:0:0:0:
350,212,302857,1,0,0:0:0:0:
352,180,302906,1,2,3:2:0:0:
332,154,302955,1,2,2:2:0:0:
300,148,303003,1,2,2:2:0:0:
136,328,303052,6,0,L|136:264,1,50,2|2,2:2|2:2,0:0:0:0:
280,208,303198,2,0,L|344:208,1,50,10|2,3:0|2:2,0:0:0:0:
488,200,303345,2,0,L|488:120,1,50,2|2,3:2|2:2,0:0:0:0:
280,264,303491,2,0,L|224:264,1,50,2|2,2:2|2:2,0:0:0:0:
400,264,303637,6,0,L|400:192,1,50,10|2,3:0|2:2,2:2:0:0:
320,176,303784,2,0,L|320:104,1,50,2|2,2:2|2:2,2:2:0:0:
496,280,303930,2,0,L|432:280,1,50,2|2,3:2|2:2,0:0:0:0:
264,304,304076,2,0,L|200:304,1,50,2|2,2:2|2:2,0:0:0:0:
376,320,304223,5,2,3:2:0:0:
409,320,304271,1,2,2:2:0:0:
434,299,304320,1,2,2:2:0:0:
440,267,304369,1,2,2:2:0:0:
423,239,304418,1,2,2:2:0:0:
392,228,304466,1,2,2:2:0:0:
248,200,304515,5,2,3:2:0:0:
216,200,304563,1,2,2:2:0:0:
191,179,304612,1,2,2:2:0:0:
185,147,304661,1,2,2:2:0:0:
202,119,304710,1,2,2:2:0:0:
233,108,304758,1,2,2:2:0:0:
96,232,304808,5,10,3:0:0:0:
64,232,304856,1,2,2:2:0:0:
39,211,304905,1,2,2:2:0:0:
33,179,304954,1,2,3:2:0:0:
50,151,305003,1,2,2:2:0:0:
81,140,305051,1,2,2:2:0:0:
224,176,305101,5,2,2:2:0:0:
257,176,305149,1,2,2:2:0:0:
282,155,305198,1,2,2:2:0:0:
288,123,305247,1,2,3:2:0:0:
271,95,305296,1,2,2:2:0:0:
240,84,305344,1,2,2:2:0:0:
376,304,305393,5,2,2:2:0:0:
409,302,305441,1,2,2:2:0:0:
440,291,305490,1,2,2:2:0:0:
466,271,305539,1,10,3:0:0:0:
486,244,305588,1,2,2:2:0:0:
496,213,305636,1,2,2:2:0:0:
496,180,305685,1,2,3:2:0:0:
486,148,305734,1,2,2:2:0:0:
467,121,305783,1,2,2:2:0:0:
441,100,305832,1,2,2:2:0:0:
410,89,305880,1,2,2:2:0:0:
377,87,305929,1,2,2:2:0:0:
232,168,305979,6,0,L|176:168,2,33.3333333333333,10|2|2,3:2|2:2|2:2,0:0:0:0:
368,144,306125,2,0,L|408:144,2,33.3333333333333,2|2|2,2:2|2:2|2:2,0:0:0:0:
248,304,306271,1,2,3:2:0:0:
215,304,306319,1,2,2:2:0:0:
190,283,306368,1,2,2:2:0:0:
184,251,306417,1,2,2:2:0:0:
201,223,306466,1,2,2:2:0:0:
232,212,306514,1,2,2:2:0:0:
368,224,306564,6,0,L|368:160,1,33.3333333333333,6|0,3:2|0:0,0:0:0:0:
224,112,306662,2,0,L|168:112,1,33.3333333333333,0|2,0:0|2:2,0:0:0:0:
64,168,306759,2,0,L|64:112,1,33.3333333333333
184,112,306857,2,0,L|232:112,1,33.3333333333333,2|0,3:2|0:0,0:0:0:0:
368,208,306954,2,0,L|368:160,1,33.3333333333333,0|2,0:0|2:2,0:0:0:0:
224,56,307052,2,0,L|184:56,1,33.3333333333333
360,280,307149,5,10,3:0:0:0:
392,281,307197,1,0,0:0:0:0:
418,260,307246,1,0,0:0:0:0:
424,229,307295,1,2,2:2:0:0:
409,200,307344,1,0,0:0:0:0:
378,188,307392,1,0,0:0:0:0:
240,184,307442,2,0,L|192:184,2,33.3333333333333,2|0|0,2:2|0:0|0:0,2:2:0:0:
376,96,307588,2,0,L|424:96,2,33.3333333333333,2|0|0,3:2|0:0|0:0,2:2:0:0:
240,256,307735,5,2,2:2:0:0:
207,255,307783,1,0,0:0:0:0:
181,235,307832,1,0,0:0:0:0:
173,203,307881,1,2,2:2:0:0:
186,173,307930,1,0,0:0:0:0:
215,158,307978,1,0,0:0:0:0:
352,136,308027,2,0,L|400:136,2,33.3333333333333,2|0|0,3:2|0:0|0:0,0:0:0:0:
216,88,308174,2,0,L|168:88,2,33.3333333333333,2|0|0,2:2|0:0|0:0,0:0:0:0:
344,312,308320,5,10,3:0:0:0:
377,310,308368,1,0,0:0:0:0:
402,288,308417,1,0,0:0:0:0:
408,256,308466,1,2,2:2:0:0:
393,227,308515,1,0,0:0:0:0:
363,214,308563,1,0,0:0:0:0:
176,200,308613,1,2,3:2:0:0:
143,200,308661,1,0,0:0:0:0:
118,179,308710,1,0,0:0:0:0:
112,147,308759,1,2,2:2:0:0:
129,119,308808,1,0,0:0:0:0:
160,108,308856,1,0,0:0:0:0:
312,200,308906,6,0,L|376:200,2,33.3333333333333,2|0|0,3:2|0:0|0:0,0:0:0:0:
160,128,309052,2,0,L|120:128,2,33.3333333333333,2|0|0,2:2|0:0|0:0,0:0:0:0:
312,240,309198,1,2,3:2:0:0:
344,242,309246,1,0,0:0:0:0:
369,222,309295,1,0,0:0:0:0:
374,190,309344,1,2,2:2:0:0:
356,163,309393,1,0,0:0:0:0:
324,156,309441,1,0,0:0:0:0:
188,178,309491,5,10,3:0:0:0:
156,180,309539,1,0,0:0:0:0:
131,160,309588,1,0,0:0:0:0:
126,128,309637,1,2,3:2:0:0:
144,101,309686,1,0,0:0:0:0:
176,94,309734,1,0,0:0:0:0:
320,96,309784,2,0,L|360:96,2,33.3333333333333,2|0|0,2:2|0:0|0:0,0:0:0:0:
176,48,309930,2,0,L|112:48,2,33.3333333333333,14|0|0,3:0|0:0|0:0,0:0:0:0:
328,192,310076,5,2,2:2:0:0:
360,197,310124,1,2,2:2:0:0:
384,220,310173,1,2,2:2:0:0:
391,252,310222,1,2,3:2:0:0:
380,282,310271,1,2,2:2:0:0:
354,302,310319,1,2,2:2:0:0:
321,304,310368,1,10,3:0:0:0:
144,160,310442,2,0,L|80:160,2,50,0|10|10,0:0|3:0|3:0,0:0:0:0:
344,136,310662,6,0,L|344:80,1,50,2|2,3:0|3:0,0:0:0:0:
208,72,310808,2,0,L|152:72,1,50,2|2,3:0|3:0,0:0:0:0:
16,72,310954,2,0,L|16:136,1,50,10|2,3:0|3:0,0:0:0:0:
208,136,311101,2,0,L|272:136,1,50,10|2,3:0|3:0,0:0:0:0:
104,320,311247,5,10,3:0:0:0:
55,318,311320,1,0,3:0:0:0:
20,284,311393,1,0,3:0:0:0:
17,235,311466,1,0,3:0:0:0:
48,197,311539,1,0,3:0:0:0:
96,189,311612,1,0,3:0:0:0:
272,280,311686,6,0,L|352:280,1,50,14|0,3:0|3:0,0:0:0:0:
264,208,311832,2,0,L|208:208,1,50,0|0,3:0|3:0,0:0:0:0:
144,200,311979,2,0,L|144:128,1,50,0|0,3:0|3:0,3:0:0:0:
320,80,312125,2,0,L|248:80,1,50,12|0,3:0|3:0,3:0:0:0:
104,72,312271,2,0,L|40:72,1,50,4|0,3:0|3:0,0:0:0:0:
240,344,312418,6,0,L|240:256,1,50,10|0,3:0|3:0,0:0:0:0:
168,272,312564,2,0,L|96:272,1,50,0|0,3:0|3:0,0:0:0:0:
40,272,312710,2,0,L|40:192,1,50,0|0,3:0|3:0,3:0:0:0:
232,232,312857,5,14,3:0:0:0:
278,245,312930,1,0,3:0:0:0:
319,218,313003,1,0,3:0:0:0:
325,170,313076,1,0,3:0:0:0:
293,134,313149,1,0,3:0:0:0:
244,135,313222,1,0,3:0:0:0:
64,112,313296,6,0,L|128:112,1,50,10|10,3:0|3:0,3:0:0:0:
288,80,313442,2,0,L|352:80,1,50,10|10,3:0|3:0,3:0:0:0:
160,176,313588,6,0,L|160:112,1,50,2|0,3:0|3:0,0:0:0:0:
232,104,313735,2,0,L|288:104,1,50,8|0,3:0|3:0,0:0:0:0:
216,32,313881,2,0,L|152:32,1,50,0|0,3:0|3:0,3:0:0:0:
352,288,314027,1,10,3:0:0:0:
399,296,314100,1,0,3:0:0:0:
439,267,314173,1,0,3:0:0:0:
445,219,314246,1,0,3:0:0:0:
415,181,314319,1,8,3:0:0:0:
367,176,314392,1,0,3:0:0:0:
184,184,314467,2,0,L|56:184,1,100,0|8,3:0|3:0,0:0:0:0:
312,288,314759,6,0,L|384:288,1,50,2|0,3:0|3:0,0:0:0:0:
296,224,314906,2,0,L|224:224,1,50,8|0,3:0|3:0,0:0:0:0:
176,224,315052,2,0,L|176:168,1,50,0|0,3:0|3:0,0:0:0:0:
248,152,315198,2,0,L|312:152,1,50,10|0,3:0|3:0,0:0:0:0:
112,80,315345,6,0,L|168:80,1,50,0|0,3:0|3:0,0:0:0:0:
336,80,315491,2,0,L|416:80,1,50,8|0,3:0|3:0,0:0:0:0:
208,232,315637,2,0,L|152:232,1,50,12|8,3:0|3:0,0:0:0:0:
296,176,315784,1,8,3:0:0:0:
432,136,315857,1,8,3:0:0:0:
208,0,315930,6,0,P|16:184|224:384,1,600,14|0,3:0|0:0,0:0:0:0:
264,376,316881,5,0,3:0:0:0:
456,248,316954,2,0,L|392:248,1,50,2|2,3:0|3:0,0:0:0:0:
184,296,317101,6,0,L|80:296,1,100,14|0,3:0|3:0,3:0:0:0:
272,160,317320,2,0,L|144:160,1,100,14|0,3:0|3:0,0:0:0:0:
352,104,317540,2,0,L|432:104,1,50,14|0,3:0|3:0,3:0:0:0:
224,272,317686,6,0,L|328:272,1,100,10|0,3:0|3:0,3:0:0:0:
144,200,317906,2,0,L|40:200,1,100,2|0,3:0|3:0,0:0:0:0:
248,104,318125,2,0,L|304:104,1,50,2|0,3:0|3:0,3:0:0:0:
88,112,318271,5,6,3:0:0:0:
208,304,326467,5,14,3:0:0:0:
152,272,326540,1,8,3:0:0:0:
152,216,326613,1,8,3:0:0:0:
208,192,326686,1,8,3:0:0:0:
416,120,326759,2,0,L|352:120,1,50,0|0,3:0|3:0,3:0:0:0:
160,96,326906,2,0,L|88:96,1,50,14|10,3:0|3:0,0:0:0:0:
312,272,327052,6,0,L|312:208,1,50,10|8,3:0|3:0,0:0:0:0:
240,192,327198,2,0,L|176:192,1,50,0|0,3:0|3:0,3:0:0:0:
400,152,327345,2,0,L|472:152,1,50,12|8,3:0|3:0,3:0:0:0:
248,80,327491,2,0,L|176:80,1,50,8|8,3:0|3:0,3:0:0:0:
400,248,327637,6,0,L|416:184,3,50,14|0|0|0,3:0|3:0|3:0|3:0,0:0:0:0:
208,128,327930,2,0,L|144:128,1,50,10|0,3:0|3:0,0:0:0:0:
360,240,328076,2,0,L|424:240,1,50,2|0,3:0|3:0,3:0:0:0:
208,224,328223,6,0,L|192:160,3,50,10|0|0|0,3:0|3:0|3:0|3:0,0:0:0:0:
400,104,328516,2,0,L|464:104,1,50,10|0,3:0|3:0,0:0:0:0:
248,216,328662,2,0,L|184:216,1,50,0|2,3:0|3:0,3:0:0:0:
400,176,328808,6,0,L|400:112,1,50,10|0,3:0|3:0,0:0:0:0:
328,96,328954,2,0,L|272:96,1,50,0|0,3:0|3:0,0:0:0:0:
344,184,329101,2,0,L|400:184,1,50,8|0,3:0|3:0,0:0:0:0:
192,128,329247,2,0,L|128:128,1,50,2|2,3:0|3:0,3:0:0:0:
336,304,329393,5,10,3:0:0:0:
280,304,329467,1,0,3:0:0:0:
224,304,329540,1,0,3:0:0:0:
424,224,329613,2,0,L|488:224,2,50,0|10|0,3:0|3:0|3:0,0:0:0:0:
224,176,329832,2,0,L|152:176,1,50,2|0,3:0|3:0,0:0:0:0:
384,280,329979,6,0,L|400:224,3,50,10|0|0|0,3:0|3:0|3:0|3:0,0:0:0:0:
216,208,330271,2,0,L|208:144,3,50,10|0|0|0,3:0|3:0|3:0|3:0,0:0:0:0:
16,192,330564,6,0,L|32:144,3,50,10|0|0|0,3:0|3:0|3:0|3:0,0:0:0:0:
240,256,330857,2,0,L|176:256,1,50,10|0,3:0|3:0,0:0:0:0:
120,256,331003,2,0,L|120:184,1,50,0|0,3:0|3:0,3:0:0:0:
327,272,331149,5,10,3:0:0:0:
380,281,331222,1,0,3:0:0:0:
425,249,331295,1,0,3:0:0:0:
432,195,331368,1,0,3:0:0:0:
398,152,331441,1,8,3:0:0:0:
344,147,331514,1,0,3:0:0:0:
128,136,331588,2,0,L|200:136,1,50,2|2,3:0|3:0,0:0:0:0:
384,336,331735,6,0,L|384:208,1,100,14|0,3:0|3:0,0:0:0:0:
184,160,331954,2,0,L|304:160,1,100,12|0,3:0|3:0,0:0:0:0:
80,256,332174,2,0,L|80:176,1,50,8|0,3:0|3:0,3:0:0:0:
296,288,332320,5,2,3:0:0:0:
325,302,332368,1,0,0:0:0:0:
358,301,332417,1,0,0:0:0:0:
387,284,332466,1,10,3:0:0:0:
404,257,332515,1,0,0:0:0:0:
406,224,332563,1,0,0:0:0:0:
393,194,332612,1,2,3:0:0:0:
367,173,332661,1,0,0:0:0:0:
335,168,332710,1,0,0:0:0:0:
303,178,332759,1,10,3:0:0:0:
448,120,332808,2,0,L|496:120,1,33.3333333333333
312,232,332906,5,2,3:0:0:0:
283,246,332954,1,0,0:0:0:0:
250,245,333003,1,0,0:0:0:0:
221,228,333052,1,10,3:0:0:0:
204,201,333101,1,0,0:0:0:0:
202,168,333149,1,0,0:0:0:0:
215,138,333198,1,2,3:0:0:0:
241,117,333247,1,0,0:0:0:0:
273,112,333296,1,0,0:0:0:0:
305,122,333345,1,10,3:0:0:0:
160,64,333393,2,0,L|112:64,1,33.3333333333333
336,326,333491,5,2,3:0:0:0:
373,316,333539,1,0,0:0:0:0:
397,288,333588,1,0,0:0:0:0:
402,250,333637,1,10,3:0:0:0:
385,217,333686,1,0,0:0:0:0:
351,199,333734,1,0,0:0:0:0:
168,199,333784,5,2,3:0:0:0:
200,192,333832,1,0,0:0:0:0:
233,186,333881,1,0,0:0:0:0:
266,180,333930,1,10,3:0:0:0:
298,173,333979,1,0,0:0:0:0:
331,167,334027,1,0,0:0:0:0:
144,305,334076,5,2,3:0:0:0:
107,295,334124,1,0,0:0:0:0:
82,266,334173,1,0,0:0:0:0:
78,229,334222,1,10,3:0:0:0:
95,195,334271,1,0,0:0:0:0:
128,177,334319,1,0,0:0:0:0:
312,288,334369,6,0,L|372:285,1,50,14|10,3:0|3:0,3:0:0:0:
223,130,334515,1,2,3:0:0:0:
85,103,334588,1,2,3:0:0:0:
321,303,334662,5,14,3:0:0:0:
376,310,334735,1,0,3:0:0:0:
422,275,334808,1,0,3:0:0:0:
429,219,334881,1,0,3:0:0:0:
395,174,334954,1,0,3:0:0:0:
339,165,335027,1,0,3:0:0:0:
120,240,335101,6,0,L|120:168,1,50,12|0,3:0|3:0,0:0:0:0:
192,176,335247,2,0,L|256:176,1,50,0|0,3:0|3:0,0:0:0:0:
176,112,335393,2,0,L|112:112,1,50,0|0,3:0|3:0,3:0:0:0:
336,280,335540,2,0,L|264:280,1,50,12|0,3:0|3:0,0:0:0:0:
88,216,335686,2,0,L|32:216,1,50,0|0,3:0|3:0,3:0:0:0:
240,296,335832,6,0,L|240:200,1,50,10|0,3:0|3:0,0:0:0:0:
176,216,335979,2,0,L|112:216,1,50,0|0,3:0|3:0,0:0:0:0:
56,216,336125,2,0,L|56:152,1,50,0|0,3:0|3:0,3:0:0:0:
256,152,336271,6,0,L|320:152,1,50,12|0,3:0|3:0,0:0:0:0:
376,152,336418,2,0,L|376:80,1,50,0|0,3:0|3:0,0:0:0:0:
312,72,336564,2,0,L|248:72,1,50,0|0,3:0|3:0,3:0:0:0:
464,264,336710,2,0,L|384:264,1,50,12|0,3:0|3:0,0:0:0:0:
208,248,336857,2,0,L|136:248,1,50,0|0,3:0|3:0,3:0:0:0:
368,296,337003,6,0,L|416:296,2,33.3333333333333,14|0|0,3:0|0:0|0:0,0:0:0:0:
208,192,337149,2,0,L|160:192,2,33.3333333333333,2|0|0,3:0|0:0|0:0,0:0:0:0:
272,160,337296,2,0,L|328:160,2,33.3333333333333,2|0|0,3:0|0:0|0:0,0:0:0:0:
112,80,337442,2,0,L|64:80,2,33.3333333333333,14|0|0,3:0|0:0|0:0,0:0:0:0:
256,304,337588,5,2,3:0:0:0:
288,302,337636,1,0,0:0:0:0:
313,280,337685,1,0,0:0:0:0:
319,248,337734,1,2,3:0:0:0:
304,219,337783,1,0,0:0:0:0:
274,206,337831,1,0,0:0:0:0:
432,216,337881,5,14,3:0:0:0:
464,214,337929,1,0,0:0:0:0:
489,192,337978,1,0,0:0:0:0:
495,160,338027,1,2,3:0:0:0:
480,131,338076,1,0,0:0:0:0:
450,118,338124,1,0,0:0:0:0:
288,80,338174,6,0,L|232:80,2,33.3333333333333,2|0|0,3:0|0:0|0:0,0:0:0:0:
432,304,338320,1,14,3:0:0:0:
464,297,338368,1,0,0:0:0:0:
488,275,338417,1,0,0:0:0:0:
497,243,338466,1,2,3:0:0:0:
487,211,338515,1,0,0:0:0:0:
463,189,338563,1,0,0:0:0:0:
431,184,338612,1,2,3:0:0:0:
250,138,338686,1,2,3:0:0:0:
69,194,338759,6,0,L|139:193,1,50,14|0,3:0|3:0,3:0:0:0:
280,200,338906,2,0,L|392:192,1,100,10|0,3:0|3:0,3:0:0:0:
208,120,339125,1,0,3:0:0:0:
40,80,339198,6,0,B|344:104|344:104|344:312,1,500,10|0,3:0|3:0,3:0:0:0:
256,192,340076,12,0,342857,0:0:0:0:
