osu file format v14

[General]
AudioFilename: audio.mp3
AudioLeadIn: 0
PreviewTime: 93447
Countdown: 0
SampleSet: Soft
StackLeniency: 0.3
Mode: 0
LetterboxInBreaks: 0
WidescreenStoryboard: 0

[Editor]
Bookmarks: 11342,22710,42921,53026,73236,83342,93447,113657,133868,143973,154078,164184,174289,184394,204605,207131,214078,214710,226078,246289,266500,276605,286710,296815,317026,325868,327131,339763
DistanceSpacing: 1.1
BeatDivisor: 4
GridSize: 32
TimelineZoom: 2.5

[Metadata]
Title:Hitoku Sareta Four Seasons
TitleUnicode:秘匿されたフォーシーズンズ
Artist:Noah
ArtistUnicode:Noah
Creator:ReaL motion
Version:Extra Stage
Source:東方天空璋 ~ Hidden Star in Four Seasons.
Tags:ExistRuth Blast Out From Symphony touhou remix rock metal instrumental 東方Project 16 zun team shanghai alice stage 6 boss theme Okina Matara 摩多羅 隠岐奈
BeatmapID:4496879
BeatmapSetID:2108866

[Difficulty]
HPDrainRate:5
CircleSize:4.2
OverallDifficulty:9.3
ApproachRate:9.5
SliderMultiplier:2
SliderTickRate:1

[Events]
//Background and Video events
0,0,"87868184_p0.jpg",0,0
//Break Periods
2,207331,213553
2,319910,325343
//Storyboard Layer 0 (Background)
//Storyboard Layer 1 (Fail)
//Storyboard Layer 2 (Pass)
//Storyboard Layer 3 (Foreground)
//Storyboard Layer 4 (Overlay)
//Storyboard Sound Samples

[TimingPoints]
2500,315.789473684211,4,2,1,50,1,0
2500,-200,4,2,1,50,0,0
2736,-200,4,2,1,5,0,0
2815,-200,4,2,1,50,0,0
3052,-200,4,2,1,5,0,0
3131,-200,4,2,1,50,0,0
3368,-200,4,2,1,5,0,0
3447,-200,4,2,1,50,0,0
4000,-200,4,2,1,5,0,0
4078,-200,4,2,1,50,0,0
4315,-200,4,2,1,5,0,0
4394,-200,4,2,1,50,0,0
4631,-200,4,2,1,5,0,0
4710,-200,4,2,1,50,0,0
4868,-250,4,2,1,50,0,0
5105,-250,4,2,1,5,0,0
5184,-250,4,2,1,50,0,0
6842,-100,4,2,1,5,0,0
6921,-250,4,2,1,50,0,0
7552,-200,4,2,1,50,0,0
7789,-200,4,2,1,5,0,0
7868,-200,4,2,1,50,0,0
8105,-200,4,2,1,5,0,0
8184,-200,4,2,1,50,0,0
8421,-200,4,2,1,5,0,0
8500,-200,4,2,1,50,0,0
9052,-200,4,2,1,5,0,0
9131,-200,4,2,1,50,0,0
9368,-200,4,2,1,5,0,0
9447,-200,4,2,1,50,0,0
9684,-200,4,2,1,5,0,0
9763,-200,4,2,1,50,0,0
9921,-250,4,2,1,50,0,0
11263,-100,4,2,1,5,0,0
11342,-100,4,2,1,70,0,0
12289,-83.3333333333333,4,2,1,70,0,0
12526,-83.3333333333333,4,2,1,5,0,0
12605,-133.333333333333,4,2,1,70,0,0
17657,-100,4,2,1,70,0,0
20184,-90.9090909090909,4,2,1,70,0,0
21447,-100,4,2,1,70,0,0
22394,-83.3333333333333,4,2,1,70,0,0
22710,-76.9230769230769,4,2,1,70,0,0
23026,-100,4,2,1,70,0,0
27763,-83.3333333333333,4,2,1,70,0,0
28078,-100,4,2,1,70,0,0
32815,-83.3333333333333,4,2,1,70,0,0
33131,-100,4,2,1,70,0,0
37868,-83.3333333333333,4,2,1,70,0,0
38184,-100,4,2,1,70,0,0
40078,-83.3333333333333,4,2,1,70,0,0
42605,-76.9230769230769,4,2,1,70,0,0
42842,-76.9230769230769,4,2,1,5,0,0
42921,-133.333333333333,4,2,1,70,0,0
44026,-125,4,2,1,70,0,0
45289,-133.333333333333,4,2,1,70,0,0
45763,-133.333333333333,4,2,1,70,0,0
47342,-100,4,2,1,70,0,0
48289,-133.333333333333,4,2,1,70,0,0
50342,-250,4,2,1,70,0,0
50578,-100,4,2,1,5,0,0
50657,-100,4,2,1,50,0,0
51131,-100,4,2,1,60,0,0
51447,-100,4,2,1,70,0,0
51763,-100,4,2,1,70,0,0
52710,-83.3333333333333,4,2,1,70,0,0
53026,-100,4,2,1,70,0,0
62815,-76.9230769230769,4,2,1,70,0,0
63131,-100,4,2,1,70,0,0
63763,-76.9230769230769,4,2,1,70,0,0
64394,-83.3333333333333,4,2,1,70,0,0
65657,-100,4,2,1,70,0,0
66289,-76.9230769230769,4,2,1,70,0,0
66921,-83.3333333333333,4,2,1,70,0,0
67868,-76.9230769230769,4,2,1,70,0,0
68184,-90.9090909090909,4,2,1,70,0,0
73236,-200,4,2,1,70,0,0
73473,-200,4,2,1,5,0,0
73552,-200,4,2,1,70,0,0
75763,-133.333333333333,4,2,1,70,0,0
76000,-133.333333333333,4,2,1,5,0,0
76078,-133.333333333333,4,2,1,70,0,0
78289,-100,4,2,1,70,0,0
78526,-100,4,2,1,5,0,0
78605,-100,4,2,1,70,0,0
92184,-100,4,2,1,60,0,0
92500,-100,4,2,1,70,0,0
92815,-100,4,2,1,76,0,0
92894,-100,4,2,1,77,0,0
92973,-100,4,2,1,78,0,0
93052,-100,4,2,1,79,0,0
93131,-76.9230769230769,4,2,1,80,0,0
93368,-100,4,2,1,5,0,0
93447,-100,4,2,2,80,0,1
93526,-100,4,2,1,80,0,1
110973,-90.9090909090909,4,2,1,80,0,1
112394,-100,4,2,1,80,0,1
113657,-83.3333333333333,4,2,1,70,0,0
113973,-100,4,2,1,70,0,0
118710,-83.3333333333333,4,2,1,70,0,0
119026,-100,4,2,1,70,0,0
123763,-83.3333333333333,4,2,1,70,0,0
124078,-100,4,2,1,70,0,0
128815,-83.3333333333333,4,2,1,70,0,0
129131,-100,4,2,1,70,0,0
131026,-83.3333333333333,4,2,1,70,0,0
132605,-100,4,2,1,70,0,0
133868,-200,4,2,1,70,0,0
134736,-200,4,2,1,5,0,0
134815,-200,4,2,1,70,0,0
136473,-200,4,2,1,5,0,0
136552,-200,4,2,1,70,0,0
136710,-250,4,2,1,70,0,0
137263,-250,4,2,1,70,0,0
137342,-250,4,2,1,70,0,0
138210,-100,4,2,1,5,0,0
138289,-200,4,2,1,70,0,0
138921,-166.666666666667,4,2,1,70,0,0
141289,-133.333333333333,4,2,1,70,0,0
141526,-100,4,2,1,5,0,0
141605,-100,4,2,1,50,0,0
142078,-100,4,2,1,60,0,0
142394,-100,4,2,1,70,0,0
142552,-100,4,2,1,70,0,0
143578,-100,4,2,1,5,0,0
143657,-100,4,2,1,70,0,0
149026,-83.3333333333333,4,2,1,70,0,0
149342,-100,4,2,1,70,0,0
150131,-83.3333333333333,4,2,1,70,0,0
151394,-83.3333333333333,4,2,1,70,0,0
152815,-100,4,2,1,70,0,0
153763,-83.3333333333333,4,2,1,70,0,0
154078,-100,4,2,1,70,0,0
154710,-83.3333333333333,4,2,1,70,0,0
156605,-100,4,2,1,70,0,0
157236,-83.3333333333333,4,2,1,70,0,0
162921,-100,4,2,1,70,0,0
164184,-200,4,2,1,70,0,0
164421,-200,4,2,1,5,0,0
164500,-200,4,2,1,70,0,0
166710,-133.333333333333,4,2,1,70,0,0
166947,-133.333333333333,4,2,1,5,0,0
167026,-133.333333333333,4,2,1,70,0,0
169236,-100,4,2,1,70,0,0
169473,-100,4,2,1,5,0,0
169552,-100,4,2,1,70,0,0
183131,-100,4,2,1,60,0,0
183447,-100,4,2,1,70,0,0
183763,-100,4,2,1,76,0,0
183842,-100,4,2,1,77,0,0
183921,-100,4,2,1,78,0,0
184000,-100,4,2,1,79,0,0
184078,-76.9230769230769,4,2,1,80,0,0
184315,-100,4,2,1,5,0,0
184394,-100,4,2,2,80,0,1
184473,-100,4,2,1,80,0,1
201921,-90.9090909090909,4,2,1,80,0,1
203342,-100,4,2,1,80,0,1
204605,-133.333333333333,4,2,1,70,0,0
207131,-133.333333333333,4,2,1,5,0,0
214078,-100,4,2,1,70,0,0
214710,-83.3333333333333,4,2,1,70,0,0
223868,-76.9230769230769,4,2,1,70,0,0
224815,-100,4,2,1,70,0,0
225763,-83.3333333333333,4,2,1,70,0,0
226078,-133.333333333333,4,2,1,70,0,0
235552,-100,4,2,1,70,0,0
236184,-83.3333333333333,4,2,1,70,0,0
245973,-76.9230769230769,4,2,1,70,0,0
246289,-90.9090909090909,4,2,1,65,0,0
251342,-83.3333333333333,4,2,1,65,0,0
251657,-90.9090909090909,4,2,1,65,0,0
255447,-83.3333333333333,4,2,1,65,0,0
255763,-90.9090909090909,4,2,1,65,0,0
258921,-83.3333333333333,4,2,1,65,0,0
264289,-76.9230769230769,4,2,1,65,0,0
265236,-90.9090909090909,4,2,1,65,0,0
266184,-83.3333333333333,4,2,1,65,0,0
266500,-100,4,2,1,70,0,0
267131,-83.3333333333333,4,2,1,70,0,0
269026,-100,4,2,1,70,0,0
269657,-83.3333333333333,4,2,1,70,0,0
276605,-200,4,2,1,70,0,0
276842,-200,4,2,1,5,0,0
276921,-200,4,2,1,70,0,0
279131,-133.333333333333,4,2,1,70,0,0
279368,-133.333333333333,4,2,1,5,0,0
279447,-133.333333333333,4,2,1,70,0,0
280394,-100,4,2,1,70,0,0
295552,-100,4,2,1,60,0,0
295868,-100,4,2,1,70,0,0
296184,-100,4,2,1,76,0,0
296263,-100,4,2,1,77,0,0
296342,-100,4,2,1,78,0,0
296421,-100,4,2,1,79,0,0
296500,-76.9230769230769,4,2,1,80,0,0
296736,-100,4,2,1,5,0,0
296815,-90.9090909090909,4,2,2,80,0,1
296894,-90.9090909090909,4,2,1,80,0,1
314500,-83.3333333333333,4,2,1,80,0,1
317026,-133.333333333333,4,2,1,70,0,0
319710,-100,4,2,1,5,0,0
325868,-100,4,2,1,70,0,0
326815,-83.3333333333333,4,2,1,70,0,0
327131,-100,4,2,1,70,0,0
334710,-83.3333333333333,4,2,1,70,0,0
336921,-76.9230769230769,4,2,1,70,0,0
337157,-76.9230769230769,4,2,1,5,0,0
337236,-76.9230769230769,4,2,1,70,0,0
338342,-100,4,2,1,70,0,0
338973,-100,4,2,1,60,0,0
339052,-100,4,2,1,50,0,0
339131,-100,4,2,1,40,0,0
339210,-100,4,2,1,30,0,0
339289,-100,4,2,1,20,0,0
339368,-100,4,2,1,10,0,0
339447,-100,4,2,1,5,0,0
339526,-100,4,2,1,5,0,0
339605,-100,4,2,1,70,0,0

[Colours]
Combo1 : 254,183,75
Combo2 : 128,255,0
Combo3 : 0,213,213
Combo4 : 255,89,172

[HitObjects]
457,56,2500,6,0,P|425:39|388:39,1,75,2|0,0:2|0:2,0:0:0:0:
367,53,2815,2,0,P|334:70|297:70,1,75,2|0,0:2|0:2,0:0:0:0:
276,56,3131,2,0,L|263:138,1,75,2|0,0:2|0:2,0:0:0:0:
206,192,3447,5,2,0:2:0:0:
206,192,3605,2,0,P|146:166|74:179,1,125,2|0,0:2|0:2,0:0:0:0:
67,186,4078,2,0,L|75:267,1,75,2|0,0:2|0:2,0:0:0:0:
98,266,4394,2,0,L|90:347,1,75,2|0,0:2|0:2,0:0:0:0:
70,355,4710,5,2,0:2:0:0:
181,293,4868,2,0,P|216:293|248:308,1,60,2|0,0:2|0:2,0:0:0:0:
253,316,5184,1,2,0:2:0:0:
305,225,5342,6,0,B|361:255|368:330|368:330|391:245|443:215|499:237|511:322|443:337,1,380,2|0,0:2|0:2,0:0:0:0:
431,343,6921,6,0,L|424:290,2,40,2|2|2,0:2|0:2|0:2,0:0:0:0:
431,343,7552,6,0,P|396:325|348:319,1,75,2|0,0:2|0:2,0:0:0:0:
338,329,7868,2,0,P|303:347|255:353,1,75,2|0,0:2|0:2,0:0:0:0:
243,346,8184,2,0,L|228:260,1,75,2|0,0:2|0:2,0:0:0:0:
301,193,8500,5,2,0:2:0:0:
301,193,8657,2,0,P|344:161|413:170,1,125,2|0,0:2|0:2,0:0:0:0:
435,177,9131,2,0,L|447:81,1,75,2|0,0:2|0:2,0:0:0:0:
436,78,9447,2,0,P|396:58|354:64,1,75,2|0,0:2|0:2,0:0:0:0:
344,72,9763,5,2,0:2:0:0:
213,21,9921,2,0,B|153:39|74:122|93:264|244:235|254:157|203:121,1,340,2|0,0:2|0:2,0:0:0:0:
198,113,11342,5,8,1:2:0:0:
173,118,11420,1,8,1:2:0:0:
149,123,11499,1,0,1:2:0:0:
124,128,11578,1,0,1:2:0:0:
102,150,11657,5,0,1:2:0:0:
77,144,11735,1,0,1:2:0:0:
53,139,11814,1,0,1:2:0:0:
28,134,11893,1,0,1:2:0:0:
13,110,11973,5,0,1:2:0:0:
13,62,12051,1,0,1:2:0:0:
45,24,12130,1,0,1:2:0:0:
93,17,12209,1,0,1:2:0:0:
134,44,12289,6,0,B|159:65|159:65|266:37|266:37|307:53,1,179.999994506836,12|0,1:2|0:2,0:0:0:0:
364,121,12605,6,0,P|323:143|291:137,1,75.0000028610231,0|0,0:2|0:2,0:0:0:0:
389,18,12921,2,0,P|428:42|439:73,1,75.0000028610231,0|0,0:2|0:2,0:0:0:0:
345,188,13236,2,0,P|346:141|367:116,1,75.0000028610231,0|0,0:2|0:2,0:0:0:0:
434,205,13552,6,0,B|448:240|448:240|429:334,1,112.500004291535,8|0,0:2|0:2,0:0:0:0:
428,336,13868,1,0,0:2:0:0:
216,278,14026,2,0,L|289:264,1,75.0000028610231,0|0,1:2|0:2,0:0:0:0:
289,263,14342,1,0,0:2:0:0:
127,341,14500,2,0,P|97:302|97:261,1,75.0000028610231,0|0,1:2|0:2,0:0:0:0:
122,116,14815,2,0,P|102:166|50:180,1,112.500004291535,8|0,0:2|0:2,0:0:0:0:
34,170,15131,6,0,L|22:65,1,75.0000028610231,0|0,1:2|0:2,0:0:0:0:
25,95,15447,1,0,0:2:0:0:
211,99,15605,2,0,L|223:-6,1,75.0000028610231,0|0,1:2|0:2,0:0:0:0:
219,24,15921,1,0,0:2:0:0:
415,131,16078,2,0,L|288:161,1,112.500004291535,8|0,0:2|0:2,0:0:0:0:
287,163,16394,5,0,0:2:0:0:
395,45,16552,1,0,1:2:0:0:
388,225,16710,1,0,0:2:0:0:
298,73,16868,1,0,0:2:0:0:
499,113,17026,5,8,0:2:0:0:
388,225,17184,1,0,1:2:0:0:
389,234,17262,1,0,1:2:0:0:
390,243,17342,2,0,L|394:302,1,37.5000014305115,8|0,1:2|1:2,1:1:0:0:
471,354,17500,2,0,L|473:316,1,37.5000014305115,0|0,1:2|1:2,1:1:0:0:
321,184,17657,6,0,P|261:192|228:248,1,100,4|0,1:2|0:2,0:0:0:0:
147,361,17973,2,0,P|170:305|138:248,1,100,0|0,1:2|0:2,0:0:0:0:
80,126,18289,2,0,P|116:173|181:174,1,100,0|0,1:2|0:2,0:0:0:0:
153,181,18605,1,0,1:2:0:0:
279,38,18763,1,0,0:2:0:0:
149,4,18921,6,0,L|162:110,1,100,0|0,1:2|0:2,0:0:0:0:
321,184,19236,2,0,L|333:84,1,100,0|0,1:2|0:2,0:0:0:0:
463,10,19552,2,0,L|476:116,1,100,0|0,1:2|0:2,0:0:0:0:
433,300,19868,5,0,1:2:0:0:
475,109,20026,1,0,0:2:0:0:
321,184,20184,6,0,P|241:188|194:264,1,165.000005035401,4|0,1:2|0:2,0:0:0:0:
70,363,20500,2,0,B|100:331|100:331|76:208,1,165.000005035401,8|0,0:2|0:2,0:0:0:0:
61,140,20815,5,0,1:2:0:0:
321,184,20973,1,0,0:2:0:0:
114,49,21131,6,0,L|277:30,1,165.000005035401,8|0,0:2|0:2,0:0:0:0:
356,83,21447,5,8,1:2:0:0:
378,73,21525,1,8,1:2:0:0:
403,69,21604,1,0,1:2:0:0:
428,73,21683,1,0,1:2:0:0:
456,89,21763,5,0,1:2:0:0:
418,95,21841,1,0,1:2:0:0:
383,107,21920,1,0,1:2:0:0:
350,125,21999,1,0,1:2:0:0:
320,158,22078,5,0,1:2:0:0:
369,164,22156,1,0,1:2:0:0:
420,184,22235,1,0,1:2:0:0:
460,221,22314,1,0,1:2:0:0:
475,279,22394,6,0,B|424:290|424:290|385:346|310:362,1,179.999994506836,8|0,0:2|0:2,0:0:0:0:
237,291,22710,6,0,B|104:267|104:267|150:337,1,194.999991073609,6|0,1:2|0:2,0:0:0:0:
199,367,23026,5,10,0:2:0:0:
168,111,23184,1,2,0:2:0:0:
29,311,23342,5,2,1:2:0:0:
263,192,23500,1,2,1:2:0:0:
17,104,23657,1,10,0:2:0:0:
278,193,23815,1,2,0:2:0:0:
40,182,23973,6,0,P|91:142|86:59,1,150,0|0,1:2|0:2,0:0:0:0:
31,11,24289,1,10,0:2:0:0:
308,120,24447,1,2,0:2:0:0:
308,120,24526,1,0,1:0:0:0:
308,120,24605,5,2,1:2:0:0:
40,182,24763,1,2,1:2:0:0:
248,272,24921,1,10,0:2:0:0:
22,181,25078,1,2,0:2:0:0:
308,120,25236,6,0,B|392:112|365:172|457:159,1,150,0|0,1:2|0:2,0:0:0:0:
505,105,25552,1,10,0:2:0:0:
315,209,25710,1,2,0:2:0:0:
315,209,25789,1,0,1:0:0:0:
315,209,25868,5,2,1:2:0:0:
497,242,26026,1,2,1:2:0:0:
308,120,26184,1,10,0:2:0:0:
502,26,26342,1,2,1:2:0:0:
384,270,26500,5,0,0:2:0:0:
384,270,26657,1,0,1:2:0:0:
64,188,26815,2,0,B|107:193|107:193|136:230|136:230|220:242,1,150,10|0,0:2|0:2,0:0:0:0:
257,190,27131,5,2,1:2:0:0:
45,287,27289,1,2,1:2:0:0:
294,349,27447,5,14,0:2:0:0:
64,188,27605,1,2,0:2:0:0:
372,106,27763,6,0,B|503:127|503:127|444:169,1,179.999994506836,4|0,1:2|0:2,0:0:0:0:
406,202,28078,5,10,0:2:0:0:
305,4,28236,1,2,0:2:0:0:
195,238,28394,5,2,1:2:0:0:
464,154,28552,1,2,1:2:0:0:
217,32,28710,1,10,0:2:0:0:
478,148,28868,1,2,0:2:0:0:
192,318,29026,6,0,P|148:301|126:205,1,150,0|0,1:2|0:2,0:0:0:0:
154,128,29342,2,0,P|115:176|50:177,1,100,10|2,0:2|0:2,0:0:0:0:
53,170,29578,1,0,1:2:0:0:
53,170,29657,5,2,1:2:0:0:
217,32,29815,1,2,1:2:0:0:
195,238,29973,1,10,0:2:0:0:
25,83,30131,1,2,0:2:0:0:
318,22,30289,5,0,1:2:0:0:
318,22,30446,1,0,0:2:0:0:
507,122,30605,2,0,P|447:157|428:195,1,100,10|2,0:2|0:2,0:0:0:0:
398,347,30921,1,2,1:2:0:0:
270,95,31078,1,2,1:2:0:0:
247,355,31236,2,0,L|223:212,1,100,10|2,0:2|0:2,0:0:0:0:
122,64,31552,5,4,1:2:0:0:
85,59,31630,1,0,1:2:0:0:
50,73,31709,1,8,1:2:0:0:
26,101,31788,1,8,1:2:0:0:
17,137,31868,2,8,L|27:210,1,50,8|8,1:2|1:2,1:1:0:0:
174,155,32026,1,4,1:2:0:0:
210,150,32104,1,0,1:2:0:0:
245,164,32183,1,8,1:2:0:0:
269,192,32262,1,8,1:2:0:0:
278,228,32342,2,8,L|267:301,1,50,8|8,1:2|1:2,1:1:0:0:
67,349,32500,5,4,1:2:0:0:
35,310,32578,1,0,1:2:0:0:
22,257,32657,1,0,1:2:0:0:
41,205,32736,1,0,1:2:0:0:
90,170,32815,6,0,L|280:193,1,179.999994506836,4|0,1:2|0:2,0:0:0:0:
336,146,33131,5,10,0:2:0:0:
110,260,33289,1,2,0:2:0:0:
265,82,33447,5,2,1:2:0:0:
343,342,33605,1,2,1:2:0:0:
269,65,33763,1,10,0:2:0:0:
176,316,33921,1,2,0:2:0:0:
439,215,34078,6,0,P|485:257|486:318,1,100,0|0,1:2|0:2,0:0:0:0:
339,135,34394,2,0,L|360:7,1,100,10|2,0:2|0:2,0:0:0:0:
373,16,34631,1,0,1:2:0:0:
373,16,34710,1,2,1:2:0:0:
212,186,34868,1,2,1:2:0:0:
177,34,35026,5,10,0:2:0:0:
431,106,35184,1,2,0:2:0:0:
207,260,35342,6,0,P|149:227|143:178,1,100,0|0,1:2|0:2,0:0:0:0:
74,12,35657,2,0,P|74:78|34:108,1,100,10|2,0:2|0:2,0:0:0:0:
34,116,35894,1,0,1:2:0:0:
34,116,35973,1,2,1:2:0:0:
212,186,36131,1,2,1:2:0:0:
23,278,36289,5,10,0:2:0:0:
304,171,36447,2,0,B|383:168|345:239|458:217,1,150,2|0,1:2|0:2,0:0:0:0:
480,215,36762,1,0,1:2:0:0:
251,102,36921,2,0,P|214:142|217:202,1,100,10|2,0:2|0:2,0:0:0:0:
217,207,37157,1,0,1:2:0:0:
217,207,37236,5,2,1:2:0:0:
378,370,37394,1,2,1:2:0:0:
372,106,37552,5,10,0:2:0:0:
147,251,37710,1,2,0:2:0:0:
451,337,37868,6,0,B|467:291|467:291|439:146,1,179.999994506836,6|0,1:2|0:2,0:0:0:0:
372,106,38184,5,10,0:2:0:0:
263,309,38342,1,2,0:2:0:0:
442,162,38500,5,2,1:2:0:0:
209,59,38657,1,2,1:2:0:0:
457,165,38815,1,10,0:2:0:0:
166,237,38973,1,2,0:2:0:0:
287,22,39131,6,0,P|288:82|264:118,1,100,0|0,1:2|0:2,0:0:0:0:
6,62,39447,2,0,L|105:38,1,100,10|2,0:2|0:2,0:0:0:0:
121,34,39684,1,0,1:2:0:0:
121,34,39763,1,2,1:2:0:0:
267,114,39921,1,2,1:2:0:0:
50,204,40078,6,0,B|111:241|111:241|142:374,1,179.999994506836,14|0,0:2|0:2,0:0:0:0:
221,363,40394,6,0,B|290:370|258:315|365:313,1,119.999996337891,4|0,1:2|0:2,0:0:0:0:
455,168,40710,2,0,B|386:175|418:120|311:118,1,119.999996337891,10|2,1:2|0:2,0:0:0:0:
267,114,40947,1,0,1:2:0:0:
267,114,41026,5,6,1:2:0:0:
430,331,41184,1,2,1:2:0:0:
78,217,41342,5,14,0:2:0:0:
367,239,41500,1,2,0:2:0:0:
101,366,41657,5,8,1:2:0:0:
143,352,41735,1,8,1:2:0:0:
173,320,41814,1,0,1:2:0:0:
186,277,41893,1,0,1:2:0:0:
177,233,41973,5,0,1:2:0:0:
154,215,42051,1,0,1:2:0:0:
126,221,42130,1,0,1:2:0:0:
111,246,42209,1,0,1:2:0:0:
121,273,42289,5,0,1:2:0:0:
173,302,42367,1,0,1:2:0:0:
239,299,42446,1,0,1:2:0:0:
295,264,42525,1,0,1:2:0:0:
322,196,42605,6,0,B|461:170|461:170|423:244,1,194.999991073609,8|0,1:2|0:2,0:0:0:0:
427,236,42921,6,0,L|405:127,1,75.0000028610231,6|0,1:2|0:2,0:0:0:0:
294,25,43236,2,0,L|279:98,1,75.0000028610231,2|0,0:2|0:2,0:0:0:0:
154,215,43552,2,0,L|25:197,1,112.500004291535,2|0,0:2|0:2,0:0:0:0:
20,196,43868,5,2,0:2:0:0:
163,134,44026,2,0,P|224:178|186:293,1,200,6|0,1:2|0:2,0:0:0:0:
129,318,44500,2,0,P|185:331|215:363,1,80,2|0,0:2|0:2,0:0:0:0:
412,258,44815,2,0,P|378:279|339:284,1,80,2|0,0:2|0:2,0:0:0:0:
154,215,45131,5,2,0:2:0:0:
390,130,45289,2,0,L|480:142,2,75.0000028610231,6|0|2,1:2|0:2|0:2,0:0:0:0:
251,171,45763,6,0,B|181:117|167:32|251:-10|321:26|285:111,1,262.500010013581,2|0,0:2|0:2,0:0:0:0:
290,105,46394,1,0,0:2:0:0:
108,199,46552,2,0,B|50:199|0:179|0:179|34:208|51:244,1,187.500007152558,4|0,1:2|0:2,0:0:0:0:
51,260,47026,5,0,0:2:0:0:
178,361,47184,1,8,0:2:0:0:
197,363,47262,1,8,0:2:0:0:
214,356,47342,6,0,P|236:338|242:307,1,50,10|0,0:2|0:2,0:0:0:0:
334,336,47500,2,0,P|334:307|314:283,1,50,10|0,0:2|0:2,0:0:0:0:
412,231,47657,2,0,P|390:212|358:211,1,50,2|0,1:2|0:2,0:0:0:0:
203,231,47815,1,2,1:2:0:0:
442,314,47973,6,0,B|470:282|470:282|455:159,1,150,6|0,1:2|0:2,0:0:0:0:
395,125,48289,6,0,L|408:37,1,75.0000028610231,2|0,0:2|0:2,0:0:0:0:
214,8,48605,2,0,L|234:144,1,112.500004291535,2|0,0:2|0:2,0:0:0:0:
239,139,48921,5,2,0:2:0:0:
53,191,49078,2,2,B|142:195|100:271|234:271,1,187.500007152558,4|0,1:2|0:2,0:0:0:0:
237,249,49552,6,0,P|282:263|313:294,1,75.0000028610231,2|0,0:2|0:2,0:0:0:0:
434,363,49868,2,0,P|476:347|471:281,1,112.500004291535,2|0,0:2|0:2,0:0:0:0:
455,270,50184,1,2,0:2:0:0:
347,112,50342,6,0,B|344:96|344:96|356:53,1,60,6|0,1:2|0:2,0:0:0:0:
367,34,50657,5,0,1:2:0:0:
472,191,50815,1,0,1:2:0:0:
247,236,50973,1,0,1:2:0:0:
367,34,51131,5,8,1:2:0:0:
355,343,51289,1,8,1:2:0:0:
180,86,51447,1,8,1:2:0:0:
472,191,51605,1,8,1:2:0:0:
174,277,51763,5,8,1:2:0:0:
158,243,51841,1,8,1:2:0:0:
161,206,51920,1,0,1:2:0:0:
183,176,51999,1,0,1:2:0:0:
211,156,52078,5,0,1:2:0:0:
226,176,52156,1,0,1:2:0:0:
223,201,52235,1,0,1:2:0:0:
205,217,52314,1,0,1:2:0:0:
180,217,52394,5,0,1:2:0:0:
133,200,52472,1,0,1:2:0:0:
102,155,52551,1,0,1:2:0:0:
106,100,52630,1,0,1:2:0:0:
146,55,52710,6,0,B|181:68|181:68|247:27|357:33,1,179.999994506836,12|0,1:2|0:2,0:0:0:0:
400,59,53026,6,0,L|381:176,1,100,6|0,1:2|0:2,0:0:0:0:
195,355,53342,2,0,L|178:256,1,100,10|0,0:2|0:2,0:0:0:0:
317,105,53657,1,2,1:2:0:0:
415,310,53815,1,0,1:2:0:0:
178,256,53973,1,10,0:2:0:0:
490,178,54131,6,0,P|446:164|367:152,1,100,2|0,0:2|0:2,0:0:0:0:
281,312,54447,1,0,1:2:0:0:
120,65,54605,2,0,P|184:49|231:110,1,150,10|0,0:2|0:2,0:0:0:0:
225,127,54921,5,2,1:2:0:0:
129,323,55078,1,0,1:2:0:0:
35,97,55236,1,10,0:2:0:0:
202,264,55394,6,2,B|150:273|150:273|69:308,1,100,0|2,1:2|0:2,0:0:0:0:
360,354,55710,1,0,0:2:0:0:
370,147,55868,2,0,B|301:122|301:122|223:127,1,150,10|0,0:2|0:2,0:0:0:0:
198,148,56184,5,0,1:2:0:0:
442,209,56342,1,0,1:2:0:0:
202,264,56500,1,8,0:2:0:0:
457,113,56657,6,0,B|457:80|457:80|427:2,1,100,0|0,1:2|0:2,0:0:0:0:
266,9,56973,1,0,0:2:0:0:
286,190,57131,2,0,B|260:168|260:168|181:141,1,100,8|0,0:2|0:2,0:0:0:0:
166,150,57368,1,0,1:2:0:0:
166,150,57447,6,0,L|151:230,1,50,2|0,1:2|1:2,0:0:0:0:
59,342,57605,2,2,L|49:292,1,50,2|0,1:2|0:2,0:0:0:0:
7,75,57763,6,0,B|99:51|99:51|169:75,1,150,14|0,0:2|0:2,0:0:0:0:
166,150,58078,6,0,B|186:22,1,100,6|0,1:2|0:2,0:0:0:0:
439,181,58394,2,0,B|454:279,1,100,10|0,0:2|0:2,0:0:0:0:
224,344,58710,1,2,1:2:0:0:
323,117,58868,1,0,1:2:0:0:
454,279,59026,1,10,0:2:0:0:
158,228,59184,6,0,B|135:182|135:182|124:94,1,100,6|0,1:2|0:2,0:0:0:0:
271,53,59500,1,0,0:2:0:0:
139,307,59657,2,0,B|88:295|88:295|14:246,1,100,10|0,0:2|0:2,0:0:0:0:
32,256,59894,1,0,1:2:0:0:
32,256,59973,5,2,1:2:0:0:
225,142,60131,1,0,1:2:0:0:
16,63,60289,1,10,0:2:0:0:
243,225,60447,6,0,P|305:182|308:120,1,100,6|0,1:2|0:2,0:0:0:0:
311,161,60763,1,0,1:2:0:0:
479,353,60921,2,0,P|440:321|418:277,1,100,8|0,0:2|0:2,0:0:0:0:
416,255,61157,1,0,1:2:0:0:
416,255,61236,5,8,1:2:0:0:
503,96,61394,1,0,1:2:0:0:
290,27,61552,2,0,L|127:47,1,150,8|0,0:2|0:2,0:0:0:0:
112,53,61868,5,12,1:2:0:0:
71,78,61946,1,0,1:2:0:0:
56,125,62025,1,0,1:2:0:0:
74,170,62104,1,0,1:2:0:0:
117,193,62184,5,0,1:2:0:0:
151,211,62262,1,0,1:2:0:0:
177,240,62341,1,0,1:2:0:0:
183,279,62420,1,0,1:2:0:0:
174,318,62500,5,0,1:2:0:0:
120,325,62578,1,0,1:2:0:0:
83,284,62657,1,0,1:2:0:0:
97,230,62736,1,0,1:2:0:0:
151,211,62815,6,0,B|197:206|197:206|241:262|347:281,1,194.999991073609,12|0,1:2|0:2,0:0:0:0:
433,325,63131,6,0,P|325:304|357:198,1,250,4|0,1:2|0:2,0:0:0:0:
435,217,63605,1,0,1:2:0:0:
311,27,63763,6,0,B|277:57|277:57|106:90,2,194.999991073609,12|4|12,0:2|1:2|0:2,0:0:0:0:
74,22,64394,6,0,P|39:96|43:151,1,119.999996337891,4|0,1:2|0:2,0:0:0:0:
111,165,64631,2,0,P|179:234|160:277,1,119.999996337891,12|0,0:2|0:2,0:0:0:0:
110,297,64868,2,0,P|42:228|61:185,1,119.999996337891,4|12,1:2|0:2,0:0:0:0:
111,164,65105,1,0,1:2:0:0:
147,139,65183,1,0,1:2:0:0:
191,135,65262,1,0,1:2:0:0:
231,155,65342,5,12,1:2:0:0:
283,182,65420,1,0,1:2:0:0:
340,170,65499,1,0,1:2:0:0:
375,123,65578,1,0,1:2:0:0:
371,64,65657,6,0,P|271:151|368:242,1,300,4|0,1:2|1:2,0:0:0:0:
467,193,66210,1,0,1:2:0:0:
467,193,66289,6,4,B|400:238|400:238|348:343,2,194.999991073609,4|12|8,0:2|1:2|0:2,0:0:0:0:
349,340,66921,6,0,P|286:334|209:311,1,119.999996337891,4|0,1:2|0:2,0:0:0:0:
127,75,67236,2,0,P|153:133|171:211,1,119.999996337891,8|0,0:2|1:2,0:0:0:0:
160,208,67473,1,0,1:2:0:0:
160,208,67552,1,0,1:2:0:0:
32,336,67710,1,0,1:2:0:0:
41,60,67868,6,0,B|81:71|81:71|162:34|236:24,1,194.999991073609,12|0,0:2|0:2,0:0:0:0:
320,9,68184,6,0,L|346:155,1,110.000003356934,4|0,1:2|0:2,0:0:0:0:
212,355,68500,2,0,L|231:246,1,110.000003356934,8|0,0:2|0:2,0:0:0:0:
416,90,68815,1,0,1:2:0:0:
320,322,68973,1,0,1:2:0:0:
139,148,69131,1,8,0:2:0:0:
139,148,69210,1,0,0:2:0:0:
139,148,69289,1,0,0:2:0:0:
449,166,69447,6,0,P|401:170|344:136,1,110.000003356934,0|0,1:2|0:2,0:0:0:0:
59,27,69763,2,0,P|124:64|131:166,1,165.000005035401,8|0,0:2|0:2,0:0:0:0:
91,212,70078,5,0,1:2:0:0:
262,44,70236,1,0,1:2:0:0:
21,141,70394,5,8,0:2:0:0:
316,217,70552,1,0,0:2:0:0:
55,290,70710,6,0,B|88:293|88:293|113:328|177:354,1,110.000003356934,0|0,1:2|0:2,0:0:0:0:
442,236,71026,2,0,B|367:247|388:305|290:298,1,165.000005035401,8|0,0:2|0:2,0:0:0:0:
231,256,71342,5,0,1:2:0:0:
446,329,71500,1,0,1:2:0:0:
373,74,71657,1,8,0:2:0:0:
371,87,71735,1,0,0:2:0:0:
369,101,71814,1,0,0:2:0:0:
208,339,71973,5,8,1:2:0:0:
172,319,72051,1,8,1:2:0:0:
150,284,72130,1,0,1:2:0:0:
148,244,72209,1,0,1:2:0:0:
167,207,72289,5,0,1:2:0:0:
181,184,72367,1,0,1:2:0:0:
185,157,72446,1,0,1:2:0:0:
178,131,72525,1,0,1:2:0:0:
161,109,72605,5,0,1:2:0:0:
108,102,72683,1,0,1:2:0:0:
59,138,72762,1,0,1:2:0:0:
47,197,72841,1,0,1:2:0:0:
78,254,72920,1,8,1:2:0:0:
478,159,73236,6,0,L|462:68,1,75,4|0,1:2|0:2,0:0:0:0:
456,65,73552,2,0,P|426:64|398:79,1,50,2|2,0:2|0:0,0:0:0:0:
380,190,73868,2,0,P|395:164|396:132,1,50,2|2,0:2|0:0,0:0:0:0:
305,61,74184,2,0,P|319:87|346:104,1,50,2|2,0:2|0:0,0:0:0:0:
334,99,74500,1,2,0:2:0:0:
154,27,74815,6,0,L|139:92,1,50,2|2,0:2|0:0,0:0:0:0:
60,163,75131,2,0,L|48:114,1,50,2|2,0:2|0:0,0:0:0:0:
170,187,75447,2,0,L|158:235,1,50,2|2,0:2|0:0,0:0:0:0:
60,305,75763,6,0,B|89:309|89:309|115:345|176:351,1,112.500004291535,6|0,0:2|0:2,0:0:0:0:
224,300,76078,6,0,P|265:310|295:338,1,75.0000028610231,2|2,0:2|0:0,0:0:0:0:
401,366,76394,2,0,P|389:325|398:285,1,75.0000028610231,2|2,0:2|0:0,0:0:0:0:
380,181,76710,2,0,P|350:211|311:223,1,75.0000028610231,2|2,0:2|0:0,0:0:0:0:
200,125,77026,6,8,L|190:58,2,50.0000019073487,8|0|0,1:2|0:2|0:2,1:1:0:0:
145,190,77342,5,0,1:2:0:0:
96,194,77447,1,0,1:2:0:0:
58,163,77552,1,0,1:2:0:0:
41,147,77657,5,0,1:2:0:0:
53,195,77762,1,0,1:2:0:0:
63,244,77867,1,0,1:2:0:0:
43,274,77973,5,0,1:2:0:0:
73,280,78078,1,0,1:2:0:0:
110,293,78183,1,0,1:2:0:0:
148,324,78289,6,0,B|179:343|179:343|227:313|286:305,1,150,4|0,1:2|0:2,0:0:0:0:
313,307,78605,5,0,1:2:0:0:
145,190,78763,1,0,1:2:0:0:
250,363,78921,5,8,0:2:0:0:
319,132,79078,1,0,1:2:0:0:
323,122,79394,1,0,1:2:0:0:
218,70,79552,5,0,1:2:0:0:
418,187,79710,1,0,1:2:0:0:
120,280,79868,1,0,1:2:0:0:
314,28,80184,6,0,B|335:75|335:75|322:121,1,100,12|0,0:2|0:2,0:0:0:0:
184,336,80500,2,0,B|162:288|162:288|175:242,1,100,0|0,1:2|0:2,0:0:0:0:
438,275,80815,6,0,B|363:277|369:337|298:321,1,150,0|0,1:2|0:2,0:0:0:0:
279,312,81131,1,0,1:2:0:0:
279,312,81289,1,0,1:2:0:0:
130,127,81447,6,0,P|193:119|240:166,1,100,12|0,0:2|1:2,0:0:0:0:
237,159,81684,1,0,1:2:0:0:
237,159,81763,1,0,1:2:0:0:
67,280,81921,2,0,P|53:208|32:121,1,150,0|0,1:2|0:2,0:0:0:0:
19,114,82236,1,12,0:2:0:0:
255,15,82394,1,12,0:2:0:0:
253,27,82472,1,0,0:2:0:0:
251,39,82551,1,0,0:2:0:0:
159,253,82710,5,12,1:2:0:0:
201,229,82788,1,0,1:2:0:0:
251,226,82867,1,0,1:2:0:0:
297,245,82946,1,0,1:2:0:0:
329,283,83026,5,0,1:2:0:0:
369,311,83104,1,0,1:2:0:0:
424,314,83183,1,0,1:2:0:0:
468,282,83262,1,0,1:2:0:0:
485,224,83341,5,4,1:2:0:0:
374,35,83500,1,8,1:2:0:0:
283,162,83657,1,0,1:2:0:0:
295,164,83735,1,0,1:2:0:0:
307,166,83814,1,8,1:2:0:0:
467,83,83973,5,0,1:2:0:0:
274,22,84131,1,8,1:2:0:0:
424,189,84289,1,0,1:2:0:0:
401,199,84367,1,0,1:2:0:0:
385,218,84446,1,8,1:2:0:0:
230,360,84605,5,0,1:2:0:0:
212,342,84683,1,0,1:2:0:0:
199,318,84763,2,0,L|208:244,1,50,8|0,1:2|1:2,1:1:0:0:
148,146,84921,1,0,1:2:0:0:
113,131,84999,1,0,1:2:0:0:
77,135,85078,1,8,1:2:0:0:
48,159,85157,1,0,1:2:0:0:
35,193,85236,6,0,L|44:263,1,50,0|0,1:2|1:2,1:1:0:0:
117,347,85394,2,0,L|123:297,1,50,8|0,1:2|1:2,1:1:0:0:
228,176,85552,5,0,1:2:0:0:
41,273,85710,1,8,1:2:0:0:
281,361,85868,5,0,1:2:0:0:
293,358,85946,1,0,1:2:0:0:
305,356,86025,1,8,1:2:0:0:
424,281,86184,1,0,1:2:0:0:
228,176,86342,1,8,1:2:0:0:
330,282,86500,5,0,1:2:0:0:
429,116,86657,1,8,1:2:0:0:
264,17,86815,1,0,1:2:0:0:
239,23,86893,1,0,1:2:0:0:
218,36,86972,1,8,1:2:0:0:
88,127,87131,5,0,1:2:0:0:
312,184,87289,1,8,1:2:0:0:
149,267,87447,1,0,1:2:0:0:
139,274,87525,1,0,1:2:0:0:
131,284,87604,1,8,1:2:0:0:
230,358,87763,5,0,1:2:0:0:
266,114,87921,1,12,1:2:0:0:
264,101,87999,1,0,1:2:0:0:
262,89,88078,2,0,L|251:11,1,50,0|0,1:2|1:2,1:1:0:0:
94,77,88236,2,0,L|87:126,1,50,12|0,1:2|1:2,1:1:0:0:
15,231,88394,5,0,1:2:0:0:
50,220,88472,1,0,1:2:0:0:
87,227,88551,1,8,1:2:0:0:
116,250,88631,1,0,1:2:0:0:
131,284,88710,2,0,P|143:310|144:341,1,50,0|0,1:2|1:2,1:1:0:0:
266,367,88868,2,0,P|269:342|280:319,1,50,8|0,1:2|1:2,1:1:0:0:
339,167,89026,5,0,1:2:0:0:
415,357,89184,1,8,1:2:0:0:
224,224,89342,1,0,1:2:0:0:
225,211,89420,1,0,1:2:0:0:
226,199,89499,1,8,1:2:0:0:
315,83,89657,5,4,1:2:0:0:
475,192,89815,1,8,1:2:0:0:
244,310,89973,1,0,1:2:0:0:
219,308,90052,1,0,1:2:0:0:
195,301,90131,1,8,1:2:0:0:
99,143,90289,5,0,1:2:0:0:
66,145,90367,1,0,1:2:0:0:
39,164,90447,2,0,L|48:239,1,50,8|0,1:2|1:2,1:1:0:0:
183,70,90605,1,0,1:2:0:0:
215,51,90683,1,0,1:2:0:0:
252,47,90762,1,8,1:2:0:0:
287,58,90841,1,0,1:2:0:0:
315,83,90921,5,12,1:2:0:0:
312,107,90999,1,0,1:2:0:0:
310,132,91078,1,0,1:2:0:0:
308,157,91157,1,0,1:2:0:0:
291,178,91236,5,8,1:2:0:0:
293,202,91314,1,0,1:2:0:0:
295,227,91393,1,0,1:2:0:0:
297,252,91472,1,0,1:2:0:0:
315,270,91552,5,8,1:2:0:0:
315,307,91630,1,0,1:2:0:0:
294,338,91709,1,0,1:2:0:0:
259,351,91788,1,0,1:2:0:0:
223,342,91868,5,8,1:2:0:0:
182,314,91946,1,0,1:2:0:0:
132,305,92025,1,0,1:2:0:0:
86,326,92104,1,0,1:2:0:0:
54,365,92184,6,0,P|45:339|39:303,1,50,12|0,1:2|1:2,1:1:0:0:
13,170,92342,1,0,1:2:0:0:
15,145,92420,1,0,1:2:0:0:
27,122,92500,5,0,1:2:0:0:
63,90,92578,1,0,1:2:0:0:
112,83,92657,1,0,1:2:0:0:
156,105,92736,1,0,1:2:0:0:
180,148,92815,5,0,1:2:0:0:
232,182,92893,1,0,1:2:0:0:
297,179,92972,1,0,1:2:0:0:
351,143,93051,1,0,1:2:0:0:
376,77,93131,6,0,B|316:28|316:28|342:156,1,194.999991073609,8|0,1:2|0:2,0:0:0:0:
465,303,93447,5,6,1:2:0:0:
440,262,93525,1,0,1:2:0:0:
395,241,93604,1,0,1:2:0:0:
346,249,93683,1,0,1:2:0:0:
311,286,93763,5,10,1:2:0:0:
282,313,93841,1,0,1:2:0:0:
243,323,93920,1,0,1:2:0:0:
204,311,93999,1,0,1:2:0:0:
175,282,94078,5,2,1:2:0:0:
138,242,94156,1,0,1:2:0:0:
83,236,94235,1,0,1:2:0:0:
37,266,94314,1,0,1:2:0:0:
27,320,94394,6,0,P|44:343|88:347,1,50,10|0,1:2|1:2,1:1:0:0:
218,171,94552,1,2,1:2:0:0:
223,121,94630,1,0,1:2:0:0:
202,77,94709,1,0,1:2:0:0:
159,52,94788,1,0,1:2:0:0:
110,53,94867,1,0,1:2:0:0:
69,80,94946,1,0,1:2:0:0:
50,126,95026,5,10,1:2:0:0:
83,147,95104,1,0,1:2:0:0:
122,148,95183,1,0,1:2:0:0:
157,129,95262,1,0,1:2:0:0:
186,101,95342,5,2,1:2:0:0:
225,64,95420,1,0,1:2:0:0:
278,52,95499,1,0,1:2:0:0:
332,59,95578,1,0,1:2:0:0:
377,90,95657,6,0,L|387:154,1,50,10|0,1:2|1:2,1:1:0:0:
478,272,95815,1,2,1:2:0:0:
454,316,95893,1,0,1:2:0:0:
410,339,95972,1,0,1:2:0:0:
361,335,96051,1,0,1:2:0:0:
323,304,96130,1,0,1:2:0:0:
307,257,96209,1,0,1:2:0:0:
320,209,96289,5,10,1:2:0:0:
344,177,96367,1,0,1:2:0:0:
351,137,96446,1,0,1:2:0:0:
331,101,96525,1,0,1:2:0:0:
295,81,96605,5,2,1:2:0:0:
240,83,96683,1,0,1:2:0:0:
202,122,96762,1,0,1:2:0:0:
197,176,96841,1,0,1:2:0:0:
221,225,96921,6,0,P|235:258|240:304,1,50,10|0,1:2|1:2,1:1:0:0:
45,352,97078,2,0,P|51:327|62:305,5,50,2|0|0|0|0|0,1:2|1:2|1:2|1:2|1:2|1:2,1:1:0:0:
37,224,97552,5,10,1:2:0:0:
74,215,97630,1,0,1:2:0:0:
109,225,97709,1,0,1:2:0:0:
136,252,97788,1,0,1:2:0:0:
146,287,97868,6,0,P|156:310|156:335,1,50,2|0,1:2|1:2,1:1:0:0:
284,370,98026,2,0,P|284:345|294:322,1,50,2|0,1:2|1:2,1:1:0:0:
457,257,98184,5,10,1:2:0:0:
433,260,98262,1,0,1:2:0:0:
409,255,98341,1,0,1:2:0:0:
388,241,98420,1,0,1:2:0:0:
373,221,98500,5,6,1:2:0:0:
358,174,98578,1,0,1:2:0:0:
372,127,98657,1,0,1:2:0:0:
410,96,98736,1,0,1:2:0:0:
459,91,98815,5,10,1:2:0:0:
446,128,98893,1,0,1:2:0:0:
414,152,98972,1,0,1:2:0:0:
374,155,99051,1,0,1:2:0:0:
335,142,99131,5,2,1:2:0:0:
298,101,99209,1,0,1:2:0:0:
246,80,99288,1,0,1:2:0:0:
191,85,99367,1,0,1:2:0:0:
150,123,99447,6,0,P|134:163|130:190,1,50,10|0,1:2|1:2,1:1:0:0:
24,233,99605,1,2,1:2:0:0:
12,280,99683,1,0,1:2:0:0:
28,327,99762,1,0,1:2:0:0:
67,357,99841,1,0,1:2:0:0:
116,362,99920,1,0,1:2:0:0:
160,338,99999,1,0,1:2:0:0:
184,295,100078,5,10,1:2:0:0:
222,247,100156,1,0,1:2:0:0:
281,231,100235,1,0,1:2:0:0:
338,254,100314,1,0,1:2:0:0:
371,306,100394,6,0,P|364:338|347:363,1,50,2|0,1:2|1:2,1:1:0:0:
222,247,100552,2,0,P|253:237|283:239,1,50,2|0,1:2|1:2,1:1:0:0:
116,362,100710,2,0,P|92:339|79:312,1,50,10|0,1:2|1:2,1:1:0:0:
32,185,100868,1,2,1:2:0:0:
35,160,100946,1,0,1:2:0:0:
38,133,101026,5,0,1:2:0:0:
57,88,101104,1,0,1:2:0:0:
98,62,101183,1,0,1:2:0:0:
147,64,101262,1,0,1:2:0:0:
186,93,101342,5,10,1:2:0:0:
238,126,101420,1,0,1:2:0:0:
300,120,101499,1,0,1:2:0:0:
345,79,101578,1,0,1:2:0:0:
355,18,101657,5,2,1:2:0:0:
292,32,101735,1,0,1:2:0:0:
262,89,101814,1,0,1:2:0:0:
281,151,101893,1,0,1:2:0:0:
332,191,101973,6,0,P|364:201|405:202,1,50,10|0,1:2|1:2,1:1:0:0:
512,332,102131,2,0,P|487:335|463:343,5,50,2|0|0|0|0|0,1:2|1:2|1:2|1:2|1:2|1:2,1:1:0:0:
393,277,102605,5,10,1:2:0:0:
372,291,102683,1,0,1:2:0:0:
354,309,102762,1,0,1:2:0:0:
342,331,102841,1,0,1:2:0:0:
335,355,102921,6,0,P|326:329|303:290,1,50,6|0,1:2|1:2,1:1:0:0:
211,199,103078,2,8,P|202:225|179:264,1,50,10|8,1:2|1:2,1:1:0:0:
48,310,103236,5,8,1:2:0:0:
7,264,103314,1,0,1:2:0:0:
3,197,103393,1,0,1:2:0:0:
47,142,103472,1,0,1:2:0:0:
121,135,103552,5,6,1:2:0:0:
160,163,103630,1,0,1:2:0:0:
164,211,103709,1,0,1:2:0:0:
130,246,103788,1,0,1:2:0:0:
82,243,103868,5,10,1:2:0:0:
107,212,103946,1,0,1:2:0:0:
143,195,104025,1,0,1:2:0:0:
182,199,104104,1,0,1:2:0:0:
219,214,104184,5,2,1:2:0:0:
261,247,104262,1,0,1:2:0:0:
313,263,104341,1,0,1:2:0:0:
366,248,104420,1,0,1:2:0:0:
410,214,104500,6,0,P|421:183|418:139,1,50,10|0,1:2|1:2,1:1:0:0:
376,22,104657,1,2,1:2:0:0:
370,71,104735,1,0,1:2:0:0:
343,112,104814,1,0,1:2:0:0:
299,135,104893,1,0,1:2:0:0:
250,135,104972,1,0,1:2:0:0:
206,112,105051,1,0,1:2:0:0:
178,71,105131,5,10,1:2:0:0:
139,64,105209,1,0,1:2:0:0:
103,81,105288,1,0,1:2:0:0:
86,117,105367,1,0,1:2:0:0:
92,156,105447,5,2,1:2:0:0:
129,195,105525,1,0,1:2:0:0:
141,248,105604,1,0,1:2:0:0:
118,298,105683,1,0,1:2:0:0:
72,330,105763,6,0,P|65:303|74:268,1,50,10|0,1:2|1:2,1:1:0:0:
238,197,105921,1,2,1:2:0:0:
277,167,105999,1,0,1:2:0:0:
326,159,106078,1,0,1:2:0:0:
373,176,106157,1,0,1:2:0:0:
407,212,106236,1,0,1:2:0:0:
419,260,106315,1,0,1:2:0:0:
408,308,106394,5,10,1:2:0:0:
368,309,106472,1,0,1:2:0:0:
336,284,106551,1,0,1:2:0:0:
326,245,106630,1,0,1:2:0:0:
344,208,106710,5,2,1:2:0:0:
383,170,106788,1,0,1:2:0:0:
394,116,106867,1,0,1:2:0:0:
374,64,106946,1,0,1:2:0:0:
330,29,107026,6,0,P|298:24|266:28,1,50,10|0,1:2|1:2,1:1:0:0:
235,206,107184,2,0,P|256:180|268:151,5,50,2|0|0|0|0|0,1:2|1:2|1:2|1:2|1:2|1:2,1:1:0:0:
202,68,107657,5,10,1:2:0:0:
173,44,107735,1,0,1:2:0:0:
136,36,107814,1,0,1:2:0:0:
100,44,107893,1,0,1:2:0:0:
71,68,107973,6,0,P|57:93|55:142,1,50,2|0,1:2|1:2,1:1:0:0:
158,228,108131,2,0,P|152:203|139:182,1,50,2|0,1:2|1:2,1:1:0:0:
25,306,108289,5,10,1:2:0:0:
35,329,108367,1,0,1:2:0:0:
52,347,108446,1,0,1:2:0:0:
75,358,108525,1,0,1:2:0:0:
100,358,108605,5,6,1:2:0:0:
138,327,108683,1,0,1:2:0:0:
185,310,108762,1,0,1:2:0:0:
233,321,108841,1,0,1:2:0:0:
275,348,108921,5,10,1:2:0:0:
311,362,108999,1,0,1:2:0:0:
350,356,109078,1,0,1:2:0:0:
383,334,109157,1,0,1:2:0:0:
408,303,109236,5,2,1:2:0:0:
381,255,109314,1,0,1:2:0:0:
391,200,109393,1,0,1:2:0:0:
436,168,109472,1,0,1:2:0:0:
490,179,109552,6,0,P|498:203|482:235,1,50,10|0,1:2|1:2,1:1:0:0:
296,249,109710,1,2,1:2:0:0:
291,199,109788,1,0,1:2:0:0:
267,156,109867,1,0,1:2:0:0:
228,126,109946,1,0,1:2:0:0:
179,115,110025,1,0,1:2:0:0:
131,126,110104,1,0,1:2:0:0:
90,154,110184,5,10,1:2:0:0:
144,184,110262,1,0,1:2:0:0:
202,167,110341,1,0,1:2:0:0:
231,114,110420,1,0,1:2:0:0:
213,54,110500,2,0,P|198:26|179:8,1,50,2|0,1:2|1:2,1:1:0:0:
90,154,110657,2,0,P|121:155|146:147,1,50,2|0,1:2|1:2,1:1:0:0:
64,6,110815,2,0,P|47:32|41:58,1,50,10|0,1:2|1:2,1:1:0:0:
29,229,110973,5,6,1:2:0:0:
27,274,111051,1,0,1:2:0:0:
44,316,111130,1,0,1:2:0:0:
79,345,111209,1,0,1:2:0:0:
123,356,111288,1,0,1:2:0:0:
167,347,111367,1,0,1:2:0:0:
201,318,111447,5,14,1:2:0:0:
249,291,111525,1,0,1:2:0:0:
303,291,111604,1,0,1:2:0:0:
351,318,111683,1,0,1:2:0:0:
378,364,111763,5,6,1:2:0:0:
324,338,111841,1,0,1:2:0:0:
303,280,111921,1,0,1:2:0:0:
333,228,111999,1,0,1:2:0:0:
388,202,112078,5,14,1:2:0:0:
451,180,112156,1,0,1:2:0:0:
495,129,112235,1,2,1:2:0:0:
487,63,112314,1,0,1:2:0:0:
435,22,112394,6,0,P|411:12|379:9,1,50,8|0,1:2|1:2,1:1:0:0:
182,33,112552,1,0,1:2:0:0:
183,45,112630,1,0,1:2:0:0:
184,56,112710,5,2,1:2:0:0:
157,82,112788,1,0,1:2:0:0:
121,90,112867,1,0,1:2:0:0:
86,78,112946,1,0,1:2:0:0:
63,49,113026,5,2,1:2:0:0:
110,64,113104,1,0,1:2:0:0:
142,109,113183,1,2,1:2:0:0:
139,163,113262,1,0,1:2:0:0:
101,210,113342,6,8,B|89:229|89:229|85:256,1,50,8|8,1:2|1:2,1:1:0:0:
6,299,113500,2,8,B|18:318|18:318|22:346,1,50,8|8,1:2|1:2,1:1:0:0:
191,266,113657,6,0,B|227:278|227:278|267:348|367:358,1,179.999994506836,6|0,1:2|0:2,0:0:0:0:
425,328,113973,6,0,L|440:202,1,100,10|2,0:2|0:2,0:0:0:0:
249,63,114289,1,2,1:2:0:0:
350,275,114447,1,2,1:2:0:0:
451,88,114605,1,10,0:2:0:0:
205,202,114763,1,2,0:2:0:0:
425,328,114921,6,0,P|346:314|265:319,1,150,0|0,1:2|0:2,0:0:0:0:
196,358,115236,2,0,B|160:326|160:326|101:313,1,100,10|2,0:2|0:2,0:0:0:0:
82,329,115473,1,0,1:2:0:0:
82,329,115552,1,2,1:2:0:0:
289,218,115710,1,2,1:2:0:0:
14,137,115868,1,10,0:2:0:0:
154,283,116026,1,2,0:2:0:0:
233,22,116184,6,0,B|207:50|207:50|218:177,1,150,0|0,1:2|0:2,0:0:0:0:
289,218,116500,2,0,P|353:188|344:136,1,100,10|2,0:2|0:2,0:0:0:0:
335,97,116736,1,0,1:2:0:0:
335,97,116815,1,2,1:2:0:0:
92,128,116973,1,2,1:2:0:0:
289,218,117131,1,10,0:2:0:0:
31,266,117289,2,0,B|120:268|72:352|177:348,1,150,2|0,1:2|0:2,0:0:0:0:
172,340,117605,1,0,1:2:0:0:
381,223,117763,6,0,P|438:247|466:293,1,100,10|2,0:2|0:2,0:0:0:0:
464,307,118000,1,0,1:2:0:0:
464,307,118078,1,2,1:2:0:0:
259,358,118236,1,2,1:2:0:0:
422,106,118394,5,14,0:2:0:0:
380,315,118552,1,2,0:2:0:0:
262,46,118710,6,0,B|391:68|391:68|427:112,1,179.999994506836,6|0,1:2|0:2,0:0:0:0:
458,174,119026,1,10,0:2:0:0:
262,46,119184,1,2,0:2:0:0:
422,106,119342,5,2,1:2:0:0:
180,192,119500,1,2,1:2:0:0:
362,14,119657,1,10,0:2:0:0:
437,257,119815,1,2,0:2:0:0:
155,113,119973,6,0,P|219:114|265:169,1,100,0|0,1:2|0:2,0:0:0:0:
84,358,120289,2,0,P|74:301|59:232,1,100,10|2,0:2|0:2,0:0:0:0:
50,239,120526,1,0,1:2:0:0:
50,239,120605,1,2,1:2:0:0:
246,134,120763,1,2,1:2:0:0:
20,83,120921,1,10,0:2:0:0:
190,293,121078,1,2,0:2:0:0:
201,14,121236,6,0,P|179:71|168:139,1,100,0|0,1:2|0:2,0:0:0:0:
329,341,121552,2,0,P|317:292|298:246,1,100,10|2,0:2|0:2,0:0:0:0:
286,232,121789,1,0,1:2:0:0:
286,232,121868,5,2,1:2:0:0:
109,310,122026,1,2,1:2:0:0:
364,189,122184,5,10,0:2:0:0:
86,134,122342,1,2,0:2:0:0:
430,24,122500,6,0,L|417:105,1,50,4|0,1:2|1:2,1:1:0:0:
364,189,122657,1,8,1:2:0:0:
347,155,122735,1,8,1:2:0:0:
316,134,122814,1,8,1:2:0:0:
279,130,122893,1,8,1:2:0:0:
245,144,122973,2,0,P|236:176|233:218,1,50,4|0,1:2|1:2,1:1:0:0:
53,303,123131,1,8,1:2:0:0:
69,269,123209,1,8,1:2:0:0:
100,248,123288,1,8,1:2:0:0:
137,244,123367,1,8,1:2:0:0:
172,257,123447,6,0,P|181:289|184:331,1,50,4|0,1:2|1:2,1:1:0:0:
410,368,123605,1,0,1:2:0:0:
422,365,123683,1,0,1:2:0:0:
434,362,123763,6,0,B|461:321|461:321|441:163,1,179.999994506836,6|0,1:2|0:2,0:0:0:0:
399,129,124078,1,10,0:2:0:0:
317,341,124236,1,2,0:2:0:0:
242,73,124394,5,2,1:2:0:0:
373,266,124552,1,2,1:2:0:0:
486,17,124710,1,10,0:2:0:0:
486,17,124868,1,2,0:2:0:0:
226,153,125026,6,0,P|175:116|166:56,1,100,0|0,1:2|0:2,0:0:0:0:
32,198,125342,2,0,L|15:333,1,100,10|2,0:2|0:2,0:0:0:0:
26,321,125578,1,0,1:2:0:0:
26,321,125657,1,2,1:2:0:0:
223,234,125815,1,2,1:2:0:0:
29,110,125973,1,10,0:2:0:0:
161,333,126131,1,2,0:2:0:0:
314,105,126289,6,0,P|348:205|358:283,1,150,0|0,1:2|0:2,0:0:0:0:
415,358,126605,2,0,P|441:284|470:262,1,100,10|0,0:2|0:2,0:0:0:0:
479,273,126842,1,0,1:2:0:0:
479,273,126921,1,2,1:2:0:0:
266,205,127078,1,2,1:2:0:0:
463,116,127236,1,10,0:2:0:0:
266,288,127394,2,0,P|200:260|190:179,1,150,2|0,1:2|0:2,0:0:0:0:
229,129,127710,1,0,1:2:0:0:
148,319,127868,6,0,P|113:268|110:202,1,100,10|2,0:2|0:2,0:0:0:0:
110,205,128105,1,0,1:2:0:0:
110,205,128184,1,2,1:2:0:0:
266,288,128342,1,2,1:2:0:0:
54,358,128500,5,14,0:2:0:0:
141,118,128657,1,2,0:2:0:0:
341,319,128815,6,0,B|462:295|462:295|423:351,1,179.999994506836,6|0,1:2|0:2,0:0:0:0:
418,363,129131,5,10,0:2:0:0:
260,199,129289,1,2,0:2:0:0:
462,115,129447,5,2,1:2:0:0:
341,319,129605,1,2,1:2:0:0:
221,99,129763,1,10,0:2:0:0:
456,214,129921,1,2,0:2:0:0:
217,329,130078,6,0,B|129:340|160:269|48:289,1,150,0|0,1:2|0:2,0:0:0:0:
16,220,130394,2,0,P|69:189|75:133,1,100,10|2,0:2|0:2,0:0:0:0:
73,133,130631,1,0,1:2:0:0:
73,133,130710,5,2,1:2:0:0:
42,351,130868,1,2,0:2:0:0:
161,67,131026,6,0,L|196:268,1,179.999994506836,14|0,0:2|0:2,0:0:0:0:
217,329,131342,6,0,B|245:321|259:293|259:293|360:268,1,119.999996337891,4|0,1:2|0:2,0:0:0:0:
488,139,131657,2,0,B|460:131|446:103|446:103|345:78,1,119.999996337891,14|2,0:2|0:2,0:0:0:0:
316,67,131894,1,0,1:2:0:0:
316,67,131973,5,6,1:2:0:0:
409,323,132131,1,2,1:2:0:0:
437,22,132289,5,14,0:2:0:0:
320,277,132447,1,2,0:2:0:0:
171,22,132605,5,8,1:2:0:0:
123,16,132683,1,8,1:2:0:0:
78,37,132762,1,0,1:2:0:0:
52,79,132841,1,0,1:2:0:0:
53,128,132921,5,0,1:2:0:0:
100,115,132999,1,0,1:2:0:0:
149,121,133078,1,0,1:2:0:0:
192,146,133157,1,0,1:2:0:0:
222,186,133236,5,0,1:2:0:0:
185,188,133314,1,0,1:2:0:0:
162,199,133393,1,0,1:2:0:0:
148,213,133472,1,0,1:2:0:0:
145,227,133551,1,8,1:2:0:0:
34,362,133868,6,0,L|48:299,1,50,6|0,0:2|0:2,0:0:0:0:
145,227,134184,2,0,L|155:275,1,50,2|0,0:2|0:2,0:0:0:0:
235,352,134500,2,0,P|278:330|322:330,1,75,2|0,0:2|0:2,0:0:0:0:
380,357,134815,5,2,0:2:0:0:
380,357,134973,2,0,P|390:303|406:247,1,100,2|0,0:2|0:0,0:0:0:0:
462,143,135447,2,0,P|470:168|478:203,1,50,2|0,0:2|0:0,0:0:0:0:
354,130,135763,2,0,P|359:105|368:82,1,50,2|0,0:2|0:0,0:0:0:0:
457,27,136078,1,2,0:2:0:0:
368,82,136236,2,0,P|325:81|298:58,1,75,2|0,0:2|0:0,0:0:0:0:
223,18,136552,1,2,0:2:0:0:
223,18,136710,6,0,P|222:76|147:108,1,140,2|0,0:2|0:2,0:0:0:0:
88,50,137342,5,2,0:2:0:0:
88,50,137500,2,0,B|84:73|66:92|66:92|81:168|81:168|51:192|54:227,1,180,2|0,0:2|0:0,0:0:0:0:
46,237,138289,6,0,P|76:242|109:263,2,50,2|2|2,0:2|0:2|0:2,0:0:0:0:
191,364,138921,6,0,P|213:341|219:298,1,59.9999981689454,2|0,0:2|0:2,0:0:0:0:
164,183,139236,2,0,P|172:213|207:240,1,59.9999981689454,2|0,0:2|0:2,0:0:0:0:
330,247,139552,2,0,P|299:239|258:255,1,59.9999981689454,2|0,0:2|0:2,0:0:0:0:
191,364,139868,1,2,0:2:0:0:
340,331,140026,2,0,B|379:298|379:298|367:212,1,119.999996337891,2|0,0:2|0:2,0:0:0:0:
311,103,140500,6,0,L|298:182,1,59.9999981689454,2|0,0:2|0:2,0:0:0:0:
441,111,140815,2,0,L|431:51,1,59.9999981689454,2|0,0:2|0:2,0:0:0:0:
324,7,141131,1,2,0:2:0:0:
222,111,141289,6,0,P|157:102|144:44,1,112.500004291535,2|0,0:2|0:2,0:0:0:0:
142,40,141605,5,8,1:2:0:0:
324,7,141763,1,8,1:2:0:0:
255,185,141921,1,8,1:2:0:0:
142,40,142078,5,8,1:2:0:0:
362,133,142236,1,8,1:2:0:0:
172,291,142394,1,8,1:2:0:0:
169,281,142473,1,8,1:2:0:0:
166,271,142552,6,8,B|47:298|11:155|81:93|226:100|265:163|218:237|199:243|149:315|285:409|399:373|443:292|348:169|274:260,1,650,12|8,1:2|0:2,0:0:0:0:
292,252,143657,5,8,1:2:0:0:
342,252,143735,1,8,1:2:0:0:
382,223,143814,1,8,1:2:0:0:
397,177,143893,1,8,1:2:0:0:
383,129,143973,6,0,P|362:53|353:-8,1,100,6|0,1:2|0:2,0:0:0:0:
123,53,144289,2,0,P|112:101|98:149,1,100,10|0,0:2|0:2,0:0:0:0:
85,177,144526,1,0,1:2:0:0:
85,177,144605,1,2,1:2:0:0:
250,356,144763,1,0,1:2:0:0:
327,113,144921,1,10,0:2:0:0:
105,271,145078,2,0,B|2:248|2:248|31:296,1,150,2|0,1:2|0:2,0:0:0:0:
35,311,145394,1,0,1:2:0:0:
250,356,145552,6,0,B|325:372|309:299|405:321,1,150,10|0,0:2|0:2,0:0:0:0:
458,350,145868,1,2,1:2:0:0:
259,270,146026,1,0,1:2:0:0:
500,195,146184,1,10,0:2:0:0:
365,41,146342,2,0,P|346:111|337:172,1,100,2|0,1:2|0:2,0:0:0:0:
389,318,146657,1,2,1:2:0:0:
147,194,146815,6,0,P|217:175|274:152,1,100,10|0,0:2|0:2,0:0:0:0:
262,152,147052,1,0,1:2:0:0:
262,152,147131,1,0,1:2:0:0:
59,66,147289,1,0,1:2:0:0:
264,13,147447,1,8,0:2:0:0:
57,179,147605,2,0,P|81:252|104:344,1,150,0|0,1:2|0:2,0:0:0:0:
95,346,147921,1,0,1:2:0:0:
310,226,148078,2,0,P|321:180|343:131,1,100,8|0,0:2|0:2,0:0:0:0:
407,80,148315,1,0,1:2:0:0:
407,80,148394,6,0,P|423:117|426:144,1,50,2|0,1:2|1:2,0:0:0:0:
246,156,148552,2,0,P|234:178|229:202,1,50,2|0,1:2|0:2,0:0:0:0:
363,281,148710,6,0,L|339:114,1,150,10|0,0:2|0:2,0:0:0:0:
319,26,149026,6,0,B|290:47|290:47|142:69,1,179.999994506836,6|0,1:2|0:2,0:0:0:0:
68,27,149342,6,0,L|51:143,1,100,10|0,0:2|0:2,0:0:0:0:
234,333,149657,1,2,1:2:0:0:
141,138,149815,1,0,1:2:0:0:
9,292,149973,1,10,0:2:0:0:
317,326,150131,6,0,P|302:288|196:260,1,119.999996337891,6|0,1:2|0:2,0:0:0:0:
9,292,150447,1,0,1:2:0:0:
69,113,150605,2,0,B|114:83|114:83|227:66,1,119.999996337891,10|0,0:2|0:2,0:0:0:0:
197,71,150842,1,0,1:0:0:0:
214,69,150921,5,2,1:2:0:0:
32,16,151078,1,0,1:2:0:0:
271,157,151236,1,10,0:2:0:0:
45,225,151394,6,0,B|135:228|108:302|209:295,1,179.999994506836,6|0,1:2|0:2,0:0:0:0:
265,257,151710,1,0,1:2:0:0:
424,354,151868,2,0,P|438:250|449:203,1,119.999996337891,8|0,0:2|0:2,0:0:0:0:
463,219,152105,1,0,1:2:0:0:
463,219,152184,5,0,1:2:0:0:
238,153,152342,1,0,1:2:0:0:
478,25,152500,1,8,0:2:0:0:
475,39,152578,1,0,0:2:0:0:
473,54,152657,1,0,0:2:0:0:
290,216,152815,5,12,1:2:0:0:
246,237,152893,1,0,1:2:0:0:
197,229,152972,1,0,1:2:0:0:
163,193,153051,1,0,1:2:0:0:
157,144,153131,5,0,1:2:0:0:
132,113,153209,1,0,1:2:0:0:
94,98,153288,1,0,1:2:0:0:
54,102,153367,1,0,1:2:0:0:
25,131,153447,5,0,1:2:0:0:
59,173,153525,1,0,1:2:0:0:
114,173,153604,1,0,1:2:0:0:
161,136,153683,1,0,1:2:0:0:
166,75,153763,6,0,B|50:46|50:46|94:116,1,179.999994506836,12|0,1:2|0:2,0:0:0:0:
246,237,154078,6,0,B|216:217|184:217|184:217|303:212|272:133|422:152,1,300,4|0,1:2|1:2,1:1:0:0:
479,187,154631,1,0,1:2:0:0:
479,187,154710,6,0,B|500:165|500:165|476:69,1,119.999996337891,12|0,0:2|0:2,0:0:0:0:
401,41,154947,2,0,B|380:63|380:63|404:159,1,119.999996337891,4|0,1:2|0:2,0:0:0:0:
411,233,155184,2,0,P|373:244|347:278,1,59.9999981689454,12|0,0:2|0:2,0:0:0:0:
177,351,155342,6,0,B|102:334|102:334|89:316|89:316|-3:293,2,179.999994506836,4|8|4,1:2|0:2|1:2,0:0:0:0:
287,272,155973,5,8,1:2:0:0:
294,244,156051,1,0,1:2:0:0:
286,215,156131,2,0,P|256:193|224:187,1,59.9999981689454,0|0,1:2|0:2,0:0:0:0:
67,165,156289,1,12,1:2:0:0:
59,136,156367,1,0,1:2:0:0:
67,107,156447,2,0,P|97:84|129:78,1,59.9999981689454,0|0,1:2|0:2,0:0:0:0:
278,13,156605,6,0,P|262:160|237:312,1,300,4|0,1:2|1:2,0:0:0:0:
177,351,157157,1,0,1:2:0:0:
177,351,157236,6,0,P|146:297|176:235,1,119.999996337891,12|0,0:2|0:2,0:0:0:0:
322,246,157473,2,0,P|290:299|222:304,1,119.999996337891,4|0,1:2|0:2,0:0:0:0:
193,144,157710,2,0,P|224:158|240:221,1,59.9999981689454,12|0,0:2|0:2,0:0:0:0:
67,276,157868,6,0,P|58:200|36:81,1,179.999994506836,0|0,1:2|0:0,0:0:0:0:
87,31,158184,1,8,0:2:0:0:
364,126,158342,1,0,1:2:0:0:
177,351,158500,5,0,1:2:0:0:
117,108,158657,1,0,1:2:0:0:
351,253,158815,1,12,0:2:0:0:
337,249,158893,1,0,0:2:0:0:
322,246,158973,1,0,0:2:0:0:
162,27,159131,6,0,P|191:69|261:54,1,119.999996337891,4|0,1:2|0:2,0:0:0:0:
325,30,159368,1,0,0:0:0:0:
325,30,159447,2,0,P|372:27|412:51,1,59.9999981689454,8|0,0:2|0:2,0:0:0:0:
489,138,159605,2,0,P|442:135|402:159,1,59.9999981689454,0|0,0:2|0:2,0:0:0:0:
238,191,159763,5,0,1:2:0:0:
477,40,159921,1,0,1:2:0:0:
248,64,160078,5,8,0:2:0:0:
499,224,160236,1,0,0:2:0:0:
280,330,160394,6,0,P|230:315|134:305,1,119.999996337891,0|0,1:2|0:2,0:0:0:0:
5,200,160710,2,0,P|73:163|81:65,1,179.999994506836,8|0,0:2|0:2,0:0:0:0:
63,45,161026,1,0,1:2:0:0:
178,266,161184,1,0,1:2:0:0:
279,27,161342,1,8,0:2:0:0:
264,24,161420,1,0,0:2:0:0:
249,22,161499,1,0,0:2:0:0:
371,190,161657,6,0,B|497:169|497:169|454:242,1,179.999994506836,0|0,1:2|0:2,0:0:0:0:
342,270,161973,2,0,P|293:216|301:155,1,119.999996337891,12|0,0:2|0:2,0:0:0:0:
471,47,162289,1,0,1:2:0:0:
421,304,162447,1,0,1:2:0:0:
211,120,162605,1,12,0:2:0:0:
225,116,162683,1,0,0:2:0:0:
240,112,162762,1,0,0:2:0:0:
311,352,162921,5,8,1:2:0:0:
276,366,162999,1,8,1:2:0:0:
240,360,163078,1,0,1:2:0:0:
212,335,163157,1,0,1:2:0:0:
200,300,163236,5,0,1:2:0:0:
178,279,163314,1,0,1:2:0:0:
150,268,163393,1,0,1:2:0:0:
120,270,163472,1,0,1:2:0:0:
96,289,163552,5,0,1:2:0:0:
131,329,163630,1,0,1:2:0:0:
186,330,163709,1,0,1:2:0:0:
229,288,163788,1,0,1:2:0:0:
232,228,163867,1,8,1:2:0:0:
40,26,164184,6,0,L|119:45,1,75,4|0,1:2|0:2,0:0:0:0:
137,43,164500,2,0,P|151:63|157:96,1,50,2|2,0:2|0:0,0:0:0:0:
55,160,164815,2,0,P|64:137|90:116,1,50,2|2,0:2|0:0,0:0:0:0:
199,175,165131,2,0,P|174:177|143:165,1,50,2|2,0:2|0:0,0:0:0:0:
150,170,165447,1,2,0:2:0:0:
286,26,165763,6,0,L|352:38,1,50,2|2,0:2|0:0,0:0:0:0:
419,105,166078,2,0,L|353:117,1,50,2|2,0:2|0:0,0:0:0:0:
255,167,166394,2,0,L|321:179,1,50,2|2,0:2|0:0,0:0:0:0:
451,225,166710,6,0,B|421:238|421:238|412:277|385:310,1,112.500004291535,6|0,0:2|0:2,0:0:0:0:
327,360,167026,6,0,P|312:326|271:298,1,75.0000028610231,2|2,0:2|0:2,0:0:0:0:
127,327,167342,2,0,P|163:331|208:309,1,75.0000028610231,2|2,0:2|0:2,0:0:0:0:
255,167,167657,2,0,P|233:196|229:246,1,75.0000028610231,2|2,0:2|0:2,0:0:0:0:
364,35,167973,6,8,L|307:19,2,50.0000019073487,8|8|8,1:2|1:2|1:2,1:1:0:0:
436,75,168289,5,0,1:2:0:0:
459,118,168394,1,0,1:2:0:0:
453,167,168499,1,0,1:2:0:0:
439,190,168605,5,0,1:2:0:0:
412,169,168710,1,0,1:2:0:0:
381,158,168815,1,0,1:2:0:0:
359,129,168921,5,0,1:2:0:0:
312,148,169026,1,0,1:2:0:0:
264,159,169131,1,0,1:2:0:0:
218,164,169236,6,0,B|178:159|178:159|137:125|52:108,1,150,4|0,1:2|0:2,0:0:0:0:
24,64,169552,5,0,1:2:0:0:
94,271,169710,1,0,1:2:0:0:
222,37,169868,5,8,0:2:0:0:
189,306,170026,1,0,1:2:0:0:
186,318,170342,1,0,1:2:0:0:
94,271,170500,5,0,1:2:0:0:
339,148,170657,1,0,1:2:0:0:
67,64,170815,1,0,1:2:0:0:
264,361,171131,6,0,B|284:313|284:313|270:266,1,100,12|0,0:2|0:2,0:0:0:0:
222,37,171447,2,0,B|202:85|202:85|215:131,1,100,0|0,1:2|0:2,0:0:0:0:
475,229,171763,6,0,B|387:247|411:181|306:207,1,150,0|0,1:2|0:2,0:0:0:0:
306,216,172078,1,0,1:2:0:0:
306,216,172236,1,0,1:2:0:0:
120,335,172394,6,0,P|108:273|86:216,1,100,12|0,0:2|0:2,0:0:0:0:
77,221,172631,1,0,1:2:0:0:
77,221,172710,1,0,1:2:0:0:
222,37,172868,2,0,L|201:215,1,150,0|0,1:2|0:2,0:0:0:0:
197,212,173184,1,12,0:2:0:0:
319,27,173342,5,12,1:2:0:0:
343,30,173420,1,0,1:2:0:0:
368,34,173499,1,0,1:2:0:0:
393,38,173578,1,0,1:2:0:0:
417,42,173657,5,12,1:2:0:0:
441,84,173735,1,0,1:2:0:0:
433,132,173814,1,0,1:2:0:0:
394,163,173893,1,0,1:2:0:0:
346,161,173973,5,0,1:2:0:0:
291,188,174051,1,0,1:2:0:0:
267,245,174130,1,0,1:2:0:0:
287,303,174209,1,0,1:2:0:0:
339,334,174288,5,4,1:2:0:0:
425,209,174447,1,8,1:2:0:0:
412,187,174525,1,0,1:2:0:0:
394,170,174604,1,0,1:2:0:0:
371,161,174683,1,0,1:2:0:0:
346,161,174762,1,8,1:2:0:0:
191,274,174921,5,0,1:2:0:0:
118,121,175078,1,8,1:2:0:0:
14,291,175236,1,0,1:2:0:0:
29,310,175314,1,0,1:2:0:0:
51,321,175393,1,8,1:2:0:0:
225,163,175552,5,0,1:2:0:0:
226,150,175630,1,0,1:2:0:0:
228,138,175709,1,8,1:2:0:0:
29,34,175868,1,0,1:2:0:0:
31,46,175947,1,0,1:2:0:0:
32,59,176025,1,8,1:2:0:0:
112,213,176184,5,0,1:2:0:0:
211,38,176342,1,8,1:2:0:0:
279,262,176500,5,0,1:2:0:0:
131,87,176657,1,8,1:2:0:0:
387,22,176815,5,0,1:2:0:0:
411,18,176893,1,0,1:2:0:0:
436,21,176972,1,8,1:2:0:0:
504,118,177131,1,0,1:2:0:0:
351,194,177289,1,8,1:2:0:0:
486,302,177447,5,0,1:2:0:0:
387,118,177605,1,8,1:2:0:0:
310,338,177763,1,0,1:2:0:0:
297,339,177841,1,0,1:2:0:0:
285,337,177920,1,8,1:2:0:0:
452,197,178078,5,0,1:2:0:0:
285,337,178236,1,8,1:2:0:0:
226,101,178394,1,0,1:2:0:0:
251,101,178472,1,0,1:2:0:0:
275,109,178551,1,8,1:2:0:0:
80,328,178710,5,0,1:2:0:0:
78,315,178788,1,0,1:2:0:0:
76,303,178868,2,0,L|85:224,1,50,12|0,1:2|1:2,1:1:0:0:
168,160,179026,1,0,1:2:0:0:
159,124,179104,1,0,1:2:0:0:
133,97,179183,1,12,1:2:0:0:
97,88,179262,1,0,1:2:0:0:
62,99,179342,5,4,1:2:0:0:
101,128,179420,1,0,1:2:0:0:
150,129,179499,1,8,1:2:0:0:
190,101,179578,1,0,1:2:0:0:
206,54,179657,6,0,L|197:-8,1,50,4|0,1:2|1:2,1:1:0:0:
363,44,179815,2,0,L|355:93,1,50,0|0,1:2|1:2,1:1:0:0:
217,284,179973,5,4,1:2:0:0:
275,109,180131,1,0,1:2:0:0:
439,259,180289,1,4,1:2:0:0:
426,258,180367,1,0,1:2:0:0:
414,257,180446,1,0,1:2:0:0:
275,109,180605,5,4,1:2:0:0:
494,65,180763,1,0,1:2:0:0:
388,334,180921,1,4,1:2:0:0:
366,322,180999,1,0,1:2:0:0:
349,303,181078,1,4,1:2:0:0:
412,92,181236,5,0,1:2:0:0:
412,117,181314,1,0,1:2:0:0:
404,141,181394,2,0,P|368:143|328:127,1,50,4|0,1:2|1:2,1:1:0:0:
215,36,181552,1,0,1:2:0:0:
178,28,181630,1,0,1:2:0:0:
142,36,181709,1,4,1:2:0:0:
112,59,181788,1,0,1:2:0:0:
93,91,181868,5,12,1:2:0:0:
96,116,181946,1,0,1:2:0:0:
98,141,182025,1,0,1:2:0:0:
100,166,182104,1,0,1:2:0:0:
125,188,182184,5,8,1:2:0:0:
123,213,182262,1,0,1:2:0:0:
120,237,182341,1,0,1:2:0:0:
118,262,182420,1,0,1:2:0:0:
93,287,182500,5,8,1:2:0:0:
101,323,182578,1,0,1:2:0:0:
128,349,182657,1,0,1:2:0:0:
164,355,182736,1,0,1:2:0:0:
198,340,182815,5,8,1:2:0:0:
230,302,182893,1,0,1:2:0:0:
278,290,182972,1,0,1:2:0:0:
327,299,183051,1,0,1:2:0:0:
371,322,183131,6,0,P|389:337|403:371,1,50,12|0,1:2|1:2,1:1:0:0:
455,233,183289,1,0,1:2:0:0:
460,217,183367,1,0,1:2:0:0:
469,202,183447,5,0,1:2:0:0:
458,142,183525,1,0,1:2:0:0:
412,101,183604,1,0,1:2:0:0:
351,98,183683,1,0,1:2:0:0:
301,133,183763,5,0,1:2:0:0:
246,167,183841,1,0,1:2:0:0:
181,157,183920,1,0,1:2:0:0:
133,105,183999,1,0,1:2:0:0:
141,35,184078,6,0,B|277:17|277:17|236:77,1,194.999991073609,8|0,1:2|0:2,0:0:0:0:
15,201,184394,5,6,1:2:0:0:
62,190,184472,1,0,1:2:0:0:
109,206,184551,1,0,1:2:0:0:
140,245,184630,1,0,1:2:0:0:
145,294,184710,5,10,1:2:0:0:
168,325,184788,1,0,1:2:0:0:
205,339,184867,1,0,1:2:0:0:
242,326,184946,1,0,1:2:0:0:
270,297,185026,5,2,1:2:0:0:
317,270,185104,1,0,1:2:0:0:
371,278,185183,1,0,1:2:0:0:
409,316,185262,1,0,1:2:0:0:
398,370,185342,6,0,P|371:352|364:323,1,50,10|0,1:2|1:2,1:1:0:0:
420,57,185500,1,2,1:2:0:0:
464,78,185578,1,0,1:2:0:0:
485,122,185657,1,0,1:2:0:0:
475,170,185736,1,0,1:2:0:0:
437,201,185815,1,0,1:2:0:0:
388,202,185894,1,0,1:2:0:0:
347,171,185973,5,10,1:2:0:0:
312,151,186051,1,0,1:2:0:0:
272,148,186130,1,0,1:2:0:0:
237,167,186209,1,0,1:2:0:0:
219,203,186289,5,2,1:2:0:0:
272,195,186367,1,0,1:2:0:0:
298,146,186446,1,0,1:2:0:0:
292,91,186525,1,0,1:2:0:0:
257,47,186605,6,0,P|226:47|194:64,1,50,10|0,1:2|1:2,1:1:0:0:
51,196,186763,1,2,1:2:0:0:
20,234,186841,1,0,1:2:0:0:
17,283,186920,1,0,1:2:0:0:
43,325,186999,1,0,1:2:0:0:
88,345,187078,1,0,1:2:0:0:
136,335,187157,1,0,1:2:0:0:
170,298,187236,5,10,1:2:0:0:
163,259,187314,1,0,1:2:0:0:
132,233,187393,1,0,1:2:0:0:
91,233,187472,1,0,1:2:0:0:
68,266,187552,5,2,1:2:0:0:
113,296,187630,1,0,1:2:0:0:
166,284,187709,1,0,1:2:0:0:
201,242,187788,1,0,1:2:0:0:
214,187,187868,6,0,P|213:162|207:138,1,50,10|0,1:2|1:2,1:1:0:0:
40,25,188026,2,0,P|34:49|33:74,5,50,2|0|0|0|0|0,1:2|1:2|1:2|1:2|1:2|1:2,1:1:0:0:
93,143,188500,5,10,1:2:0:0:
129,154,188578,1,0,1:2:0:0:
166,148,188657,1,0,1:2:0:0:
196,126,188736,1,0,1:2:0:0:
214,93,188815,6,0,P|232:84|272:80,1,50,2|0,1:2|1:2,1:1:0:0:
406,157,188973,2,0,P|381:153|359:142,1,50,2|0,1:2|1:2,1:1:0:0:
392,12,189131,6,0,L|382:89,1,50,10|0,1:2|1:2,0:0:0:0:
266,179,189289,2,0,L|276:256,1,50,2|0,1:2|1:2,0:0:0:0:
391,367,189447,5,6,1:2:0:0:
431,340,189525,1,0,1:2:0:0:
442,292,189604,1,0,1:2:0:0:
418,249,189683,1,0,1:2:0:0:
372,233,189763,5,10,1:2:0:0:
343,205,189841,1,0,1:2:0:0:
327,168,189920,1,0,1:2:0:0:
337,129,189999,1,0,1:2:0:0:
358,95,190078,5,2,1:2:0:0:
412,95,190156,1,0,1:2:0:0:
453,131,190235,1,0,1:2:0:0:
458,185,190314,1,0,1:2:0:0:
434,235,190394,6,0,P|404:245|383:246,1,50,10|0,1:2|1:2,1:1:0:0:
212,123,190552,1,2,1:2:0:0:
167,100,190630,1,0,1:2:0:0:
118,102,190709,1,0,1:2:0:0:
76,128,190788,1,0,1:2:0:0:
52,171,190867,1,0,1:2:0:0:
52,220,190946,1,0,1:2:0:0:
76,262,191026,5,10,1:2:0:0:
131,236,191104,1,0,1:2:0:0:
159,181,191183,1,0,1:2:0:0:
151,120,191262,1,0,1:2:0:0:
107,77,191342,2,0,P|83:69|58:66,1,50,2|0,1:2|1:2,1:1:0:0:
239,202,191500,2,0,P|257:185|272:165,1,50,2|0,1:2|1:2,1:1:0:0:
76,263,191657,2,0,P|80:287|90:310,1,50,10|0,1:2|1:2,1:1:0:0:
250,368,191815,1,2,1:2:0:0:
274,362,191893,1,0,1:2:0:0:
298,355,191973,5,0,1:2:0:0:
336,324,192051,1,0,1:2:0:0:
353,278,192130,1,0,1:2:0:0:
345,229,192209,1,0,1:2:0:0:
313,190,192289,5,10,1:2:0:0:
280,140,192367,1,0,1:2:0:0:
290,80,192446,1,0,1:2:0:0:
340,44,192525,1,0,1:2:0:0:
400,52,192605,5,2,1:2:0:0:
391,115,192683,1,0,1:2:0:0:
334,147,192762,1,0,1:2:0:0:
269,136,192841,1,0,1:2:0:0:
228,83,192921,6,0,P|214:54|209:24,1,50,10|0,1:2|1:2,1:1:0:0:
31,126,193078,2,0,P|24:150|13:172,5,50,2|0|0|0|0|0,1:2|1:2|1:2|1:2|1:2|1:2,1:1:0:0:
50,247,193552,5,10,1:2:0:0:
74,243,193630,1,0,1:2:0:0:
98,248,193709,1,0,1:2:0:0:
119,262,193788,1,0,1:2:0:0:
134,282,193868,6,0,L|139:350,1,50,6|0,1:2|1:2,1:1:0:0:
291,376,194026,2,8,L|295:326,1,50,10|8,1:2|1:2,1:1:0:0:
428,155,194184,5,8,1:2:0:0:
482,183,194262,1,0,1:2:0:0:
489,248,194341,1,0,1:2:0:0:
440,291,194420,1,0,1:2:0:0:
372,266,194500,5,6,1:2:0:0:
355,221,194578,1,0,1:2:0:0:
367,173,194657,1,0,1:2:0:0:
404,141,194736,1,0,1:2:0:0:
453,136,194815,5,10,1:2:0:0:
440,173,194893,1,0,1:2:0:0:
407,196,194972,1,0,1:2:0:0:
367,193,195051,1,0,1:2:0:0:
332,172,195131,5,2,1:2:0:0:
295,132,195209,1,0,1:2:0:0:
240,122,195288,1,0,1:2:0:0:
188,142,195367,1,0,1:2:0:0:
151,183,195447,6,0,P|146:210|164:264,1,50,10|0,1:2|1:2,1:1:0:0:
238,367,195605,1,2,1:2:0:0:
279,339,195683,1,0,1:2:0:0:
291,292,195762,1,0,1:2:0:0:
269,249,195841,1,0,1:2:0:0:
223,231,195920,1,0,1:2:0:0:
177,249,195999,1,0,1:2:0:0:
155,293,196078,5,10,1:2:0:0:
187,315,196156,1,0,1:2:0:0:
226,321,196235,1,0,1:2:0:0:
262,303,196314,1,0,1:2:0:0:
291,275,196394,5,2,1:2:0:0:
336,245,196472,1,0,1:2:0:0:
391,244,196551,1,0,1:2:0:0:
439,270,196630,1,0,1:2:0:0:
461,321,196710,6,0,P|430:332|392:324,1,50,10|0,1:2|1:2,1:1:0:0:
275,153,196868,1,2,1:2:0:0:
262,106,196946,1,0,1:2:0:0:
277,59,197025,1,0,1:2:0:0:
315,27,197104,1,0,1:2:0:0:
364,22,197183,1,0,1:2:0:0:
408,43,197262,1,0,1:2:0:0:
434,85,197342,5,10,1:2:0:0:
408,114,197420,1,0,1:2:0:0:
370,128,197499,1,0,1:2:0:0:
331,117,197578,1,0,1:2:0:0:
303,88,197657,5,2,1:2:0:0:
263,51,197735,1,0,1:2:0:0:
210,35,197814,1,0,1:2:0:0:
156,45,197893,1,0,1:2:0:0:
114,82,197973,6,0,P|105:116|109:138,1,50,10|0,1:2|1:2,1:1:0:0:
39,240,198131,2,0,P|58:268|77:279,5,50,2|0|0|0|0|0,1:2|1:2|1:2|1:2|1:2|1:2,1:1:0:0:
145,218,198605,5,10,1:2:0:0:
182,212,198683,1,0,1:2:0:0:
218,221,198762,1,0,1:2:0:0:
247,245,198841,1,0,1:2:0:0:
263,279,198921,6,0,L|255:334,1,50,2|0,1:2|1:2,1:1:0:0:
146,364,199078,2,0,L|138:314,1,50,2|0,1:2|1:2,1:1:0:0:
312,197,199236,1,10,1:2:0:0:
336,199,199314,1,0,1:2:0:0:
361,202,199393,1,0,1:2:0:0:
386,204,199472,1,0,1:2:0:0:
411,206,199552,5,6,1:2:0:0:
449,178,199630,1,0,1:2:0:0:
448,130,199709,1,0,1:2:0:0:
408,104,199788,1,0,1:2:0:0:
364,122,199868,5,10,1:2:0:0:
324,116,199946,1,0,1:2:0:0:
299,84,200025,1,0,1:2:0:0:
307,44,200104,1,0,1:2:0:0:
340,21,200184,5,2,1:2:0:0:
368,67,200262,1,0,1:2:0:0:
345,117,200341,1,0,1:2:0:0:
295,141,200420,1,0,1:2:0:0:
240,127,200500,6,0,P|218:114|164:115,1,50,10|0,1:2|1:2,1:1:0:0:
6,140,200657,1,2,1:2:0:0:
55,136,200735,1,0,1:2:0:0:
100,155,200814,1,0,1:2:0:0:
131,194,200893,1,0,1:2:0:0:
139,243,200972,1,0,1:2:0:0:
123,289,201051,1,0,1:2:0:0:
85,322,201131,5,10,1:2:0:0:
71,262,201209,1,0,1:2:0:0:
103,210,201288,1,0,1:2:0:0:
162,196,201367,1,0,1:2:0:0:
214,227,201447,6,0,P|234:241|294:249,1,50,2|0,1:2|1:2,1:1:0:0:
302,359,201605,2,0,P|325:352|370:311,1,50,2|0,1:2|1:2,1:1:0:0:
467,346,201763,2,0,P|477:323|474:263,1,50,10|0,1:2|1:2,1:1:0:0:
490,124,201921,5,6,1:2:0:0:
469,84,201999,1,0,1:2:0:0:
435,54,202078,1,0,1:2:0:0:
392,39,202157,1,0,1:2:0:0:
346,40,202236,1,0,1:2:0:0:
304,57,202315,1,0,1:2:0:0:
271,88,202394,5,14,1:2:0:0:
223,113,202472,1,0,1:2:0:0:
168,111,202551,1,0,1:2:0:0:
123,81,202630,1,0,1:2:0:0:
100,32,202710,5,6,1:2:0:0:
158,42,202788,1,0,1:2:0:0:
195,89,202867,1,0,1:2:0:0:
181,148,202946,1,0,1:2:0:0:
137,190,203026,5,14,1:2:0:0:
72,197,203104,1,0,1:2:0:0:
29,249,203183,1,2,1:2:0:0:
26,316,203262,1,0,1:2:0:0:
65,372,203342,6,0,P|96:358|132:355,1,50,8|0,1:2|1:0,1:1:0:0:
250,351,203500,1,0,1:2:0:0:
252,338,203578,1,0,1:2:0:0:
253,326,203657,5,2,1:2:0:0:
267,291,203735,1,0,1:2:0:0:
297,270,203814,1,0,1:2:0:0:
334,269,203893,1,0,1:2:0:0:
365,289,203973,5,2,1:2:0:0:
417,276,204051,1,0,1:2:0:0:
447,230,204130,1,2,1:2:0:0:
429,177,204209,1,0,1:2:0:0:
378,153,204289,6,8,P|352:154|310:170,1,50,8|8,1:2|1:2,1:1:0:0:
103,64,204447,2,8,P|128:65|171:81,1,50,8|8,1:2|1:2,1:1:0:0:
411,36,204605,6,0,B|311:26|240:104|248:112|259:121|218:303|89:291|125:186|8:182|8:182|71:122|221:61|147:281|297:302|456:262|457:134|457:134|372:105|321:170,1,1200.00004577637,4|0,1:2|0:2,0:0:0:0:
459,181,214078,5,0,1:2:0:0:
455,205,214156,1,0,1:2:0:0:
452,230,214235,1,0,1:2:0:0:
449,255,214314,1,0,1:2:0:0:
444,280,214394,5,8,1:2:0:0:
404,308,214472,1,8,1:2:0:0:
349,303,214551,1,8,1:2:0:0:
306,267,214630,1,8,1:2:0:0:
291,207,214710,6,0,B|290:45|382:27|382:27|428:73|410:133|410:133|341:151|294:95|294:95|200:22|162:120|47:31|47:31|100:78|92:150,1,839.999974365235,6|2,1:2|0:2,0:0:0:0:
41,206,215894,1,2,0:2:0:0:
38,219,215973,5,2,1:2:0:0:
47,277,216051,1,2,0:2:0:0:
89,319,216130,1,2,0:2:0:0:
147,327,216209,1,2,0:2:0:0:
199,298,216289,5,10,0:2:0:0:
203,269,216367,1,2,0:2:0:0:
186,245,216446,1,2,0:2:0:0:
158,238,216525,1,2,0:2:0:0:
131,252,216605,5,2,1:2:0:0:
166,299,216683,1,2,0:2:0:0:
224,310,216762,1,2,1:2:0:0:
274,278,216841,1,2,0:2:0:0:
299,222,216921,5,10,0:2:0:0:
340,188,216999,1,2,0:2:0:0:
388,189,217078,1,2,0:2:0:0:
425,208,217157,1,2,0:2:0:0:
446,236,217236,6,0,B|331:268|331:268|393:301,1,179.999994506836,2|0,1:2|0:2,0:0:0:0:
454,328,217552,1,10,0:2:0:0:
330,71,217710,1,0,0:2:0:0:
326,85,217788,1,8,0:2:0:0:
322,100,217867,5,2,1:2:0:0:
446,236,218026,1,0,1:2:0:0:
450,22,218184,1,10,0:2:0:0:
299,223,218342,1,2,0:2:0:0:
187,49,218500,6,0,B|94:54|135:129|20:121,1,179.999994506836,2|0,1:2|0:2,0:0:0:0:
5,204,218815,2,0,B|48:220|48:220|75:323,1,119.999996337891,8|0,0:2|0:2,0:0:0:0:
61,321,219052,1,0,1:2:0:0:
61,321,219131,1,2,1:2:0:0:
251,213,219289,1,0,1:2:0:0:
22,46,219447,5,10,0:2:0:0:
60,22,219525,1,8,0:2:0:0:
104,23,219604,1,10,0:2:0:0:
139,51,219683,1,8,0:2:0:0:
153,93,219763,6,0,B|286:111|286:111|326:162,1,179.999994506836,6|0,1:2|0:2,0:0:0:0:
390,261,220078,2,0,P|405:196|430:128,1,119.999996337891,8|0,0:2|0:2,0:0:0:0:
441,127,220315,1,0,1:2:0:0:
441,127,220394,1,2,1:2:0:0:
309,280,220552,1,0,1:2:0:0:
232,30,220710,1,10,0:2:0:0:
246,28,220788,1,0,0:2:0:0:
261,26,220867,1,2,0:2:0:0:
390,261,221026,6,0,P|372:334|267:356,1,179.999994506836,2|0,1:2|0:2,0:0:0:0:
200,270,221342,2,0,P|132:268|80:315,1,119.999996337891,10|0,0:2|0:2,0:0:0:0:
80,318,221578,1,0,1:2:0:0:
80,318,221657,5,2,1:2:0:0:
279,361,221815,1,0,1:2:0:0:
194,116,221973,2,0,B|143:80|143:80|162:199,1,179.999994506836,10|0,0:2|0:2,0:0:0:0:
200,270,222289,5,2,1:2:0:0:
451,161,222447,1,0,1:2:0:0:
222,26,222605,2,0,L|359:6,1,119.999996337891,8|2,0:2|0:2,0:0:0:0:
366,21,222842,1,0,1:2:0:0:
366,21,222921,5,2,1:2:0:0:
282,261,223078,1,2,1:2:0:0:
95,46,223236,2,0,P|62:138|45:226,1,179.999994506836,10|0,0:2|0:2,0:0:0:0:
62,303,223552,6,0,P|98:306|138:288,1,59.9999981689454,4|0,1:2|0:2,0:0:0:0:
243,118,223710,2,0,P|222:147|217:191,1,59.9999981689454,0|0,1:2|0:2,0:0:0:0:
276,365,223868,6,0,B|330:350|330:350|361:282|429:227,1,194.999991073609,12|0,0:2|0:2,0:0:0:0:
479,201,224184,5,4,1:2:0:0:
108,123,224342,1,0,1:2:0:0:
433,78,224500,5,12,0:2:0:0:
80,250,224657,1,0,0:2:0:0:
276,18,224815,5,8,1:2:0:0:
309,53,224893,1,8,1:2:0:0:
310,102,224972,1,0,1:2:0:0:
278,138,225051,1,0,1:2:0:0:
230,144,225131,5,0,1:2:0:0:
199,164,225209,1,0,1:2:0:0:
182,197,225288,1,0,1:2:0:0:
184,234,225367,1,0,1:2:0:0:
204,266,225447,5,0,1:2:0:0:
249,285,225525,1,0,1:2:0:0:
302,272,225604,1,0,1:2:0:0:
335,222,225683,1,0,1:2:0:0:
315,157,225763,6,0,B|276:132|276:132|209:145|118:93,1,179.999994506836,12|0,1:2|0:2,0:0:0:0:
29,24,226078,6,0,P|57:68|63:97,1,75.0000028610231,4|0,1:2|0:2,0:0:0:0:
109,184,226394,2,0,P|71:188|35:179,1,75.0000028610231,0|0,1:2|0:2,0:0:0:0:
4,271,226710,2,0,P|71:281|100:364,1,150.000005722046,12|0,0:2|0:2,0:0:0:0:
102,350,227184,1,0,0:2:0:0:
208,209,227342,5,4,1:2:0:0:
102,350,227500,1,0,1:2:0:0:
13,132,227657,1,0,1:2:0:0:
101,350,227973,6,0,P|148:326|199:318,1,75.0000028610231,12|0,0:2|0:2,0:0:0:0:
371,301,228289,2,0,P|335:290|302:271,1,75.0000028610231,0|0,1:2|0:2,0:0:0:0:
259,64,228605,6,0,B|308:38|308:38|284:151,1,150.000005722046,4|0,1:2|0:2,0:0:0:0:
171,196,229078,1,0,0:2:0:0:
259,64,229236,6,0,B|371:81|338:22|454:34,1,187.500007152558,12|0,0:2|0:2,0:0:0:0:
462,49,229710,2,0,P|472:78|465:102,1,37.5000014305115,8|0,0:2|0:2,0:0:0:0:
386,148,229868,6,0,P|387:129|395:112,1,37.5000014305115,4|0,1:2|0:2,0:0:0:0:
494,166,230026,2,0,P|477:174|458:175,1,37.5000014305115,8|0,0:2|0:2,0:0:0:0:
321,209,230184,2,0,P|358:248|347:301,1,112.500004291535,0|0,1:2|0:2,0:0:0:0:
325,310,230500,5,12,0:2:0:0:
52,228,230657,1,8,0:2:0:0:
321,209,230815,5,0,1:2:0:0:
103,312,230973,1,0,1:2:0:0:
180,27,231131,6,0,P|198:118|207:181,1,150.000005722046,4|0,1:2|1:2,0:0:0:0:
237,359,231605,1,0,0:2:0:0:
18,305,231763,2,0,P|86:299|138:339,1,112.500004291535,12|0,0:2|0:2,0:0:0:0:
143,345,232078,1,0,1:2:0:0:
254,263,232236,1,0,1:2:0:0:
323,326,232394,5,4,1:2:0:0:
102,209,232552,1,8,0:2:0:0:
380,105,232710,1,0,1:2:0:0:
102,209,233026,6,0,P|65:217|28:211,1,75.0000028610231,12|0,0:2|0:2,0:0:0:0:
380,105,233342,2,0,P|415:99|458:110,1,75.0000028610231,0|0,1:2|0:2,0:0:0:0:
204,175,233657,6,0,L|183:26,1,150.000005722046,4|0,1:2|0:2,0:0:0:0:
277,229,234131,1,0,0:2:0:0:
48,76,234289,2,0,L|27:226,1,150.000005722046,12|0,0:2|0:2,0:0:0:0:
31,253,234684,1,0,0:2:0:0:
31,253,234763,1,8,0:2:0:0:
144,67,234921,5,4,1:2:0:0:
235,282,235078,1,0,1:2:0:0:
141,55,235236,1,0,1:2:0:0:
96,306,235394,1,0,1:2:0:0:
105,308,235473,1,0,1:2:0:0:
114,310,235552,6,0,L|195:294,1,50,12|0,0:2|0:2,0:0:0:0:
306,204,235710,2,0,L|256:194,1,50,8|0,0:2|0:2,0:0:0:0:
354,360,235868,6,0,P|371:344|379:313,1,50,0|0,1:2|0:2,0:0:0:0:
462,241,236026,2,0,P|460:217|442:191,1,50,0|0,1:2|0:2,0:0:0:0:
283,22,236184,6,0,B|253:30|253:30|207:87|115:94,1,179.999994506836,6|0,1:2|0:2,0:0:0:0:
13,166,236500,2,0,P|69:184|107:246,1,119.999996337891,8|0,0:2|0:2,0:0:0:0:
235,361,236815,1,2,1:2:0:0:
304,117,236973,1,0,1:2:0:0:
74,235,237131,1,8,0:2:0:0:
88,233,237209,1,0,0:2:0:0:
103,232,237288,1,0,0:2:0:0:
373,182,237447,6,0,P|395:146|394:119,1,59.9999981689454,2|0,1:2|0:2,0:0:0:0:
243,185,237605,2,0,P|247:214|265:237,1,59.9999981689454,0|0,1:2|0:2,0:0:0:0:
471,302,237763,6,0,B|422:305|422:305|334:355,1,119.999996337891,10|0,0:2|0:2,0:0:0:0:
159,347,238078,1,2,1:2:0:0:
115,343,238156,1,0,1:2:0:0:
83,312,238235,1,0,1:2:0:0:
79,268,238314,1,0,1:2:0:0:
102,230,238394,2,0,P|133:214|165:211,1,59.9999981689454,10|0,1:2|1:2,1:1:0:0:
277,105,238552,2,0,P|245:89|214:86,1,59.9999981689454,0|0,1:2|1:2,1:1:0:0:
37,27,238710,5,2,1:2:0:0:
157,211,238868,1,0,1:2:0:0:
269,14,239026,5,8,0:2:0:0:
68,129,239184,1,0,0:2:0:0:
369,217,239342,5,2,1:2:0:0:
410,200,239420,1,0,1:2:0:0:
439,166,239499,1,0,1:2:0:0:
449,123,239578,1,0,1:2:0:0:
439,80,239657,6,0,B|384:40|384:40|401:153,1,179.999994506836,10|0,1:2|0:2,0:0:0:0:
484,258,239973,6,0,P|453:266|422:293,1,59.9999981689454,2|0,1:2|0:2,0:0:0:0:
295,201,240131,2,0,P|281:229|281:270,1,59.9999981689454,0|0,1:2|0:2,0:0:0:0:
114,366,240289,6,0,P|98:304|50:244,1,119.999996337891,8|0,0:2|0:2,0:0:0:0:
48,246,240526,1,0,1:2:0:0:
48,246,240605,5,0,1:2:0:0:
242,132,240763,1,0,1:2:0:0:
5,45,240921,2,0,B|34:75|34:75|200:44,1,179.999994506836,8|0,0:2|0:2,0:0:0:0:
269,15,241236,6,0,P|258:74|241:131,1,119.999996337891,6|0,1:2|0:2,0:0:0:0:
368,359,241552,2,0,P|350:301|340:242,1,119.999996337891,10|0,0:2|0:2,0:0:0:0:
496,52,241868,1,2,1:2:0:0:
241,131,242026,1,0,1:2:0:0:
489,261,242184,1,8,0:2:0:0:
474,264,242262,1,0,0:2:0:0:
460,268,242341,1,0,0:2:0:0:
172,81,242500,6,0,P|232:47|288:58,1,119.999996337891,0|0,1:2|0:2,0:0:0:0:
116,354,242815,2,0,P|106:292|78:160,1,179.999994506836,10|0,0:2|0:2,0:0:0:0:
61,155,243131,1,2,1:2:0:0:
305,229,243289,1,0,1:2:0:0:
23,293,243447,6,0,B|124:290|94:355|205:343,1,179.999994506836,14|0,0:2|0:2,0:0:0:0:
266,321,243763,5,14,0:2:0:0:
340,17,243921,1,0,0:2:0:0:
388,341,244078,5,12,0:2:0:0:
210,43,244236,1,0,0:2:0:0:
92,252,244394,5,12,0:2:0:0:
472,169,244552,1,0,0:2:0:0:
58,76,244710,5,12,0:2:0:0:
484,170,244868,1,0,0:2:0:0:
197,354,245026,5,14,1:2:0:0:
177,299,245105,1,8,1:2:0:0:
194,243,245183,1,0,1:2:0:0:
243,210,245262,1,0,1:2:0:0:
301,214,245342,5,0,1:2:0:0:
342,198,245420,1,0,1:2:0:0:
362,158,245500,1,0,1:2:0:0:
351,131,245578,1,0,1:2:0:0:
327,113,245657,5,0,1:2:0:0:
277,145,245735,1,0,1:2:0:0:
265,209,245814,1,0,1:2:0:0:
302,270,245893,1,0,1:2:0:0:
379,285,245973,6,0,B|411:240|411:240|255:285,1,194.999991073609,8|0,0:2|0:2,0:0:0:0:
69,357,246289,6,0,B|121:258|31:287|73:173,1,165.000005035401,6|0,1:2|0:2,0:0:0:0:
85,120,246605,5,10,1:2:0:0:
112,113,246683,1,2,1:2:0:0:
139,117,246762,1,2,1:2:0:0:
162,133,246841,1,2,1:2:0:0:
176,156,246921,6,0,P|189:179|195:211,1,55.0000016784668,2|0,1:2|0:2,0:0:0:0:
249,321,247078,2,0,P|254:294|267:269,1,55.0000016784668,2|0,1:2|0:2,0:0:0:0:
368,183,247236,5,10,0:2:0:0:
144,279,247394,1,2,0:2:0:0:
376,367,247552,6,0,B|430:334|430:334|462:231,1,165.000005035401,2|0,1:2|0:2,0:0:0:0:
443,162,247868,1,10,0:2:0:0:
195,140,248026,1,2,1:2:0:0:
460,236,248184,5,2,0:2:0:0:
321,5,248342,1,2,1:2:0:0:
243,248,248500,1,10,0:2:0:0:
472,69,248657,1,2,0:2:0:0:
140,11,248815,6,0,L|114:190,1,165.000005035401,2|0,1:2|0:2,0:0:0:0:
31,260,249131,2,0,P|99:278|136:319,1,110.000003356934,8|0,0:2|0:2,0:0:0:0:
369,360,249447,5,2,1:2:0:0:
245,122,249605,1,0,1:2:0:0:
126,304,249763,1,8,0:2:0:0:
129,317,249841,1,0,0:2:0:0:
132,331,249920,1,0,0:2:0:0:
454,361,250078,5,2,1:2:0:0:
437,310,250156,1,2,1:2:0:0:
394,278,250235,1,2,1:2:0:0:
340,278,250314,1,2,1:2:0:0:
296,310,250394,5,10,1:2:0:0:
336,316,250472,1,2,1:2:0:0:
372,297,250551,1,2,1:2:0:0:
388,259,250630,1,2,1:2:0:0:
378,220,250710,6,0,P|354:166|360:111,1,110.000003356934,2|0,1:2|1:2,0:0:0:0:
458,34,250947,1,0,0:2:0:0:
458,34,251026,2,0,P|433:52|397:51,1,55.0000016784668,10|0,0:2|0:2,0:0:0:0:
265,13,251184,2,0,P|293:25|310:57,1,55.0000016784668,2|0,0:2|0:2,0:0:0:0:
159,180,251342,6,0,B|43:156|43:156|79:209,1,179.999994506836,6|0,1:2|0:2,0:0:0:0:
193,254,251657,2,0,P|239:210|232:153,1,110.000003356934,8|0,0:2|0:2,0:0:0:0:
38,58,251973,1,2,1:2:0:0:
130,314,252131,1,0,1:2:0:0:
219,84,252289,1,10,0:2:0:0:
205,87,252367,1,0,0:2:0:0:
192,90,252446,1,2,0:2:0:0:
47,298,252605,6,0,B|84:299|84:299|120:347|203:361,1,165.000005035401,2|0,1:2|0:2,0:0:0:0:
266,333,252921,1,10,0:2:0:0:
491,163,253078,2,0,B|402:151|425:223|324:200,1,165.000005035401,2|0,1:2|0:2,0:0:0:0:
252,215,253394,6,0,P|248:188|259:163,1,55.0000016784668,2|0,1:2|0:2,0:0:0:0:
195,110,253552,2,0,P|216:93|243:90,1,55.0000016784668,10|0,0:2|0:2,0:0:0:0:
275,19,253710,2,0,P|300:29|316:51,1,55.0000016784668,2|0,1:2|0:2,0:0:0:0:
314,274,253868,6,0,P|237:296|176:245,1,165.000005035401,6|0,1:2|0:2,0:0:0:0:
195,110,254184,2,0,B|239:74|239:74|207:211,1,165.000005035401,8|0,0:2|0:2,0:0:0:0:
176,245,254500,5,2,1:2:0:0:
16,91,254657,1,0,1:2:0:0:
316,51,254815,5,10,0:2:0:0:
63,238,254973,1,2,0:2:0:0:
119,8,255131,6,0,B|154:23|154:23|162:76|225:109,1,110.000003356934,2|0,1:2|0:2,0:0:0:0:
232,362,255447,2,0,B|228:319|228:319|270:285|267:214,1,119.999996337891,12|0,0:2|0:2,0:0:0:0:
230,182,255684,1,8,0:2:0:0:
221,172,255763,6,0,P|183:171|155:180,1,55.0000016784668,8|0,0:2|0:2,0:0:0:0:
108,110,255921,2,0,P|82:138|71:165,1,55.0000016784668,8|0,0:2|0:2,0:0:0:0:
7,297,256079,6,0,P|45:298|73:289,1,55.0000016784668,8|0,0:2|0:2,0:0:0:0:
120,359,256237,2,0,P|145:330|156:303,1,55.0000016784668,8|0,0:2|0:2,0:0:0:0:
221,172,256394,5,6,1:2:0:0:
234,174,256472,1,2,0:2:0:0:
248,176,256552,2,0,L|330:187,1,55.0000016784668,2|0,0:2|0:2,0:0:0:0:
460,282,256710,2,0,L|378:293,1,55.0000016784668,10|0,0:2|0:2,0:0:0:0:
288,363,256868,5,2,0:2:0:0:
273,347,256946,1,2,0:2:0:0:
264,326,257026,2,0,P|256:303|263:245,1,55.0000016784668,2|0,1:2|0:2,0:0:0:0:
378,170,257184,2,0,P|377:197|368:223,1,55.0000016784668,2|0,1:2|0:2,0:0:0:0:
201,63,257342,6,0,B|218:46|242:39|242:39|291:88|377:95,1,165.000005035401,10|0,0:2|0:2,0:0:0:0:
378,170,257657,5,2,1:2:0:0:
345,175,257735,1,2,0:2:0:0:
312,180,257814,1,2,0:2:0:0:
110,66,257973,1,10,0:2:0:0:
362,14,258131,1,2,1:2:0:0:
155,231,258289,5,2,0:2:0:0:
142,207,258367,1,2,0:2:0:0:
146,180,258446,1,2,1:2:0:0:
165,162,258525,1,2,0:2:0:0:
192,159,258605,5,10,0:2:0:0:
225,202,258683,1,2,0:2:0:0:
221,262,258762,1,2,0:2:0:0:
178,312,258841,1,2,0:2:0:0:
105,315,258921,6,0,P|87:229|56:99,1,179.999994506836,2|0,1:2|0:2,0:0:0:0:
110,66,259236,1,10,0:2:0:0:
367,175,259394,2,0,B|454:150|434:46|351:64|344:106,1,179.999994506836,2|0,0:2|0:2,0:0:0:0:
337,109,259710,1,2,1:2:0:0:
510,192,259868,2,0,P|481:202|457:224,1,59.9999981689454,10|0,0:2|0:2,0:0:0:0:
293,261,260026,2,0,P|322:271|346:293,1,59.9999981689454,2|0,0:2|0:2,0:0:0:0:
491,354,260184,5,2,1:2:0:0:
492,325,260262,1,2,0:2:0:0:
474,302,260341,1,2,0:2:0:0:
445,295,260420,1,2,0:2:0:0:
419,309,260500,5,10,0:2:0:0:
411,266,260578,1,2,0:2:0:0:
375,241,260657,1,2,1:2:0:0:
332,248,260736,1,2,0:2:0:0:
306,284,260815,5,2,0:2:0:0:
361,263,260893,1,2,0:2:0:0:
399,209,260972,1,2,1:2:0:0:
380,145,261051,1,2,0:2:0:0:
325,96,261131,6,0,B|255:82|255:82|223:96|223:96|141:79,1,179.999994506836,10|0,0:2|0:2,0:0:0:0:
51,140,261447,6,0,B|91:175|91:175|121:301,1,179.999994506836,6|0,1:2|0:2,0:0:0:0:
71,356,261763,1,10,0:2:0:0:
158,101,261921,1,0,0:2:0:0:
221,290,262078,5,2,1:2:0:0:
51,140,262236,1,2,1:2:0:0:
328,34,262394,1,10,0:2:0:0:
325,48,262472,1,0,0:2:0:0:
322,63,262551,1,0,0:2:0:0:
141,269,262710,6,0,P|188:219|261:224,1,119.999996337891,2|0,1:2|0:2,0:0:0:0:
321,353,263026,1,8,0:2:0:0:
203,127,263184,2,0,P|271:130|314:189,1,119.999996337891,2|0,1:2|0:2,0:0:0:0:
185,360,263500,1,0,1:2:0:0:
425,170,263657,2,0,B|408:221|408:221|324:250,1,119.999996337891,10|0,0:2|0:2,0:0:0:0:
147,22,263973,6,0,B|190:21|190:21|251:62|324:64,1,179.999994506836,2|0,1:2|0:2,0:0:0:0:
425,170,264289,6,0,B|378:203|378:203|401:345,1,194.999991073609,12|0,0:2|0:2,0:0:0:0:
476,367,264605,6,0,L|488:285,1,64.9999970245363,6|0,1:2|0:2,0:0:0:0:
304,213,264763,2,0,L|313:277,1,64.9999970245363,2|0,1:2|0:2,0:0:0:0:
185,354,264921,6,0,B|77:358|114:289|0:293,1,194.999991073609,10|0,0:2|0:2,0:0:0:0:
11,320,265236,5,8,1:2:0:0:
65,316,265314,1,8,1:2:0:0:
107,283,265393,1,0,1:2:0:0:
122,231,265472,1,0,1:2:0:0:
104,180,265552,5,0,1:2:0:0:
78,176,265630,1,0,1:2:0:0:
54,190,265709,1,0,1:2:0:0:
44,214,265788,1,0,1:2:0:0:
51,240,265868,5,0,1:2:0:0:
98,267,265946,1,0,1:2:0:0:
158,259,266025,1,0,1:2:0:0:
199,214,266104,1,0,1:2:0:0:
203,148,266184,6,0,B|81:119|81:119|110:176,1,179.999994506836,8|0,1:2|0:2,0:0:0:0:
226,285,266500,6,0,B|340:307|298:218|421:228|421:228|401:236|386:275,1,250,4|0,1:2|0:2,0:0:0:0:
381,284,266973,1,0,1:2:0:0:
383,296,267051,1,0,1:2:0:0:
385,308,267131,6,0,B|342:275|342:275|379:123,1,179.999994506836,12|0,0:2|0:2,0:0:0:0:
461,122,267447,2,0,P|372:108|348:21,1,179.999994506836,4|0,1:2|0:2,0:0:0:0:
373,13,267763,5,4,1:2:0:0:
263,184,267921,1,8,0:2:0:0:
103,41,268078,1,0,1:2:0:0:
73,43,268156,1,0,1:2:0:0:
50,61,268235,1,0,1:2:0:0:
42,90,268314,1,0,1:2:0:0:
52,118,268394,6,0,B|145:246|75:320|5:292|-31:233|-3:173|56:165|112:175|68:257|128:274|197:240,1,419.999987182618,12|0,0:2|0:2,1:1:0:0:
361,182,269026,6,0,P|399:278|296:263,1,250,4|0,1:2|0:2,0:0:0:0:
263,184,269500,1,0,1:2:0:0:
264,171,269578,1,0,1:2:0:0:
266,159,269657,6,0,P|297:104|354:100,1,119.999996337891,12|0,0:2|0:2,0:0:0:0:
455,223,269894,2,0,P|391:223|359:176,1,119.999996337891,0|0,1:2|0:2,0:0:0:0:
447,58,270131,2,0,P|452:82|441:119,1,59.9999981689454,0|0,1:2|0:2,0:0:0:0:
296,263,270289,5,4,1:2:0:0:
231,33,270447,1,8,0:2:0:0:
455,223,270605,5,0,1:2:0:0:
454,252,270683,1,0,1:2:0:0:
440,278,270762,1,0,1:2:0:0:
416,295,270841,1,0,1:2:0:0:
386,298,270921,6,0,P|362:279|350:252,1,59.9999981689454,12|0,0:2|0:2,0:0:0:0:
258,267,271078,2,0,P|257:237|270:210,1,59.9999981689454,8|0,0:2|0:2,0:0:0:0:
319,27,271236,6,0,P|342:45|354:72,1,59.9999981689454,0|0,1:2|0:2,0:0:0:0:
447,58,271393,2,0,P|447:87|434:114,1,59.9999981689454,0|0,1:2|0:2,0:0:0:0:
258,267,271552,6,0,B|179:252|179:252|161:234|161:234|88:217,1,179.999994506836,4|0,1:2|0:2,0:0:0:0:
28,269,271868,1,8,0:2:0:0:
231,180,272026,1,0,0:2:0:0:
24,100,272184,5,0,1:2:0:0:
125,324,272342,1,0,1:2:0:0:
222,79,272500,1,8,0:2:0:0:
207,75,272578,1,0,0:2:0:0:
192,72,272657,1,0,0:2:0:0:
197,362,272815,6,0,P|206:299|164:253,1,119.999996337891,0|0,1:2|0:2,0:0:0:0:
24,100,273131,2,0,B|61:117|61:117|102:87|215:69,1,179.999994506836,8|0,0:2|0:2,0:0:0:0:
258,16,273447,6,0,P|277:57|282:80,1,59.9999981689454,0|0,1:2|0:2,0:0:0:0:
371,225,273605,2,0,P|379:196|393:169,1,59.9999981689454,0|0,1:2|0:2,0:0:0:0:
481,28,273763,1,8,0:2:0:0:
466,29,273841,1,0,0:2:0:0:
451,31,273920,1,0,0:2:0:0:
258,178,274078,6,0,L|277:358,1,179.999994506836,0|0,1:2|0:2,0:0:0:0:
267,376,274394,1,8,0:2:0:0:
331,119,274552,1,0,0:2:0:0:
182,321,274710,5,0,1:2:0:0:
412,174,274868,1,0,1:2:0:0:
135,91,275026,1,8,0:2:0:0:
347,305,275184,1,0,0:2:0:0:
441,25,275342,5,8,1:2:0:0:
399,14,275420,1,8,1:2:0:0:
356,26,275499,1,0,1:2:0:0:
327,60,275578,1,0,1:2:0:0:
320,104,275657,5,0,1:2:0:0:
338,127,275735,1,0,1:2:0:0:
367,132,275814,1,0,1:2:0:0:
392,117,275893,1,0,1:2:0:0:
400,88,275973,5,0,1:2:0:0:
354,50,276051,1,0,1:2:0:0:
289,43,276130,1,0,1:2:0:0:
231,75,276209,1,0,1:2:0:0:
211,144,276288,1,8,1:2:0:0:
492,353,276605,6,0,L|405:337,1,75,4|0,1:2|0:2,0:0:0:0:
390,336,276921,2,0,P|377:307|378:279,1,50,2|2,0:2|0:0,0:0:0:0:
487,223,277236,2,0,P|468:248|443:261,1,50,2|2,0:2|0:0,0:0:0:0:
341,194,277552,2,0,P|372:197|396:212,1,50,2|2,0:2|0:0,0:0:0:0:
388,205,277868,1,2,0:2:0:0:
254,348,278184,6,0,L|193:342,1,50,2|2,0:2|0:0,0:0:0:0:
178,233,278500,2,0,L|134:275,1,50,2|2,0:2|0:0,0:0:0:0:
34,229,278815,2,0,L|38:290,1,50,2|2,0:2|0:0,0:0:0:0:
91,358,279131,6,0,B|132:329|132:329|143:261,1,112.500004291535,6|0,0:2|0:2,0:0:0:0:
107,192,279447,6,0,P|97:165|99:108,1,75.0000028610231,2|2,0:2|0:2,0:0:0:0:
254,85,279763,2,0,P|235:107|185:133,1,75.0000028610231,2|2,0:2|0:2,0:0:0:0:
86,6,280078,2,0,P|114:10|162:41,1,75.0000028610231,2|2,0:2|1:2,0:0:0:0:
189,119,280315,1,0,1:2:0:0:
195,129,280394,6,0,L|174:287,1,150,12|0,0:2|0:2,0:0:0:0:
126,341,280710,1,0,1:2:0:0:
329,180,280868,2,0,P|408:205|413:278,1,150,0|0,1:2|0:2,0:0:0:0:
403,289,281184,1,0,1:2:0:0:
248,268,281342,1,0,1:2:0:0:
166,351,281500,1,0,1:2:0:0:
265,367,281657,6,0,P|250:292|248:241,1,100,4|0,1:2|0:2,0:0:0:0:
197,14,281973,2,0,P|191:63|180:112,1,100,0|0,1:2|0:2,0:0:0:0:
32,257,282289,5,8,0:2:0:0:
312,178,282447,1,0,1:2:0:0:
326,174,282763,1,0,1:2:0:0:
236,122,282921,5,0,1:2:0:0:
489,207,283078,1,8,0:2:0:0:
195,310,283236,1,0,1:2:0:0:
489,207,283552,6,0,B|445:187|445:187|387:198,1,100,8|0,0:2|0:2,0:0:0:0:
100,299,283868,2,0,B|144:319|144:319|202:308,1,100,0|0,1:2|0:2,0:0:0:0:
263,50,284184,6,0,P|267:133|275:228,1,150,0|0,1:2|0:2,0:0:0:0:
282,226,284500,1,0,1:2:0:0:
282,226,284657,1,0,1:2:0:0:
472,81,284815,6,0,P|435:47|386:41,1,100,12|0,0:2|0:2,0:0:0:0:
367,61,285052,1,0,1:2:0:0:
367,61,285131,1,0,1:2:0:0:
203,207,285289,2,0,P|252:152|325:153,1,150,0|0,1:2|0:2,0:0:0:0:
386,203,285605,2,0,P|395:237|392:266,1,50,12|0,0:2|0:2,0:0:0:0:
131,178,285763,1,12,1:2:0:0:
133,165,285841,1,0,1:2:0:0:
136,153,285920,1,0,1:2:0:0:
138,141,285999,1,0,1:2:0:0:
141,129,286079,5,12,1:2:0:0:
135,92,286157,1,0,1:2:0:0:
110,65,286236,1,0,1:2:0:0:
74,54,286315,1,0,1:2:0:0:
39,64,286395,5,0,1:2:0:0:
61,108,286473,1,0,1:2:0:0:
112,129,286552,1,0,1:2:0:0:
166,123,286631,1,0,1:2:0:0:
208,80,286710,5,4,1:2:0:0:
32,175,286868,1,8,1:2:0:0:
208,279,287026,1,0,1:2:0:0:
216,269,287104,1,0,1:2:0:0:
223,259,287183,1,8,1:2:0:0:
32,175,287342,5,0,1:2:0:0:
145,354,287500,1,8,1:2:0:0:
296,187,287657,1,0,1:2:0:0:
275,171,287736,1,0,1:2:0:0:
250,170,287815,1,8,1:2:0:0:
367,347,287973,5,0,1:2:0:0:
388,335,288052,1,0,1:2:0:0:
404,315,288131,2,0,P|417:286|413:246,1,50,8|0,1:2|1:2,1:1:0:0:
364,120,288289,1,0,1:2:0:0:
398,103,288367,1,0,1:2:0:0:
435,105,288446,1,8,1:2:0:0:
467,123,288525,1,0,1:2:0:0:
487,155,288604,5,0,1:2:0:0:
296,187,288763,1,8,1:2:0:0:
451,17,288921,5,0,1:2:0:0:
394,208,289078,1,8,1:2:0:0:
216,15,289236,5,0,1:2:0:0:
208,24,289314,1,0,1:2:0:0:
201,33,289393,1,8,1:2:0:0:
49,130,289552,1,0,1:2:0:0:
219,177,289710,1,8,1:2:0:0:
50,295,289868,5,0,1:2:0:0:
147,117,290026,1,8,1:2:0:0:
257,306,290184,1,0,1:2:0:0:
253,330,290263,1,0,1:2:0:0:
243,353,290342,1,8,1:2:0:0:
50,295,290500,5,0,1:2:0:0:
293,221,290657,1,8,1:2:0:0:
49,130,290815,1,0,1:2:0:0:
56,106,290894,1,0,1:2:0:0:
70,85,290973,1,8,1:2:0:0:
292,35,291131,5,0,1:2:0:0:
149,188,291289,1,12,1:2:0:0:
150,200,291367,1,0,1:2:0:0:
151,212,291447,2,0,L|161:285,1,50,0|0,1:2|1:2,1:1:0:0:
253,330,291605,2,0,L|259:280,1,50,12|0,1:2|1:2,1:1:0:0:
367,161,291763,5,4,1:2:0:0:
403,150,291841,1,0,1:2:0:0:
440,157,291920,1,8,1:2:0:0:
470,179,291999,1,0,1:2:0:0:
487,212,292078,2,0,P|482:249|470:275,1,50,0|0,1:2|1:2,1:1:0:0:
301,198,292236,2,0,P|293:174|290:149,1,50,8|0,1:2|1:2,1:1:0:0:
487,54,292394,5,0,1:2:0:0:
396,240,292552,1,8,1:2:0:0:
305,28,292710,1,0,1:2:0:0:
317,28,292788,1,0,1:2:0:0:
329,30,292867,1,8,1:2:0:0:
396,240,293026,5,4,1:2:0:0:
200,109,293184,1,8,1:2:0:0:
416,13,293342,1,0,1:2:0:0:
419,37,293420,1,0,1:2:0:0:
414,61,293499,1,8,1:2:0:0:
247,256,293657,5,0,1:2:0:0:
242,232,293736,1,0,1:2:0:0:
245,208,293815,2,0,P|272:194|314:192,1,50,8|0,1:2|1:2,1:1:0:0:
287,330,293973,1,0,1:2:0:0:
257,352,294051,1,0,1:2:0:0:
221,358,294130,1,8,1:2:0:0:
186,344,294209,1,0,1:2:0:0:
163,315,294289,5,12,1:2:0:0:
159,290,294367,1,0,1:2:0:0:
156,265,294446,1,0,1:2:0:0:
153,240,294525,1,0,1:2:0:0:
131,219,294605,5,8,1:2:0:0:
134,194,294683,1,0,1:2:0:0:
137,169,294762,1,0,1:2:0:0:
140,144,294841,1,0,1:2:0:0:
160,120,294921,5,8,1:2:0:0:
159,83,294999,1,0,1:2:0:0:
136,54,295078,1,0,1:2:0:0:
100,45,295157,1,0,1:2:0:0:
66,59,295236,5,8,1:2:0:0:
83,105,295314,1,0,1:2:0:0:
126,129,295393,1,0,1:2:0:0:
174,120,295472,1,0,1:2:0:0:
205,82,295552,6,0,P|233:63|266:58,1,50,12|0,1:2|1:2,1:1:0:0:
390,17,295710,1,0,1:2:0:0:
414,23,295788,1,0,1:2:0:0:
434,38,295868,5,0,1:2:0:0:
466,89,295946,1,0,1:2:0:0:
450,148,296025,1,0,1:2:0:0:
397,177,296104,1,0,1:2:0:0:
339,158,296184,5,0,1:2:0:0:
277,155,296262,1,0,1:2:0:0:
223,190,296341,1,0,1:2:0:0:
196,249,296420,1,0,1:2:0:0:
212,317,296500,6,0,B|325:297|286:381|437:345,1,194.999991073609,8|0,1:2|0:2,0:0:0:0:
466,289,296815,5,6,1:2:0:0:
494,243,296893,1,0,1:2:0:0:
488,189,296972,1,0,1:2:0:0:
450,150,297051,1,0,1:2:0:0:
396,143,297131,5,10,1:2:0:0:
366,175,297209,1,0,1:2:0:0:
374,218,297288,1,0,1:2:0:0:
412,238,297367,1,0,1:2:0:0:
452,220,297447,5,2,1:2:0:0:
427,165,297525,1,0,1:2:0:0:
371,141,297604,1,0,1:2:0:0:
312,157,297683,1,0,1:2:0:0:
273,204,297763,6,0,P|261:228|251:261,1,55.0000016784668,10|0,1:2|1:0,1:1:0:0:
77,358,297921,1,2,1:2:0:0:
38,321,297999,1,0,1:2:0:0:
27,268,298078,1,0,1:2:0:0:
48,218,298157,1,0,1:2:0:0:
93,188,298236,1,0,1:2:0:0:
147,189,298315,1,0,1:2:0:0:
191,220,298394,5,10,1:2:0:0:
225,247,298472,1,0,1:2:0:0:
268,253,298551,1,0,1:2:0:0:
305,230,298630,1,0,1:2:0:0:
330,193,298710,5,2,1:2:0:0:
270,188,298788,1,0,1:2:0:0:
219,221,298867,1,0,1:2:0:0:
209,280,298946,1,0,1:2:0:0:
232,336,299026,6,0,P|261:341|290:333,1,55.0000016784668,10|0,1:2|1:0,1:1:0:0:
456,175,299184,1,2,1:2:0:0:
472,124,299262,1,0,1:2:0:0:
459,71,299341,1,0,1:2:0:0:
420,32,299420,1,0,1:2:0:0:
368,19,299499,1,0,1:2:0:0:
316,35,299578,1,0,1:2:0:0:
280,76,299657,5,10,1:2:0:0:
250,107,299735,1,0,1:2:0:0:
209,124,299814,1,0,1:2:0:0:
165,116,299893,1,0,1:2:0:0:
135,82,299973,5,2,1:2:0:0:
194,74,300051,1,0,1:2:0:0:
244,106,300130,1,0,1:2:0:0:
254,165,300209,1,0,1:2:0:0:
238,224,300289,6,0,P|223:247|214:273,1,55.0000016784668,10|0,1:2|1:2,1:1:0:0:
8,303,300447,2,0,P|23:325|32:351,5,55.0000016784668,2|0|0|0|0|0,1:2|1:2|1:2|1:2|1:2|1:2,1:1:0:0:
136,357,300921,5,10,1:2:0:0:
176,363,300999,1,0,1:2:0:0:
214,350,301078,1,0,1:2:0:0:
240,318,301157,1,0,1:2:0:0:
248,278,301236,2,0,L|236:214,1,55.0000016784668,2|0,1:2|1:0,1:1:0:0:
386,169,301394,2,0,L|375:223,1,55.0000016784668,2|0,1:2|1:0,1:1:0:0:
490,318,301552,2,0,L|477:253,1,55.0000016784668,10|0,1:2|1:0,0:0:0:0:
421,106,301710,1,0,1:2:0:0:
423,92,301788,1,0,1:2:0:0:
426,78,301868,5,6,1:2:0:0:
390,36,301946,1,0,1:2:0:0:
337,26,302025,1,0,1:2:0:0:
290,52,302104,1,0,1:2:0:0:
269,101,302184,5,10,1:2:0:0:
230,120,302262,1,0,1:2:0:0:
186,118,302341,1,0,1:2:0:0:
150,92,302420,1,0,1:2:0:0:
133,50,302500,5,2,1:2:0:0:
189,69,302578,1,0,1:2:0:0:
212,124,302657,1,0,1:2:0:0:
194,182,302736,1,0,1:2:0:0:
151,225,302815,6,0,P|146:264|164:308,1,55.0000016784668,10|0,1:2|1:0,1:1:0:0:
344,336,302973,1,2,1:2:0:0:
390,362,303051,1,0,1:2:0:0:
444,357,303130,1,0,1:2:0:0:
484,320,303209,1,0,1:2:0:0:
496,267,303288,1,0,1:2:0:0:
474,218,303367,1,0,1:2:0:0:
427,191,303447,5,10,1:2:0:0:
359,184,303525,1,0,1:2:0:0:
299,215,303604,1,0,1:2:0:0:
265,274,303683,1,0,1:2:0:0:
268,341,303763,6,0,P|307:341|336:310,1,55.0000016784668,2|0,1:2|1:0,1:1:0:0:
162,191,303921,2,0,P|143:224|155:265,1,55.0000016784668,2|0,1:2|1:0,1:1:0:0:
359,184,304078,2,0,P|338:151|297:141,1,55.0000016784668,10|0,1:2|1:0,1:1:0:0:
98,66,304236,1,2,1:2:0:0:
95,79,304314,1,0,1:2:0:0:
93,93,304394,5,0,1:2:0:0:
132,129,304472,1,0,1:2:0:0:
186,132,304551,1,0,1:2:0:0:
228,100,304630,1,0,1:2:0:0:
240,47,304710,5,10,1:2:0:0:
174,59,304788,1,0,1:2:0:0:
128,109,304867,1,0,1:2:0:0:
123,176,304946,1,0,1:2:0:0:
161,232,305026,5,2,1:2:0:0:
170,301,305104,1,0,1:2:0:0:
116,347,305183,1,0,1:2:0:0:
45,333,305262,1,0,1:2:0:0:
14,267,305342,6,0,P|6:241|2:213,1,55.0000016784668,10|0,1:2|1:0,1:1:0:0:
262,183,305500,2,0,P|257:210|250:236,5,55.0000016784668,2|0|0|0|0|0,1:2|1:0|1:0|1:0|1:0|1:0,1:1:0:0:
278,318,305973,5,10,1:2:0:0:
317,305,306051,1,0,1:2:0:0:
358,308,306130,1,0,1:2:0:0:
394,328,306209,1,0,1:2:0:0:
419,360,306289,6,0,P|377:358|357:349,1,55.0000016784668,6|0,1:2|1:0,1:1:0:0:
483,212,306447,2,8,P|502:250|504:272,1,55.0000016784668,10|0,1:2|1:0,1:1:0:0:
328,155,306605,5,8,1:2:0:0:
307,105,306683,1,0,1:2:0:0:
324,47,306762,1,0,1:2:0:0:
374,14,306841,1,0,1:2:0:0:
438,17,306921,5,6,1:2:0:0:
427,70,306999,1,0,1:2:0:0:
385,105,307078,1,0,1:2:0:0:
331,106,307157,1,0,1:2:0:0:
288,74,307236,5,10,1:2:0:0:
253,48,307314,1,0,1:2:0:0:
210,37,307393,1,0,1:2:0:0:
167,46,307472,1,0,1:2:0:0:
132,74,307552,5,2,1:2:0:0:
157,128,307630,1,0,1:2:0:0:
216,140,307709,1,0,1:2:0:0:
269,110,307788,1,0,1:2:0:0:
297,55,307868,6,0,P|271:46|244:45,1,55.0000016784668,10|0,1:2|1:0,1:1:0:0:
46,182,308026,1,2,1:2:0:0:
31,234,308104,1,0,1:2:0:0:
46,286,308183,1,0,1:2:0:0:
86,323,308262,1,0,1:2:0:0:
139,333,308341,1,0,1:2:0:0:
190,314,308420,1,0,1:2:0:0:
223,270,308500,5,10,1:2:0:0:
256,242,308578,1,0,1:2:0:0:
299,232,308657,1,0,1:2:0:0:
342,238,308736,1,0,1:2:0:0:
378,261,308815,5,2,1:2:0:0:
333,300,308893,1,0,1:2:0:0:
272,293,308972,1,0,1:2:0:0:
234,244,309052,1,0,1:2:0:0:
236,183,309131,6,0,P|238:158|259:126,1,55.0000016784668,10|0,1:2|1:0,1:1:0:0:
490,12,309289,1,2,1:2:0:0:
495,65,309367,1,0,1:2:0:0:
469,113,309446,1,0,1:2:0:0:
420,136,309525,1,0,1:2:0:0:
366,127,309604,1,0,1:2:0:0:
328,90,309683,1,0,1:2:0:0:
318,36,309763,5,10,1:2:0:0:
360,44,309841,1,0,1:2:0:0:
395,69,309920,1,0,1:2:0:0:
411,109,309999,1,0,1:2:0:0:
410,153,310078,5,2,1:2:0:0:
369,197,310156,1,0,1:2:0:0:
349,254,310235,1,0,1:2:0:0:
365,312,310314,1,0,1:2:0:0:
407,355,310394,6,0,P|448:347|475:331,1,55.0000016784668,10|0,1:2|1:0,1:1:0:0:
272,225,310552,2,0,P|246:214|219:211,5,55.0000016784668,2|0|0|0|0|0,1:2|1:0|1:0|1:0|1:0|1:0,1:1:0:0:
148,178,311026,5,10,1:2:0:0:
111,196,311104,1,0,1:2:0:0:
87,229,311183,1,0,1:2:0:0:
80,269,311262,1,0,1:2:0:0:
92,308,311342,6,0,L|166:300,1,55.0000016784668,2|0,1:2|1:0,1:1:0:0:
270,232,311500,2,0,L|195:224,1,55.0000016784668,2|0,1:2|1:0,1:1:0:0:
55,150,311657,6,0,L|129:142,1,55.0000016784668,10|0,1:2|1:0,0:0:0:0:
299,77,311815,2,0,L|224:69,1,55.0000016784668,2|0,1:2|1:0,0:0:0:0:
19,17,311973,5,6,1:2:0:0:
72,22,312051,1,0,1:2:0:0:
105,64,312130,1,0,1:2:0:0:
98,118,312209,1,0,1:2:0:0:
55,150,312289,5,10,1:2:0:0:
27,183,312367,1,0,1:2:0:0:
21,226,312446,1,0,1:2:0:0:
42,264,312525,1,0,1:2:0:0:
80,286,312605,5,2,1:2:0:0:
133,258,312683,1,0,1:2:0:0:
193,263,312762,1,0,1:2:0:0:
239,301,312841,1,0,1:2:0:0:
256,359,312921,6,0,P|224:347|219:314,1,55.0000016784668,10|0,1:2|1:0,1:1:0:0:
323,169,313078,1,2,1:2:0:0:
364,133,313156,1,0,1:2:0:0:
417,127,313235,1,0,1:2:0:0:
465,152,313314,1,0,1:2:0:0:
490,200,313393,1,0,1:2:0:0:
484,254,313472,1,0,1:2:0:0:
449,295,313552,5,10,1:2:0:0:
389,264,313630,1,0,1:2:0:0:
359,203,313709,1,0,1:2:0:0:
370,137,313788,1,0,1:2:0:0:
419,90,313868,6,0,P|455:94|488:107,1,55.0000016784668,2|0,1:2|1:0,1:1:0:0:
255,214,314026,2,0,P|240:181|235:146,1,55.0000016784668,2|0,1:2|1:0,1:1:0:0:
449,295,314184,2,0,P|427:323|400:346,1,55.0000016784668,10|0,1:2|1:0,1:1:0:0:
166,367,314342,1,4,1:2:0:0:
163,353,314420,1,0,1:2:0:0:
162,338,314500,5,0,1:2:0:0:
185,284,314578,1,0,1:2:0:0:
237,256,314657,1,0,1:2:0:0:
294,268,314736,1,0,1:2:0:0:
331,313,314815,5,12,1:2:0:0:
389,326,314893,1,0,1:2:0:0:
441,299,314972,1,0,1:2:0:0:
463,245,315051,1,0,1:2:0:0:
446,188,315131,5,4,1:2:0:0:
381,153,315209,1,0,1:2:0:0:
308,164,315288,1,0,1:2:0:0:
255,215,315367,1,0,1:2:0:0:
244,288,315447,5,12,1:2:0:0:
194,342,315525,1,0,1:2:0:0:
115,340,315604,1,0,1:2:0:0:
60,283,315683,1,0,1:2:0:0:
66,199,315763,5,8,1:2:0:0:
72,170,315841,1,8,1:2:0:0:
94,150,315921,2,8,P|122:147|149:158,1,59.9999981689454,8|8,1:2|1:2,0:0:0:0:
170,21,316078,5,10,1:2:0:0:
189,27,316156,1,8,1:2:0:0:
206,37,316236,2,8,P|230:59|242:124,1,59.9999981689454,8|8,1:2|1:2,0:0:0:0:
362,28,316394,5,10,1:2:0:0:
366,44,316472,1,8,1:2:0:0:
366,59,316552,2,8,P|359:92|309:134,1,59.9999981689454,10|8,1:2|1:2,0:0:0:0:
475,194,316710,5,8,1:2:0:0:
450,209,316788,1,0,1:0:0:0:
408,209,316867,1,8,1:2:0:0:
361,183,316946,1,0,1:0:0:0:
344,113,317026,6,0,B|380:125|425:104|425:104|355:143|372:274|280:149|224:274|224:274|251:130|165:147|170:61|170:61|71:163|194:251|194:251|132:285|77:131|-15:188|-59:238|-37:348|80:402|65:237|206:356,1,1275.00004863739,4|0,1:2|0:2,0:0:0:0:
23,329,325868,5,8,1:2:0:0:
48,325,325946,1,8,1:2:0:0:
73,322,326025,1,0,1:2:0:0:
98,319,326104,1,0,1:2:0:0:
122,298,326184,5,0,1:2:0:0:
147,302,326262,1,0,1:2:0:0:
172,305,326341,1,0,1:2:0:0:
197,308,326420,1,0,1:2:0:0:
219,332,326500,5,0,1:2:0:0:
266,344,326578,1,0,1:2:0:0:
310,323,326657,1,0,1:2:0:0:
330,279,326736,1,0,1:2:0:0:
317,231,326815,6,0,B|344:189|344:189|315:142|297:42,1,179.999994506836,12|0,1:2|0:2,0:0:0:0:
224,6,327131,6,0,P|206:58|195:113,1,100,0|0,1:2|0:2,0:0:0:0:
162,258,327447,1,0,2:2:0:0:
32,48,327605,2,0,P|50:100|61:155,1,100,0|0,1:2|0:2,0:0:0:0:
95,340,327921,1,0,2:2:0:0:
249,181,328078,6,0,B|311:196|311:196|348:253|348:253|431:269,1,200,8|0,0:2|0:2,0:0:0:0:
495,87,328552,1,0,1:2:0:0:
495,87,328710,2,0,L|361:112,1,100,0|0,0:2|0:2,0:0:0:0:
239,21,329026,2,0,P|202:73|200:118,1,100,0|0,1:2|0:2,0:0:0:0:
253,336,329342,2,0,P|268:269|196:279,1,150,8|0,0:2|0:2,0:0:0:0:
141,328,329657,6,0,B|93:306|93:306|41:301,1,100,0|0,1:2|0:2,0:0:0:0:
46,301,329973,1,0,0:2:0:0:
184,192,330131,2,0,B|169:141|169:141|140:98,1,100,0|0,1:2|0:2,0:0:0:0:
143,102,330447,1,0,0:2:0:0:
324,179,330605,6,0,L|352:31,1,150,8|0,0:2|0:2,0:0:0:0:
359,13,330921,1,0,0:2:0:0:
449,178,331078,1,0,1:2:0:0:
233,98,331236,1,0,0:2:0:0:
461,54,331394,1,0,0:2:0:0:
332,254,331552,5,8,0:2:0:0:
233,98,331710,1,0,1:2:0:0:
230,85,331788,1,0,1:2:0:0:
228,73,331868,6,0,L|241:-17,1,50,12|0,0:2|0:2,0:0:0:0:
51,98,332026,2,0,L|58:147,1,50,8|0,0:2|0:2,0:0:0:0:
164,228,332184,6,0,P|115:238|76:269,1,100,4|0,1:2|0:2,0:0:0:0:
254,267,332500,2,0,P|230:310|229:360,1,100,0|0,1:2|0:2,0:0:0:0:
353,249,332815,2,0,P|371:294|408:327,1,100,0|0,1:2|0:2,0:0:0:0:
408,327,333131,1,0,1:2:0:0:
498,158,333289,1,0,1:2:0:0:
382,42,333447,6,0,P|333:73|318:123,1,100,0|0,1:2|0:2,0:0:0:0:
197,36,333763,2,0,P|199:93|235:131,1,100,0|0,1:2|0:2,0:0:0:0:
108,196,334078,2,0,P|159:222|210:210,1,100,0|0,1:2|0:2,0:0:0:0:
199,216,334394,1,0,1:2:0:0:
288,22,334552,1,0,1:2:0:0:
52,67,334710,6,0,B|14:98|14:98|34:228,1,179.999994506836,4|0,1:2|0:2,0:0:0:0:
81,285,335026,1,8,0:2:0:0:
296,164,335184,1,0,0:2:0:0:
121,105,335342,5,0,1:2:0:0:
225,330,335500,1,0,1:2:0:0:
376,131,335657,2,0,P|337:87|278:80,1,119.999996337891,8|0,0:2|0:2,0:0:0:0:
332,367,335973,5,8,1:2:0:0:
361,362,336051,1,8,1:2:0:0:
391,357,336130,1,0,1:2:0:0:
420,352,336209,1,0,1:2:0:0:
450,347,336289,5,0,1:2:0:0:
467,307,336367,1,0,1:2:0:0:
451,266,336446,1,0,1:2:0:0:
411,248,336525,1,0,1:2:0:0:
370,263,336605,5,0,1:2:0:0:
318,290,336683,1,0,1:2:0:0:
254,273,336762,1,0,1:2:0:0:
214,219,336841,1,0,1:2:0:0:
229,148,336921,6,0,B|292:123|292:123|261:266,1,194.999991073609,8|0,1:2|0:2,0:0:0:0:
214,348,337236,5,12,1:2:0:0:
45,144,337394,1,0,1:2:0:0:
350,46,337552,1,0,1:2:0:0:
97,280,337710,5,12,1:2:0:0:
432,157,337868,1,0,1:2:0:0:
66,35,338026,1,0,1:2:0:0:
464,70,338184,5,12,1:2:0:0:
214,348,338342,2,0,B|110:354|128:269|45:225|45:225|161:288|322:158|218:340|412:443|514:258|452:167|348:177|339:255,1,750,12|0,1:2|0:2,0:0:0:0:
337,252,339605,5,0,1:2:0:0:
328,275,339683,1,0,1:2:0:0:
334,299,339762,1,0,1:2:0:0:
