osu file format v14

[General]
AudioFilename: audio.mp3
AudioLeadIn: 0
PreviewTime: 47314
Countdown: 0
SampleSet: Soft
StackLeniency: 0.7
Mode: 3
LetterboxInBreaks: 0
SpecialStyle: 0
WidescreenStoryboard: 1

[Editor]
Bookmarks: 31501,39031,46560,61619,71972,79501,87031,94560,102090,109619,112443
DistanceSpacing: 3
BeatDivisor: 16
GridSize: 4
TimelineZoom: 2.899999

[Metadata]
Title:End to end
TitleUnicode:End to end
Artist:Noah
ArtistUnicode:Noah
Creator:Noch Einen
Version:EXHAUST
Source:SOUND VOLTEX III GRAVITY WARS
Tags:SDVX The 5th KAC Original Song Contest オリジナル楽曲コンテスト Ortlinde=NBLG=Valkyria Konami Bemani World's End Sequel ExUsagi ajeemaniz Arzenvald Adinda FAMoss instrumental video game
BeatmapID:3637997
BeatmapSetID:1776437

[Difficulty]
HPDrainRate:8
CircleSize:7
OverallDifficulty:8
ApproachRate:5
SliderMultiplier:1.4
SliderTickRate:1

[Events]
//Background and Video events
0,0,"bg.jpg",0,0
//Break Periods
2,32587,37761
2,73075,78230
//Storyboard Layer 0 (Background)
//Storyboard Layer 1 (Fail)
//Storyboard Layer 2 (Pass)
//Storyboard Layer 3 (Foreground)
//Storyboard Layer 4 (Overlay)
//Storyboard Sound Samples
Sample,72539,0,"tom01.wav",70
Sample,72618,0,"tom02.wav",70
Sample,72696,0,"tom03.wav",70
Sample,72774,0,"tom04.wav",70

[TimingPoints]
1976,240,4,2,1,70,1,0
1976,-98.0392156862745,4,2,1,70,0,0
9656,-98.0392156862745,4,2,1,70,0,0
17314,235.294117647059,4,2,1,70,1,0
47431,-100,4,2,1,70,0,1
62490,-100,4,2,1,70,0,0
72875,235.294117647059,4,2,1,70,1,8
79430,235.294117647059,4,2,1,70,1,0
102959,-100,4,2,1,70,0,1
110488,-100,4,2,1,70,0,0

[HitObjects]
36,192,1616,5,0,0:0:0:0:
109,192,1676,1,0,0:0:0:0:
182,192,1736,1,0,0:0:0:0:
256,192,1796,1,0,0:0:0:0:
329,192,1856,1,0,0:0:0:0:
402,192,1916,1,0,0:0:0:0:
36,192,1976,128,4,2936:0:0:0:0:
475,192,1976,1,2,0:0:0:0:
182,192,2456,128,0,2936:0:0:0:0:
402,192,3056,128,0,4016:0:0:0:0:
109,192,3536,128,0,4016:0:0:0:0:
256,192,4016,128,0,5816:0:0:0:0:
109,192,4976,128,0,5816:0:0:0:0:
402,192,4976,128,0,5816:0:0:0:0:
36,192,5816,128,0,6776:0:0:0:0:
475,192,5816,128,0,6296:0:0:0:0:
329,192,6296,128,0,6776:0:0:0:0:
109,192,6776,128,0,7256:0:0:0:0:
402,192,6776,128,0,7736:0:0:0:0:
256,192,7256,128,0,7736:0:0:0:0:
36,192,7736,128,0,8696:0:0:0:0:
329,192,7736,128,0,9656:0:0:0:0:
182,192,8696,128,0,9656:0:0:0:0:
475,192,8696,128,0,9656:0:0:0:0:
36,192,9656,1,4,0:0:0:0:
109,192,9656,128,2,9896:0:0:0:0:
256,192,9896,128,0,10136:0:0:0:0:
402,192,10136,1,0,0:0:0:0:
182,192,10256,1,0,0:0:0:0:
329,192,10316,1,0,0:0:0:0:
109,192,10376,1,0,0:0:0:0:
256,192,10436,1,0,0:0:0:0:
36,192,10496,1,0,0:0:0:0:
182,192,10556,1,0,0:0:0:0:
329,192,10616,1,0,0:0:0:0:
402,192,10676,1,0,0:0:0:0:
109,192,10736,1,0,0:0:0:0:
182,192,10796,1,0,0:0:0:0:
256,192,10856,128,0,11096:0:0:0:0:
402,192,11096,128,0,11336:0:0:0:0:
109,192,11336,128,0,11576:0:0:0:0:
256,192,11576,1,0,0:0:0:0:
475,192,11636,1,0,0:0:0:0:
182,192,11696,1,0,0:0:0:0:
402,192,11756,1,0,0:0:0:0:
109,192,11816,1,0,0:0:0:0:
329,192,11876,1,0,0:0:0:0:
36,192,11936,1,0,0:0:0:0:
109,192,11996,1,0,0:0:0:0:
182,192,12056,128,0,12536:0:0:0:0:
402,192,12536,128,0,13016:0:0:0:0:
256,192,12776,128,0,13016:0:0:0:0:
36,192,13016,128,0,13496:0:0:0:0:
182,192,13256,128,0,13496:0:0:0:0:
329,192,13496,1,0,0:0:0:0:
256,192,13556,1,0,0:0:0:0:
182,192,13616,1,0,0:0:0:0:
475,192,13676,1,0,0:0:0:0:
329,192,13736,1,0,0:0:0:0:
182,192,13796,1,0,0:0:0:0:
402,192,13856,1,0,0:0:0:0:
256,192,13916,1,0,0:0:0:0:
109,192,13976,1,0,0:0:0:0:
329,192,14036,1,0,0:0:0:0:
182,192,14096,1,0,0:0:0:0:
36,192,14156,1,0,0:0:0:0:
402,192,14216,1,0,0:0:0:0:
256,192,14276,1,0,0:0:0:0:
109,192,14336,1,0,0:0:0:0:
329,192,14396,1,0,0:0:0:0:
475,192,14456,1,0,0:0:0:0:
256,192,14516,1,0,0:0:0:0:
402,192,14576,1,0,0:0:0:0:
182,192,14636,1,0,0:0:0:0:
329,192,14696,1,0,0:0:0:0:
109,192,14756,1,0,0:0:0:0:
256,192,14816,1,0,0:0:0:0:
36,192,14876,1,0,0:0:0:0:
182,192,14936,1,0,0:0:0:0:
475,192,14996,1,0,0:0:0:0:
109,192,15056,1,0,0:0:0:0:
402,192,15116,1,0,0:0:0:0:
36,192,15176,1,0,0:0:0:0:
329,192,15236,1,0,0:0:0:0:
256,192,15296,1,0,0:0:0:0:
182,192,15356,1,0,0:0:0:0:
109,192,15416,128,0,16136:0:0:0:0:
36,192,16136,128,0,16256:0:0:0:0:
182,192,16256,128,0,16376:0:0:0:0:
329,192,16376,128,0,17314:0:0:0:0:
256,192,17314,128,2,20843:0:0:0:0:
36,192,17314,1,4,0:0:0:0:
475,192,17314,1,0,0:0:0:0:
36,192,17549,1,2,0:0:0:0:
329,192,17784,1,2,0:0:0:0:
182,192,18019,1,2,0:0:0:0:
36,192,18255,1,2,0:0:0:0:
109,192,18490,1,2,0:0:0:0:
402,192,18608,1,0,0:0:0:0:
182,192,18725,1,2,0:0:0:0:
402,192,18843,1,0,0:0:0:0:
329,192,18961,1,2,0:0:0:0:
36,192,19196,1,2,0:0:0:0:
475,192,19431,1,2,0:0:0:0:
182,192,19666,1,2,0:0:0:0:
329,192,19902,1,2,0:0:0:0:
475,192,20137,1,2,0:0:0:0:
329,192,20372,1,2,0:0:0:0:
182,192,20608,1,2,0:0:0:0:
36,192,20843,1,8,0:0:0:0:
475,192,20843,1,0,0:0:0:0:
36,192,21078,1,2,0:0:0:0:
109,192,21078,1,4,0:0:0:0:
402,192,21078,1,0,0:0:0:0:
475,192,21078,1,0,0:0:0:0:
182,192,21314,1,8,0:0:0:0:
329,192,21314,1,0,0:0:0:0:
256,192,21549,1,2,0:0:0:0:
182,192,21784,1,2,0:0:0:0:
36,192,21902,1,8,0:0:0:0:
329,192,21902,1,0,0:0:0:0:
256,192,22019,1,2,0:0:0:0:
36,192,22137,1,8,0:0:0:0:
182,192,22137,1,0,0:0:0:0:
329,192,22255,1,2,0:0:0:0:
182,192,22490,1,8,0:0:0:0:
475,192,22490,1,0,0:0:0:0:
329,192,22725,1,2,0:0:0:0:
36,192,22843,1,8,0:0:0:0:
182,192,22843,1,0,0:0:0:0:
256,192,22961,1,2,0:0:0:0:
402,192,22961,1,0,0:0:0:0:
109,192,23196,1,2,0:0:0:0:
256,192,23196,128,0,24843:0:0:0:0:
36,192,23431,1,8,0:0:0:0:
475,192,23431,1,0,0:0:0:0:
109,192,23549,1,8,0:0:0:0:
402,192,23549,1,0,0:0:0:0:
329,192,23666,1,2,0:0:0:0:
182,192,23784,1,2,0:0:0:0:
109,192,23902,1,6,0:0:0:0:
475,192,23961,1,2,0:0:0:0:
402,192,24019,1,2,0:0:0:0:
329,192,24078,1,2,0:0:0:0:
36,192,24137,1,2,0:0:0:0:
475,192,24196,1,2,0:0:0:0:
402,192,24255,1,2,0:0:0:0:
109,192,24314,1,2,0:0:0:0:
36,192,24372,1,2,0:0:0:0:
475,192,24431,1,2,0:0:0:0:
182,192,24490,1,2,0:0:0:0:
109,192,24549,1,2,0:0:0:0:
36,192,24608,1,8,0:0:0:0:
402,192,24608,1,0,0:0:0:0:
36,192,24843,1,2,0:0:0:0:
109,192,24843,1,0,0:0:0:0:
182,192,24843,1,0,0:0:0:0:
475,192,24843,128,0,27902:0:0:0:0:
256,192,25078,1,4,0:0:0:0:
402,192,25078,1,8,0:0:0:0:
182,192,25314,1,2,0:0:0:0:
256,192,25431,1,2,0:0:0:0:
36,192,25549,1,8,0:0:0:0:
329,192,25549,1,0,0:0:0:0:
182,192,25784,1,2,0:0:0:0:
109,192,26019,1,8,0:0:0:0:
256,192,26019,1,0,0:0:0:0:
36,192,26255,1,2,0:0:0:0:
109,192,26314,1,2,0:0:0:0:
182,192,26372,1,2,0:0:0:0:
256,192,26431,1,2,0:0:0:0:
36,192,26490,1,8,0:0:0:0:
329,192,26490,1,0,0:0:0:0:
182,192,26725,1,2,0:0:0:0:
329,192,26843,1,2,0:0:0:0:
109,192,26961,1,8,0:0:0:0:
256,192,26961,1,0,0:0:0:0:
182,192,27196,1,2,0:0:0:0:
36,192,27431,1,8,0:0:0:0:
329,192,27431,1,0,0:0:0:0:
256,192,27666,1,2,0:0:0:0:
182,192,27784,1,2,0:0:0:0:
109,192,27902,1,8,0:0:0:0:
402,192,27902,1,0,0:0:0:0:
329,192,28137,1,2,0:0:0:0:
182,192,28255,1,2,0:0:0:0:
36,192,28372,1,8,0:0:0:0:
256,192,28372,1,0,0:0:0:0:
182,192,28490,1,8,0:0:0:0:
329,192,28490,1,0,0:0:0:0:
36,192,28608,1,2,0:0:0:0:
109,192,28608,1,4,0:0:0:0:
402,192,28608,1,0,0:0:0:0:
475,192,28608,1,0,0:0:0:0:
182,192,28843,1,8,0:0:0:0:
329,192,28843,1,0,0:0:0:0:
402,192,29078,1,2,0:0:0:0:
329,192,29137,1,2,0:0:0:0:
256,192,29196,1,2,0:0:0:0:
182,192,29255,1,2,0:0:0:0:
109,192,29314,1,8,0:0:0:0:
475,192,29314,1,0,0:0:0:0:
36,192,29549,1,2,0:0:0:0:
329,192,29549,1,4,0:0:0:0:
402,192,29549,1,0,0:0:0:0:
475,192,29549,1,0,0:0:0:0:
109,192,29666,1,2,0:0:0:0:
182,192,29784,1,8,0:0:0:0:
329,192,29784,1,0,0:0:0:0:
36,192,29902,1,2,0:0:0:0:
256,192,30019,1,0,0:0:0:0:
475,192,30137,1,2,0:0:0:0:
402,192,30196,1,2,0:0:0:0:
36,192,30255,1,8,0:0:0:0:
329,192,30255,1,0,0:0:0:0:
256,192,30372,1,8,0:0:0:0:
36,192,30490,1,8,0:0:0:0:
109,192,30490,1,4,0:0:0:0:
182,192,30490,1,0,0:0:0:0:
475,192,30490,1,0,0:0:0:0:
329,192,30608,1,2,0:0:0:0:
182,192,30725,1,8,0:0:0:0:
475,192,30725,1,0,0:0:0:0:
402,192,30843,1,2,0:0:0:0:
256,192,30902,1,2,0:0:0:0:
36,192,30961,1,8,0:0:0:0:
109,192,30961,1,0,0:0:0:0:
329,192,31078,1,2,0:0:0:0:
182,192,31137,1,2,0:0:0:0:
36,192,31196,1,8,0:0:0:0:
475,192,31196,1,0,0:0:0:0:
109,192,31255,1,0,0:0:0:0:
182,192,31314,1,2,0:0:0:0:
256,192,31372,1,2,0:0:0:0:
36,192,31431,1,8,0:0:0:0:
329,192,31431,1,4,0:0:0:0:
402,192,31431,1,0,0:0:0:0:
475,192,31431,1,0,0:0:0:0:
256,192,31549,1,8,0:0:0:0:
36,192,31666,1,8,0:0:0:0:
329,192,31666,1,0,0:0:0:0:
182,192,31784,1,0,0:0:0:0:
36,192,31902,1,0,0:0:0:70:tom01.wav
402,192,31902,1,0,0:0:0:0:
109,192,32019,1,0,0:0:0:70:tom02.wav
182,192,32137,1,0,0:0:0:70:tom03.wav
329,192,32137,1,0,0:0:0:0:
329,192,32255,1,0,0:0:0:70:tom04.wav
36,192,32372,1,4,0:0:0:0:
182,192,32372,1,2,0:0:0:0:
402,192,32372,1,0,0:0:0:0:
475,192,32372,1,0,0:0:0:0:
182,192,38961,5,8,0:0:0:0:
329,192,38961,1,4,0:0:0:0:
402,192,38961,1,0,0:0:0:0:
475,192,38961,1,0,0:0:0:0:
36,192,39117,1,8,0:0:0:0:
182,192,39196,1,8,0:0:0:0:
109,192,39274,1,0,0:0:0:70:tom01.wav
256,192,39353,1,0,0:0:0:70:tom02.wav
182,192,39431,1,2,0:0:0:0:
329,192,39510,1,2,0:0:0:0:
256,192,39588,1,2,0:0:0:0:
402,192,39666,1,2,0:0:0:0:
329,192,39745,1,2,0:0:0:0:
475,192,39823,1,2,0:0:0:0:
36,192,39902,1,8,0:0:0:0:
109,192,39902,1,4,0:0:0:0:
182,192,39902,1,0,0:0:0:0:
402,192,39902,1,0,0:0:0:0:
256,192,40019,1,2,0:0:0:0:
36,192,40137,1,8,0:0:0:0:
329,192,40137,1,0,0:0:0:0:
182,192,40255,1,2,0:0:0:0:
36,192,40372,1,8,0:0:0:0:
475,192,40372,1,0,0:0:0:0:
329,192,40490,1,2,0:0:0:0:
182,192,40549,1,2,0:0:0:0:
36,192,40608,1,8,0:0:0:0:
475,192,40608,1,0,0:0:0:0:
256,192,40725,1,2,0:0:0:0:
36,192,40843,1,8,0:0:0:0:
475,192,40843,1,0,0:0:0:0:
182,192,40961,1,2,0:0:0:0:
329,192,41078,1,8,0:0:0:0:
475,192,41078,1,0,0:0:0:0:
109,192,41196,1,2,0:0:0:0:
256,192,41314,1,8,0:0:0:0:
475,192,41314,1,0,0:0:0:0:
36,192,41431,1,2,0:0:0:0:
109,192,41490,1,2,0:0:0:0:
182,192,41549,1,8,0:0:0:0:
475,192,41549,1,0,0:0:0:0:
109,192,41666,1,2,0:0:0:0:
182,192,41725,1,2,0:0:0:0:
36,192,41784,1,4,0:0:0:0:
256,192,41784,1,8,0:0:0:0:
402,192,41784,1,0,0:0:0:0:
475,192,41784,1,0,0:0:0:0:
182,192,42019,1,8,0:0:0:0:
329,192,42019,1,0,0:0:0:0:
109,192,42137,1,2,0:0:0:0:
36,192,42255,1,2,0:0:0:0:
182,192,42372,1,2,0:0:0:0:
109,192,42490,1,8,0:0:0:0:
402,192,42490,1,0,0:0:0:0:
329,192,42608,1,8,0:0:0:0:
36,192,42725,1,8,0:0:0:0:
256,192,42725,1,0,0:0:0:0:
475,192,42725,1,0,0:0:0:0:
182,192,42843,1,2,0:0:0:0:
256,192,42961,1,2,0:0:0:0:
402,192,42961,1,0,0:0:0:0:
36,192,43078,1,2,0:0:0:0:
182,192,43137,1,0,0:0:0:0:
329,192,43196,1,2,0:0:0:0:
475,192,43196,1,0,0:0:0:0:
109,192,43314,1,2,0:0:0:0:
256,192,43431,1,2,0:0:0:0:
402,192,43431,1,0,0:0:0:0:
182,192,43549,1,2,0:0:0:0:
109,192,43666,1,4,0:0:0:0:
475,192,43666,1,8,0:0:0:0:
402,192,43666,1,0,0:0:0:0:
329,192,43725,1,0,0:0:0:0:
256,192,43784,1,2,0:0:0:0:
182,192,43843,1,0,0:0:0:0:
36,192,43902,1,8,0:0:0:0:
109,192,43902,1,0,0:0:0:0:
475,192,43902,1,0,0:0:0:0:
329,192,44019,1,2,0:0:0:0:
36,192,44137,1,8,0:0:0:0:
109,192,44137,1,4,0:0:0:0:
182,192,44137,1,0,0:0:0:0:
256,192,44314,1,2,0:0:0:0:
329,192,44490,1,2,0:0:0:0:
36,192,44608,1,8,0:0:0:0:
402,192,44608,1,4,0:0:0:0:
475,192,44608,1,0,0:0:0:0:
256,192,44725,1,8,0:0:0:0:
109,192,44843,1,2,0:0:0:0:
182,192,44902,1,2,0:0:0:0:
256,192,44961,1,2,0:0:0:0:
329,192,45019,1,2,0:0:0:0:
36,192,45078,1,8,0:0:0:0:
402,192,45078,1,4,0:0:0:0:
475,192,45078,1,0,0:0:0:0:
36,192,45255,1,2,0:0:0:0:
109,192,45255,1,0,0:0:0:0:
329,192,45255,1,0,0:0:0:0:
182,192,45431,1,8,0:0:0:0:
256,192,45431,1,0,0:0:0:0:
36,192,45549,1,4,0:0:0:0:
329,192,45549,1,2,0:0:0:0:
402,192,45549,1,0,0:0:0:0:
475,192,45549,1,0,0:0:0:0:
109,192,45666,1,2,0:0:0:0:
182,192,45784,1,8,0:0:0:0:
329,192,45784,1,0,0:0:0:0:
109,192,45902,1,2,0:0:0:0:
256,192,45961,1,2,0:0:0:0:
36,192,46019,1,8,0:0:0:0:
402,192,46019,1,4,0:0:0:0:
475,192,46019,1,0,0:0:0:0:
182,192,46137,1,2,0:0:0:0:
329,192,46196,1,2,0:0:0:0:
36,192,46255,1,8,0:0:0:0:
475,192,46255,1,0,0:0:0:0:
256,192,46372,1,2,0:0:0:0:
36,192,46490,1,8,0:0:0:0:
109,192,46490,1,4,0:0:0:0:
475,192,46490,1,0,0:0:0:0:
402,192,46549,1,2,0:0:0:0:
329,192,46608,1,2,0:0:0:0:
256,192,46666,1,2,0:0:0:0:
182,192,46725,1,2,0:0:0:0:
109,192,46784,1,2,0:0:0:0:
36,192,46843,1,8,0:0:0:0:
402,192,46843,1,4,0:0:0:0:
475,192,46843,1,0,0:0:0:0:
256,192,46902,1,0,0:0:0:0:
109,192,46961,1,2,0:0:0:0:
329,192,47019,1,0,0:0:0:0:
182,192,47078,1,2,0:0:0:0:
402,192,47137,1,0,0:0:0:0:
256,192,47196,1,8,0:0:0:0:
475,192,47196,1,0,0:0:0:0:
36,192,47431,1,4,0:0:0:0:
109,192,47431,1,2,0:0:0:0:
182,192,47431,1,0,0:0:0:0:
402,192,47431,128,0,47902:0:0:0:0:
36,192,47666,1,8,0:0:0:0:
109,192,47666,1,0,0:0:0:0:
256,192,47902,1,2,0:0:0:0:
182,192,48019,1,2,0:0:0:0:
109,192,48137,1,8,0:0:0:0:
329,192,48137,1,0,0:0:0:0:
36,192,48255,1,2,0:0:0:0:
256,192,48255,128,0,48490:0:0:0:0:
109,192,48490,1,2,0:0:0:0:
182,192,48608,1,8,0:0:0:0:
475,192,48608,1,0,0:0:0:0:
329,192,48725,1,0,0:0:0:0:
109,192,48843,1,2,0:0:0:0:
256,192,48961,1,2,0:0:0:0:
36,192,49078,1,8,0:0:0:0:
402,192,49078,1,0,0:0:0:0:
182,192,49314,128,2,49784:0:0:0:0:
329,192,49314,1,0,0:0:0:0:
402,192,49431,1,0,0:0:0:0:
36,192,49549,1,8,0:0:0:0:
475,192,49549,1,0,0:0:0:0:
329,192,49784,1,2,0:0:0:0:
402,192,49902,1,2,0:0:0:0:
182,192,50019,1,8,0:0:0:0:
475,192,50019,1,0,0:0:0:0:
36,192,50137,1,2,0:0:0:0:
109,192,50137,128,0,50725:0:0:0:0:
329,192,50372,1,2,0:0:0:0:
256,192,50490,1,8,0:0:0:0:
475,192,50490,1,0,0:0:0:0:
182,192,50725,1,2,0:0:0:0:
256,192,50784,1,2,0:0:0:0:
329,192,50843,1,2,0:0:0:0:
402,192,50902,1,2,0:0:0:0:
36,192,50961,1,8,0:0:0:0:
475,192,50961,1,0,0:0:0:0:
109,192,51078,1,0,0:0:0:0:
182,192,51196,128,4,51431:0:0:0:0:
329,192,51196,1,2,0:0:0:0:
402,192,51196,1,0,0:0:0:0:
475,192,51196,1,0,0:0:0:0:
36,192,51431,1,8,0:0:0:0:
329,192,51431,1,0,0:0:0:0:
256,192,51666,1,2,0:0:0:0:
182,192,51784,1,2,0:0:0:0:
109,192,51902,1,8,0:0:0:0:
475,192,51902,1,0,0:0:0:0:
36,192,52019,128,2,52255:0:0:0:0:
256,192,52019,1,0,0:0:0:0:
402,192,52019,1,0,0:0:0:0:
182,192,52255,1,2,0:0:0:0:
36,192,52372,1,8,0:0:0:0:
402,192,52372,1,0,0:0:0:0:
256,192,52490,1,2,0:0:0:0:
109,192,52608,1,2,0:0:0:0:
329,192,52725,1,2,0:0:0:0:
36,192,52843,1,8,0:0:0:0:
182,192,52843,1,0,0:0:0:0:
256,192,52961,1,2,0:0:0:0:
402,192,52961,1,4,0:0:0:0:
475,192,52961,128,0,53314:0:0:0:0:
182,192,53314,1,8,0:0:0:0:
329,192,53314,1,0,0:0:0:0:
256,192,53431,128,0,54490:0:0:0:0:
109,192,53549,1,2,0:0:0:0:
182,192,53666,1,2,0:0:0:0:
329,192,53784,1,8,0:0:0:0:
475,192,53784,1,0,0:0:0:0:
36,192,53902,1,2,0:0:0:0:
109,192,53902,1,0,0:0:0:0:
182,192,53902,1,0,0:0:0:0:
329,192,54137,1,2,0:0:0:0:
109,192,54255,1,8,0:0:0:0:
402,192,54255,1,0,0:0:0:0:
182,192,54490,1,2,0:0:0:0:
475,192,54549,1,2,0:0:0:0:
402,192,54608,1,2,0:0:0:0:
329,192,54666,1,2,0:0:0:0:
36,192,54725,1,8,0:0:0:0:
256,192,54725,1,0,0:0:0:0:
109,192,54843,1,0,0:0:0:0:
182,192,54961,1,4,0:0:0:0:
329,192,54961,1,2,0:0:0:0:
402,192,54961,1,0,0:0:0:0:
475,192,54961,128,0,55431:0:0:0:0:
36,192,55196,1,8,0:0:0:0:
109,192,55196,1,0,0:0:0:0:
256,192,55431,1,2,0:0:0:0:
182,192,55549,1,2,0:0:0:0:
109,192,55666,1,8,0:0:0:0:
402,192,55666,1,0,0:0:0:0:
36,192,55784,1,2,0:0:0:0:
329,192,55784,128,0,56019:0:0:0:0:
182,192,56019,1,2,0:0:0:0:
256,192,56078,1,0,0:0:0:0:
36,192,56137,1,8,0:0:0:0:
329,192,56137,1,0,0:0:0:0:
109,192,56196,1,0,0:0:0:0:
182,192,56255,1,2,0:0:0:0:
475,192,56314,1,0,0:0:0:0:
329,192,56372,1,2,0:0:0:0:
109,192,56431,1,0,0:0:0:0:
402,192,56490,1,2,0:0:0:0:
182,192,56549,1,0,0:0:0:0:
36,192,56608,1,8,0:0:0:0:
329,192,56608,1,0,0:0:0:0:
475,192,56666,1,0,0:0:0:0:
256,192,56725,1,0,0:0:0:0:
402,192,56784,1,0,0:0:0:0:
182,192,56843,1,2,0:0:0:0:
329,192,56902,1,0,0:0:0:0:
109,192,56961,1,0,0:0:0:0:
256,192,57019,1,0,0:0:0:0:
36,192,57078,1,8,0:0:0:0:
402,192,57078,1,0,0:0:0:0:
182,192,57137,1,0,0:0:0:0:
329,192,57196,1,0,0:0:0:0:
256,192,57255,1,0,0:0:0:0:
182,192,57314,1,2,0:0:0:0:
109,192,57431,1,2,0:0:0:0:
36,192,57549,1,8,0:0:0:0:
475,192,57549,1,0,0:0:0:0:
109,192,57666,1,2,0:0:0:0:
402,192,57666,128,0,57902:0:0:0:0:
329,192,57902,1,2,0:0:0:0:
256,192,57961,1,0,0:0:0:0:
36,192,58019,1,8,0:0:0:0:
182,192,58019,1,0,0:0:0:0:
402,192,58078,1,0,0:0:0:0:
329,192,58137,1,0,0:0:0:0:
256,192,58196,1,0,0:0:0:0:
109,192,58255,1,2,0:0:0:0:
182,192,58314,1,2,0:0:0:0:
256,192,58372,1,2,0:0:0:0:
329,192,58431,1,2,0:0:0:0:
36,192,58490,1,8,0:0:0:0:
402,192,58490,1,0,0:0:0:0:
182,192,58608,1,0,0:0:0:0:
36,192,58725,1,4,0:0:0:0:
109,192,58725,1,2,0:0:0:0:
329,192,58725,1,0,0:0:0:0:
475,192,58725,1,0,0:0:0:0:
256,192,58843,1,2,0:0:0:0:
36,192,58961,1,8,0:0:0:0:
329,192,58961,1,0,0:0:0:0:
182,192,59078,1,2,0:0:0:0:
36,192,59196,1,8,0:0:0:0:
402,192,59196,1,0,0:0:0:0:
256,192,59314,1,2,0:0:0:0:
36,192,59431,1,8,0:0:0:0:
475,192,59431,1,0,0:0:0:0:
182,192,59549,1,2,0:0:0:0:
329,192,59549,1,0,0:0:0:0:
402,192,59666,1,0,0:0:0:0:
36,192,59784,1,2,0:0:0:0:
109,192,59902,1,8,0:0:0:0:
402,192,59902,1,0,0:0:0:0:
182,192,60019,1,2,0:0:0:0:
329,192,60078,1,0,0:0:0:0:
36,192,60137,1,8,0:0:0:0:
475,192,60137,1,0,0:0:0:0:
109,192,60314,1,2,0:0:0:0:
329,192,60490,1,2,0:0:0:0:
36,192,60608,1,4,0:0:0:0:
182,192,60608,1,8,0:0:0:0:
475,192,60608,1,0,0:0:0:0:
329,192,60725,1,2,0:0:0:0:
402,192,60784,1,0,0:0:0:0:
36,192,60843,1,8,0:0:0:0:
182,192,60843,1,0,0:0:0:0:
475,192,60843,1,0,0:0:0:0:
256,192,60961,1,2,0:0:0:0:
36,192,61078,1,8,0:0:0:0:
402,192,61078,1,0,0:0:0:0:
475,192,61078,1,0,0:0:0:0:
182,192,61196,1,2,0:0:0:0:
109,192,61255,1,0,0:0:0:0:
36,192,61314,1,8,0:0:0:0:
329,192,61314,1,0,0:0:0:0:
475,192,61314,1,0,0:0:0:0:
256,192,61431,1,2,0:0:0:0:
109,192,61549,1,8,0:0:0:0:
182,192,61549,1,0,0:0:0:0:
402,192,61549,1,0,0:0:0:0:
329,192,61666,1,2,0:0:0:0:
256,192,61725,1,0,0:0:0:0:
109,192,61784,1,8,0:0:0:0:
182,192,61784,1,0,0:0:0:0:
475,192,61784,1,0,0:0:0:0:
402,192,61843,1,0,0:0:0:0:
329,192,61902,1,2,0:0:0:0:
256,192,61961,1,0,0:0:0:0:
36,192,62019,1,8,0:0:0:0:
182,192,62019,1,0,0:0:0:0:
475,192,62019,1,0,0:0:0:0:
329,192,62137,1,8,0:0:0:0:
182,192,62255,1,0,0:0:0:0:
256,192,62372,1,0,0:0:0:0:
36,192,62490,1,4,0:0:0:0:
109,192,62490,1,2,0:0:0:0:
329,192,62490,1,0,0:0:0:0:
475,192,62490,1,0,0:0:0:0:
256,192,62725,1,8,0:0:0:0:
402,192,62725,1,0,0:0:0:0:
182,192,62961,1,2,0:0:0:0:
256,192,63039,1,2,0:0:0:0:
329,192,63117,1,2,0:0:0:0:
109,192,63196,1,8,0:0:0:0:
402,192,63196,1,0,0:0:0:0:
329,192,63431,1,2,0:0:0:0:
36,192,63666,1,8,0:0:0:0:
182,192,63666,1,0,0:0:0:0:
329,192,63902,1,2,0:0:0:0:
109,192,63980,1,2,0:0:0:0:
256,192,64059,1,2,0:0:0:0:
36,192,64137,1,8,0:0:0:0:
402,192,64137,1,0,0:0:0:0:
182,192,64215,1,2,0:0:0:0:
329,192,64294,1,2,0:0:0:0:
36,192,64372,1,2,0:0:0:0:
109,192,64372,1,4,0:0:0:0:
256,192,64372,1,0,0:0:0:0:
475,192,64372,1,0,0:0:0:0:
182,192,64608,1,8,0:0:0:0:
402,192,64608,1,0,0:0:0:0:
109,192,64843,1,2,0:0:0:0:
182,192,64921,1,2,0:0:0:0:
256,192,65000,1,2,0:0:0:0:
329,192,65078,1,8,0:0:0:0:
475,192,65078,1,0,0:0:0:0:
36,192,65314,1,2,0:0:0:0:
109,192,65314,1,4,0:0:0:0:
182,192,65314,1,0,0:0:0:0:
402,192,65314,1,0,0:0:0:0:
256,192,65549,1,8,0:0:0:0:
475,192,65549,1,0,0:0:0:0:
402,192,65784,1,2,0:0:0:0:
329,192,65863,1,2,0:0:0:0:
256,192,65941,1,2,0:0:0:0:
182,192,66019,1,8,0:0:0:0:
475,192,66019,1,0,0:0:0:0:
402,192,66098,1,2,0:0:0:0:
329,192,66176,1,2,0:0:0:0:
36,192,66255,1,4,0:0:0:0:
109,192,66255,1,2,0:0:0:0:
256,192,66255,1,0,0:0:0:0:
475,192,66255,1,0,0:0:0:0:
182,192,66490,1,8,0:0:0:0:
329,192,66490,1,0,0:0:0:0:
109,192,66725,1,2,0:0:0:0:
182,192,66804,1,2,0:0:0:0:
329,192,66882,1,2,0:0:0:0:
36,192,66961,1,8,0:0:0:0:
402,192,66961,1,0,0:0:0:0:
182,192,67196,1,2,0:0:0:0:
109,192,67431,1,8,0:0:0:0:
475,192,67431,1,0,0:0:0:0:
329,192,67666,1,2,0:0:0:0:
256,192,67745,1,2,0:0:0:0:
182,192,67823,1,2,0:0:0:0:
36,192,67902,1,8,0:0:0:0:
402,192,67902,1,0,0:0:0:0:
256,192,67980,1,2,0:0:0:0:
475,192,68059,1,2,0:0:0:0:
36,192,68137,1,4,0:0:0:0:
109,192,68137,1,2,0:0:0:0:
182,192,68137,1,0,0:0:0:0:
329,192,68137,1,0,0:0:0:0:
402,192,68215,1,2,0:0:0:0:
256,192,68294,1,2,0:0:0:0:
109,192,68372,1,8,0:0:0:0:
475,192,68372,1,0,0:0:0:0:
329,192,68451,1,2,0:0:0:0:
182,192,68529,1,2,0:0:0:0:
402,192,68608,1,2,0:0:0:0:
256,192,68686,1,2,0:0:0:0:
109,192,68764,1,2,0:0:0:0:
36,192,68843,1,8,0:0:0:0:
329,192,68843,1,4,0:0:0:0:
475,192,68843,1,0,0:0:0:0:
256,192,68921,1,2,0:0:0:0:
182,192,69000,1,2,0:0:0:0:
109,192,69078,1,2,0:0:0:0:
402,192,69078,1,0,0:0:0:0:
329,192,69157,1,2,0:0:0:0:
256,192,69235,1,2,0:0:0:0:
36,192,69314,1,4,0:0:0:0:
182,192,69314,1,8,0:0:0:0:
329,192,69392,1,2,0:0:0:0:
475,192,69470,1,2,0:0:0:0:
109,192,69549,1,2,0:0:0:0:
256,192,69627,1,2,0:0:0:0:
402,192,69706,1,2,0:0:0:0:
36,192,69784,1,8,0:0:0:0:
182,192,69784,1,4,0:0:0:0:
329,192,69863,1,2,0:0:0:0:
256,192,69941,1,2,0:0:0:0:
182,192,70019,1,2,0:0:0:0:
402,192,70098,1,2,0:0:0:0:
256,192,70176,1,2,0:0:0:0:
109,192,70255,1,8,0:0:0:0:
475,192,70255,1,4,0:0:0:0:
182,192,70333,1,2,0:0:0:0:
256,192,70412,1,2,0:0:0:0:
329,192,70490,1,2,0:0:0:0:
36,192,70568,1,2,0:0:0:0:
109,192,70647,1,2,0:0:0:0:
182,192,70725,1,8,0:0:0:0:
402,192,70725,1,4,0:0:0:0:
475,192,70725,1,0,0:0:0:0:
109,192,70961,1,2,0:0:0:0:
182,192,71039,1,2,0:0:0:0:
256,192,71117,1,2,0:0:0:0:
36,192,71196,1,8,0:0:0:0:
329,192,71196,1,4,0:0:0:0:
475,192,71196,1,0,0:0:0:0:
182,192,71431,1,2,0:0:0:0:
256,192,71510,1,2,0:0:0:0:
329,192,71588,1,2,0:0:0:0:
109,192,71666,1,8,0:0:0:0:
402,192,71666,1,4,0:0:0:0:
475,192,71666,1,0,0:0:0:0:
329,192,71902,1,2,0:0:0:0:
182,192,71980,1,0,0:0:0:70:tom02.wav
36,192,72059,1,0,0:0:0:70:tom03.wav
256,192,72137,1,8,0:0:0:0:
402,192,72137,1,4,0:0:0:0:
109,192,72215,1,0,0:0:0:70:tom02.wav
182,192,72294,1,0,0:0:0:70:tom03.wav
256,192,72372,1,8,0:0:0:0:
402,192,72372,1,4,0:0:0:0:
36,192,72451,1,0,0:0:0:0:
109,192,72529,1,2,0:0:0:0:
182,192,72608,1,2,0:0:0:0:
329,192,72686,1,2,0:0:0:0:
475,192,72764,1,2,0:0:0:0:
36,192,72843,1,4,0:0:0:0:
109,192,72843,1,2,0:0:0:0:
256,192,72843,1,0,0:0:0:0:
402,192,72843,1,0,0:0:0:0:
36,192,79430,5,8,0:0:0:0:
182,192,79430,1,4,0:0:0:0:
402,192,79430,1,0,0:0:0:0:
475,192,79430,1,0,0:0:0:0:
256,192,79508,1,0,0:0:0:0:
329,192,79586,1,2,0:0:0:0:
36,192,79665,1,2,0:0:0:0:
256,192,79743,1,2,0:0:0:0:
109,192,79822,1,2,0:0:0:0:
329,192,79900,1,2,0:0:0:0:
182,192,79979,1,2,0:0:0:0:
402,192,80057,1,2,0:0:0:0:
256,192,80135,1,2,0:0:0:0:
475,192,80214,1,2,0:0:0:0:
402,192,80292,1,2,0:0:0:0:
36,192,80371,1,4,0:0:0:0:
109,192,80371,1,2,0:0:0:0:
182,192,80371,1,0,0:0:0:0:
329,192,80371,1,0,0:0:0:0:
402,192,80488,1,2,0:0:0:0:
182,192,80606,1,8,0:0:0:0:
475,192,80606,1,0,0:0:0:0:
256,192,80724,1,2,0:0:0:0:
36,192,80841,1,8,0:0:0:0:
329,192,80841,1,0,0:0:0:0:
475,192,80900,1,0,0:0:0:0:
109,192,80959,1,2,0:0:0:0:
256,192,81018,1,2,0:0:0:0:
36,192,81077,1,8,0:0:0:0:
402,192,81077,1,0,0:0:0:0:
182,192,81194,1,2,0:0:0:0:
329,192,81312,1,8,0:0:0:0:
475,192,81312,1,0,0:0:0:0:
256,192,81430,1,2,0:0:0:0:
36,192,81547,1,8,0:0:0:0:
182,192,81547,1,0,0:0:0:0:
475,192,81665,1,2,0:0:0:0:
402,192,81724,1,2,0:0:0:0:
182,192,81782,1,8,0:0:0:0:
329,192,81782,1,0,0:0:0:0:
36,192,81841,1,0,0:0:0:0:
109,192,81900,1,2,0:0:0:0:
182,192,81959,1,2,0:0:0:0:
329,192,82018,1,8,0:0:0:0:
475,192,82018,1,0,0:0:0:0:
256,192,82135,1,2,0:0:0:0:
182,192,82253,1,8,0:0:0:0:
475,192,82253,1,0,0:0:0:0:
329,192,82371,1,2,0:0:0:0:
109,192,82488,1,8,0:0:0:0:
402,192,82488,1,0,0:0:0:0:
256,192,82606,1,2,0:0:0:0:
36,192,82724,1,8,0:0:0:0:
329,192,82724,1,0,0:0:0:0:
475,192,82782,1,0,0:0:0:0:
256,192,82841,1,2,0:0:0:0:
402,192,82900,1,2,0:0:0:0:
36,192,82959,1,8,0:0:0:0:
109,192,82959,1,0,0:0:0:0:
182,192,82959,1,0,0:0:0:0:
329,192,83077,1,2,0:0:0:0:
36,192,83194,1,8,0:0:0:0:
475,192,83194,1,4,0:0:0:0:
182,192,83312,1,2,0:0:0:0:
109,192,83430,1,8,0:0:0:0:
402,192,83430,1,0,0:0:0:0:
475,192,83547,1,2,0:0:0:0:
329,192,83606,1,2,0:0:0:0:
36,192,83665,1,8,0:0:0:0:
182,192,83665,1,0,0:0:0:0:
402,192,83724,1,0,0:0:0:0:
329,192,83782,1,2,0:0:0:0:
256,192,83841,1,2,0:0:0:0:
36,192,83900,1,8,0:0:0:0:
109,192,83900,1,0,0:0:0:0:
182,192,83900,1,0,0:0:0:0:
475,192,84018,1,2,0:0:0:0:
402,192,84077,1,0,0:0:0:0:
182,192,84135,1,4,0:0:0:0:
256,192,84135,1,2,0:0:0:0:
329,192,84135,1,0,0:0:0:0:
36,192,84253,1,0,0:0:0:0:
329,192,84371,1,8,0:0:0:0:
475,192,84371,1,0,0:0:0:0:
475,192,84606,1,2,0:0:0:0:
329,192,84665,1,0,0:0:0:0:
182,192,84724,1,2,0:0:0:0:
402,192,84782,1,0,0:0:0:0:
36,192,84841,1,8,0:0:0:0:
256,192,84841,1,0,0:0:0:0:
109,192,84900,1,0,0:0:0:0:
182,192,84959,1,0,0:0:0:0:
329,192,85018,1,0,0:0:0:0:
36,192,85077,1,2,0:0:0:0:
256,192,85135,1,0,0:0:0:0:
109,192,85194,1,0,0:0:0:0:
329,192,85253,1,0,0:0:0:0:
182,192,85312,1,8,0:0:0:0:
475,192,85312,1,0,0:0:0:0:
402,192,85430,1,2,0:0:0:0:
329,192,85488,1,2,0:0:0:0:
36,192,85547,1,4,0:0:0:0:
109,192,85547,1,8,0:0:0:0:
256,192,85547,1,0,0:0:0:0:
182,192,85724,1,2,0:0:0:0:
402,192,85724,1,4,0:0:0:0:
475,192,85724,1,0,0:0:0:0:
256,192,85900,1,2,0:0:0:0:
329,192,85900,1,0,0:0:0:0:
36,192,86018,1,8,0:0:0:0:
109,192,86018,1,4,0:0:0:0:
182,192,86018,1,0,0:0:0:0:
329,192,86135,1,2,0:0:0:0:
36,192,86194,1,0,0:0:0:0:
402,192,86253,1,8,0:0:0:0:
109,192,86312,1,0,0:0:0:0:
475,192,86371,1,2,0:0:0:0:
182,192,86430,1,0,0:0:0:0:
329,192,86488,1,8,0:0:0:0:
36,192,86547,1,0,0:0:0:0:
402,192,86606,1,2,0:0:0:0:
109,192,86665,1,2,0:0:0:0:
475,192,86724,1,8,0:0:0:0:
182,192,86782,1,0,0:0:0:0:
256,192,86841,1,2,0:0:0:0:
329,192,86900,1,2,0:0:0:0:
36,192,86959,1,8,0:0:0:0:
109,192,86959,1,4,0:0:0:0:
402,192,86959,1,0,0:0:0:0:
256,192,87077,1,2,0:0:0:0:
109,192,87194,1,2,0:0:0:0:
329,192,87312,1,8,0:0:0:0:
475,192,87312,1,0,0:0:0:0:
182,192,87430,1,2,0:0:0:0:
256,192,87488,1,2,0:0:0:0:
329,192,87547,1,2,0:0:0:0:
36,192,87606,1,0,0:0:0:0:
182,192,87665,1,8,0:0:0:0:
475,192,87665,1,0,0:0:0:0:
256,192,87782,1,8,0:0:0:0:
402,192,87782,1,0,0:0:0:0:
36,192,87900,128,4,90959:0:0:0:0:
109,192,87900,1,2,0:0:0:0:
182,192,87900,1,0,0:0:0:0:
329,192,87900,1,0,0:0:0:0:
329,192,88135,1,2,0:0:0:0:
182,192,88371,1,2,0:0:0:0:
329,192,88606,1,2,0:0:0:0:
475,192,88841,1,2,0:0:0:0:
402,192,89077,1,2,0:0:0:0:
256,192,89194,1,0,0:0:0:0:
109,192,89312,1,2,0:0:0:0:
256,192,89430,1,0,0:0:0:0:
402,192,89547,1,2,0:0:0:0:
182,192,89782,1,2,0:0:0:0:
475,192,89782,128,0,90959:0:0:0:0:
182,192,90018,1,2,0:0:0:0:
402,192,90253,1,2,0:0:0:0:
256,192,90488,1,2,0:0:0:0:
109,192,90724,1,2,0:0:0:0:
402,192,90959,1,2,0:0:0:0:
182,192,91018,1,0,0:0:0:0:
329,192,91077,1,0,0:0:0:0:
109,192,91135,1,0,0:0:0:0:
402,192,91194,1,2,0:0:0:0:
182,192,91253,1,0,0:0:0:0:
329,192,91312,1,0,0:0:0:0:
109,192,91371,1,0,0:0:0:0:
475,192,91430,1,2,0:0:0:0:
36,192,91488,1,0,0:0:0:0:
329,192,91547,1,0,0:0:0:0:
182,192,91606,1,0,0:0:0:0:
256,192,91665,1,2,0:0:0:0:
402,192,91665,1,4,0:0:0:0:
475,192,91665,1,0,0:0:0:0:
36,192,91724,1,0,0:0:0:0:
109,192,91782,1,0,0:0:0:0:
182,192,91841,1,0,0:0:0:0:
329,192,91900,1,8,0:0:0:0:
475,192,91900,1,0,0:0:0:0:
36,192,91959,1,0,0:0:0:0:
256,192,92018,1,0,0:0:0:0:
109,192,92077,1,0,0:0:0:0:
402,192,92135,1,2,0:0:0:0:
182,192,92194,1,0,0:0:0:0:
256,192,92253,1,0,0:0:0:0:
329,192,92312,1,0,0:0:0:0:
109,192,92371,1,2,0:0:0:0:
256,192,92430,1,0,0:0:0:0:
402,192,92488,1,8,0:0:0:0:
475,192,92488,1,0,0:0:0:0:
182,192,92547,1,0,0:0:0:0:
329,192,92606,1,2,0:0:0:0:
475,192,92665,1,0,0:0:0:0:
36,192,92724,1,8,0:0:0:0:
256,192,92724,1,0,0:0:0:0:
402,192,92782,1,0,0:0:0:0:
182,192,92841,1,2,0:0:0:0:
329,192,92900,1,0,0:0:0:0:
109,192,92959,1,0,0:0:0:0:
256,192,93018,1,0,0:0:0:0:
36,192,93077,1,8,0:0:0:0:
402,192,93077,1,0,0:0:0:0:
329,192,93135,1,0,0:0:0:0:
256,192,93194,1,0,0:0:0:0:
182,192,93253,1,0,0:0:0:0:
475,192,93312,1,2,0:0:0:0:
402,192,93371,1,0,0:0:0:0:
182,192,93430,1,8,0:0:0:0:
329,192,93430,1,0,0:0:0:0:
109,192,93488,1,0,0:0:0:0:
36,192,93547,1,2,0:0:0:0:
256,192,93782,1,2,0:0:0:0:
402,192,94018,1,8,0:0:0:0:
36,192,94135,1,8,0:0:0:0:
182,192,94135,1,0,0:0:0:0:
329,192,94253,1,2,0:0:0:0:
475,192,94371,1,2,0:0:0:0:
256,192,94488,1,2,0:0:0:0:
329,192,94488,1,4,0:0:0:0:
402,192,94488,1,0,0:0:0:0:
182,192,94606,1,2,0:0:0:0:
36,192,94665,1,2,0:0:0:0:
256,192,94724,1,2,0:0:0:0:
109,192,94782,1,2,0:0:0:0:
329,192,94841,1,2,0:0:0:0:
182,192,94900,1,2,0:0:0:0:
402,192,94959,1,2,0:0:0:0:
256,192,95018,1,2,0:0:0:0:
475,192,95077,1,2,0:0:0:0:
329,192,95135,1,2,0:0:0:0:
36,192,95165,1,0,0:0:0:0:
109,192,95165,1,0,0:0:0:0:
182,192,95194,1,8,0:0:0:0:
36,192,95430,128,2,95782:0:0:0:0:
109,192,95430,1,4,0:0:0:0:
256,192,95430,1,0,0:0:0:0:
402,192,95430,1,0,0:0:0:0:
329,192,95665,1,8,0:0:0:0:
475,192,95665,1,0,0:0:0:0:
182,192,95782,128,0,96135:0:0:0:0:
329,192,95900,1,2,0:0:0:0:
402,192,96018,1,2,0:0:0:0:
36,192,96135,128,8,97194:0:0:0:0:
475,192,96135,1,0,0:0:0:0:
402,192,96371,1,2,0:0:0:0:
182,192,96488,128,0,96959:0:0:0:0:
475,192,96606,1,8,0:0:0:0:
402,192,96724,1,2,0:0:0:0:
329,192,96841,128,0,96959:0:0:0:0:
475,192,96959,1,2,0:0:0:0:
256,192,97077,128,8,97194:0:0:0:0:
475,192,97194,1,0,0:0:0:0:
36,192,97312,128,2,97665:0:0:0:0:
329,192,97312,1,0,0:0:0:0:
256,192,97547,1,8,0:0:0:0:
402,192,97547,1,0,0:0:0:0:
109,192,97665,128,0,98018:0:0:0:0:
475,192,97782,1,2,0:0:0:0:
402,192,97900,1,2,0:0:0:0:
36,192,98018,128,8,99077:0:0:0:0:
329,192,98018,1,0,0:0:0:0:
402,192,98253,1,2,0:0:0:0:
109,192,98371,128,2,98841:0:0:0:0:
329,192,98488,1,8,0:0:0:0:
402,192,98606,1,2,0:0:0:0:
475,192,98724,128,0,98841:0:0:0:0:
256,192,98841,1,2,0:0:0:0:
402,192,98959,128,8,99077:0:0:0:0:
256,192,99077,1,0,0:0:0:0:
36,192,99194,128,2,99547:0:0:0:0:
109,192,99194,1,4,0:0:0:0:
402,192,99194,1,0,0:0:0:0:
475,192,99194,1,0,0:0:0:0:
329,192,99430,1,8,0:0:0:0:
475,192,99430,1,0,0:0:0:0:
182,192,99547,128,0,99900:0:0:0:0:
329,192,99665,1,2,0:0:0:0:
402,192,99782,1,2,0:0:0:0:
36,192,99900,128,8,100959:0:0:0:0:
475,192,99900,1,0,0:0:0:0:
402,192,100135,1,2,0:0:0:0:
182,192,100253,128,0,100724:0:0:0:0:
256,192,100371,1,8,0:0:0:0:
475,192,100488,1,2,0:0:0:0:
329,192,100606,128,0,100724:0:0:0:0:
475,192,100724,1,2,0:0:0:0:
256,192,100841,128,8,100959:0:0:0:0:
402,192,100959,1,8,0:0:0:0:
36,192,101077,1,8,0:0:0:0:
256,192,101077,1,4,0:0:0:0:
475,192,101077,1,0,0:0:0:0:
182,192,101194,1,2,0:0:0:0:
109,192,101312,1,8,0:0:0:0:
329,192,101312,1,0,0:0:0:0:
256,192,101430,1,2,0:0:0:0:
182,192,101547,1,8,0:0:0:0:
402,192,101547,1,0,0:0:0:0:
329,192,101665,1,2,0:0:0:0:
256,192,101724,1,2,0:0:0:0:
182,192,101782,1,8,0:0:0:0:
402,192,101782,1,0,0:0:0:0:
475,192,101782,1,0,0:0:0:0:
256,192,101900,1,2,0:0:0:0:
36,192,102018,1,2,0:0:0:0:
329,192,102018,1,0,0:0:0:0:
109,192,102135,1,2,0:0:0:0:
256,192,102194,1,0,0:0:0:0:
402,192,102253,1,2,0:0:0:0:
36,192,102371,1,8,0:0:0:0:
182,192,102371,1,0,0:0:0:0:
475,192,102371,1,0,0:0:0:0:
36,192,102606,1,8,0:0:0:0:
182,192,102606,1,0,0:0:0:0:
475,192,102606,1,0,0:0:0:0:
256,192,102724,1,0,0:0:0:70:tom01.wav
329,192,102841,1,2,0:0:0:70:tom04.wav
36,192,102959,128,4,103430:0:0:0:0:
109,192,102959,1,2,0:0:0:0:
402,192,102959,1,0,0:0:0:0:
475,192,102959,1,0,0:0:0:0:
256,192,103194,1,8,0:0:0:0:
475,192,103194,1,0,0:0:0:0:
182,192,103430,1,2,0:0:0:0:
329,192,103547,1,2,0:0:0:0:
36,192,103665,1,8,0:0:0:0:
109,192,103665,1,0,0:0:0:0:
256,192,103782,1,2,0:0:0:0:
402,192,103782,128,0,104018:0:0:0:0:
256,192,104018,1,2,0:0:0:0:
109,192,104077,1,0,0:0:0:0:
402,192,104135,1,8,0:0:0:0:
475,192,104135,1,0,0:0:0:0:
36,192,104194,1,0,0:0:0:0:
182,192,104253,1,0,0:0:0:0:
329,192,104312,1,0,0:0:0:0:
475,192,104371,1,2,0:0:0:0:
256,192,104430,1,0,0:0:0:0:
402,192,104488,1,2,0:0:0:0:
182,192,104547,1,0,0:0:0:0:
36,192,104606,1,8,0:0:0:0:
329,192,104606,1,0,0:0:0:0:
475,192,104665,1,0,0:0:0:0:
256,192,104724,1,0,0:0:0:0:
36,192,104782,1,0,0:0:0:0:
182,192,104841,1,2,0:0:0:0:
402,192,104900,1,0,0:0:0:0:
109,192,104959,1,0,0:0:0:0:
329,192,105018,1,0,0:0:0:0:
36,192,105077,1,8,0:0:0:0:
475,192,105077,1,0,0:0:0:0:
256,192,105135,1,0,0:0:0:0:
402,192,105194,1,0,0:0:0:0:
182,192,105253,1,0,0:0:0:0:
329,192,105312,1,2,0:0:0:0:
256,192,105430,1,2,0:0:0:0:
182,192,105547,1,8,0:0:0:0:
475,192,105547,1,0,0:0:0:0:
36,192,105665,1,2,0:0:0:0:
329,192,105665,128,0,105900:0:0:0:0:
36,192,105900,1,2,0:0:0:0:
182,192,106018,128,8,106253:0:0:0:0:
475,192,106018,1,0,0:0:0:0:
402,192,106253,1,2,0:0:0:0:
329,192,106371,1,2,0:0:0:0:
109,192,106488,1,8,0:0:0:0:
256,192,106488,1,0,0:0:0:0:
182,192,106606,1,8,0:0:0:0:
329,192,106606,1,0,0:0:0:0:
36,192,106724,1,8,0:0:0:0:
256,192,106724,1,4,0:0:0:0:
402,192,106724,1,0,0:0:0:0:
475,192,106724,1,0,0:0:0:0:
109,192,106841,1,2,0:0:0:0:
182,192,106959,1,8,0:0:0:0:
329,192,106959,1,0,0:0:0:0:
402,192,107077,1,2,0:0:0:0:
109,192,107194,1,8,0:0:0:0:
256,192,107194,1,0,0:0:0:0:
329,192,107312,1,2,0:0:0:0:
36,192,107430,1,8,0:0:0:0:
182,192,107430,1,0,0:0:0:0:
256,192,107547,128,2,107782:0:0:0:0:
402,192,107547,1,4,0:0:0:0:
475,192,107547,1,0,0:0:0:0:
36,192,107782,1,2,0:0:0:0:
109,192,107841,1,0,0:0:0:0:
182,192,107900,1,8,0:0:0:0:
475,192,107900,1,0,0:0:0:0:
402,192,107959,1,0,0:0:0:0:
329,192,108018,1,2,0:0:0:0:
256,192,108077,1,0,0:0:0:0:
36,192,108135,1,8,0:0:0:0:
182,192,108135,1,0,0:0:0:0:
475,192,108194,1,0,0:0:0:0:
402,192,108253,1,8,0:0:0:0:
329,192,108312,1,0,0:0:0:0:
256,192,108371,1,2,0:0:0:0:
182,192,108430,1,0,0:0:0:0:
329,192,108488,1,2,0:0:0:0:
256,192,108547,1,0,0:0:0:0:
36,192,108606,1,4,0:0:0:0:
109,192,108606,1,2,0:0:0:0:
182,192,108606,1,0,0:0:0:0:
475,192,108606,1,0,0:0:0:0:
402,192,108665,1,0,0:0:0:0:
329,192,108724,1,0,0:0:0:0:
256,192,108782,1,0,0:0:0:0:
182,192,108841,1,8,0:0:0:0:
475,192,108841,1,0,0:0:0:0:
402,192,108900,1,0,0:0:0:0:
109,192,108959,1,0,0:0:0:0:
329,192,109018,1,0,0:0:0:0:
36,192,109077,1,2,0:0:0:0:
256,192,109135,1,0,0:0:0:0:
182,192,109194,1,2,0:0:0:0:
109,192,109253,1,0,0:0:0:0:
36,192,109312,1,8,0:0:0:0:
329,192,109312,1,0,0:0:0:0:
182,192,109430,1,2,0:0:0:0:
256,192,109430,1,4,0:0:0:0:
402,192,109430,1,0,0:0:0:0:
475,192,109430,128,0,109665:0:0:0:0:
109,192,109665,1,2,0:0:0:0:
256,192,109724,1,0,0:0:0:0:
402,192,109782,1,8,0:0:0:0:
475,192,109782,1,0,0:0:0:0:
36,192,109841,1,0,0:0:0:0:
182,192,109900,1,8,0:0:0:0:
329,192,109959,1,0,0:0:0:0:
36,192,110018,1,8,0:0:0:0:
475,192,110018,1,0,0:0:0:0:
109,192,110135,1,8,0:0:0:0:
256,192,110194,1,0,0:0:0:0:
402,192,110253,1,2,0:0:0:0:
182,192,110312,1,0,0:0:0:0:
329,192,110371,1,2,0:0:0:0:
109,192,110430,1,0,0:0:0:0:
36,192,110488,1,4,0:0:0:0:
256,192,110488,1,2,0:0:0:0:
402,192,110488,1,0,0:0:0:0:
475,192,110488,1,0,0:0:0:0:
256,192,110724,1,2,0:0:0:0:
36,192,110959,1,8,0:0:0:0:
109,192,110959,1,0,0:0:0:0:
329,192,110959,1,0,0:0:0:0:
182,192,111194,1,2,0:0:0:0:
329,192,111312,1,8,0:0:0:0:
475,192,111312,1,0,0:0:0:0:
109,192,111430,1,2,0:0:0:0:
256,192,111547,1,8,0:0:0:0:
182,192,111665,1,2,0:0:0:0:
36,192,111900,1,8,0:0:0:0:
109,192,111900,1,0,0:0:0:0:
329,192,111900,1,0,0:0:0:0:
256,192,112135,1,2,0:0:0:0:
182,192,112371,1,8,0:0:0:0:
475,192,112371,1,4,0:0:0:0:
402,192,112430,1,2,0:0:0:0:
329,192,112488,1,2,0:0:0:0:
109,192,112547,1,2,0:0:0:0:
256,192,112606,1,2,0:0:0:0:
402,192,112665,1,2,0:0:0:0:
182,192,112724,1,2,0:0:0:0:
109,192,112782,1,2,0:0:0:0:
36,192,112841,1,2,0:0:0:0:
402,192,112900,1,2,0:0:0:0:
256,192,112959,1,2,0:0:0:0:
109,192,113018,1,2,0:0:0:0:
475,192,113077,1,2,0:0:0:0:
329,192,113135,1,2,0:0:0:0:
182,192,113194,1,2,0:0:0:0:
256,192,113253,1,2,0:0:0:0:
36,192,113312,1,2,0:0:0:0:
329,192,113312,1,4,0:0:0:0:
402,192,113312,1,0,0:0:0:0:
475,192,113312,1,0,0:0:0:0:
