osu file format v14

[General]
AudioFilename: audio.mp3
AudioLeadIn: 0
PreviewTime: 47314
Countdown: 0
SampleSet: Soft
StackLeniency: 0.7
Mode: 3
LetterboxInBreaks: 0
SpecialStyle: 0
WidescreenStoryboard: 1

[Editor]
Bookmarks: 31501,39031,46560,61619,71972,79501,87031,94560,102090,109619,112443
DistanceSpacing: 3
BeatDivisor: 4
GridSize: 4
TimelineZoom: 2.899999

[Metadata]
Title:End to end
TitleUnicode:End to end
Artist:Noah
ArtistUnicode:Noah
Creator:Noch Einen
Version:ADVANCED
Source:SOUND VOLTEX III GRAVITY WARS
Tags:SDVX The 5th KAC Original Song Contest オリジナル楽曲コンテスト Ortlinde=NBLG=Valkyria Konami Bemani World's End Sequel ExUsagi ajeemaniz Arzenvald Adinda FAMoss instrumental video game
BeatmapID:3637995
BeatmapSetID:1776437

[Difficulty]
HPDrainRate:8
CircleSize:7
OverallDifficulty:7.8
ApproachRate:5
SliderMultiplier:1.4
SliderTickRate:1

[Events]
//Background and Video events
0,0,"bg.jpg",0,0
//Break Periods
//Storyboard Layer 0 (Background)
//Storyboard Layer 1 (Fail)
//Storyboard Layer 2 (Pass)
//Storyboard Layer 3 (Foreground)
//Storyboard Layer 4 (Overlay)
//Storyboard Sound Samples
Sample,72539,0,"tom01.wav",70
Sample,72696,0,"tom03.wav",70

[TimingPoints]
1976,240,4,2,1,70,1,0
1976,-98.0392156862745,4,2,1,70,0,0
17314,235.294117647059,4,2,1,70,1,0
47431,-100,4,2,1,70,0,1
62490,-100,4,2,1,70,0,0
72875,235.294117647059,4,2,1,70,1,8
79430,235.294117647059,4,2,1,70,1,0
102959,-100,4,2,1,70,0,1
110488,-100,4,2,1,70,0,0

[HitObjects]
109,192,1496,1,0,0:0:0:0:
182,192,1616,1,0,0:0:0:0:
256,192,1736,1,0,0:0:0:0:
329,192,1856,1,0,0:0:0:0:
109,192,1976,128,4,2936:0:0:0:0:
402,192,1976,1,2,0:0:0:0:
402,192,2456,128,0,2936:0:0:0:0:
182,192,3056,128,0,3896:0:0:0:0:
329,192,3536,128,0,3896:0:0:0:0:
36,192,4016,128,0,5816:0:0:0:0:
475,192,4016,128,0,5816:0:0:0:0:
182,192,4976,128,0,5816:0:0:0:0:
329,192,5816,128,0,6776:0:0:0:0:
182,192,6296,128,0,6776:0:0:0:0:
402,192,6776,128,0,7736:0:0:0:0:
109,192,7256,128,0,7736:0:0:0:0:
182,192,7736,128,0,9656:0:0:0:0:
475,192,7736,128,0,9656:0:0:0:0:
329,192,8696,128,0,9656:0:0:0:0:
36,192,9656,1,6,0:0:0:0:
182,192,9896,1,0,0:0:0:0:
402,192,10136,128,0,10256:0:0:0:0:
329,192,10256,128,0,10376:0:0:0:0:
109,192,10376,128,0,10496:0:0:0:0:
182,192,10496,128,0,10616:0:0:0:0:
402,192,10616,128,0,10736:0:0:0:0:
329,192,10736,128,0,10856:0:0:0:0:
256,192,10856,1,0,0:0:0:0:
182,192,11096,1,0,0:0:0:0:
109,192,11336,1,0,0:0:0:0:
36,192,11576,128,0,11696:0:0:0:0:
475,192,11696,128,0,11816:0:0:0:0:
329,192,11816,128,0,11936:0:0:0:0:
182,192,11936,128,0,12056:0:0:0:0:
109,192,12056,128,0,12536:0:0:0:0:
329,192,12536,1,0,0:0:0:0:
256,192,12776,1,0,0:0:0:0:
402,192,13016,1,0,0:0:0:0:
329,192,13256,1,0,0:0:0:0:
182,192,13496,128,0,13616:0:0:0:0:
329,192,13616,128,0,13736:0:0:0:0:
109,192,13736,128,0,13856:0:0:0:0:
402,192,13856,128,0,13976:0:0:0:0:
182,192,13976,128,0,14096:0:0:0:0:
329,192,14096,128,0,14216:0:0:0:0:
256,192,14216,128,0,14336:0:0:0:0:
109,192,14336,128,0,14456:0:0:0:0:
402,192,14456,128,0,14576:0:0:0:0:
182,192,14576,128,0,14696:0:0:0:0:
402,192,14696,128,0,14816:0:0:0:0:
109,192,14816,128,0,14936:0:0:0:0:
329,192,14936,128,0,15056:0:0:0:0:
109,192,15056,128,0,15176:0:0:0:0:
402,192,15176,128,0,15296:0:0:0:0:
182,192,15296,128,0,15416:0:0:0:0:
36,192,15416,128,0,17314:0:0:0:0:
475,192,15416,128,0,16136:0:0:0:0:
402,192,16136,128,0,16256:0:0:0:0:
256,192,16256,128,0,16376:0:0:0:0:
109,192,16376,128,0,17314:0:0:0:0:
256,192,17314,1,4,0:0:0:0:
402,192,17314,1,2,0:0:0:0:
475,192,17314,1,0,0:0:0:0:
182,192,17549,1,2,0:0:0:0:
109,192,17784,1,2,0:0:0:0:
36,192,18019,1,2,0:0:0:0:
329,192,18255,1,2,0:0:0:0:
182,192,18490,1,2,0:0:0:0:
402,192,18608,1,0,0:0:0:0:
256,192,18725,1,2,0:0:0:0:
402,192,18843,1,0,0:0:0:0:
182,192,18961,1,2,0:0:0:0:
109,192,19196,1,2,0:0:0:0:
256,192,19431,1,2,0:0:0:0:
329,192,19666,1,2,0:0:0:0:
402,192,19902,1,2,0:0:0:0:
109,192,20137,1,2,0:0:0:0:
182,192,20372,1,2,0:0:0:0:
256,192,20608,1,2,0:0:0:0:
36,192,20843,1,8,0:0:0:0:
329,192,20843,1,0,0:0:0:0:
36,192,21078,1,2,0:0:0:0:
256,192,21078,1,4,0:0:0:0:
475,192,21078,1,0,0:0:0:0:
182,192,21314,1,8,0:0:0:0:
402,192,21314,1,0,0:0:0:0:
329,192,21549,1,2,0:0:0:0:
256,192,21784,1,2,0:0:0:0:
109,192,21902,1,8,0:0:0:0:
329,192,22019,1,2,0:0:0:0:
182,192,22137,1,8,0:0:0:0:
329,192,22255,1,2,0:0:0:0:
182,192,22490,1,8,0:0:0:0:
475,192,22490,1,0,0:0:0:0:
475,192,22725,1,2,0:0:0:0:
329,192,22843,1,8,0:0:0:0:
182,192,22961,1,2,0:0:0:0:
109,192,23196,1,2,0:0:0:0:
36,192,23431,1,8,0:0:0:0:
475,192,23431,1,0,0:0:0:0:
329,192,23549,1,8,0:0:0:0:
109,192,23666,1,2,0:0:0:0:
256,192,23784,1,2,0:0:0:0:
402,192,23902,1,6,0:0:0:0:
182,192,24019,1,2,0:0:0:0:
256,192,24137,1,2,0:0:0:0:
329,192,24255,1,2,0:0:0:0:
109,192,24372,1,2,0:0:0:0:
182,192,24490,1,2,0:0:0:0:
256,192,24608,1,8,0:0:0:0:
475,192,24608,1,0,0:0:0:0:
36,192,24843,1,2,0:0:0:0:
109,192,24843,1,0,0:0:0:0:
402,192,24843,1,0,0:0:0:0:
182,192,25078,1,4,0:0:0:0:
329,192,25078,1,8,0:0:0:0:
109,192,25314,1,2,0:0:0:0:
402,192,25431,1,2,0:0:0:0:
36,192,25549,1,8,0:0:0:0:
256,192,25549,1,0,0:0:0:0:
182,192,25784,1,2,0:0:0:0:
109,192,26019,1,8,0:0:0:0:
402,192,26019,1,0,0:0:0:0:
329,192,26255,1,2,0:0:0:0:
256,192,26372,1,2,0:0:0:0:
182,192,26490,1,8,0:0:0:0:
475,192,26490,1,0,0:0:0:0:
109,192,26725,1,2,0:0:0:0:
256,192,26843,1,2,0:0:0:0:
36,192,26961,1,8,0:0:0:0:
402,192,26961,1,0,0:0:0:0:
182,192,27196,1,2,0:0:0:0:
109,192,27431,1,8,0:0:0:0:
329,192,27431,1,0,0:0:0:0:
256,192,27666,1,2,0:0:0:0:
402,192,27784,1,2,0:0:0:0:
182,192,27902,1,8,0:0:0:0:
329,192,27902,1,0,0:0:0:0:
256,192,28137,1,2,0:0:0:0:
402,192,28255,1,2,0:0:0:0:
182,192,28372,1,8,0:0:0:0:
329,192,28372,1,0,0:0:0:0:
475,192,28490,1,8,0:0:0:0:
36,192,28608,1,2,0:0:0:0:
109,192,28608,1,4,0:0:0:0:
256,192,28608,1,0,0:0:0:0:
329,192,28843,1,8,0:0:0:0:
475,192,28843,1,0,0:0:0:0:
182,192,29078,1,2,0:0:0:0:
256,192,29196,1,2,0:0:0:0:
36,192,29314,1,8,0:0:0:0:
329,192,29314,1,0,0:0:0:0:
182,192,29549,1,2,0:0:0:0:
402,192,29549,1,4,0:0:0:0:
475,192,29549,1,0,0:0:0:0:
109,192,29666,1,2,0:0:0:0:
36,192,29784,1,8,0:0:0:0:
329,192,29784,1,0,0:0:0:0:
256,192,29902,1,2,0:0:0:0:
109,192,30019,1,0,0:0:0:0:
182,192,30137,1,2,0:0:0:0:
329,192,30255,1,8,0:0:0:0:
475,192,30255,1,0,0:0:0:0:
256,192,30372,1,8,0:0:0:0:
36,192,30490,1,8,0:0:0:0:
182,192,30490,1,4,0:0:0:0:
475,192,30490,1,0,0:0:0:0:
329,192,30608,1,2,0:0:0:0:
36,192,30725,1,8,0:0:0:0:
402,192,30725,1,0,0:0:0:0:
256,192,30843,1,2,0:0:0:0:
36,192,30961,1,8,0:0:0:0:
329,192,30961,1,0,0:0:0:0:
182,192,31078,1,2,0:0:0:0:
36,192,31196,1,8,0:0:0:0:
402,192,31196,1,0,0:0:0:0:
109,192,31314,1,2,0:0:0:0:
182,192,31431,1,8,0:0:0:0:
329,192,31431,1,4,0:0:0:0:
475,192,31431,1,0,0:0:0:0:
36,192,31549,1,8,0:0:0:0:
182,192,31666,1,8,0:0:0:0:
329,192,31666,1,0,0:0:0:0:
109,192,31784,1,0,0:0:0:0:
36,192,31902,1,0,0:0:0:70:tom01.wav
182,192,32019,1,0,0:0:0:70:tom02.wav
329,192,32137,1,0,0:0:0:70:tom03.wav
256,192,32255,1,0,0:0:0:70:tom04.wav
329,192,32372,1,4,0:0:0:0:
402,192,32372,1,2,0:0:0:0:
475,192,32372,1,0,0:0:0:0:
109,192,32843,128,0,36137:0:0:0:0:
256,192,34255,128,0,36137:0:0:0:0:
402,192,34255,128,0,36137:0:0:0:0:
329,192,36372,128,0,37314:0:0:0:0:
36,192,37314,128,0,37549:0:0:0:0:
109,192,37549,128,0,37784:0:0:0:0:
182,192,37784,128,0,38725:0:0:0:0:
329,192,38019,128,0,38725:0:0:0:0:
475,192,38019,128,0,38961:0:0:0:0:
36,192,38961,1,8,0:0:0:0:
182,192,38961,1,4,0:0:0:0:
329,192,38961,1,0,0:0:0:0:
402,192,39117,1,8,0:0:0:0:
256,192,39196,1,8,0:0:0:0:
109,192,39274,1,0,0:0:0:70:tom01.wav
182,192,39353,1,0,0:0:0:70:tom02.wav
475,192,39431,1,2,0:0:0:0:
329,192,39510,1,2,0:0:0:0:
182,192,39588,1,2,0:0:0:0:
256,192,39666,1,2,0:0:0:0:
329,192,39745,1,2,0:0:0:0:
402,192,39823,1,2,0:0:0:0:
36,192,39902,1,8,0:0:0:0:
256,192,39902,1,4,0:0:0:0:
475,192,39902,1,0,0:0:0:0:
182,192,40019,1,2,0:0:0:0:
36,192,40137,1,8,0:0:0:0:
329,192,40137,1,0,0:0:0:0:
182,192,40255,1,2,0:0:0:0:
36,192,40372,1,8,0:0:0:0:
475,192,40372,1,0,0:0:0:0:
329,192,40490,1,2,0:0:0:0:
182,192,40608,1,8,0:0:0:0:
475,192,40608,1,0,0:0:0:0:
329,192,40725,1,2,0:0:0:0:
109,192,40843,1,8,0:0:0:0:
402,192,40843,1,0,0:0:0:0:
256,192,40961,1,2,0:0:0:0:
109,192,41078,1,8,0:0:0:0:
402,192,41078,1,0,0:0:0:0:
182,192,41196,1,2,0:0:0:0:
109,192,41314,1,8,0:0:0:0:
402,192,41314,1,0,0:0:0:0:
329,192,41431,1,2,0:0:0:0:
36,192,41549,1,8,0:0:0:0:
182,192,41549,1,0,0:0:0:0:
256,192,41666,1,2,0:0:0:0:
109,192,41784,1,4,0:0:0:0:
329,192,41784,1,8,0:0:0:0:
475,192,41784,1,0,0:0:0:0:
36,192,42019,1,8,0:0:0:0:
256,192,42019,1,0,0:0:0:0:
329,192,42137,1,2,0:0:0:0:
182,192,42255,1,2,0:0:0:0:
256,192,42372,1,2,0:0:0:0:
109,192,42490,1,8,0:0:0:0:
329,192,42490,1,0,0:0:0:0:
182,192,42608,1,8,0:0:0:0:
256,192,42725,1,8,0:0:0:0:
475,192,42725,1,0,0:0:0:0:
36,192,42961,1,2,0:0:0:0:
182,192,43078,1,2,0:0:0:0:
109,192,43196,1,2,0:0:0:0:
256,192,43314,1,2,0:0:0:0:
182,192,43431,1,2,0:0:0:0:
329,192,43549,1,2,0:0:0:0:
36,192,43666,1,4,0:0:0:0:
256,192,43666,1,8,0:0:0:0:
475,192,43666,1,0,0:0:0:0:
36,192,43902,1,8,0:0:0:0:
256,192,43902,1,0,0:0:0:0:
475,192,43902,1,0,0:0:0:0:
109,192,44137,1,8,0:0:0:0:
402,192,44137,1,4,0:0:0:0:
182,192,44314,1,2,0:0:0:0:
256,192,44490,1,2,0:0:0:0:
36,192,44608,1,8,0:0:0:0:
329,192,44608,1,4,0:0:0:0:
475,192,44608,1,0,0:0:0:0:
109,192,44843,1,2,0:0:0:0:
256,192,44961,1,2,0:0:0:0:
402,192,45078,1,8,0:0:0:0:
475,192,45078,1,4,0:0:0:0:
36,192,45255,1,2,0:0:0:0:
109,192,45255,1,0,0:0:0:0:
256,192,45431,1,8,0:0:0:0:
36,192,45549,1,4,0:0:0:0:
182,192,45549,1,2,0:0:0:0:
475,192,45549,1,0,0:0:0:0:
329,192,45666,1,2,0:0:0:0:
182,192,45784,1,8,0:0:0:0:
475,192,45784,1,0,0:0:0:0:
329,192,45902,1,2,0:0:0:0:
36,192,46019,1,8,0:0:0:0:
475,192,46019,1,4,0:0:0:0:
256,192,46137,1,2,0:0:0:0:
36,192,46255,1,8,0:0:0:0:
475,192,46255,1,0,0:0:0:0:
182,192,46372,1,2,0:0:0:0:
109,192,46490,1,8,0:0:0:0:
402,192,46490,128,4,46608:0:0:0:0:
329,192,46608,128,2,46725:0:0:0:0:
256,192,46725,128,2,46843:0:0:0:0:
182,192,46843,1,8,0:0:0:0:
475,192,46843,128,4,46961:0:0:0:0:
402,192,46961,128,2,47078:0:0:0:0:
329,192,47078,128,2,47196:0:0:0:0:
36,192,47196,1,8,0:0:0:0:
256,192,47196,1,0,0:0:0:0:
36,192,47431,1,4,0:0:0:0:
109,192,47431,1,2,0:0:0:0:
402,192,47431,1,0,0:0:0:0:
182,192,47666,1,8,0:0:0:0:
475,192,47666,1,0,0:0:0:0:
256,192,47902,1,2,0:0:0:0:
329,192,48019,1,2,0:0:0:0:
109,192,48137,1,8,0:0:0:0:
402,192,48137,1,0,0:0:0:0:
182,192,48255,1,2,0:0:0:0:
182,192,48490,1,2,0:0:0:0:
36,192,48608,1,8,0:0:0:0:
329,192,48608,1,0,0:0:0:0:
256,192,48843,1,2,0:0:0:0:
402,192,48961,1,2,0:0:0:0:
36,192,49078,1,8,0:0:0:0:
182,192,49078,1,0,0:0:0:0:
402,192,49314,1,2,0:0:0:0:
475,192,49314,1,0,0:0:0:0:
109,192,49549,1,8,0:0:0:0:
256,192,49549,1,0,0:0:0:0:
329,192,49784,1,2,0:0:0:0:
182,192,49902,1,2,0:0:0:0:
256,192,50019,1,8,0:0:0:0:
402,192,50019,1,0,0:0:0:0:
36,192,50137,1,2,0:0:0:0:
109,192,50137,1,0,0:0:0:0:
329,192,50372,1,2,0:0:0:0:
182,192,50490,1,8,0:0:0:0:
475,192,50490,1,0,0:0:0:0:
109,192,50725,1,2,0:0:0:0:
256,192,50843,1,2,0:0:0:0:
36,192,50961,1,8,0:0:0:0:
402,192,50961,1,0,0:0:0:0:
109,192,51078,1,0,0:0:0:0:
182,192,51196,1,4,0:0:0:0:
256,192,51196,1,2,0:0:0:0:
475,192,51196,1,0,0:0:0:0:
109,192,51431,1,8,0:0:0:0:
329,192,51431,1,0,0:0:0:0:
402,192,51666,1,2,0:0:0:0:
256,192,51784,1,2,0:0:0:0:
329,192,51902,1,8,0:0:0:0:
475,192,51902,1,0,0:0:0:0:
36,192,52019,1,2,0:0:0:0:
109,192,52019,1,0,0:0:0:0:
182,192,52019,1,0,0:0:0:0:
182,192,52255,1,2,0:0:0:0:
36,192,52372,1,8,0:0:0:0:
329,192,52372,1,0,0:0:0:0:
256,192,52490,1,2,0:0:0:0:
182,192,52608,1,2,0:0:0:0:
329,192,52725,1,2,0:0:0:0:
109,192,52843,1,8,0:0:0:0:
256,192,52843,1,0,0:0:0:0:
36,192,52961,1,2,0:0:0:0:
402,192,52961,1,4,0:0:0:0:
475,192,52961,1,0,0:0:0:0:
182,192,53314,1,8,0:0:0:0:
329,192,53314,1,0,0:0:0:0:
109,192,53549,1,2,0:0:0:0:
256,192,53666,1,2,0:0:0:0:
36,192,53784,1,8,0:0:0:0:
402,192,53784,1,0,0:0:0:0:
182,192,53902,1,2,0:0:0:0:
256,192,53902,1,0,0:0:0:0:
329,192,53902,1,0,0:0:0:0:
109,192,54137,1,2,0:0:0:0:
256,192,54255,1,8,0:0:0:0:
402,192,54255,1,0,0:0:0:0:
182,192,54490,1,2,0:0:0:0:
329,192,54608,1,2,0:0:0:0:
36,192,54725,1,8,0:0:0:0:
475,192,54725,1,0,0:0:0:0:
109,192,54843,1,0,0:0:0:0:
182,192,54961,1,4,0:0:0:0:
402,192,54961,1,2,0:0:0:0:
475,192,54961,1,0,0:0:0:0:
36,192,55196,1,8,0:0:0:0:
329,192,55196,1,0,0:0:0:0:
256,192,55431,1,2,0:0:0:0:
109,192,55549,1,2,0:0:0:0:
329,192,55666,1,8,0:0:0:0:
475,192,55666,1,0,0:0:0:0:
182,192,55784,1,2,0:0:0:0:
256,192,55784,1,0,0:0:0:0:
256,192,56019,1,2,0:0:0:0:
109,192,56137,1,8,0:0:0:0:
402,192,56137,1,0,0:0:0:0:
329,192,56255,1,2,0:0:0:0:
256,192,56372,1,2,0:0:0:0:
329,192,56490,1,2,0:0:0:0:
109,192,56608,1,8,0:0:0:0:
402,192,56608,1,0,0:0:0:0:
182,192,56725,1,0,0:0:0:0:
36,192,56843,1,2,0:0:0:0:
256,192,56843,1,0,0:0:0:0:
402,192,56961,1,0,0:0:0:0:
182,192,57078,1,8,0:0:0:0:
475,192,57078,1,0,0:0:0:0:
36,192,57196,1,0,0:0:0:0:
256,192,57314,1,2,0:0:0:0:
329,192,57431,1,2,0:0:0:0:
36,192,57549,1,8,0:0:0:0:
402,192,57549,1,0,0:0:0:0:
109,192,57666,1,2,0:0:0:0:
182,192,57666,1,0,0:0:0:0:
182,192,57902,1,2,0:0:0:0:
329,192,58019,1,8,0:0:0:0:
475,192,58019,1,0,0:0:0:0:
109,192,58137,1,0,0:0:0:0:
256,192,58255,1,2,0:0:0:0:
36,192,58372,1,2,0:0:0:0:
182,192,58490,1,8,0:0:0:0:
329,192,58608,1,0,0:0:0:0:
36,192,58725,1,4,0:0:0:0:
109,192,58725,1,2,0:0:0:0:
256,192,58725,1,0,0:0:0:0:
402,192,58843,1,2,0:0:0:0:
182,192,58961,1,8,0:0:0:0:
475,192,58961,1,0,0:0:0:0:
329,192,59078,1,2,0:0:0:0:
182,192,59196,1,8,0:0:0:0:
475,192,59196,1,0,0:0:0:0:
256,192,59314,1,2,0:0:0:0:
36,192,59431,1,8,0:0:0:0:
329,192,59431,1,0,0:0:0:0:
182,192,59549,1,2,0:0:0:0:
475,192,59549,1,0,0:0:0:0:
402,192,59666,1,0,0:0:0:0:
182,192,59784,1,2,0:0:0:0:
36,192,59902,1,8,0:0:0:0:
329,192,59902,1,0,0:0:0:0:
256,192,60019,1,2,0:0:0:0:
109,192,60137,1,8,0:0:0:0:
402,192,60137,1,0,0:0:0:0:
36,192,60314,1,2,0:0:0:0:
329,192,60490,1,2,0:0:0:0:
36,192,60608,1,4,0:0:0:0:
256,192,60608,1,8,0:0:0:0:
475,192,60608,1,0,0:0:0:0:
182,192,60725,1,2,0:0:0:0:
109,192,60843,1,8,0:0:0:0:
402,192,60843,1,0,0:0:0:0:
329,192,60961,1,2,0:0:0:0:
36,192,61078,1,8,0:0:0:0:
256,192,61078,1,0,0:0:0:0:
475,192,61078,1,0,0:0:0:0:
109,192,61196,1,2,0:0:0:0:
182,192,61314,1,8,0:0:0:0:
329,192,61314,1,0,0:0:0:0:
402,192,61431,1,2,0:0:0:0:
36,192,61549,1,8,0:0:0:0:
256,192,61549,1,0,0:0:0:0:
475,192,61549,1,0,0:0:0:0:
182,192,61666,1,2,0:0:0:0:
109,192,61784,1,8,0:0:0:0:
329,192,61784,1,0,0:0:0:0:
256,192,61902,1,2,0:0:0:0:
402,192,62019,1,8,0:0:0:0:
475,192,62019,1,0,0:0:0:0:
182,192,62137,1,8,0:0:0:0:
329,192,62255,1,0,0:0:0:0:
109,192,62372,1,0,0:0:0:0:
36,192,62490,1,4,0:0:0:0:
256,192,62490,1,2,0:0:0:0:
475,192,62490,1,0,0:0:0:0:
182,192,62725,1,8,0:0:0:0:
402,192,62725,1,0,0:0:0:0:
109,192,62961,1,2,0:0:0:0:
36,192,63039,1,2,0:0:0:0:
475,192,63117,1,2,0:0:0:0:
256,192,63196,1,8,0:0:0:0:
402,192,63196,1,0,0:0:0:0:
182,192,63431,1,2,0:0:0:0:
329,192,63666,1,8,0:0:0:0:
475,192,63666,1,0,0:0:0:0:
182,192,63902,1,2,0:0:0:0:
256,192,63980,1,2,0:0:0:0:
329,192,64059,1,2,0:0:0:0:
36,192,64137,1,8,0:0:0:0:
402,192,64137,1,0,0:0:0:0:
109,192,64215,1,2,0:0:0:0:
182,192,64294,1,2,0:0:0:0:
256,192,64372,1,2,0:0:0:0:
329,192,64372,1,4,0:0:0:0:
475,192,64372,1,0,0:0:0:0:
36,192,64608,1,8,0:0:0:0:
182,192,64608,1,0,0:0:0:0:
329,192,64843,1,2,0:0:0:0:
402,192,64921,1,2,0:0:0:0:
475,192,65000,1,2,0:0:0:0:
36,192,65078,1,8,0:0:0:0:
182,192,65078,1,0,0:0:0:0:
36,192,65314,1,2,0:0:0:0:
109,192,65314,1,4,0:0:0:0:
256,192,65314,1,0,0:0:0:0:
402,192,65549,1,8,0:0:0:0:
475,192,65549,1,0,0:0:0:0:
329,192,65784,1,2,0:0:0:0:
256,192,65863,1,2,0:0:0:0:
182,192,65941,1,2,0:0:0:0:
109,192,66019,1,8,0:0:0:0:
475,192,66019,1,0,0:0:0:0:
402,192,66098,1,2,0:0:0:0:
329,192,66176,1,2,0:0:0:0:
36,192,66255,1,4,0:0:0:0:
182,192,66255,1,2,0:0:0:0:
256,192,66255,1,0,0:0:0:0:
109,192,66490,1,8,0:0:0:0:
329,192,66490,1,0,0:0:0:0:
182,192,66725,1,2,0:0:0:0:
256,192,66804,1,2,0:0:0:0:
329,192,66882,1,2,0:0:0:0:
109,192,66961,1,8,0:0:0:0:
402,192,66961,1,0,0:0:0:0:
182,192,67196,1,2,0:0:0:0:
36,192,67431,1,8,0:0:0:0:
475,192,67431,1,0,0:0:0:0:
329,192,67666,1,2,0:0:0:0:
256,192,67745,1,2,0:0:0:0:
182,192,67823,1,2,0:0:0:0:
109,192,67902,1,8,0:0:0:0:
402,192,67902,1,0,0:0:0:0:
329,192,67980,1,2,0:0:0:0:
256,192,68059,1,2,0:0:0:0:
36,192,68137,1,4,0:0:0:0:
182,192,68137,1,2,0:0:0:0:
475,192,68137,1,0,0:0:0:0:
402,192,68215,1,2,0:0:0:0:
329,192,68294,1,2,0:0:0:0:
109,192,68372,1,8,0:0:0:0:
256,192,68372,1,0,0:0:0:0:
256,192,68608,1,2,0:0:0:0:
182,192,68686,1,2,0:0:0:0:
109,192,68764,1,2,0:0:0:0:
36,192,68843,1,8,0:0:0:0:
475,192,68843,1,4,0:0:0:0:
402,192,68921,1,2,0:0:0:0:
329,192,69000,1,2,0:0:0:0:
36,192,69078,1,2,0:0:0:0:
109,192,69078,1,0,0:0:0:0:
256,192,69078,1,0,0:0:0:0:
329,192,69157,1,2,0:0:0:0:
402,192,69235,1,2,0:0:0:0:
182,192,69314,1,4,0:0:0:0:
475,192,69314,1,8,0:0:0:0:
402,192,69549,1,2,0:0:0:0:
329,192,69627,1,2,0:0:0:0:
256,192,69706,1,2,0:0:0:0:
36,192,69784,1,8,0:0:0:0:
182,192,69784,1,4,0:0:0:0:
475,192,69784,1,0,0:0:0:0:
329,192,70019,1,2,0:0:0:0:
402,192,70098,1,2,0:0:0:0:
475,192,70176,1,2,0:0:0:0:
182,192,70255,1,8,0:0:0:0:
329,192,70255,1,4,0:0:0:0:
109,192,70490,1,2,0:0:0:0:
36,192,70725,1,8,0:0:0:0:
329,192,70725,1,4,0:0:0:0:
475,192,70725,1,0,0:0:0:0:
182,192,70961,1,2,0:0:0:0:
109,192,71039,1,2,0:0:0:0:
36,192,71117,1,2,0:0:0:0:
329,192,71196,1,8,0:0:0:0:
402,192,71196,1,4,0:0:0:0:
475,192,71196,1,0,0:0:0:0:
36,192,71431,1,2,0:0:0:0:
109,192,71510,1,2,0:0:0:0:
182,192,71588,1,2,0:0:0:0:
256,192,71666,1,8,0:0:0:0:
402,192,71666,1,4,0:0:0:0:
475,192,71666,1,0,0:0:0:0:
182,192,71902,1,2,0:0:0:0:
329,192,71902,1,0,0:0:0:0:
402,192,71980,1,0,0:0:0:70:tom02.wav
475,192,72059,1,0,0:0:0:70:tom03.wav
36,192,72137,1,8,0:0:0:0:
256,192,72137,1,4,0:0:0:0:
109,192,72215,1,0,0:0:0:70:tom02.wav
182,192,72294,1,0,0:0:0:70:tom03.wav
329,192,72372,1,8,0:0:0:0:
402,192,72372,1,4,0:0:0:0:
475,192,72372,1,0,0:0:0:0:
109,192,72529,1,2,0:0:0:0:
329,192,72686,1,2,0:0:0:0:
36,192,72843,1,4,0:0:0:0:
182,192,72843,1,2,0:0:0:0:
256,192,72843,1,0,0:0:0:0:
402,192,73345,128,0,73816:0:0:0:0:
36,192,73816,1,0,0:0:0:0:
109,192,74051,1,0,0:0:0:0:
182,192,74286,1,0,0:0:0:0:
256,192,74522,1,0,0:0:0:0:
256,192,74757,128,0,75227:0:0:0:0:
109,192,75227,128,0,75698:0:0:0:0:
182,192,75933,1,0,0:0:0:0:
36,192,76169,1,0,0:0:0:0:
475,192,76404,1,0,0:0:0:0:
329,192,76639,1,0,0:0:0:0:
36,192,76875,1,0,0:0:0:0:
109,192,77110,1,0,0:0:0:0:
182,192,77345,1,0,0:0:0:0:
329,192,77580,1,0,0:0:0:0:
475,192,77816,1,0,0:0:0:0:
402,192,78051,1,0,0:0:0:0:
256,192,78286,1,0,0:0:0:0:
36,192,78522,128,0,79430:0:0:0:0:
329,192,78992,128,0,79430:0:0:0:0:
109,192,79430,1,8,0:0:0:0:
402,192,79430,1,4,0:0:0:0:
475,192,79430,1,0,0:0:0:0:
182,192,79586,1,2,0:0:0:0:
475,192,79665,1,2,0:0:0:0:
256,192,79743,1,2,0:0:0:0:
36,192,79822,1,2,0:0:0:0:
329,192,79900,1,2,0:0:0:0:
109,192,79979,1,2,0:0:0:0:
402,192,80057,1,2,0:0:0:0:
182,192,80135,1,2,0:0:0:0:
475,192,80214,1,2,0:0:0:0:
256,192,80292,1,2,0:0:0:0:
36,192,80371,1,4,0:0:0:0:
109,192,80371,1,2,0:0:0:0:
329,192,80371,1,0,0:0:0:0:
182,192,80488,1,2,0:0:0:0:
256,192,80606,1,8,0:0:0:0:
475,192,80606,1,0,0:0:0:0:
402,192,80724,1,2,0:0:0:0:
109,192,80841,1,8,0:0:0:0:
329,192,80841,1,0,0:0:0:0:
182,192,80959,1,2,0:0:0:0:
36,192,81077,1,8,0:0:0:0:
402,192,81077,1,0,0:0:0:0:
256,192,81194,1,2,0:0:0:0:
109,192,81312,1,8,0:0:0:0:
475,192,81312,1,0,0:0:0:0:
329,192,81430,1,2,0:0:0:0:
36,192,81547,1,8,0:0:0:0:
182,192,81547,128,0,81665:0:0:0:0:
402,192,81665,1,2,0:0:0:0:
109,192,81782,1,8,0:0:0:0:
256,192,81782,128,0,81900:0:0:0:0:
475,192,81900,1,2,0:0:0:0:
182,192,82018,1,8,0:0:0:0:
329,192,82018,128,0,82135:0:0:0:0:
36,192,82135,1,2,0:0:0:0:
329,192,82253,128,8,82371:0:0:0:0:
475,192,82253,1,0,0:0:0:0:
109,192,82371,1,2,0:0:0:0:
36,192,82488,1,8,0:0:0:0:
256,192,82488,1,0,0:0:0:0:
329,192,82606,1,2,0:0:0:0:
109,192,82724,1,8,0:0:0:0:
402,192,82724,128,0,82841:0:0:0:0:
182,192,82841,1,2,0:0:0:0:
36,192,82959,1,8,0:0:0:0:
256,192,82959,1,0,0:0:0:0:
475,192,82959,1,0,0:0:0:0:
329,192,83077,1,2,0:0:0:0:
109,192,83194,1,8,0:0:0:0:
402,192,83194,1,4,0:0:0:0:
182,192,83312,1,2,0:0:0:0:
329,192,83430,128,8,83547:0:0:0:0:
475,192,83430,1,0,0:0:0:0:
256,192,83547,1,2,0:0:0:0:
36,192,83665,1,8,0:0:0:0:
109,192,83665,128,0,83782:0:0:0:0:
402,192,83665,1,0,0:0:0:0:
329,192,83782,1,2,0:0:0:0:
109,192,83900,1,8,0:0:0:0:
182,192,83900,128,0,84018:0:0:0:0:
256,192,84018,1,2,0:0:0:0:
329,192,84135,1,4,0:0:0:0:
402,192,84135,1,2,0:0:0:0:
475,192,84135,128,0,84371:0:0:0:0:
182,192,84253,1,0,0:0:0:0:
36,192,84371,1,8,0:0:0:0:
256,192,84371,1,0,0:0:0:0:
329,192,84606,1,2,0:0:0:0:
109,192,84724,1,2,0:0:0:0:
256,192,84782,1,0,0:0:0:0:
402,192,84841,1,8,0:0:0:0:
475,192,84841,1,0,0:0:0:0:
36,192,84959,1,0,0:0:0:0:
182,192,85018,1,0,0:0:0:0:
329,192,85077,1,2,0:0:0:0:
109,192,85194,1,0,0:0:0:0:
256,192,85253,1,0,0:0:0:0:
402,192,85312,1,8,0:0:0:0:
475,192,85312,1,0,0:0:0:0:
329,192,85430,1,2,0:0:0:0:
36,192,85547,1,4,0:0:0:0:
109,192,85547,1,8,0:0:0:0:
256,192,85547,1,0,0:0:0:0:
329,192,85724,1,2,0:0:0:0:
402,192,85724,1,4,0:0:0:0:
475,192,85724,1,0,0:0:0:0:
182,192,85900,1,2,0:0:0:0:
36,192,86018,1,8,0:0:0:0:
109,192,86018,128,4,86135:0:0:0:0:
329,192,86018,1,0,0:0:0:0:
256,192,86135,128,2,86253:0:0:0:0:
109,192,86253,1,8,0:0:0:0:
402,192,86253,128,0,86371:0:0:0:0:
329,192,86371,128,2,86488:0:0:0:0:
182,192,86488,128,8,86606:0:0:0:0:
475,192,86488,1,0,0:0:0:0:
256,192,86606,128,2,86724:0:0:0:0:
36,192,86724,1,8,0:0:0:0:
329,192,86724,128,0,86841:0:0:0:0:
109,192,86841,128,2,86959:0:0:0:0:
182,192,86959,1,8,0:0:0:0:
402,192,86959,1,4,0:0:0:0:
475,192,86959,128,0,87900:0:0:0:0:
256,192,87077,1,2,0:0:0:0:
182,192,87194,1,2,0:0:0:0:
36,192,87312,1,8,0:0:0:0:
329,192,87312,1,0,0:0:0:0:
256,192,87430,1,2,0:0:0:0:
109,192,87547,1,2,0:0:0:0:
36,192,87665,1,8,0:0:0:0:
329,192,87665,1,0,0:0:0:0:
182,192,87782,1,8,0:0:0:0:
109,192,87900,1,4,0:0:0:0:
256,192,87900,1,2,0:0:0:0:
402,192,87900,128,0,89782:0:0:0:0:
109,192,88135,1,2,0:0:0:0:
109,192,88371,1,2,0:0:0:0:
109,192,88606,1,2,0:0:0:0:
109,192,88841,1,2,0:0:0:0:
109,192,89077,1,2,0:0:0:0:
256,192,89194,1,0,0:0:0:0:
109,192,89312,1,2,0:0:0:0:
182,192,89430,1,0,0:0:0:0:
109,192,89547,1,2,0:0:0:0:
36,192,89782,128,2,91665:0:0:0:0:
329,192,89782,1,0,0:0:0:0:
329,192,90018,1,2,0:0:0:0:
329,192,90253,1,2,0:0:0:0:
329,192,90488,1,2,0:0:0:0:
329,192,90724,1,2,0:0:0:0:
329,192,90959,128,2,91077:0:0:0:0:
182,192,91077,128,0,91194:0:0:0:0:
475,192,91194,128,2,91312:0:0:0:0:
329,192,91312,128,0,91430:0:0:0:0:
182,192,91430,128,2,91547:0:0:0:0:
475,192,91547,128,0,91665:0:0:0:0:
109,192,91665,1,2,0:0:0:0:
329,192,91665,1,4,0:0:0:0:
402,192,91665,1,0,0:0:0:0:
182,192,91743,1,0,0:0:0:0:
256,192,91822,1,0,0:0:0:0:
36,192,91900,1,8,0:0:0:0:
329,192,91900,1,0,0:0:0:0:
109,192,91979,1,0,0:0:0:0:
402,192,92057,1,0,0:0:0:0:
182,192,92135,1,2,0:0:0:0:
256,192,92214,1,0,0:0:0:0:
329,192,92292,1,0,0:0:0:0:
402,192,92371,1,2,0:0:0:0:
182,192,92449,1,0,0:0:0:0:
475,192,92528,1,0,0:0:0:0:
256,192,92606,1,2,0:0:0:0:
329,192,92684,1,0,0:0:0:0:
402,192,92763,1,0,0:0:0:0:
475,192,92841,1,2,0:0:0:0:
256,192,92900,1,0,0:0:0:0:
182,192,92959,1,0,0:0:0:0:
109,192,93018,1,0,0:0:0:0:
36,192,93077,1,8,0:0:0:0:
475,192,93077,1,0,0:0:0:0:
402,192,93135,1,0,0:0:0:0:
329,192,93194,1,0,0:0:0:0:
182,192,93253,1,0,0:0:0:0:
109,192,93312,1,2,0:0:0:0:
36,192,93371,1,0,0:0:0:0:
329,192,93430,1,8,0:0:0:0:
256,192,93488,1,0,0:0:0:0:
36,192,93547,1,2,0:0:0:0:
182,192,93547,1,0,0:0:0:0:
329,192,93782,1,2,0:0:0:0:
182,192,94018,1,8,0:0:0:0:
475,192,94018,1,0,0:0:0:0:
329,192,94135,1,8,0:0:0:0:
109,192,94253,1,2,0:0:0:0:
256,192,94371,1,2,0:0:0:0:
36,192,94488,128,2,94606:0:0:0:0:
402,192,94488,1,4,0:0:0:0:
475,192,94488,1,0,0:0:0:0:
182,192,94606,128,2,94724:0:0:0:0:
109,192,94724,128,2,94841:0:0:0:0:
256,192,94841,128,2,94959:0:0:0:0:
182,192,94959,128,2,95077:0:0:0:0:
329,192,95077,128,2,95194:0:0:0:0:
36,192,95194,1,8,0:0:0:0:
475,192,95194,1,0,0:0:0:0:
109,192,95430,128,2,95665:0:0:0:0:
256,192,95430,1,4,0:0:0:0:
402,192,95430,1,0,0:0:0:0:
329,192,95665,1,8,0:0:0:0:
475,192,95665,1,0,0:0:0:0:
36,192,95782,128,0,96018:0:0:0:0:
402,192,95900,1,2,0:0:0:0:
256,192,96018,1,2,0:0:0:0:
36,192,96135,1,8,0:0:0:0:
109,192,96135,128,0,96371:0:0:0:0:
329,192,96371,1,2,0:0:0:0:
475,192,96488,128,0,96724:0:0:0:0:
36,192,96606,1,8,0:0:0:0:
182,192,96606,1,0,0:0:0:0:
329,192,96724,1,2,0:0:0:0:
36,192,96841,128,0,97077:0:0:0:0:
329,192,96959,1,2,0:0:0:0:
182,192,97077,128,8,97312:0:0:0:0:
475,192,97077,1,0,0:0:0:0:
109,192,97312,128,2,97547:0:0:0:0:
402,192,97312,1,0,0:0:0:0:
329,192,97547,1,8,0:0:0:0:
475,192,97547,1,0,0:0:0:0:
36,192,97665,128,0,97900:0:0:0:0:
402,192,97782,1,2,0:0:0:0:
256,192,97900,1,2,0:0:0:0:
36,192,98018,1,8,0:0:0:0:
109,192,98018,128,0,98253:0:0:0:0:
475,192,98253,1,2,0:0:0:0:
329,192,98371,128,2,98606:0:0:0:0:
36,192,98488,1,8,0:0:0:0:
109,192,98488,1,0,0:0:0:0:
182,192,98606,1,2,0:0:0:0:
475,192,98724,128,0,98959:0:0:0:0:
182,192,98841,1,2,0:0:0:0:
36,192,98959,1,8,0:0:0:0:
329,192,98959,128,0,99194:0:0:0:0:
109,192,99194,1,2,0:0:0:0:
402,192,99194,128,4,99430:0:0:0:0:
475,192,99194,1,0,0:0:0:0:
36,192,99430,1,8,0:0:0:0:
182,192,99430,1,0,0:0:0:0:
329,192,99547,128,0,99782:0:0:0:0:
36,192,99665,1,2,0:0:0:0:
182,192,99782,1,2,0:0:0:0:
329,192,99900,1,8,0:0:0:0:
402,192,99900,128,0,100135:0:0:0:0:
36,192,100135,1,2,0:0:0:0:
182,192,100253,128,0,100488:0:0:0:0:
402,192,100371,1,8,0:0:0:0:
475,192,100371,1,0,0:0:0:0:
329,192,100488,1,2,0:0:0:0:
109,192,100606,128,0,100841:0:0:0:0:
329,192,100724,1,2,0:0:0:0:
256,192,100841,1,8,0:0:0:0:
475,192,100841,1,0,0:0:0:0:
182,192,100959,1,8,0:0:0:0:
402,192,100959,1,0,0:0:0:0:
36,192,101077,1,8,0:0:0:0:
109,192,101077,1,4,0:0:0:0:
329,192,101077,1,0,0:0:0:0:
182,192,101194,1,2,0:0:0:0:
256,192,101312,1,8,0:0:0:0:
402,192,101312,1,0,0:0:0:0:
475,192,101430,1,2,0:0:0:0:
36,192,101547,1,8,0:0:0:0:
182,192,101547,1,0,0:0:0:0:
256,192,101665,1,2,0:0:0:0:
329,192,101782,1,8,0:0:0:0:
475,192,101782,1,0,0:0:0:0:
36,192,101900,1,2,0:0:0:0:
109,192,102018,1,2,0:0:0:0:
256,192,102018,1,0,0:0:0:0:
402,192,102135,1,2,0:0:0:0:
256,192,102253,1,2,0:0:0:0:
36,192,102371,1,8,0:0:0:0:
109,192,102371,1,0,0:0:0:0:
36,192,102606,1,8,0:0:0:0:
109,192,102606,1,0,0:0:0:0:
329,192,102724,1,0,0:0:0:70:tom01.wav
182,192,102841,1,2,0:0:0:70:tom04.wav
256,192,102959,1,4,0:0:0:0:
402,192,102959,1,2,0:0:0:0:
475,192,102959,1,0,0:0:0:0:
36,192,103194,1,8,0:0:0:0:
329,192,103194,1,0,0:0:0:0:
256,192,103430,1,2,0:0:0:0:
182,192,103547,1,2,0:0:0:0:
109,192,103665,1,8,0:0:0:0:
402,192,103665,1,0,0:0:0:0:
329,192,103782,1,2,0:0:0:0:
182,192,104018,128,2,104135:0:0:0:0:
329,192,104135,128,8,104253:0:0:0:0:
475,192,104135,1,0,0:0:0:0:
109,192,104253,128,0,104371:0:0:0:0:
256,192,104371,128,2,104488:0:0:0:0:
36,192,104488,128,2,104606:0:0:0:0:
182,192,104606,128,8,104724:0:0:0:0:
475,192,104606,1,0,0:0:0:0:
402,192,104724,128,0,104841:0:0:0:0:
36,192,104841,1,2,0:0:0:0:
329,192,104841,128,0,104959:0:0:0:0:
256,192,104959,128,0,105077:0:0:0:0:
36,192,105077,1,8,0:0:0:0:
182,192,105077,128,0,105194:0:0:0:0:
402,192,105194,128,0,105312:0:0:0:0:
329,192,105312,1,2,0:0:0:0:
109,192,105430,1,2,0:0:0:0:
402,192,105547,1,8,0:0:0:0:
475,192,105547,1,0,0:0:0:0:
182,192,105665,1,2,0:0:0:0:
256,192,105665,1,0,0:0:0:0:
256,192,105900,1,2,0:0:0:0:
36,192,106018,1,8,0:0:0:0:
329,192,106018,1,0,0:0:0:0:
109,192,106253,1,2,0:0:0:0:
182,192,106371,1,2,0:0:0:0:
256,192,106488,1,8,0:0:0:0:
402,192,106488,1,0,0:0:0:0:
36,192,106606,1,8,0:0:0:0:
182,192,106724,1,8,0:0:0:0:
329,192,106724,1,4,0:0:0:0:
475,192,106724,1,0,0:0:0:0:
109,192,106841,1,2,0:0:0:0:
256,192,106959,1,8,0:0:0:0:
402,192,106959,1,0,0:0:0:0:
182,192,107077,1,2,0:0:0:0:
36,192,107194,1,8,0:0:0:0:
329,192,107194,1,0,0:0:0:0:
256,192,107312,1,2,0:0:0:0:
402,192,107430,1,8,0:0:0:0:
475,192,107430,1,0,0:0:0:0:
36,192,107547,1,2,0:0:0:0:
109,192,107547,1,4,0:0:0:0:
182,192,107547,1,0,0:0:0:0:
182,192,107782,1,2,0:0:0:0:
36,192,107900,1,8,0:0:0:0:
475,192,107900,128,0,108018:0:0:0:0:
256,192,108018,128,2,108135:0:0:0:0:
109,192,108135,1,8,0:0:0:0:
402,192,108135,128,0,108253:0:0:0:0:
182,192,108253,128,8,108371:0:0:0:0:
329,192,108371,128,2,108488:0:0:0:0:
256,192,108488,128,2,108606:0:0:0:0:
36,192,108606,1,4,0:0:0:0:
109,192,108606,1,2,0:0:0:0:
182,192,108606,128,0,108841:0:0:0:0:
329,192,108841,1,8,0:0:0:0:
475,192,108841,1,0,0:0:0:0:
182,192,109077,1,2,0:0:0:0:
109,192,109194,1,2,0:0:0:0:
36,192,109312,1,8,0:0:0:0:
329,192,109312,1,0,0:0:0:0:
182,192,109430,1,2,0:0:0:0:
402,192,109430,1,4,0:0:0:0:
475,192,109430,1,0,0:0:0:0:
109,192,109665,128,2,109782:0:0:0:0:
256,192,109782,128,8,109900:0:0:0:0:
402,192,109782,1,0,0:0:0:0:
182,192,109900,128,8,110018:0:0:0:0:
36,192,110018,1,8,0:0:0:0:
329,192,110018,128,0,110135:0:0:0:0:
475,192,110135,128,8,110253:0:0:0:0:
256,192,110253,128,2,110371:0:0:0:0:
109,192,110371,128,2,110488:0:0:0:0:
329,192,110488,1,4,0:0:0:0:
402,192,110488,1,2,0:0:0:0:
475,192,110488,1,0,0:0:0:0:
182,192,110724,1,2,0:0:0:0:
36,192,110959,1,8,0:0:0:0:
329,192,110959,1,0,0:0:0:0:
182,192,111194,1,2,0:0:0:0:
109,192,111312,1,8,0:0:0:0:
402,192,111312,1,0,0:0:0:0:
329,192,111430,1,2,0:0:0:0:
256,192,111547,1,8,0:0:0:0:
182,192,111665,1,2,0:0:0:0:
36,192,111900,1,8,0:0:0:0:
329,192,111900,1,0,0:0:0:0:
256,192,112135,1,2,0:0:0:0:
109,192,112371,128,12,112724:0:0:0:0:
402,192,112488,128,2,112606:0:0:0:0:
256,192,112606,128,2,112724:0:0:0:0:
475,192,112724,128,2,113077:0:0:0:0:
182,192,112841,128,2,112959:0:0:0:0:
329,192,112959,128,2,113077:0:0:0:0:
36,192,113077,128,2,113312:0:0:0:0:
182,192,113194,128,2,113312:0:0:0:0:
329,192,113312,1,2,0:0:0:0:
402,192,113312,1,4,0:0:0:0:
475,192,113312,1,0,0:0:0:0:
