osu file format v14

[General]
AudioFilename: audio.mp3
AudioLeadIn: 0
PreviewTime: 92722
Countdown: 1
SampleSet: None
StackLeniency: 0.2
Mode: 0
LetterboxInBreaks: 0
WidescreenStoryboard: 1

[Editor]
DistanceSpacing: 1.5
BeatDivisor: 4
GridSize: 4
TimelineZoom: 4.399998

[Metadata]
Title:End to end
TitleUnicode:End to end
Artist:Noah
ArtistUnicode:Noah
Creator:LosPedros
Version:Expert
Source:
Tags:
BeatmapID:1701089
BeatmapSetID:796549

[Difficulty]
HPDrainRate:6
CircleSize:4
OverallDifficulty:8
ApproachRate:9.4
SliderMultiplier:2
SliderTickRate:1

[Events]
//Background and Video events
0,0,"end to end bg.jpg",0,0
//Break Periods
//Storyboard Layer 0 (Background)
//Storyboard Layer 1 (Fail)
//Storyboard Layer 2 (Pass)
//Storyboard Layer 3 (Foreground)
//Storyboard Sound Samples

[TimingPoints]
686,480,4,2,0,60,1,0
686,-133.333333333333,4,2,0,60,0,0
1166,480,4,2,0,60,1,0
1166,-133.333333333333,4,2,0,60,0,0
2126,-114.285714285714,4,2,0,60,0,0
3086,-100,4,2,0,60,0,0
4046,-88.8888888888889,4,2,0,60,0,0
5006,-114.285714285714,4,2,0,60,0,0
6926,-227.920227920228,4,2,0,60,0,0
7886,-100,4,2,0,60,0,0
8846,-100,4,2,0,60,0,0
9326,-36.3636363636364,4,2,0,60,0,0
10046,-100,4,2,0,60,0,0
10226,-100,4,2,0,5,0,0
10286,-100,4,2,0,60,0,0
10466,-100,4,2,0,5,0,0
10526,-100,4,2,0,60,0,0
10766,-44.4444444444445,4,2,0,60,0,0
11246,-80,4,2,0,60,0,0
11726,-66.6666666666667,4,2,0,60,0,0
12686,-50,4,2,0,60,0,0
13646,-40,4,2,0,60,0,0
14606,-66.6666666666667,4,2,0,60,0,0
15206,-66.6666666666667,4,2,0,5,0,0
15326,-50,4,2,0,60,0,0
15566,-57.1428571428571,4,2,0,60,0,0
16487,235.294117647059,4,2,0,80,1,0
16487,-125,4,2,0,80,0,0
20016,-33.3333333333333,4,2,0,25,0,0
20251,-125,4,2,0,80,0,0
21898,-83.3333333333333,4,2,0,80,0,0
22134,-200,4,2,0,80,0,0
23075,-100,4,2,0,80,0,0
24016,-80,4,2,0,80,0,0
24722,-133.333333333333,4,2,0,80,0,0
24898,-133.333333333333,4,2,0,35,0,0
24957,-80,4,2,0,80,0,0
26369,-200,4,2,0,80,0,0
26604,-80,4,2,0,80,0,0
27075,-133.333333333333,4,2,0,80,0,0
27781,-57.1428571428571,4,2,0,80,0,0
28134,-50,4,2,0,80,0,0
28487,-66.6666666666667,4,2,0,80,0,0
28957,-66.6666666666667,4,2,0,80,0,0
29192,-50,4,2,0,80,0,0
29428,-40,4,2,0,80,0,0
29663,-66.6666666666667,4,2,0,80,0,0
31545,-399.999999999997,4,2,0,60,0,0
33428,-500,4,2,0,60,0,0
35310,-399.999999999997,4,2,0,60,0,0
36251,-399.999999999997,4,2,0,60,0,0
36545,-399.999999999997,4,2,0,35,0,0
36604,-285.714285714286,4,2,0,60,0,0
36781,-285.714285714286,4,2,0,35,0,0
36839,-333.333333333333,4,2,0,60,0,0
37016,-333.333333333333,4,2,0,35,0,0
37075,-285.714285714286,4,2,0,60,0,0
37192,-200,4,2,0,60,0,0
38134,-100,4,2,0,80,0,0
39075,-66.6666666666667,4,2,0,80,0,0
42839,-57.1428571428571,4,2,0,80,0,0
43310,-400,4,2,0,80,0,0
43781,-57.1428571428571,4,2,0,80,0,0
44251,-400,4,2,0,80,0,0
44722,-57.1428571428571,4,2,0,80,0,0
46604,-57.1428571428571,4,2,0,80,0,1
50369,-66.6666666666667,4,2,0,80,0,1
50839,-57.1428571428571,4,2,0,80,0,1
51192,-50,4,2,0,80,0,1
51545,-66.6666666666667,4,2,0,80,0,1
51781,-40,4,2,0,80,0,1
52134,-57.1428571428571,4,2,0,80,0,1
52487,-44.4444444444445,4,2,0,80,0,1
52604,-50,4,2,0,80,0,1
52722,-57.1428571428571,4,2,0,80,0,1
53428,-133.333333333333,4,2,0,80,0,1
53898,-80,4,2,0,80,0,1
54134,-57.1428571428571,4,2,0,80,0,1
57898,-53.3333333333333,4,2,0,80,0,1
58369,-50,4,2,0,80,0,1
58839,-47.0588235294118,4,2,0,80,0,1
59310,-400,4,2,0,80,0,1
59781,-50,4,2,0,80,0,1
60722,-133.333333333333,4,2,0,80,0,1
60957,-100,4,2,0,80,0,1
61192,-133.333333333333,4,2,0,80,0,1
61427,-100,4,2,0,80,0,1
61663,-50,4,2,0,80,0,0
65898,-100,4,2,0,80,0,0
66369,-50,4,2,0,80,0,0
66839,-100,4,2,0,80,0,0
67310,-100,4,2,0,80,0,0
68251,-133.333333333333,4,2,0,80,0,0
69192,-100,4,2,0,80,0,0
71075,-80,4,2,0,80,0,0
72016,-266.666666666667,4,2,0,60,0,0
72957,-133.333333333333,4,2,0,60,0,0
73192,-148.148148148148,4,2,0,60,0,0
73663,-133.333333333333,4,2,0,60,0,0
73898,-200,4,2,0,60,0,0
74369,-266.666666666667,4,2,0,60,0,0
75310,-200,4,2,0,60,0,0
75545,-148.148148148148,4,2,0,60,0,0
76016,-200,4,2,0,60,0,0
76251,-148.148148148148,4,2,0,60,0,0
76487,-133.333333333333,4,2,0,60,0,0
76957,-114.285714285714,4,2,0,60,0,0
77192,-133.333333333333,4,2,0,60,0,0
77428,-148.148148148148,4,2,0,60,0,0
77663,-200,4,2,0,10,0,0
78134,-200,4,2,0,20,0,0
78604,-66.6666666666667,4,2,0,80,0,0
79545,-50,4,2,0,80,0,1
84722,-66.6666666666667,4,2,0,80,0,1
85192,-50,4,2,0,80,0,1
86134,-66.6666666666667,4,2,0,80,0,0
88957,-80.4764204088202,4,2,0,80,0,0
90839,-66.6666666666667,4,2,0,80,0,0
92016,-100,4,2,0,80,0,0
92722,-100,4,2,0,80,0,0
93192,-66.6666666666667,4,2,0,80,0,0
93663,-50,4,2,0,80,0,0
93781,-33.3333333333333,4,2,0,80,0,0
94134,-40,4,2,0,80,0,0
94604,-40,4,2,0,80,0,1
96016,-50,4,2,0,80,0,1
96487,-40,4,2,0,80,0,1
97898,-50,4,2,0,80,0,1
98369,-40,4,2,0,80,0,1
99781,-57.1428571428571,4,2,0,80,0,0
100252,-66.6666666666667,4,2,0,80,0,0
101192,-50,4,2,0,80,0,0
101545,-200,4,2,0,80,0,0
102134,-57.1428571428571,4,2,0,80,0,0
103310,-100,4,2,0,80,0,0
105898,-50,4,2,0,80,0,0
109192,-200,4,2,0,80,0,0
109663,-100,4,2,0,80,0,0
111545,-66.6666666666667,4,2,0,80,0,0
112487,-66.6666666666667,4,2,0,80,0,0
112722,-100,4,2,0,80,0,0

[Colours]
Combo1 : 17,255,176
Combo2 : 172,255,95
Combo3 : 255,87,100
Combo4 : 255,93,55

[HitObjects]
74,125,1166,6,0,B|180:93|175:152|284:110|284:110|241:89,1,262.500010013581,0|0,0:0|0:0,0:0:0:0:
223,88,2126,2,0,P|267:132|121:212,1,306.250002920628,0|0,0:0|0:0,0:0:0:0:
108,197,3086,2,0,B|187:206|242:156|242:156|259:172|259:172|321:122|405:134|405:134|376:178,1,350,0|0,0:0|0:0,0:0:0:0:
376,177,4046,2,0,B|411:197|452:201|452:201|365:186|296:241|296:241|271:259|243:245|243:245|203:269|153:270,1,393.750015020371,0|0,0:0|0:0,0:0:0:0:
142,272,5006,6,0,P|70:228|76:145,1,175.00000166893,0|0,0:0|0:0,0:0:0:0:
220,72,5966,2,0,P|217:155|143:192,1,175.00000166893,0|0,0:0|0:0,0:0:0:0:
9,105,6926,6,0,P|82:65|151:111,1,175.00000166893,0|0,0:0|0:0,0:0:0:0:
256,192,8006,12,0,8786,0:0:0:0:
131,254,8846,6,0,P|178:268|228:265,1,100,0|0,0:0|0:0,0:0:0:0:
306,227,9326,1,0,0:0:0:0:
307,230,9386,1,0,0:0:0:0:
308,233,9446,1,0,0:0:0:0:
309,236,9506,1,0,0:0:0:0:
310,239,9566,1,0,0:0:0:0:
311,242,9626,1,0,0:0:0:0:
312,245,9686,1,0,0:0:0:0:
313,248,9746,1,0,0:0:0:0:
314,251,9806,1,0,0:0:0:0:
315,254,9866,1,0,0:0:0:0:
316,257,9926,1,0,0:0:0:0:
317,260,9986,1,0,0:0:0:0:
318,263,10046,6,0,P|348:242|366:207,1,75,0|0,0:0|0:0,0:0:0:0:
366,134,10286,2,0,P|355:98|327:71,1,75,0|0,0:0|0:0,0:0:0:0:
258,48,10526,2,0,P|221:46|186:65,1,75,0|0,0:0|0:0,0:0:0:0:
143,128,10766,5,0,0:0:0:0:
140,138,10826,1,0,0:0:0:0:
138,150,10886,1,0,0:0:0:0:
139,161,10946,1,0,0:0:0:0:
141,172,11006,1,0,0:0:0:0:
145,182,11066,1,0,0:0:0:0:
150,192,11126,1,0,0:0:0:0:
157,201,11186,1,0,0:0:0:0:
165,209,11246,1,0,0:0:0:0:
172,216,11306,6,0,P|226:145|188:64,1,187.5
163,56,11726,6,0,B|252:45|252:45|280:60,1,112.500004291535,0|0,0:0|0:0,0:0:0:0:
350,142,11966,2,0,B|260:131|260:131|233:146,1,112.500004291535,0|0,0:0|0:0,0:0:0:0:
183,219,12206,2,0,B|272:208|272:208|300:223,1,112.500004291535,0|0,0:0|0:0,0:0:0:0:
345,282,12446,2,0,B|255:271|255:271|228:286,1,112.500004291535,0|0,0:0|0:0,0:0:0:0:
184,338,12686,6,0,P|160:340|135:338,3,50,0|0|0|0,0:0|0:0|0:0|0:0,0:0:0:0:
161,266,12926,2,0,P|136:262|113:253,3,50,0|0|0|0,0:0|0:0|0:0|0:0,0:0:0:0:
156,190,13166,2,0,P|133:180|112:165,3,50,0|0|0|0,0:0|0:0|0:0|0:0,0:0:0:0:
134,80,13406,2,0,P|150:99|170:115,1,50,0|0,0:0|0:0,0:0:0:0:
158,73,13526,2,0,P|168:95|182:115,1,50,0|0,0:0|0:0,0:0:0:0:
182,72,13646,6,0,P|185:96|206:133,1,62.5,0|0,0:0|0:0,0:0:0:0:
205,77,13766,2,0,P|202:101|212:142,1,62.5,0|0,0:0|0:0,0:0:0:0:
225,87,13886,2,0,P|216:110|215:151,1,62.5,0|0,0:0|0:0,0:0:0:0:
241,101,14006,2,0,P|226:121|214:161,1,62.5,0|0,0:0|0:0,0:0:0:0:
252,118,14126,2,0,P|232:133|211:169,1,62.5,0|0,0:0|0:0,0:0:0:0:
258,137,14246,2,0,P|235:147|205:175,1,62.5,0|0,0:0|0:0,0:0:0:0:
258,156,14366,2,0,P|233:159|197:180,1,62.5,0|0,0:0|0:0,0:0:0:0:
253,174,14486,2,0,P|228:171|187:181,1,62.5,0|0,0:0|0:0,0:0:0:0:
256,192,14606,12,0,15206,0:0:0:0:
355,95,15326,5,0,0:0:0:0:
346,194,15446,1,0,0:0:0:0:
256,192,15566,12,0,16406,0:0:0:0:
107,90,16487,5,0,0:0:0:0:
195,98,16722,1,0,0:0:0:0:
267,148,16957,1,0,0:0:0:0:
355,156,17192,1,0,0:0:0:0:
195,98,17428,5,0,0:0:0:0:
188,186,17663,1,0,0:0:0:0:
273,59,17898,1,0,0:0:0:0:
100,178,18134,1,0,0:0:0:0:
355,156,18369,5,0,0:0:0:0:
137,258,18604,2,0,P|87:263|53:249,2,80
188,186,19075,5,0,0:0:0:0:
201,11,19310,1,0,0:0:0:0:
224,266,19545,1,0,0:0:0:0:
19,82,19781,1,0,0:0:0:0:
317,75,20016,6,0,L|381:68,9,50.0000019073487
393,78,20251,5,0,0:0:0:0:
351,198,20369,1,0,0:0:0:0:
406,303,20487,2,0,P|368:293|328:295,1,80
414,96,20722,2,0,P|424:134|445:168,1,80
231,193,20957,2,0,P|259:164|277:129,1,80
351,198,21192,5,0,0:0:0:0:
255,274,21310,1,0,0:0:0:0:
133,258,21428,6,0,P|146:201|124:146,1,120
110,122,21663,2,0,P|152:162|211:171,1,120
239,169,21898,6,0,P|183:186|146:233,1,119.999996337891
196,345,22134,6,0,L|304:331,2,100
75,303,22722,1,0,0:0:0:0:
78,307,22781,1,0,0:0:0:0:
81,311,22839,1,0,0:0:0:0:
167,228,22957,1,0,0:0:0:0:
146,110,23075,5,0,0:0:0:0:
149,114,23134,1,0,0:0:0:0:
152,118,23192,2,0,L|234:130,1,50
296,149,23310,2,0,L|345:141,1,50
446,112,23428,2,0,L|434:194,1,50
415,256,23546,2,0,L|422:305,1,50
347,352,23663,1,0,0:0:0:0:
323,345,23722,1,0,0:0:0:0:
300,339,23781,1,0,0:0:0:0:
