osu file format v14

[General]
AudioFilename: audio.mp3
AudioLeadIn: 0
PreviewTime: 92722
Countdown: 1
SampleSet: Soft
StackLeniency: 0.2
Mode: 0
LetterboxInBreaks: 0
WidescreenStoryboard: 0

[Editor]
DistanceSpacing: 0.6
BeatDivisor: 8
GridSize: 16
TimelineZoom: 4.399998

[Metadata]
Title:End to end
TitleUnicode:End to end
Artist:Noah
ArtistUnicode:Noah
Creator:LosPedros
Version:Endless Repetition
Source:
Tags:
BeatmapID:1672666
BeatmapSetID:796549

[Difficulty]
HPDrainRate:6
CircleSize:4
OverallDifficulty:8
ApproachRate:9.8
SliderMultiplier:2.8
SliderTickRate:1

[Events]
//Background and Video events
0,0,"end to end bg.jpg",0,0
//Break Periods
2,72215,76103
2,87275,88478
//Storyboard Layer 0 (Background)
//Storyboard Layer 1 (Fail)
//Storyboard Layer 2 (Pass)
//Storyboard Layer 3 (Foreground)
//Storyboard Sound Samples

[TimingPoints]
686,480,4,2,0,60,1,0
686,-133.333333333333,4,2,0,60,0,0
1166,480,4,2,0,60,1,0
1166,-133.333333333333,4,2,0,60,0,0
2126,-114.285714285714,4,2,0,60,0,0
3086,-100,4,2,0,60,0,0
4046,-88.8888888888889,4,2,0,60,0,0
5006,-114.285714285714,4,2,0,60,0,0
5486,-133.333333333333,4,2,0,60,0,0
5966,-88.8888888888889,4,2,0,60,0,0
6446,-100,4,2,0,60,0,0
6926,-88.8888888888889,4,2,0,60,0,0
7886,-100,4,2,0,60,0,0
8846,-100,4,2,0,60,0,0
9326,-36.3636363636364,4,2,0,60,0,0
10046,-100,4,2,0,60,0,0
10286,-133.333333333333,4,2,0,60,0,0
10526,-100,4,2,0,60,0,0
10766,-44.4444444444445,4,2,0,60,0,0
11246,-80,4,2,0,60,0,0
11726,-66.6666666666667,4,2,0,60,0,0
11966,-57.1428571428571,4,2,0,60,0,0
12206,-80,4,2,0,60,0,0
12446,-66.6666666666667,4,2,0,60,0,0
12686,-40,4,2,0,60,0,0
12926,-36.3636363636364,4,2,0,60,0,0
13166,-33.3333333333333,4,2,0,60,0,0
13406,-30.7692307692308,4,2,0,60,0,0
13646,-28.5714285714286,4,2,0,60,0,0
14606,-66.6666666666667,4,2,0,60,0,0
15326,-50,4,2,0,60,0,0
15566,-57.1428571428571,4,2,0,60,0,0
16487,235.294117647059,4,2,0,80,1,0
16487,-125,4,2,0,80,0,0
20016,-33.3333333333333,4,2,0,25,0,0
20251,-125,4,2,0,80,0,0
22134,-111.111111111111,4,2,0,80,0,0
23075,-100,4,2,0,80,0,0
24016,-80,4,2,0,80,0,0
24722,-133.333333333333,4,2,0,80,0,0
24898,-133.333333333333,4,2,0,35,0,0
24957,-80,4,2,0,80,0,0
26369,-200,4,2,0,80,0,0
26604,-80,4,2,0,80,0,0
27075,-133.333333333333,4,2,0,80,0,0
27781,-57.1428571428571,4,2,0,80,0,0
28134,-50,4,2,0,80,0,0
28487,-66.6666666666667,4,2,0,80,0,0
28957,-66.6666666666667,4,2,0,80,0,0
29192,-50,4,2,0,80,0,0
29428,-40,4,2,0,80,0,0
29663,-66.6666666666667,4,2,0,80,0,0
31545,-399.999999999997,4,2,0,60,0,0
33428,-500,4,2,0,60,0,0
35310,-399.999999999997,4,2,0,60,0,0
36251,-399.999999999997,4,2,0,60,0,0
36545,-399.999999999997,4,2,0,35,0,0
36604,-285.714285714286,4,2,0,60,0,0
36781,-285.714285714286,4,2,0,35,0,0
36839,-333.333333333333,4,2,0,60,0,0
37016,-333.333333333333,4,2,0,35,0,0
37075,-285.714285714286,4,2,0,60,0,0
37192,-200,4,2,0,60,0,0
38134,-100,4,2,0,80,0,0
39075,-66.6666666666667,4,2,0,80,0,0
42839,-57.1428571428571,4,2,0,80,0,0
43310,-400,4,2,0,80,0,0
43781,-57.1428571428571,4,2,0,80,0,0
44251,-400,4,2,0,80,0,0
44722,-57.1428571428571,4,2,0,80,0,0
46604,-57.1428571428571,4,2,0,80,0,1
50369,-66.6666666666667,4,2,0,80,0,1
50839,-57.1428571428571,4,2,0,80,0,1
51192,-50,4,2,0,80,0,1
51545,-66.6666666666667,4,2,0,80,0,1
51781,-40,4,2,0,80,0,1
52134,-57.1428571428571,4,2,0,80,0,1
52487,-44.4444444444445,4,2,0,80,0,1
52604,-50,4,2,0,80,0,1
52722,-57.1428571428571,4,2,0,80,0,1
53428,-133.333333333333,4,2,0,80,0,1
53898,-80,4,2,0,80,0,1
54134,-57.1428571428571,4,2,0,80,0,1
57898,-53.3333333333333,4,2,0,80,0,1
58369,-50,4,2,0,80,0,1
58839,-47.0588235294118,4,2,0,80,0,1
59310,-400,4,2,0,80,0,1
59781,-50,4,2,0,80,0,1
60722,-133.333333333333,4,2,0,80,0,1
60957,-100,4,2,0,80,0,1
61192,-133.333333333333,4,2,0,80,0,1
61427,-100,4,2,0,80,0,1
61663,-50,4,2,0,80,0,0
65898,-100,4,2,0,80,0,0
66369,-50,4,2,0,80,0,0
66839,-100,4,2,0,80,0,0
67310,-100,4,2,0,80,0,0
68251,-133.333333333333,4,2,0,80,0,0
69192,-100,4,2,0,80,0,0
71075,-80,4,2,0,80,0,0
72016,-266.666666666667,4,2,0,60,0,0
72957,-133.333333333333,4,2,0,60,0,0
73192,-148.148148148148,4,2,0,60,0,0
73663,-133.333333333333,4,2,0,60,0,0
73898,-200,4,2,0,60,0,0
74369,-266.666666666667,4,2,0,60,0,0
75310,-200,4,2,0,60,0,0
75545,-148.148148148148,4,2,0,60,0,0
76016,-200,4,2,0,60,0,0
76251,-148.148148148148,4,2,0,60,0,0
76487,-133.333333333333,4,2,0,60,0,0
76957,-114.285714285714,4,2,0,60,0,0
77192,-133.333333333333,4,2,0,60,0,0
77428,-148.148148148148,4,2,0,60,0,0
77663,-200,4,2,0,10,0,0
78134,-200,4,2,0,20,0,0
78604,-66.6666666666667,4,2,0,80,0,0
79545,-50,4,2,0,80,0,1
82604,-100,4,2,0,80,0,1
82839,-50,4,2,0,80,0,1
84722,-66.6666666666667,4,2,0,80,0,1
85192,-100,4,2,0,80,0,1
86016,-50,4,2,0,80,0,1
86134,-66.6666666666667,4,2,0,80,0,0
88957,-80.4764204088202,4,2,0,80,0,0
90839,-66.6666666666667,4,2,0,80,0,0
92016,-100,4,2,0,80,0,0
92722,-100,4,2,0,80,0,0
93192,-66.6666666666667,4,2,0,80,0,0
93663,-50,4,2,0,80,0,0
93781,-33.3333333333333,4,2,0,80,0,0
94134,-40,4,2,0,80,0,0
94604,-40,4,2,0,80,0,1
96016,-50,4,2,0,80,0,1
96487,-40,4,2,0,80,0,1
97898,-50,4,2,0,80,0,1
98369,-40,4,2,0,80,0,1
99781,-57.1428571428571,4,2,0,80,0,0
100252,-66.6666666666667,4,2,0,80,0,0
101192,-50,4,2,0,80,0,0
101545,-200,4,2,0,80,0,0
102134,-57.1428571428571,4,2,0,80,0,0
103310,-100,4,2,0,80,0,0
105898,-50,4,2,0,80,0,0
109192,-200,4,2,0,80,0,0
109663,-100,4,2,0,80,0,0
111545,-66.6666666666667,4,2,0,80,0,0
112487,-66.6666666666667,4,2,0,80,0,0
112722,-100,4,2,0,80,0,0

[Colours]
Combo1 : 17,255,176
Combo2 : 172,255,95
Combo3 : 255,87,100
Combo4 : 255,93,55

[HitObjects]
119,94,686,6,0,L|105:148,1,35.0000013351441,0|0,0:0|0:0,0:0:0:0:
88,236,846,1,0,0:0:0:0:
112,211,926,1,0,0:0:0:0:
144,196,1006,1,0,0:0:0:0:
178,193,1086,1,0,0:0:0:0:
213,202,1166,6,0,P|323:104|177:84,1,367.500014019013,0|0,0:0|0:0,0:0:0:0:
145,156,2126,2,0,B|125:231|24:263|24:263|161:219|138:339|272:309,1,428.750004088879,0|0,0:0|0:0,0:0:0:0:
353,293,3086,2,0,B|279:243|327:141|402:151|402:151|459:57|459:57|355:46|294:91,1,490,0|0,0:0|0:0,0:0:0:0:
226,151,4046,2,0,B|161:202|25:167|24:44|24:44|93:12|141:53|141:53|154:123|32:181,1,551.25002102852,0|0,0:0|0:0,0:0:0:0:
31,229,5006,6,0,P|66:308|153:313,1,183.750001752377,0|0,0:0|0:0,0:0:0:0:
83,197,5486,2,0,P|96:283|176:311,1,157.500006008148,0|0,0:0|0:0,0:0:0:0:
213,105,5966,6,0,P|235:191|115:238,1,236.250009012223,0|0,0:0|0:0,0:0:0:0:
149,84,6446,2,0,P|192:161|99:240,1,210,0|0,0:0|0:0,0:0:0:0:
129,163,6926,6,0,B|302:130|278:257|480:207|480:207|392:134|392:134|351:131|322:113,1,551.25002102852,0|0,0:0|0:0,0:0:0:0:
254,97,7886,2,0,B|262:60|306:28|349:47|349:47|378:66|418:65|418:65|491:123|491:123|458:157|449:186|449:186|435:184|435:184|427:217|400:232|400:232|350:236,1,490,0|0,0:0|0:0,0:0:0:0:
292,280,8846,6,0,P|319:305|354:314,1,70,0|0,0:0|0:0,0:0:0:0:
284,207,9086,2,0,P|248:217|223:243,1,70,0|0,0:0|0:0,0:0:0:0:
351,236,9326,5,0,0:0:0:0:
439,356,9446,1,0,0:0:0:0:
443,327,9506,1,0,0:0:0:0:
442,298,9566,1,0,0:0:0:0:
436,270,9626,1,0,0:0:0:0:
424,244,9686,1,0,0:0:0:0:
407,220,9746,1,0,0:0:0:0:
387,200,9806,1,0,0:0:0:0:
362,185,9866,1,0,0:0:0:0:
335,174,9926,1,0,0:0:0:0:
307,169,9986,1,0,0:0:0:0:
278,169,10046,6,0,P|240:166|212:147,1,70,0|0,0:0|0:0,0:0:0:0:
249,30,10286,2,0,P|265:64|265:93,1,52.5000020027161,0|0,0:0|0:0,0:0:0:0:
144,125,10526,2,0,P|165:93|196:78,1,70,0|0,0:0|0:0,0:0:0:0:
175,213,10766,5,0,0:0:0:0:
171,233,10826,1,0,0:0:0:0:
170,253,10886,1,0,0:0:0:0:
172,272,10946,1,0,0:0:0:0:
177,291,11006,1,0,0:0:0:0:
184,309,11066,1,0,0:0:0:0:
194,327,11126,1,0,0:0:0:0:
206,342,11186,1,0,0:0:0:0:
220,356,11246,6,0,B|317:258|215:217|274:111,1,262.5,0|0,0:0|0:0,0:0:0:0:
317,37,11726,6,0,P|361:64|392:106,1,105.000004005432,0|0,0:0|0:0,0:0:0:0:
396,124,11966,2,0,P|379:66|339:20,1,122.500001168251,0|0,0:0|0:0,0:0:0:0:
271,228,12206,6,0,P|272:175|293:130,1,87.5,0|0,0:0|0:0,0:0:0:0:
299,131,12446,2,0,P|266:171|251:221,1,105.000004005432,0|0,0:0|0:0,0:0:0:0:
168,307,12686,6,0,B|230:319|230:319|252:344,3,87.5,0|0|0|0,0:0|0:0|0:0|0:0,0:0:0:0:
110,231,12926,2,0,B|48:243|48:243|29:252|23:270,3,96.2500009179115,0|0|0|0,0:0|0:0|0:0|0:0,0:0:0:0:
161,151,13166,2,0,B|223:163|223:163|246:189|246:189|246:199,3,105.000004005432,0|0|0|0,0:0|0:0|0:0|0:0,0:0:0:0:
103,75,13406,2,0,B|41:87|41:87|17:117|17:117|50:113,1,113.750003254414,0|0,0:0|0:0,0:0:0:0:
124,65,13526,2,0,B|61:60|61:60|30:83|30:83|62:87,1,113.750003254414,0|0,0:0|0:0,0:0:0:0:
196,56,13646,6,0,B|237:103|237:103|275:108|275:108|255:82,1,122.500001168251,0|0,0:0|0:0,0:0:0:0:
214,44,13766,2,0,B|241:100|241:100|276:114|276:114|264:84,1,122.500001168251
234,37,13886,2,0,B|246:98|246:98|276:121|276:121|272:89,1,122.500001168251
255,35,14006,2,0,B|250:97|250:97|274:127|274:127|278:95,1,122.500001168251
275,38,14126,2,0,B|254:97|254:97|269:132|269:132|281:102,1,122.500001168251
293,46,14246,2,0,B|258:97|258:97|263:135|263:135|283:109,1,122.500001168251
308,58,14366,2,0,B|261:99|261:99|256:137|256:137|282:117,1,122.500001168251
319,73,14486,2,0,B|262:100|262:100|248:135|248:135|278:123,1,122.500001168251
324,90,14606,6,0,B|262:102|262:102|239:132|239:132|215:170|208:230|239:273|239:273|280:329|248:407|177:408|130:370|133:308|133:308|136:271,1,525.000020027161
150,210,15326,2,0,B|168:168|156:113|156:113|173:150,1,140
223,210,15566,2,0,B|338:278|411:121|341:42|234:48|203:106|203:106|395:250|395:250|451:161|436:78|373:26,1,857.500008177757,0|0,0:0|0:0,0:0:0:0:
308,8,16487,6,0,L|188:18,1,112,0|0,0:0|0:0,0:0:0:0:
153,111,16722,2,0,L|264:101,1,112,0|0,0:0|0:0,0:0:0:0:
84,26,16957,1,0,0:0:0:0:
375,91,17192,1,0,0:0:0:0:
41,120,17428,6,0,L|50:231,1,112,0|0,0:0|0:0,0:0:0:0:
144,275,17663,2,0,L|134:155,1,112,0|0,0:0|0:0,0:0:0:0:
321,135,17898,2,0,L|330:246,1,112,0|0,0:0|0:0,0:0:0:0:
236,203,18134,2,0,L|226:91,1,112,0|0,0:0|0:0,0:0:0:0:
50,231,18369,5,0,0:0:0:0:
134,163,18604,1,0,0:0:0:0:
236,203,18839,1,0,0:0:0:0:
321,135,19075,1,0,0:0:0:0:
245,314,19310,6,0,L|356:304,1,112,0|0,0:0|0:0,0:0:0:0:
427,210,19545,2,0,L|315:219,1,112,0|0,0:0|0:0,0:0:0:0:
209,144,19781,2,0,L|320:134,1,112,0|0,0:0|0:0,0:0:0:0:
460,124,20016,6,0,P|468:90|461:56,9,70.0000026702882,0|0|0|0|0|0|0|0|0|0,0:0|0:0|0:0|0:0|0:0|0:0|0:0|0:0|0:0|0:0,0:0:0:0:
386,34,20251,6,0,L|274:43,1,112,0|0,0:0|0:0,0:0:0:0:
209,144,20487,2,0,L|320:134,1,112,0|0,0:0|0:0,0:0:0:0:
254,234,20722,2,0,L|143:244,1,112,0|0,0:0|0:0,0:0:0:0:
366,225,20957,5,0,0:0:0:0:
254,234,21075,1,0,0:0:0:0:
142,243,21192,2,0,L|133:132,1,112,0|0,0:0|0:0,0:0:0:0:
250,178,21428,2,0,L|259:289,1,112,0|0,0:0|0:0,0:0:0:0:
375,336,21663,2,0,L|365:224,1,112,0|0,0:0|0:0,0:0:0:0:
355,112,21898,1,0,0:0:0:0:
250,178,22016,1,0,0:0:0:0:
133,132,22134,1,0,0:0:0:0:
256,192,22192,12,0,22839,0:0:0:0:
126,97,23075,5,0,0:0:0:0:
160,98,23133,1,0,0:0:0:0:
193,109,23192,1,0,0:0:0:0:
222,129,23251,1,0,0:0:0:0:
246,154,23310,1,0,0:0:0:0:
272,178,23369,1,0,0:0:0:0:
304,192,23427,1,0,0:0:0:0:
338,197,23486,1,0,0:0:0:0:
367,191,23545,1,0,0:0:0:0:
392,167,23603,1,0,0:0:0:0:
401,134,23662,1,0,0:0:0:0:
390,100,23721,1,0,0:0:0:0:
364,78,23781,5,0,0:0:0:0:
325,65,24016,2,0,P|311:149|236:186,1,175,0|0,0:0|0:0,0:0:0:0:
91,76,24251,2,0,P|170:46|239:93,1,175,0|0,0:0|0:0,0:0:0:0:
218,275,24487,5,0,0:0:0:0:
158,137,24604,1,0,0:0:0:0:
169,342,24722,6,0,P|245:353|296:297,1,157.500006008148,0|0,0:0|0:0,0:0:0:0:
299,269,24957,6,0,B|431:248|431:248|462:213,1,175,0|0,0:0|0:0,0:0:0:0:
482,129,25192,2,0,B|350:108|350:108|319:73,1,175,0|0,0:0|0:0,0:0:0:0:
253,182,25428,1,0,0:0:0:0:
260,171,25487,1,0,0:0:0:0:
267,160,25545,1,0,0:0:0:0:
218,275,25663,6,0,B|140:266|140:266|135:258|135:258|128:264|128:264|80:260|80:260|55:276,1,175,0|0,0:0|0:0,0:0:0:0:
3,328,25898,1,0,0:0:0:0:
150,187,26016,1,0,0:0:0:0:
321,200,26134,6,0,B|226:168|243:224|149:186,1,175,0|0,0:0|0:0,0:0:0:0:
53,133,26369,6,0,B|85:120|85:120|119:118,1,70,0|0,0:0|0:0,0:0:0:0:
380,124,26604,2,0,P|414:202|375:277,1,175,0|0,0:0|0:0,0:0:0:0:
286,326,26839,1,0,0:0:0:0:
203,119,26957,1,0,0:0:0:0:
452,51,27075,6,0,L|467:167,1,105.000004005432,0|0,0:0|0:0,0:0:0:0:
444,69,27310,2,0,L|459:185,2,105.000004005432,0|0|0,0:0|0:0|0:0,0:0:0:0:
241,181,27663,1,0,0:0:0:0:
475,233,27781,6,0,B|422:237|422:237|364:207|317:226|317:226|312:236|312:236|300:233|300:233|265:247|265:247|180:273|119:170|191:83|277:119,1,490.000004673004,0|0,0:0|0:0,0:0:0:0:
339,140,28134,2,0,B|374:77|374:77|334:65|334:65|321:53|321:53|239:24|176:52,1,280,0|0,0:0|0:0,0:0:0:0:
100,186,28369,1,0,0:0:0:0:
103,227,28427,1,0,0:0:0:0:
119,266,28487,2,0,B|144:328|218:336|270:294|274:245|274:245|253:158|253:158|257:129|257:129|244:73|244:73|232:111,1,420.000016021729,0|0,0:0|0:0,0:0:0:0:
192,231,28839,1,0,0:0:0:0:
309,227,28957,6,0,P|392:167|412:66,1,210.000008010865,0|0,0:0|0:0,0:0:0:0:
313,231,29192,2,0,P|441:261|482:143,1,280,0|0,0:0|0:0,0:0:0:0:
317,235,29428,2,0,P|414:359|507:244,1,350,0|0,0:0|0:0,0:0:0:0:
412,66,29663,5,0,0:0:0:0:
312,122,29781,1,0,0:0:0:0:
197,120,29898,1,0,0:0:0:0:
97,176,30016,1,0,0:0:0:0:
101,180,30075,1,0,0:0:0:0:
105,184,30134,1,0,0:0:0:0:
255,223,30251,1,0,0:0:0:0:
259,227,30310,1,0,0:0:0:0:
263,231,30369,2,0,B|329:227|329:227|336:220|336:220|345:226|345:226|420:222|420:222|374:261,1,210.000008010865,0|0,0:0|0:0,0:0:0:0:
306,320,30604,6,0,B|250:315|250:315|225:320|225:320|188:318|188:318|181:322|181:322|176:317|176:317|137:313|137:313|109:285,1,210.000008010865,0|0,0:0|0:0,0:0:0:0:
109,188,30839,2,0,B|185:193|225:104|225:104|227:136|227:136|233:141|233:141|228:149|228:149|230:176,1,210.000008010865,0|0,0:0|0:0,0:0:0:0:
237,279,31075,5,0,0:0:0:0:
289,191,31192,1,0,0:0:0:0:
192,154,31310,1,0,0:0:0:0:
343,68,31428,1,0,0:0:0:0:
165,23,31545,6,0,P|64:28|198:144,1,420,0|0,0:0|0:0,0:0:0:0:
239,93,33428,2,0,B|309:79|364:129|364:129|319:172|299:174|299:174|302:188|302:188|283:190|237:215|262:236|201:264|201:264|187:291|187:291|211:318,1,420,0|0,0:0|0:0,0:0:0:0:
250,375,35310,2,0,B|284:346|279:308|279:308|312:311|336:328|336:328|343:325|343:325|344:334|344:334|378:357|438:363,1,245,0|0,0:0|0:0,0:0:0:0:
478,345,36251,6,0,P|447:314|443:276,1,70,0|0,0:0|0:0,0:0:0:0:
439,173,36604,1,0,0:0:0:0:
432,76,36722,2,0,L|383:71,1,48.9999985046387,0|0,0:0|0:0,0:0:0:0:
281,50,36957,1,0,0:0:0:0:
326,106,37192,6,0,B|272:141|215:108|211:56|211:56|223:129|167:163|167:163|184:234|184:234|175:268|175:268|190:347|190:347|221:256,1,560,0|0,0:0|0:0,0:0:0:0:
220,257,38290,5,0,0:0:0:0:
210,193,38368,1,0,0:0:0:0:
231,132,38446,1,0,0:0:0:0:
277,86,38525,1,0,0:0:0:0:
339,67,38603,1,0,0:0:0:0:
402,79,38682,1,0,0:0:0:0:
454,118,38760,1,0,0:0:0:0:
481,177,38839,1,0,0:0:0:0:
479,241,38917,1,0,0:0:0:0:
447,298,38995,1,0,0:0:0:0:
394,333,39075,6,0,B|351:319|306:320|306:320|305:314|305:314|300:320|300:320|269:313|244:294|244:294|218:256,1,210.000008010865,0|0,0:0|0:0,0:0:0:0:
149,189,39310,2,0,B|171:140|233:140|233:140|284:150|284:150|286:144|286:144|285:150|285:150|309:154|309:154|355:155,1,210.000008010865,0|0,0:0|0:0,0:0:0:0:
485,181,39545,5,0,0:0:0:0:
314,52,39663,1,0,0:0:0:0:
311,54,39722,1,0,0:0:0:0:
308,56,39781,2,0,B|160:73|160:73|211:108,1,210.000008010865
281,210,40016,6,0,B|375:206|375:206|378:200|378:200|381:206|381:206|446:203|446:203|404:231,1,210.000008010865,0|0,0:0|0:0,0:0:0:0:
313,291,40251,2,0,B|219:294|219:294|216:300|216:300|213:294|213:294|148:297|148:297|190:269,1,210.000008010865,0|0,0:0|0:0,0:0:0:0:
348,116,40487,6,0,L|243:125,1,105.000004005432,0|0,0:0|0:0,0:0:0:0:
85,135,40604,1,0,0:0:0:0:
88,139,40663,1,0,0:0:0:0:
91,143,40722,1,0,0:0:0:0:
80,257,40839,1,0,0:0:0:0:
76,261,40898,1,0,0:0:0:0:
73,265,40957,6,0,B|121:250|121:250|158:264|158:264|190:265|190:265|191:258|191:258|194:265|194:265|233:263|233:263|277:224,1,210.000008010865,0|0,0:0|0:0,0:0:0:0:
358,57,41192,2,0,B|272:79|272:42|197:67|197:67|241:85,1,210.000008010865,0|0,0:0|0:0,0:0:0:0:
366,127,41428,6,0,P|420:149|440:293,1,210.000008010865,0|0,0:0|0:0,0:0:0:0:
277,177,41663,2,0,P|285:76|374:29,1,210.000008010865,0|0,0:0|0:0,0:0:0:0:
365,228,41898,2,0,P|273:272|188:218,1,210.000008010865,0|0,0:0|0:0,0:0:0:0:
147,95,42134,5,0,0:0:0:0:
147,95,42251,1,0,0:0:0:0:
118,318,42370,1,0,0:0:0:0:
118,318,42487,1,0,0:0:0:0:
304,239,42604,1,0,0:0:0:0:
304,239,42722,1,0,0:0:0:0:
211,205,42839,6,0,B|263:217|306:205|306:205|311:193|311:193|315:205|315:205|331:205|331:205|335:197|335:197|339:205|339:205|355:205|355:205|359:201|359:201|363:205|363:205|411:193|467:205|467:205|421:216|400:246,1,367.500003504753
374,318,43075,2,0,B|322:306|279:318|279:318|274:330|274:330|270:318|270:318|254:318|254:318|250:326|250:326|246:318|246:318|230:318|230:318|226:322|226:322|222:318|222:318|174:330|118:318|118:318|164:307|185:277,1,367.500003504753
361,141,43310,6,0,L|351:83,2,52.5,0|0|0,0:0|0:0|0:0,0:0:0:0:
454,293,43781,6,0,B|415:269|375:278|375:278|376:262|376:262|358:280|358:280|359:268|359:268|342:284|342:284|343:275|343:275|305:296|262:276|262:276|232:257|232:257|152:250,1,367.500003504753
74,250,44016,1,0,0:0:0:0:
75,262,44074,1,0,0:0:0:0:
76,274,44133,1,0,0:0:0:0:
77,286,44192,1,0,0:0:0:0:
79,298,44251,6,0,L|70:349,2,52.5,0|0|0,0:0|0:0|0:0,0:0:0:0:
158,233,44722,6,0,B|233:212|258:280|258:280|305:268|305:268|309:285|309:285|316:264|316:264|319:276|319:276|327:261|327:261|329:268|329:268|407:237|424:302|510:224|493:142,1,490.000004673004
512,49,45075,1,0,0:0:0:0:
366,88,45192,1,0,0:0:0:0:
383,207,45310,1,0,0:0:0:0:
237,168,45428,1,0,0:0:0:0:
254,49,45545,1,0,0:0:0:0:
84,251,45663,5,0,0:0:0:0:
99,252,45721,1,0,0:0:0:0:
114,254,45780,1,0,0:0:0:0:
129,256,45839,1,0,0:0:0:0:
144,258,45898,1,0,0:0:0:0:
160,259,45957,1,0,0:0:0:0:
175,261,46016,2,0,B|238:214|238:214|286:219,1,122.500001168251,0|0,0:0|0:0,0:0:0:0:
464,225,46134,5,0,0:0:0:0:
448,221,46192,1,0,0:0:0:0:
433,220,46251,1,0,0:0:0:0:
418,218,46310,1,0,0:0:0:0:
403,217,46369,1,0,0:0:0:0:
387,215,46428,1,0,0:0:0:0:
372,214,46487,2,0,B|320:154|320:154|273:148,1,122.500001168251,0|0,0:0|0:0,0:0:0:0:
139,127,46604,6,0,B|201:257|91:222|163:364|163:364|219:295|312:300|312:300|219:272,1,490.000004673004,0|0,0:0|0:0,0:0:0:0:
57,257,46957,1,0,0:0:0:0:
224,86,47075,5,0,0:0:0:0:
292,222,47192,1,0,0:0:0:0:
114,181,47310,1,0,0:0:0:0:
405,227,47428,2,0,B|432:234|432:234|454:258|454:258|347:234|347:234|343:222|343:222|342:233|342:233|282:219,2,245.000002336502,0|0|0,0:0|0:0|0:0,0:0:0:0:
335,80,47781,5,0,0:0:0:0:
338,83,47839,1,0,0:0:0:0:
341,86,47898,1,0,0:0:0:0:
448,74,48016,2,0,P|394:176|278:171,1,245.000002336502,0|0,0:0|0:0,0:0:0:0:
91,72,48251,2,0,B|99:103|70:126|70:126|84:125|84:125|72:142|72:142|82:141|82:141|75:158|75:158|81:159|81:159|75:184|67:224|104:269,1,245.000002336502,0|0,0:0|0:0,0:0:0:0:
176,345,48487,6,0,B|205:338|205:338|210:331|210:331|216:336|216:336|250:329|250:329|264:309|264:309|281:303|281:303|298:282|298:282|353:206|411:282|510:185|510:185|414:159,1,490.000004673004,0|0,0:0|0:0,0:0:0:0:
266,122,48839,1,0,0:0:0:0:
35,164,48959,5,0,0:0:0:0:
171,232,49075,1,0,0:0:0:0:
130,54,49192,1,0,0:0:0:0:
176,345,49310,2,0,B|183:372|183:372|207:394|207:394|183:287|183:287|171:283|171:283|182:282|182:282|168:222,2,245.000002336502,0|0|0,0:0|0:0|0:0,0:0:0:0:
323,170,49663,2,0,P|218:131|170:232,1,245.000002336502,0|0,0:0|0:0,0:0:0:0:
172,337,49898,5,0,0:0:0:0:
174,341,49957,1,0,0:0:0:0:
176,345,50016,2,0,L|303:338,1,122.500001168251,0|0,0:0|0:0,0:0:0:0:
446,176,50134,2,0,L|318:169,1,122.500001168251,0|0,0:0|0:0,0:0:0:0:
390,10,50251,2,0,L|517:3,1,122.500001168251,0|0,0:0|0:0,0:0:0:0:
260,3,50369,6,0,B|169:-14|171:77|63:12|63:12|85:103|85:103|77:110|77:110|88:113|88:113|107:198|107:198|99:239|99:239|122:342|122:342|192:376,1,630.000024032594,0|0,0:0|0:0,0:0:0:0:
283,369,50839,2,0,B|229:261|330:264|309:142|309:142|290:53|171:48|175:149|214:184|273:182|288:142|267:115|239:109|250:120,1,490.000004673004,0|0,0:0|0:0,0:0:0:0:
341,42,51192,2,0,B|395:114|406:219|351:295|351:295|363:321|363:321|359:329|359:329|367:327|367:327|388:370|388:370|468:297|468:182,1,560,0|0,0:0|0:0,0:0:0:0:
460,96,51545,2,0,B|432:118|388:114|388:114|358:109|358:109|330:114|330:114|326:108|326:108|324:115|324:115|301:120|301:120|278:151,1,210.000008010865,0|0,0:0|0:0,0:0:0:0:
188,283,51781,6,0,P|217:204|163:140,1,175,0|0,0:0|0:0,0:0:0:0:
0,168,51898,2,0,P|53:232|135:218,1,175,0|0,0:0|0:0,0:0:0:0:
193,63,52016,2,0,P|110:76|81:155,1,175,0|0,0:0|0:0,0:0:0:0:
76,335,52134,6,0,B|216:388|299:277|299:277|359:280|359:280|366:292|366:292|373:280|373:280|441:283|441:283|365:245,1,490.000004673004,0|0,0:0|0:0,0:0:0:0:
239,193,52487,6,0,B|185:182|149:207|149:207|143:222|143:222|130:211|130:211|97:226|97:226|58:226|58:226|27:201|27:201|71:187|85:139,1,315.000012016297
102,36,52722,5,0,0:0:0:0:
345,80,52839,1,0,0:0:0:0:
222,28,52957,1,0,0:0:0:0:
417,178,53075,6,0,P|435:268|277:156,1,490.000004673004,0|0,0:0|0:0,0:0:0:0:
479,140,53428,6,0,P|439:109|387:110,1,105.000004005432,0|0,0:0|0:0,0:0:0:0:
260,277,53664,1,0,0:0:0:0:
286,275,53722,1,0,0:0:0:0:
313,272,53780,1,0,0:0:0:0:
339,269,53839,1,0,0:0:0:0:
365,267,53898,6,0,B|397:234|451:228|451:228|365:224|365:224|343:217|343:217|286:214,1,262.5,0|0,0:0|0:0,0:0:0:0:
39,186,54134,6,0,P|211:75|234:279,1,490.000004673004,0|0,0:0|0:0,0:0:0:0:
159,184,54487,1,0,0:0:0:0:
277,27,54604,6,0,P|346:127|346:249,2,245.000002336502,0|0|0,0:0|0:0|0:0,0:0:0:0:
371,275,54957,1,0,0:0:0:0:
371,275,55192,5,0,0:0:0:0:
342,239,55250,1,0,0:0:0:0:
299,225,55309,1,0,0:0:0:0:
255,237,55368,1,0,0:0:0:0:
224,270,55428,5,0,0:0:0:0:
268,262,55486,1,0,0:0:0:0:
302,232,55545,1,0,0:0:0:0:
314,188,55604,1,0,0:0:0:0:
300,145,55663,5,0,0:0:0:0:
286,102,55722,1,0,0:0:0:0:
298,58,55781,1,0,0:0:0:0:
332,28,55840,1,0,0:0:0:0:
376,20,55898,1,0,0:0:0:0:
420,29,55957,1,0,0:0:0:0:
452,61,56016,5,0,0:0:0:0:
453,72,56075,1,0,0:0:0:0:
454,81,56134,2,0,B|469:171|469:171|449:146,1,122.500001168251
198,74,56251,5,0,0:0:0:0:
197,85,56310,1,0,0:0:0:0:
196,94,56369,2,0,B|181:184|181:184|201:159,1,122.500001168251
376,20,56487,5,0,0:0:0:0:
322,349,56604,1,0,0:0:0:0:
185,283,56722,5,0,0:0:0:0:
394,249,56839,2,0,B|424:239|424:239|433:247|433:247|445:232|445:232|452:238|452:238|465:224|465:224|367:229|283:183,1,245.000002336502
153,169,57075,6,0,B|160:245|160:245|191:293,1,122.500001168251,0|0,0:0|0:0,0:0:0:0:
245,335,57192,5,0,0:0:0:0:
289,323,57250,1,0,0:0:0:0:
322,292,57309,1,0,0:0:0:0:
337,248,57368,1,0,0:0:0:0:
329,204,57428,5,0,0:0:0:0:
317,247,57487,1,0,0:0:0:0:
327,292,57546,1,0,0:0:0:0:
358,326,57605,1,0,0:0:0:0:
400,341,57663,5,0,0:0:0:0:
241,241,57781,1,0,0:0:0:0:
113,307,57898,5,0,0:0:0:0:
96,128,58016,1,0,0:0:0:0:
95,324,58134,1,0,0:0:0:0:
113,110,58252,1,0,0:0:0:0:
245,245,58369,5,0,0:0:0:0:
182,64,58486,1,0,0:0:0:0:
268,251,58604,1,0,0:0:0:0:
156,57,58722,6,0,B|213:43|213:43|247:46|247:46|303:32,1,140
433,25,58839,2,0,P|375:70|360:141,1,148.750002837181
400,273,58957,1,0,0:0:0:0:
404,277,59016,1,0,0:0:0:0:
408,281,59075,1,0,0:0:0:0:
171,373,59192,1,0,0:0:0:0:
232,157,59310,6,0,L|299:144,2,52.5
96,166,59781,5,0,0:0:0:0:
99,168,59839,1,0,0:0:0:0:
102,170,59898,1,0,0:0:0:0:
236,49,60016,1,0,0:0:0:0:
233,51,60074,1,0,0:0:0:0:
230,53,60133,1,0,0:0:0:0:
261,240,60251,5,0,0:0:0:0:
264,242,60309,1,0,0:0:0:0:
267,244,60368,1,0,0:0:0:0:
401,123,60486,1,0,0:0:0:0:
398,125,60544,1,0,0:0:0:0:
395,127,60603,1,0,0:0:0:0:
83,46,60722,6,0,B|203:55|203:55|252:81,1,157.500006008148,0|0,0:0|0:0,0:0:0:0:
60,76,60957,2,0,B|196:87|196:87|267:128,1,210,0|0,0:0|0:0,0:0:0:0:
384,205,61192,6,0,B|263:214|263:214|215:240,1,157.500006008148,0|0,0:0|0:0,0:0:0:0:
407,235,61427,2,0,B|271:246|271:246|200:287,1,210,0|0,0:0|0:0,0:0:0:0:
120,354,61663,6,0,B|128:246|42:172|42:172|33:112|33:112|23:110|23:110|32:104|32:104|25:47|25:47|111:83|193:34|193:34|177:103,1,560,0|0,0:0|0:0,0:0:0:0:
184,72,62134,1,0,0:0:0:0:
221,67,62212,1,0,0:0:0:0:
258,62,62290,1,0,0:0:0:0:
295,58,62369,1,0,0:0:0:0:
394,63,62604,6,0,B|329:69|306:140|343:215|450:207|457:121|457:121|454:155|443:169|443:169|420:263|420:263|395:284|395:284|372:384|372:384,1,560,0|0,0:0|0:0,0:0:0:0:
372,383,63075,1,0,0:0:0:0:
325,377,63153,1,0,0:0:0:0:
279,372,63231,1,0,0:0:0:0:
233,366,63310,1,0,0:0:0:0:
186,361,63388,1,0,0:0:0:0:
140,355,63467,1,0,0:0:0:0:
94,349,63545,2,0,B|209:256|58:240|146:118|146:118|187:102|190:57|190:57|230:71|230:71|229:55|229:55|239:73|239:73|259:64|259:64|249:77|249:77|279:89|279:89|319:102|354:87,1,560
349,88,64016,1,0,0:0:0:0:
356,124,64095,1,0,0:0:0:0:
363,161,64173,1,0,0:0:0:0:
369,197,64251,1,0,0:0:0:0:
56,272,64487,6,0,B|96:264|136:269|136:269|136:264|136:264|136:269|136:269|160:272|160:272|160:264|160:264|160:272|160:272|208:280|264:272|264:272|232:320|232:320|313:337|408:320|408:320|398:288|368:272|368:272|312:272,1,560
341,272,64957,1,0,0:0:0:0:
284,271,65035,1,0,0:0:0:0:
228,254,65113,1,0,0:0:0:0:
179,224,65192,5,0,0:0:0:0:
140,181,65270,1,0,0:0:0:0:
114,130,65349,1,0,0:0:0:0:
102,72,65428,6,0,B|119:64|152:67|152:67|151:61|151:61|152:67|152:67|168:67|168:67|167:59|167:59|168:67|168:67|196:73|233:62|233:62|274:49|315:78|315:78|369:74|369:74|385:64|385:64|456:58|456:58|377:116|430:209,1,560
428,205,65898,2,0,P|427:252|441:298,2,93.3333333333333,0|0|0,0:0|0:0|0:0,0:0:0:0:
318,167,66134,2,0,P|331:211|330:259,2,93.3333333333333,0|0|0,0:0|0:0|0:0,0:0:0:0:
311,68,66369,6,0,B|217:118|107:78|107:78|193:161|190:266|190:266|216:177|184:132,1,560,0|0,0:0|0:0,0:0:0:0:
184,133,66839,2,0,B|171:89|171:89|174:42,2,93.3333333333333,0|0|0,0:0|0:0|0:0,0:0:0:0:
278,178,67075,2,0,B|283:132|283:132|272:86,2,93.3333333333333,0|0|0,0:0|0:0|0:0,0:0:0:0:
162,276,67310,6,0,B|303:280|303:280|356:320,1,186.666666666667,0|0,0:0|0:0,0:0:0:0:
377,359,67545,5,0,0:0:0:0:
360,296,67623,1,0,0:0:0:0:
370,232,67702,5,0,0:0:0:0:
387,169,67780,1,0,0:0:0:0:
377,105,67858,1,0,0:0:0:0:
342,49,67937,1,0,0:0:0:0:
284,17,68016,6,0,L|258:101,3,70,0|0|0|0,0:0|0:0|0:0|0:0,0:0:0:0:
276,167,68251,6,0,L|56:189,2,210.000008010865,0|0|0,0:0|0:0|0:0,0:0:0:0:
276,167,68800,5,0,0:0:0:0:
206,173,68879,1,0,0:0:0:0:
136,180,68957,1,0,0:0:0:0:
108,244,69036,1,0,0:0:0:0:
177,237,69114,1,0,0:0:0:0:
247,230,69192,6,0,P|241:282|271:330,2,93.3333333333333,0|0|0,0:0|0:0|0:0,0:0:0:0:
315,265,69428,2,0,P|363:244|389:194,2,93.3333333333333,0|0|0,0:0|0:0|0:0,0:0:0:0:
308,152,69663,1,0,0:0:0:0:
309,170,69741,1,0,0:0:0:0:
310,189,69819,1,0,0:0:0:0:
381,146,69898,1,0,0:0:0:0:
380,127,69976,1,0,0:0:0:0:
379,109,70054,1,0,0:0:0:0:
353,32,70134,6,0,L|252:17,2,93.3333333333333,0|0|0,0:0|0:0|0:0,0:0:0:0:
305,130,70369,2,0,L|212:143,2,93.3333333333333,0|0|0,0:0|0:0|0:0,0:0:0:0:
176,71,70604,5,0,0:0:0:0:
175,52,70682,1,0,0:0:0:0:
174,34,70760,1,0,0:0:0:0:
101,0,70840,1,0,0:0:0:0:
102,18,70918,1,0,0:0:0:0:
103,37,70995,1,0,0:0:0:0:
109,107,71075,6,0,B|123:183|123:183|154:217,2,116.666666666667,0|0|0,0:0|0:0|0:0,0:0:0:0:
238,34,71310,2,0,B|224:110|224:110|193:144,2,116.666666666667,0|0|0,0:0|0:0|0:0,0:0:0:0:
333,66,71545,6,0,L|351:195,1,116.666666666667,0|0,0:0|0:0,0:0:0:0:
391,308,71702,1,0,0:0:0:0:
360,290,71780,1,0,0:0:0:0:
327,278,71858,1,0,0:0:0:0:
293,272,71937,1,0,0:0:0:0:
258,273,72015,1,0,0:0:0:0:
94,108,77663,6,0,L|99:137,14,17.5,0|0|0|0|0|0|0|0|0|0|0|0|0|0|0,0:0|0:0|0:0|0:0|0:0|0:0|0:0|0:0|0:0|0:0|0:0|0:0|0:0|0:0|0:0,0:0:0:0:
192,86,78134,2,0,L|188:103,14,17.5,0|0|0|0|0|0|0|0|0|0|0|0|0|0|0,0:0|0:0|0:0|0:0|0:0|0:0|0:0|0:0|0:0|0:0|0:0|0:0|0:0|0:0|0:0,0:0:0:0:
67,225,78604,6,0,B|187:296|265:273|409:245|309:78|196:90|182:217|245:238|260:176,1,420.000016021729,0|0,0:0|0:0,0:0:0:0:
357,208,78996,5,0,0:0:0:0:
412,167,79074,1,0,0:0:0:0:
432,101,79152,1,0,0:0:0:0:
407,37,79231,1,0,0:0:0:0:
348,2,79309,1,0,0:0:0:0:
280,10,79388,1,0,0:0:0:0:
231,58,79466,1,0,0:0:0:0:
221,126,79545,6,0,B|171:217|269:223|195:311|195:311|179:324|179:324|171:317|171:317|176:326|176:326|160:338|160:338|113:334,1,280,0|0,0:0|0:0,0:0:0:0:
57,293,79781,1,0,0:0:0:0:
303,279,79898,1,0,0:0:0:0:
426,185,80016,6,0,B|316:54|163:37|35:108|72:238|149:289|236:259|251:194,1,560
307,27,80369,1,0,0:0:0:0:
53,85,80487,6,0,B|80:101|80:101|84:94|84:94|80:101|80:101|94:108|94:108|86:122|86:122|94:108|94:108|119:114|129:129|129:129|162:166|162:166|196:204|252:218,1,280,0|0,0:0|0:0,0:0:0:0:
376,245,80722,2,0,B|409:177|363:119|363:119|384:92|384:92|408:76|408:76|432:46|432:46|414:97,1,280,0|0,0:0|0:0,0:0:0:0:
420,90,80898,1,0,0:0:0:0:
423,93,80957,1,0,0:0:0:0:
315,180,81075,1,0,0:0:0:0:
313,183,81134,1,0,0:0:0:0:
311,186,81192,1,0,0:0:0:0:
306,74,81310,1,0,0:0:0:0:
403,180,81428,6,0,B|446:248|408:313|356:371|262:333|262:333|204:310|204:310|184:285|184:285|142:268|142:268|216:293|296:250,1,560,0|0,0:0|0:0,0:0:0:0:
407,184,81781,1,0,0:0:0:0:
242,175,81898,2,0,B|158:134|135:226|41:176|41:176|109:132,1,280,0|0,0:0|0:0,0:0:0:0:
262,74,82134,6,0,B|294:112|294:112|265:-2,1,140
313,228,82251,1,0,0:0:0:0:
390,117,82369,2,0,B|357:155|357:155|386:40,1,140
317,232,82487,1,0,0:0:0:0:
423,332,82604,6,0,B|352:321|352:321,3,70
237,311,82839,2,0,B|226:210|226:210|247:161,1,140,0|0,0:0|0:0,0:0:0:0:
310,80,82957,1,0,0:0:0:0:
313,83,83016,1,0,0:0:0:0:
316,86,83075,2,0,B|326:186|326:186|306:236,1,140,0|0,0:0|0:0,0:0:0:0:
241,315,83192,5,0,0:0:0:0:
114,311,83310,2,0,B|79:342|79:342|94:293|68:247|68:247|75:221|75:221|46:169|65:108,1,280,0|0,0:0|0:0,0:0:0:0:
107,17,83545,5,0,0:0:0:0:
327,0,83662,1,0,0:0:0:0:
234,30,83781,2,0,P|275:84|343:97,1,140
440,40,83898,2,0,P|385:81|372:149,1,140
368,241,84016,5,0,0:0:0:0:
370,254,84074,1,0,0:0:0:0:
372,268,84134,2,0,B|374:301|374:301|263:235,1,140,0|0,0:0|0:0,0:0:0:0:
235,176,84251,5,0,0:0:0:0:
245,167,84309,1,0,0:0:0:0:
256,159,84369,2,0,B|283:139|283:139|282:269,1,140,0|0,0:0|0:0,0:0:0:0:
268,337,84487,5,0,0:0:0:0:
255,332,84545,1,0,0:0:0:0:
242,327,84604,1,0,0:0:0:0:
216,317,84663,1,0,0:0:0:0:
190,307,84722,6,0,P|281:267|287:167,1,210.000008010865,0|0,0:0|0:0,0:0:0:0:
126,58,84898,2,0,P|114:157|198:212,1,210.000008010865,0|0,0:0|0:0,0:0:0:0:
373,127,85075,2,0,P|292:67|203:112,1,210.000008010865,0|0,0:0|0:0,0:0:0:0:
202,126,85251,1,0,0:0:0:0:
201,140,85310,1,0,0:0:0:0:
200,154,85369,1,0,0:0:0:0:
176,184,85428,6,0,L|106:187,3,70
235,276,85663,5,0,0:0:0:0:
233,289,85721,1,0,0:0:0:0:
232,303,85780,1,0,0:0:0:0:
231,317,85839,1,0,0:0:0:0:
250,357,85898,5,0,0:0:0:0:
277,363,85956,1,0,0:0:0:0:
305,363,86016,2,0,B|364:355|397:313|397:313|401:267,1,140,0|0,0:0|0:0,0:0:0:0:
422,129,86133,5,0,0:0:0:0:
403,284,86251,1,0,0:0:0:0:
407,288,86369,1,0,0:0:0:0:
282,203,86487,5,0,0:0:0:0:
297,44,86604,1,0,0:0:0:0:
301,48,86663,1,0,0:0:0:0:
305,52,86722,1,0,0:0:0:0:
291,283,86839,5,0,0:0:0:0:
293,302,86898,1,0,0:0:0:0:
297,323,86957,1,0,0:0:0:0:
300,344,87016,1,0,0:0:0:0:
304,363,87075,1,0,0:0:0:0:
312,192,88957,6,0,B|223:291|50:163|142:12|263:-5|330:72|330:120|330:120|406:123|406:123|407:43|339:-74|212:-121|-9:-17|4:107|36:292|161:336|257:326|367:287|384:201|384:201|465:204|465:204|496:105|496:105|286:94|286:94|271:92|271:92|255:92|255:92|241:93|241:93|224:91|224:91|208:92|208:92|194:90|194:90|179:89|179:89|17:82|17:82|12:116|12:116|13:156|13:156|20:193|20:193|35:232|35:232|55:267|55:267|78:296|78:296|105:319|105:319|140:340|140:340|181:356|181:356|219:363|219:363|258:364|258:364|293:360|293:360|328:362|328:362|328:362|328:362|340:363|340:363|340:363|340:363|351:363|351:363|351:363|351:363|363:364|363:364|363:364|363:364|374:365|374:365|374:365|374:365|385:365|385:365|385:365|385:365|389:362|389:362|397:366|397:366|450:380|475:342,1,2783.42409917138,0|0,0:0|0:0,0:0:0:0:
485,323,90898,1,0,0:0:0:0:
491,292,90957,1,0,0:0:0:0:
483,262,91016,1,0,0:0:0:0:
463,237,91075,5,0,0:0:0:0:
443,213,91134,1,0,0:0:0:0:
436,183,91193,1,0,0:0:0:0:
441,152,91252,1,0,0:0:0:0:
460,126,91310,5,0,0:0:0:0:
449,155,91369,1,0,0:0:0:0:
426,176,91428,1,0,0:0:0:0:
397,187,91487,1,0,0:0:0:0:
365,184,91545,5,0,0:0:0:0:
333,181,91603,1,0,0:0:0:0:
304,192,91662,1,0,0:0:0:0:
281,213,91721,1,0,0:0:0:0:
270,242,91781,5,0,0:0:0:0:
288,215,91839,1,0,0:0:0:0:
293,185,91898,1,0,0:0:0:0:
286,154,91957,1,0,0:0:0:0:
269,124,92016,6,0,B|193:117,3,70,0|0|0|0,0:0|0:0|0:0|0:0,0:0:0:0:
405,47,92251,5,0,0:0:0:0:
387,74,92309,1,0,0:0:0:0:
382,104,92368,1,0,0:0:0:0:
389,135,92427,1,0,0:0:0:0:
405,164,92487,2,0,B|481:171,3,70,0|0|0|0,0:0|0:0|0:0|0:0,0:0:0:0:
269,124,92722,6,0,B|173:153|60:121|60:121|122:154,1,280,0|0,0:0|0:0,0:0:0:0:
283,250,93192,2,0,B|391:205|387:89|320:23|257:22|257:22|272:140,1,420.000016021729,0|0,0:0|0:0,0:0:0:0:
148,245,93663,6,0,B|244:235|244:235|286:252,1,140,0|0,0:0|0:0,0:0:0:0:
388,312,93781,2,0,P|451:141|271:124,1,420.000016021729,0|0,0:0|0:0,0:0:0:0:
255,154,93957,1,0,0:0:0:0:
246,188,94016,1,0,0:0:0:0:
246,223,94075,1,0,0:0:0:0:
255,257,94134,5,0,0:0:0:0:
271,226,94192,1,0,0:0:0:0:
280,192,94251,1,0,0:0:0:0:
280,157,94310,1,0,0:0:0:0:
271,124,94369,1,0,0:0:0:0:
350,63,94604,6,0,B|333:111|356:164|356:164|364:169|364:169|360:175|360:175|381:231|334:262|366:343|366:343|335:268,1,350,0|0,0:0|0:0,0:0:0:0:
249,26,94839,1,0,0:0:0:0:
254,237,94957,2,0,B|117:247|87:89|87:89|131:91|131:91|136:84|136:84|142:89|142:89|181:89,1,350,0|0,0:0|0:0,0:0:0:0:
431,92,95192,1,0,0:0:0:0:
254,322,95310,2,0,B|160:315|160:315|136:323|136:323|51:317|51:317|20:277|20:277|13:235|13:235|35:167,1,350,0|0,0:0|0:0,0:0:0:0:
82,78,95545,1,0,0:0:0:0:
187,196,95663,2,0,B|126:162|126:162|240:158|240:158|265:172|265:172|326:171|326:171|327:162|327:162|331:171|331:171|388:169,1,350,0|0,0:0|0:0,0:0:0:0:
498,167,95898,1,0,0:0:0:0:
398,355,96016,6,0,B|271:340|238:223|238:223|186:195,1,280,0|0,0:0|0:0,0:0:0:0:
195,77,96251,2,0,P|80:142|95:273,1,280,0|0,0:0|0:0,0:0:0:0:
213,327,96487,6,0,B|284:320|284:320|315:301|315:301|355:298|355:298|363:305|363:305|370:297|370:297|402:294|402:294|318:253|341:139,1,350,0|0,0:0|0:0,0:0:0:0:
342,65,96722,1,0,0:0:0:0:
458,182,96839,2,0,B|369:159|385:238|234:198|234:198|213:171|213:171|206:170|206:170|206:162|206:162|199:152|199:152|200:143|200:143|191:142|191:142|156:94,1,350,0|0,0:0|0:0,0:0:0:0:
124,32,97075,1,0,0:0:0:0:
246,18,97192,2,0,B|199:110|253:119|213:188|213:188|223:242|223:242|178:288|187:368|187:368|224:387|273:381|273:381|307:323|298:254|298:254|286:197|286:197|302:160|298:100,1,700
312,60,97545,5,0,0:0:0:0:
162,126,97663,1,0,0:0:0:0:
334,78,97781,1,0,0:0:0:0:
135,106,97898,2,0,B|96:113|66:85|66:85|33:189|121:167|101:276,1,280,0|0,0:0|0:0,0:0:0:0:
76,368,98134,2,0,P|189:309|143:190,1,280,0|0,0:0|0:0,0:0:0:0:
51,158,98369,6,0,B|80:108|52:36|52:36|106:29|153:52|153:52|156:42|156:42|161:57|161:57|162:48|162:48|169:60|169:60|168:53|168:53|176:62|176:62|198:71|225:68,1,350,0|0,0:0|0:0,0:0:0:0:
324,47,98604,1,0,0:0:0:0:
286,224,98722,2,0,B|325:185|298:113|223:108|159:146|156:256|279:332,1,350,0|0,0:0|0:0,0:0:0:0:
346,360,98957,1,0,0:0:0:0:
449,198,99075,2,0,B|319:151|330:245|139:163|139:163|256:102|256:102|286:134|350:62|467:113|467:113|446:138,1,700,0|0,0:0|0:0,0:0:0:0:
290,265,99428,2,0,B|240:292|185:284|185:284|80:256|139:163|139:163|240:196|183:284|183:284,2,350
392,202,99781,6,0,P|358:92|453:29,1,245.000002336502,0|0,0:0|0:0,0:0:0:0:
446,124,100016,2,0,B|418:131|392:122|392:122|365:114|339:119|339:119|315:110|315:110|293:102|268:110|268:110|238:121|221:153,1,245.000002336502,0|0,0:0|0:0,0:0:0:0:
120,247,100251,5,0,0:0:0:0:
123,252,100310,1,0,0:0:0:0:
126,256,100369,1,0,0:0:0:0:
248,315,100487,1,0,0:0:0:0:
245,320,100546,1,0,0:0:0:0:
242,324,100605,1,0,0:0:0:0:
212,138,100722,5,0,0:0:0:0:
215,143,100781,1,0,0:0:0:0:
218,147,100840,1,0,0:0:0:0:
340,206,100958,1,0,0:0:0:0:
337,211,101017,1,0,0:0:0:0:
334,215,101076,1,0,0:0:0:0:
173,309,101192,5,0,0:0:0:0:
303,138,101310,2,0,P|371:128|423:171,1,140,0|0,0:0|0:0,0:0:0:0:
455,300,101428,1,0,0:0:0:0:
452,304,101487,1,0,0:0:0:0:
449,308,101545,6,0,B|379:293|391:344|314:331,1,140
214,352,101898,5,0,0:0:0:0:
345,210,102016,1,0,0:0:0:0:
192,150,102134,6,0,B|121:138|61:250|163:327|235:265|235:265|287:150|287:150|376:109,1,490.000004673004,0|0,0:0|0:0,0:0:0:0:
456,76,102487,1,0,0:0:0:0:
264,63,102604,2,0,L|130:51,1,122.500001168251,0|0,0:0|0:0,0:0:0:0:
70,160,102722,2,0,L|204:148,1,122.500001168251,0|0,0:0|0:0,0:0:0:0:
394,158,102839,2,0,L|260:146,1,122.500001168251,0|0,0:0|0:0,0:0:0:0:
200,255,102957,2,0,L|334:243,1,122.500001168251,0|0,0:0|0:0,0:0:0:0:
403,236,103075,1,0,0:0:0:0:
119,263,103192,1,0,0:0:0:0:
122,267,103251,1,0,0:0:0:0:
125,271,103310,6,0,L|137:363,2,93.3333333333333,0|0|0,0:0|0:0|0:0,0:0:0:0:
114,44,103545,5,0,0:0:0:0:
46,266,103663,1,0,0:0:0:0:
80,155,103781,2,0,L|232:93,1,140,0|0,0:0|0:0,0:0:0:0:
242,91,103957,1,0,0:0:0:0:
277,92,104016,1,0,0:0:0:0:
309,103,104075,1,0,0:0:0:0:
337,125,104134,1,0,0:0:0:0:
356,154,104193,1,0,0:0:0:0:
364,186,104251,6,0,P|367:221|355:254,1,70,0|0,0:0|0:0,0:0:0:0:
218,216,104369,2,0,P|201:246|173:266,1,70,0|0,0:3|0:3,0:3:0:0:
84,159,104487,5,0,0:0:0:0:
277,287,104604,1,0,0:0:0:0:
209,102,104722,1,0,0:0:0:0:
92,293,104839,6,0,P|137:343|206:345,1,140,0|0,0:0|0:0,0:0:0:0:
372,260,105075,1,0,0:0:0:0:
151,86,105192,2,0,P|147:154|194:203,1,140,0|0,0:0|0:0,0:0:0:0:
376,264,105428,1,0,0:0:0:0:
260,135,105545,1,0,0:0:0:0:
468,122,105663,6,0,B|421:102|421:102|388:103|388:103|337:80,1,140,0|0,0:0|0:0,0:0:0:0:
205,23,105898,1,0,0:0:0:0:
281,239,106016,1,0,0:0:0:0:
285,243,106134,1,0,0:0:0:0:
341,84,106251,5,0,0:0:0:0:
194,250,106369,1,0,0:0:0:0:
439,206,106487,1,0,0:0:0:0:
209,27,106604,1,0,0:0:0:0:
297,297,106722,2,0,P|301:216|192:364,1,560,0|0,0:0|0:0,0:0:0:0:
194,250,107075,5,0,0:0:0:0:
197,254,107134,1,0,0:0:0:0:
200,258,107192,1,0,0:0:0:0:
352,197,107310,1,0,0:0:0:0:
180,366,107428,1,0,0:0:0:0:
356,201,107545,5,0,0:0:0:0:
322,209,107603,1,0,0:0:0:0:
286,207,107662,1,0,0:0:0:0:
253,196,107721,1,0,0:0:0:0:
225,176,107781,5,0,0:0:0:0:
225,127,107839,1,0,0:0:0:0:
246,83,107898,1,0,0:0:0:0:
282,50,107957,1,0,0:0:0:0:
328,35,108016,5,0,0:0:0:0:
285,58,108074,1,0,0:0:0:0:
236,63,108133,1,0,0:0:0:0:
190,47,108192,1,0,0:0:0:0:
154,15,108251,5,0,0:0:0:0:
318,144,108369,1,0,0:0:0:0:
131,130,108487,1,0,0:0:0:0:
381,222,108604,2,0,B|429:242|497:194|496:54|303:65|330:178|343:206|343:206|375:274|335:338|270:369|270:369|264:315,1,560,0|0,0:0|0:0,0:0:0:0:
239,207,108957,5,0,0:0:0:0:
195,179,109015,1,0,0:0:0:0:
147,163,109074,1,0,0:0:0:0:
98,161,109133,1,0,0:0:0:0:
49,171,109192,2,0,L|65:265,1,70,0|0,0:0|0:0,0:0:0:0:
439,189,109428,2,0,L|451:120,1,70,0|0,0:0|0:0,0:0:0:0:
259,94,109663,5,0,0:0:0:0:
257,100,109898,1,0,0:0:0:0:
255,107,110134,1,0,0:0:0:0:
382,78,110251,5,0,0:0:0:0:
254,114,110369,1,0,0:0:0:0:
252,121,110604,1,0,0:0:0:0:
156,36,110722,5,0,0:0:0:0:
251,128,110839,1,0,0:0:0:0:
249,134,111075,1,0,0:0:0:0:
247,141,111310,1,0,0:0:0:0:
245,146,111545,5,0,0:0:0:0:
243,199,111603,1,0,0:0:0:0:
270,246,111662,1,0,0:0:0:0:
318,272,111721,1,0,0:0:0:0:
371,268,111781,5,0,0:0:0:0:
324,239,111839,1,0,0:0:0:0:
270,239,111898,1,0,0:0:0:0:
224,268,111957,1,0,0:0:0:0:
200,316,112016,5,0,0:0:0:0:
130,334,112074,1,0,0:0:0:0:
61,311,112133,1,0,0:0:0:0:
17,254,112192,1,0,0:0:0:0:
10,182,112251,1,0,0:0:0:0:
45,118,112310,1,0,0:0:0:0:
109,83,112368,1,0,0:0:0:0:
181,91,112427,1,0,0:0:0:0:
238,135,112487,6,0,B|295:170|366:167|366:167|361:183|361:183|432:180|490:216|490:216|402:225|361:280,1,420.000016021729,0|0,0:0|0:0,0:0:0:0:
