osu file format v14

[General]
AudioFilename: audio.mp3
AudioLeadIn: 0
PreviewTime: 209650
Countdown: 0
SampleSet: Soft
StackLeniency: 0.7
Mode: 3
LetterboxInBreaks: 0
SpecialStyle: 0
WidescreenStoryboard: 1

[Editor]
Bookmarks: 5650,7250,15250,28050,33650,56850,88850,104850,113650,132850,142450,148850,168050,187250,193650,204850,209650,225650,238450,242550,248950,262250,271050,277450,296050
DistanceSpacing: 1.3
BeatDivisor: 6
GridSize: 32
TimelineZoom: 3.9

[Metadata]
Title:Deadly force - Put an end
TitleUnicode:Deadly force - Put an end
Artist:Noah
ArtistUnicode:Noah
Creator:riunosk
Version:Immeasurable Momentum
Source:SOUND VOLTEX IV HEAVENLY HAVEN
Tags:metal video game sdvx 4 3 ExistRuth instrumental Revolt from the abyss gravity wars コナステ konasute konaste Ω omega dimension Konami famoss
BeatmapID:3575842
BeatmapSetID:1748192

[Difficulty]
HPDrainRate:9.3
CircleSize:4
OverallDifficulty:9
ApproachRate:5
SliderMultiplier:1.4
SliderTickRate:1

[Events]
//Background and Video events
0,0,"Deadly_force_-_Put_an_end.jpg",0,0
//Break Periods
//Storyboard Layer 0 (Background)
//Storyboard Layer 1 (Fail)
//Storyboard Layer 2 (Pass)
//Storyboard Layer 3 (Foreground)
//Storyboard Layer 4 (Overlay)
//Storyboard Sound Samples
Sample,76440,0,"HHOpen.wav",70
Sample,90440,0,"Cymatics - Open Hat 5.wav",70
Sample,91240,0,"Cymatics - Open Hat 5.wav",70
Sample,93640,0,"Cymatics - Open Hat 5.wav",70
Sample,96840,0,"Cymatics - Open Hat 5.wav",70
Sample,97640,0,"Cymatics - Open Hat 5.wav",70
Sample,100040,0,"Cymatics - Open Hat 5.wav",70
Sample,125840,0,"Cymatics - Open Hat 5.wav",70
Sample,238340,0,"HHOpen.wav",70

[TimingPoints]
840,200,4,2,1,50,1,0
36840,200,3,2,1,50,1,0
39240,200,4,2,1,50,1,0
44040,-100,4,2,1,50,0,1
76040,-100,4,2,1,50,0,0
110440,200,3,2,1,50,1,0
112840,200,4,2,1,50,1,0
120040,-100,4,2,1,50,0,1
136040,-100,4,2,1,50,0,0
211240,-100,4,2,1,50,0,1
240740,200,4,2,1,50,1,1
242540,200,4,2,1,50,1,1
255340,-100,4,2,1,50,0,0
257640,200,4,2,1,50,1,0
258940,200,6,2,1,50,1,0
260140,200,4,2,1,50,1,0
260640,200,4,2,1,50,1,0
261140,200,4,2,1,50,1,0
261340,200,4,2,1,50,1,0
261840,200,4,2,1,50,1,0
262240,200,4,2,1,50,1,0
271040,-100,4,2,1,50,0,1
290240,-100,4,2,1,50,0,0
291840,200,5,2,1,50,1,0
292840,200,4,2,1,50,1,0
302440,-100,4,2,1,50,0,1
310040,-100,4,2,1,50,0,0

[HitObjects]
64,192,840,5,0,0:0:0:0:
192,192,840,1,0,0:0:0:0:
64,192,940,1,0,0:0:0:0:
192,192,940,1,0,0:0:0:0:
320,192,1040,1,0,0:0:0:0:
448,192,1040,1,0,0:0:0:0:
320,192,1140,1,0,0:0:0:0:
448,192,1140,1,0,0:0:0:0:
64,192,1240,1,0,0:0:0:0:
192,192,1240,1,0,0:0:0:0:
64,192,1340,1,0,0:0:0:0:
192,192,1340,1,0,0:0:0:0:
320,192,1440,1,0,0:0:0:0:
448,192,1440,1,0,0:0:0:0:
320,192,1540,1,0,0:0:0:0:
448,192,1540,1,0,0:0:0:0:
64,192,1640,1,0,0:0:0:0:
192,192,1640,1,0,0:0:0:0:
64,192,1740,1,0,0:0:0:0:
192,192,1740,1,0,0:0:0:0:
320,192,1840,1,0,0:0:0:0:
448,192,1840,1,0,0:0:0:0:
192,192,1940,1,0,0:0:0:0:
448,192,1940,1,0,0:0:0:0:
64,192,2040,1,0,0:0:0:0:
320,192,2040,1,0,0:0:0:0:
64,192,2140,1,0,0:0:0:0:
192,192,2140,1,0,0:0:0:0:
320,192,2240,1,0,0:0:0:0:
448,192,2240,1,0,0:0:0:0:
64,192,2340,1,0,0:0:0:0:
192,192,2340,1,0,0:0:0:0:
192,192,2440,1,0,0:0:0:0:
320,192,2440,1,0,0:0:0:0:
320,192,2540,1,0,0:0:0:0:
448,192,2540,1,0,0:0:0:0:
64,192,2640,1,0,0:0:0:0:
192,192,2640,1,0,0:0:0:0:
64,192,2740,1,0,0:0:0:0:
192,192,2740,1,0,0:0:0:0:
320,192,2840,1,0,0:0:0:0:
448,192,2840,1,0,0:0:0:0:
320,192,2940,1,0,0:0:0:0:
448,192,2940,1,0,0:0:0:0:
64,192,3040,1,0,0:0:0:0:
192,192,3040,1,0,0:0:0:0:
64,192,3140,1,0,0:0:0:0:
192,192,3140,1,0,0:0:0:0:
320,192,3240,128,0,3440:0:0:0:0:
448,192,3240,128,0,3440:0:0:0:0:
64,192,3440,1,0,0:0:0:0:
192,192,3540,128,0,3740:0:0:0:0:
320,192,3540,128,0,3740:0:0:0:0:
448,192,3740,1,0,0:0:0:0:
64,192,3840,128,0,4040:0:0:0:0:
192,192,3840,128,0,4040:0:0:0:0:
320,192,4040,128,0,4240:0:0:0:0:
448,192,4040,128,0,4240:0:0:0:0:
64,192,4240,1,0,0:0:0:0:
192,192,4240,1,0,0:0:0:0:
64,192,4340,1,0,0:0:0:0:
192,192,4340,1,0,0:0:0:0:
320,192,4440,1,0,0:0:0:0:
448,192,4440,1,0,0:0:0:0:
320,192,4540,1,0,0:0:0:0:
448,192,4540,1,0,0:0:0:0:
64,192,4640,1,0,0:0:0:0:
192,192,4640,1,0,0:0:0:0:
64,192,4740,1,0,0:0:0:0:
192,192,4740,1,0,0:0:0:0:
320,192,4840,1,0,0:0:0:0:
448,192,4840,1,0,0:0:0:0:
320,192,4940,1,0,0:0:0:0:
448,192,4940,1,0,0:0:0:0:
64,192,5040,1,0,0:0:0:0:
192,192,5040,1,0,0:0:0:0:
64,192,5140,1,0,0:0:0:0:
320,192,5140,1,0,0:0:0:0:
192,192,5240,1,0,0:0:0:0:
448,192,5240,1,0,0:0:0:0:
64,192,5340,1,0,0:0:0:0:
320,192,5340,1,0,0:0:0:0:
64,192,5440,1,0,0:0:0:0:
192,192,5440,1,0,0:0:0:0:
192,192,5540,1,0,0:0:0:0:
320,192,5540,1,0,0:0:0:0:
64,192,5640,1,2,0:0:0:0:
320,192,5640,1,4,0:0:0:0:
448,192,5640,1,0,0:0:0:0:
320,192,5740,1,2,0:0:0:0:
448,192,5740,1,0,0:0:0:0:
192,192,5790,1,2,0:0:0:0:
64,192,5840,1,2,0:0:0:0:
448,192,5840,1,0,0:0:0:0:
64,192,5940,1,2,0:0:0:0:
192,192,5940,1,4,0:0:0:0:
320,192,5940,1,0,0:0:0:0:
64,192,6040,1,2,0:0:0:0:
192,192,6040,1,0,0:0:0:0:
320,192,6090,1,2,0:0:0:0:
64,192,6140,1,2,0:0:0:0:
448,192,6140,1,0,0:0:0:0:
192,192,6240,1,4,0:0:0:0:
320,192,6240,1,2,0:0:0:0:
448,192,6240,1,0,0:0:0:0:
320,192,6340,1,2,0:0:0:0:
448,192,6340,1,0,0:0:0:0:
192,192,6390,1,2,0:0:0:0:
64,192,6440,1,2,0:0:0:0:
448,192,6440,1,0,0:0:0:0:
64,192,6540,1,2,0:0:0:0:
192,192,6540,1,4,0:0:0:0:
320,192,6540,1,0,0:0:0:0:
64,192,6640,1,2,0:0:0:0:
192,192,6640,1,0,0:0:0:0:
320,192,6690,1,2,0:0:0:0:
64,192,6740,1,2,0:0:0:0:
448,192,6740,1,0,0:0:0:0:
192,192,6840,1,4,0:0:0:0:
320,192,6840,1,2,0:0:0:0:
448,192,6840,1,0,0:0:0:0:
64,192,6890,1,2,0:0:0:0:
320,192,6940,1,2,0:0:0:0:
192,192,6990,1,2,0:0:0:0:
64,192,7040,1,2,0:0:0:0:
448,192,7090,1,2,0:0:0:0:
320,192,7140,1,2,0:0:0:0:
192,192,7190,1,2,0:0:0:0:
64,192,7240,1,2,0:0:0:0:
320,192,7240,1,4,0:0:0:0:
448,192,7240,1,0,0:0:0:0:
64,192,7340,1,0,0:0:0:0:
192,192,7340,1,0,0:0:0:0:
192,192,7440,1,2,0:0:0:0:
320,192,7440,1,0,0:0:0:0:
448,192,7440,1,0,0:0:0:0:
64,192,7540,1,0,0:0:0:0:
448,192,7540,1,0,0:0:0:0:
64,192,7640,1,2,0:0:0:0:
192,192,7640,1,0,0:0:0:0:
320,192,7640,1,0,0:0:0:0:
320,192,7740,1,0,0:0:0:0:
448,192,7740,1,0,0:0:0:0:
64,192,7840,1,2,0:0:0:0:
192,192,7840,1,0,0:0:0:0:
448,192,7840,1,0,0:0:0:0:
64,192,7940,1,0,0:0:0:0:
320,192,7940,1,0,0:0:0:0:
192,192,8040,1,2,0:0:0:0:
320,192,8040,1,0,0:0:0:0:
448,192,8040,1,0,0:0:0:0:
64,192,8140,1,0,0:0:0:0:
448,192,8140,1,0,0:0:0:0:
64,192,8240,1,2,0:0:0:0:
192,192,8240,1,0,0:0:0:0:
320,192,8240,1,0,0:0:0:0:
320,192,8340,1,0,0:0:0:0:
448,192,8340,1,0,0:0:0:0:
64,192,8440,1,2,0:0:0:0:
192,192,8440,1,0,0:0:0:0:
448,192,8440,1,0,0:0:0:0:
64,192,8540,1,0,0:0:0:0:
320,192,8540,1,0,0:0:0:0:
192,192,8640,1,2,0:0:0:0:
320,192,8640,1,0,0:0:0:0:
448,192,8640,1,0,0:0:0:0:
64,192,8740,1,0,0:0:0:0:
448,192,8740,1,0,0:0:0:0:
64,192,8840,1,2,0:0:0:0:
192,192,8840,1,0,0:0:0:0:
320,192,8840,1,0,0:0:0:0:
320,192,8940,1,0,0:0:0:0:
448,192,8940,1,0,0:0:0:0:
64,192,9040,1,2,0:0:0:0:
192,192,9040,1,0,0:0:0:0:
448,192,9040,1,0,0:0:0:0:
64,192,9140,1,0,0:0:0:0:
320,192,9140,1,0,0:0:0:0:
192,192,9240,1,2,0:0:0:0:
320,192,9240,1,0,0:0:0:0:
448,192,9240,1,0,0:0:0:0:
64,192,9340,1,0,0:0:0:0:
448,192,9340,1,0,0:0:0:0:
64,192,9440,1,2,0:0:0:0:
192,192,9440,1,0,0:0:0:0:
320,192,9440,1,0,0:0:0:0:
320,192,9540,1,0,0:0:0:0:
448,192,9540,1,0,0:0:0:0:
64,192,9640,1,2,0:0:0:0:
192,192,9640,1,0,0:0:0:0:
448,192,9640,1,0,0:0:0:0:
64,192,9740,1,2,0:0:0:0:
192,192,9740,1,0,0:0:0:0:
320,192,9790,1,2,0:0:0:0:
64,192,9840,1,2,0:0:0:0:
448,192,9840,1,0,0:0:0:0:
192,192,9940,1,2,0:0:0:0:
320,192,9940,1,0,0:0:0:0:
448,192,9940,1,0,0:0:0:0:
320,192,10040,1,2,0:0:0:0:
448,192,10040,1,0,0:0:0:0:
192,192,10090,1,2,0:0:0:0:
64,192,10140,1,2,0:0:0:0:
448,192,10140,1,0,0:0:0:0:
64,192,10240,1,2,0:0:0:0:
192,192,10240,1,0,0:0:0:0:
320,192,10240,1,0,0:0:0:0:
64,192,10340,1,2,0:0:0:0:
192,192,10340,1,0,0:0:0:0:
320,192,10390,1,2,0:0:0:0:
64,192,10440,1,2,0:0:0:0:
448,192,10440,1,0,0:0:0:0:
192,192,10540,1,2,0:0:0:0:
320,192,10540,1,0,0:0:0:0:
448,192,10540,1,0,0:0:0:0:
64,192,10640,1,2,0:0:0:0:
192,192,10640,1,0,0:0:0:0:
320,192,10640,1,0,0:0:0:0:
64,192,10740,1,0,0:0:0:0:
448,192,10740,1,0,0:0:0:0:
192,192,10840,1,2,0:0:0:0:
320,192,10840,1,0,0:0:0:0:
448,192,10840,1,0,0:0:0:0:
64,192,10940,1,0,0:0:0:0:
320,192,10940,1,0,0:0:0:0:
64,192,11040,1,2,0:0:0:0:
192,192,11040,1,0,0:0:0:0:
448,192,11040,1,0,0:0:0:0:
320,192,11140,1,0,0:0:0:0:
448,192,11140,1,0,0:0:0:0:
64,192,11240,1,2,0:0:0:0:
192,192,11240,1,0,0:0:0:0:
320,192,11240,1,0,0:0:0:0:
192,192,11340,1,0,0:0:0:0:
448,192,11340,1,0,0:0:0:0:
64,192,11440,1,2,0:0:0:0:
320,192,11440,1,0,0:0:0:0:
448,192,11440,1,0,0:0:0:0:
192,192,11540,1,2,0:0:0:0:
320,192,11540,1,0,0:0:0:0:
448,192,11540,1,0,0:0:0:0:
64,192,11640,1,2,0:0:0:0:
192,192,11640,1,0,0:0:0:0:
448,192,11640,1,0,0:0:0:0:
64,192,11740,1,2,0:0:0:0:
192,192,11740,1,0,0:0:0:0:
320,192,11740,1,0,0:0:0:0:
64,192,11840,1,2,0:0:0:0:
320,192,11840,1,0,0:0:0:0:
448,192,11840,1,0,0:0:0:0:
192,192,11940,1,2,0:0:0:0:
320,192,11940,1,0,0:0:0:0:
448,192,11940,1,0,0:0:0:0:
64,192,12040,1,2,0:0:0:0:
192,192,12040,1,0,0:0:0:0:
448,192,12040,1,0,0:0:0:0:
64,192,12140,1,2,0:0:0:0:
192,192,12140,1,0,0:0:0:0:
320,192,12190,1,2,0:0:0:0:
64,192,12240,1,2,0:0:0:0:
448,192,12240,1,0,0:0:0:0:
192,192,12340,1,2,0:0:0:0:
320,192,12340,1,0,0:0:0:0:
448,192,12340,1,0,0:0:0:0:
320,192,12440,1,2,0:0:0:0:
448,192,12440,1,0,0:0:0:0:
192,192,12490,1,2,0:0:0:0:
64,192,12540,1,2,0:0:0:0:
448,192,12540,1,0,0:0:0:0:
64,192,12640,1,2,0:0:0:0:
192,192,12640,1,0,0:0:0:0:
320,192,12640,1,0,0:0:0:0:
64,192,12740,1,2,0:0:0:0:
192,192,12740,1,0,0:0:0:0:
320,192,12790,1,2,0:0:0:0:
64,192,12840,1,2,0:0:0:0:
448,192,12840,1,0,0:0:0:0:
192,192,12940,1,2,0:0:0:0:
320,192,12940,1,0,0:0:0:0:
448,192,12940,1,0,0:0:0:0:
320,192,13040,1,2,0:0:0:0:
448,192,13040,1,0,0:0:0:0:
192,192,13090,1,2,0:0:0:0:
64,192,13140,1,2,0:0:0:0:
448,192,13140,1,0,0:0:0:0:
64,192,13240,1,2,0:0:0:0:
192,192,13240,1,0,0:0:0:0:
448,192,13290,1,2,0:0:0:0:
192,192,13340,1,2,0:0:0:0:
320,192,13340,1,0,0:0:0:0:
64,192,13390,1,2,0:0:0:0:
320,192,13440,1,2,0:0:0:0:
448,192,13440,1,0,0:0:0:0:
192,192,13490,1,2,0:0:0:0:
64,192,13540,1,2,0:0:0:0:
448,192,13540,1,0,0:0:0:0:
320,192,13590,1,2,0:0:0:0:
64,192,13640,1,2,0:0:0:0:
192,192,13640,1,0,0:0:0:0:
448,192,13640,1,0,0:0:0:0:
192,192,13740,1,0,0:0:0:0:
320,192,13740,1,0,0:0:0:0:
64,192,13840,1,0,0:0:0:0:
448,192,13840,1,0,0:0:0:0:
192,192,13940,1,0,0:0:0:0:
320,192,13940,1,0,0:0:0:0:
64,192,14040,1,0,0:0:0:0:
192,192,14040,1,0,0:0:0:0:
320,192,14140,1,0,0:0:0:0:
448,192,14140,1,0,0:0:0:0:
64,192,14240,1,0,0:0:0:0:
448,192,14240,1,0,0:0:0:0:
192,192,14340,1,0,0:0:0:0:
320,192,14340,1,0,0:0:0:0:
64,192,14440,1,0,0:0:0:0:
192,192,14440,1,0,0:0:0:0:
320,192,14540,1,0,0:0:0:0:
448,192,14540,1,0,0:0:0:0:
320,192,14640,1,0,0:0:0:0:
448,192,14640,1,0,0:0:0:0:
64,192,14740,1,8,0:0:0:0:
192,192,14740,1,0,0:0:0:0:
320,192,14790,1,8,0:0:0:0:
64,192,14840,1,2,0:0:0:0:
192,192,14840,1,4,0:0:0:0:
448,192,14840,1,0,0:0:0:0:
320,192,14940,1,0,0:0:0:70:tom1.wav
448,192,14940,1,0,0:0:0:0:
192,192,15040,1,0,0:0:0:70:tom2.wav
320,192,15040,1,0,0:0:0:0:
64,192,15140,1,0,0:0:0:70:tom3.wav
192,192,15140,1,0,0:0:0:0:
64,192,15240,1,4,0:0:0:0:
320,192,15240,1,2,0:0:0:0:
448,192,15240,1,0,0:0:0:0:
192,192,15340,1,0,0:0:0:0:
320,192,15340,1,0,0:0:0:0:
64,192,15440,1,8,0:0:0:0:
192,192,15440,1,0,0:0:0:70:HHOpen.wav
448,192,15440,1,0,0:0:0:0:
64,192,15540,1,0,0:0:0:0:
320,192,15540,1,0,0:0:0:0:
192,192,15640,1,2,0:0:0:0:
448,192,15640,1,0,0:0:0:0:
320,192,15740,1,2,0:0:0:0:
448,192,15740,1,0,0:0:0:0:
64,192,15840,1,8,0:0:0:0:
192,192,15840,1,0,0:0:0:70:HHOpen.wav
320,192,15840,1,0,0:0:0:0:
64,192,15940,1,0,0:0:0:0:
448,192,15940,1,0,0:0:0:0:
192,192,16040,1,2,0:0:0:0:
320,192,16040,1,0,0:0:0:0:
320,192,16140,1,0,0:0:0:0:
64,192,16240,1,8,0:0:0:0:
192,192,16240,1,0,0:0:0:70:HHOpen.wav
448,192,16240,1,0,0:0:0:0:
320,192,16340,1,2,0:0:0:0:
192,192,16440,1,2,0:0:0:0:
320,192,16440,1,0,0:0:0:0:
64,192,16540,1,2,0:0:0:0:
448,192,16540,1,0,0:0:0:0:
64,192,16640,1,8,0:0:0:0:
192,192,16640,1,0,0:0:0:70:HHOpen.wav
320,192,16640,1,0,0:0:0:0:
320,192,16740,1,0,0:0:0:0:
448,192,16740,1,0,0:0:0:0:
64,192,16840,1,2,0:0:0:0:
192,192,16840,1,0,0:0:0:0:
192,192,16940,1,2,0:0:0:0:
64,192,17040,1,8,0:0:0:0:
320,192,17040,1,0,0:0:0:70:HHOpen.wav
448,192,17040,1,0,0:0:0:0:
192,192,17140,1,0,0:0:0:0:
192,192,17240,1,2,0:0:0:0:
320,192,17240,1,0,0:0:0:0:
320,192,17340,1,2,0:0:0:0:
64,192,17440,1,8,0:0:0:0:
192,192,17440,1,0,0:0:0:70:HHOpen.wav
448,192,17440,1,0,0:0:0:0:
320,192,17540,1,0,0:0:0:0:
448,192,17540,1,0,0:0:0:0:
64,192,17640,1,2,0:0:0:0:
192,192,17640,1,0,0:0:0:0:
64,192,17740,1,0,0:0:0:0:
192,192,17840,1,8,0:0:0:0:
320,192,17840,1,0,0:0:0:70:HHOpen.wav
448,192,17840,1,0,0:0:0:0:
64,192,17940,1,2,0:0:0:0:
64,192,18040,1,2,0:0:0:0:
192,192,18040,1,0,0:0:0:0:
320,192,18140,1,2,0:0:0:0:
64,192,18190,1,0,0:0:0:0:
192,192,18190,1,0,0:0:0:0:
320,192,18240,1,8,0:0:0:0:
448,192,18240,1,0,0:0:0:70:HHOpen.wav
64,192,18340,1,8,0:0:0:0:
320,192,18340,1,0,0:0:0:0:
448,192,18340,1,0,0:0:0:0:
64,192,18440,1,2,0:0:0:0:
192,192,18440,1,0,0:0:0:0:
448,192,18440,1,0,0:0:0:0:
192,192,18540,1,0,0:0:0:0:
320,192,18540,1,0,0:0:0:0:
64,192,18640,1,8,0:0:0:0:
320,192,18640,1,0,0:0:0:70:HHOpen.wav
448,192,18640,1,0,0:0:0:0:
64,192,18740,1,0,0:0:0:0:
192,192,18740,1,0,0:0:0:0:
320,192,18840,1,2,0:0:0:0:
448,192,18840,1,0,0:0:0:0:
64,192,18940,1,2,0:0:0:0:
320,192,18940,1,0,0:0:0:0:
64,192,19040,1,8,0:0:0:0:
192,192,19040,1,0,0:0:0:70:HHOpen.wav
448,192,19040,1,0,0:0:0:0:
192,192,19140,1,0,0:0:0:0:
320,192,19140,1,0,0:0:0:0:
320,192,19240,1,2,0:0:0:0:
448,192,19240,1,0,0:0:0:0:
448,192,19340,1,0,0:0:0:0:
64,192,19440,1,8,0:0:0:0:
192,192,19440,1,0,0:0:0:70:HHOpen.wav
320,192,19440,1,0,0:0:0:0:
64,192,19540,1,2,0:0:0:0:
448,192,19540,1,0,0:0:0:0:
192,192,19640,1,2,0:0:0:0:
320,192,19640,1,0,0:0:0:0:
320,192,19740,1,2,0:0:0:0:
64,192,19840,1,8,0:0:0:0:
192,192,19840,1,0,0:0:0:70:HHOpen.wav
448,192,19840,1,0,0:0:0:0:
64,192,19940,1,8,0:0:0:0:
320,192,19940,1,0,0:0:0:0:
448,192,19940,1,0,0:0:0:0:
192,192,20040,1,8,0:0:0:0:
320,192,20040,1,0,0:0:0:0:
448,192,20040,1,0,0:0:0:0:
64,192,20140,1,2,0:0:0:0:
192,192,20140,1,0,0:0:0:0:
64,192,20240,1,8,0:0:0:0:
320,192,20240,1,4,0:0:0:0:
448,192,20240,1,0,0:0:0:0:
192,192,20340,1,2,0:0:0:0:
320,192,20340,1,0,0:0:0:0:
64,192,20440,1,8,0:0:0:0:
192,192,20440,1,4,0:0:0:0:
448,192,20440,1,0,0:0:0:0:
320,192,20540,1,2,0:0:0:0:
448,192,20540,1,0,0:0:0:0:
192,192,20590,1,0,0:0:0:0:
64,192,20640,1,8,0:0:0:0:
320,192,20640,1,4,0:0:0:0:
448,192,20640,1,0,0:0:0:0:
64,192,20740,1,2,0:0:0:0:
192,192,20740,1,0,0:0:0:0:
192,192,20840,1,4,0:0:0:0:
320,192,20840,1,0,0:0:0:70:tom1.wav
448,192,20840,1,0,0:0:0:0:
320,192,20940,1,0,0:0:0:70:tom1.wav
448,192,20940,1,0,0:0:0:0:
320,192,21040,1,0,0:0:0:70:tom2.wav
448,192,21040,1,0,0:0:0:0:
320,192,21140,1,0,0:0:0:70:tom2.wav
448,192,21140,1,0,0:0:0:0:
64,192,21240,1,0,0:0:0:70:tom3.wav
192,192,21240,1,0,0:0:0:0:
64,192,21340,1,0,0:0:0:70:tom4.wav
192,192,21340,1,0,0:0:0:0:
64,192,21440,1,0,0:0:0:70:tom4.wav
192,192,21440,1,0,0:0:0:0:
64,192,21540,1,0,0:0:0:70:tom4.wav
192,192,21540,1,0,0:0:0:0:
64,192,21640,1,4,0:0:0:0:
320,192,21640,1,2,0:0:0:0:
448,192,21640,1,0,0:0:0:0:
192,192,21740,1,0,0:0:0:0:
320,192,21740,1,0,0:0:0:0:
64,192,21840,1,8,0:0:0:0:
192,192,21840,1,0,0:0:0:70:Cymatics - Open Hat 5.wav
448,192,21840,1,0,0:0:0:0:
320,192,21940,1,0,0:0:0:0:
448,192,21940,1,0,0:0:0:0:
64,192,22040,1,2,0:0:0:0:
192,192,22040,1,0,0:0:0:0:
192,192,22140,1,2,0:0:0:0:
320,192,22140,1,0,0:0:0:0:
64,192,22240,1,8,0:0:0:0:
320,192,22240,1,0,0:0:0:70:Cymatics - Open Hat 5.wav
448,192,22240,1,0,0:0:0:0:
192,192,22340,1,0,0:0:0:0:
448,192,22340,1,0,0:0:0:0:
64,192,22440,1,2,0:0:0:0:
320,192,22440,1,0,0:0:0:0:
64,192,22540,1,0,0:0:0:0:
448,192,22540,1,0,0:0:0:0:
192,192,22640,1,8,0:0:0:0:
320,192,22640,1,0,0:0:0:70:Cymatics - Open Hat 5.wav
448,192,22640,1,0,0:0:0:0:
64,192,22740,1,2,0:0:0:0:
192,192,22740,1,0,0:0:0:0:
320,192,22840,1,2,0:0:0:0:
448,192,22840,1,0,0:0:0:0:
320,192,22940,1,2,0:0:0:0:
448,192,22940,1,0,0:0:0:0:
64,192,23040,1,8,0:0:0:0:
192,192,23040,1,0,0:0:0:70:Cymatics - Open Hat 5.wav
448,192,23040,1,0,0:0:0:0:
64,192,23140,1,0,0:0:0:0:
192,192,23140,1,0,0:0:0:0:
320,192,23240,1,2,0:0:0:0:
448,192,23240,1,0,0:0:0:0:
192,192,23340,1,0,0:0:0:0:
320,192,23340,1,0,0:0:0:0:
64,192,23440,1,8,0:0:0:0:
192,192,23440,1,0,0:0:0:70:Cymatics - Open Hat 5.wav
448,192,23440,1,0,0:0:0:0:
64,192,23540,1,0,0:0:0:0:
320,192,23540,1,0,0:0:0:0:
320,192,23640,1,2,0:0:0:0:
448,192,23640,1,0,0:0:0:0:
64,192,23740,1,2,0:0:0:0:
192,192,23740,1,0,0:0:0:0:
64,192,23840,1,8,0:0:0:0:
320,192,23840,1,0,0:0:0:70:Cymatics - Open Hat 5.wav
448,192,23840,1,0,0:0:0:0:
192,192,23940,1,0,0:0:0:0:
448,192,23940,1,0,0:0:0:0:
64,192,24040,1,2,0:0:0:0:
320,192,24040,1,0,0:0:0:0:
64,192,24140,1,2,0:0:0:0:
192,192,24140,1,0,0:0:0:0:
192,192,24240,1,8,0:0:0:0:
320,192,24240,1,0,0:0:0:70:Cymatics - Open Hat 5.wav
448,192,24240,1,0,0:0:0:0:
64,192,24340,1,8,0:0:0:0:
320,192,24340,1,0,0:0:0:0:
448,192,24340,1,0,0:0:0:0:
64,192,24440,1,8,0:0:0:0:
192,192,24440,1,4,0:0:0:0:
448,192,24440,1,0,0:0:0:0:
64,192,24540,1,2,0:0:0:0:
192,192,24540,1,0,0:0:0:0:
64,192,24640,1,8,0:0:0:0:
320,192,24640,1,4,0:0:0:0:
448,192,24640,1,0,0:0:0:0:
320,192,24740,1,2,0:0:0:0:
448,192,24740,1,0,0:0:0:0:
64,192,24840,1,2,0:0:0:0:
192,192,24840,1,4,0:0:0:0:
448,192,24840,1,0,0:0:0:0:
192,192,24940,1,2,0:0:0:0:
320,192,24940,1,0,0:0:0:0:
64,192,25040,1,8,0:0:0:0:
320,192,25040,1,4,0:0:0:0:
448,192,25040,1,0,0:0:0:0:
64,192,25140,1,0,0:0:0:0:
192,192,25140,1,0,0:0:0:0:
320,192,25240,1,2,0:0:0:0:
448,192,25240,1,0,0:0:0:0:
64,192,25340,1,2,0:0:0:0:
448,192,25340,1,0,0:0:0:0:
64,192,25440,1,8,0:0:0:0:
192,192,25440,1,0,0:0:0:70:Cymatics - Open Hat 5.wav
320,192,25440,1,0,0:0:0:0:
320,192,25540,1,0,0:0:0:0:
448,192,25540,1,0,0:0:0:0:
64,192,25640,1,2,0:0:0:0:
192,192,25640,1,0,0:0:0:0:
64,192,25740,1,0,0:0:0:0:
448,192,25740,1,0,0:0:0:0:
192,192,25840,1,8,0:0:0:0:
320,192,25840,1,0,0:0:0:70:Cymatics - Open Hat 5.wav
448,192,25840,1,0,0:0:0:0:
64,192,25940,1,2,0:0:0:0:
192,192,25940,1,0,0:0:0:0:
320,192,26040,1,2,0:0:0:0:
448,192,26040,1,0,0:0:0:0:
192,192,26140,1,2,0:0:0:0:
320,192,26140,1,0,0:0:0:0:
64,192,26240,1,8,0:0:0:0:
192,192,26240,1,0,0:0:0:70:Cymatics - Open Hat 5.wav
448,192,26240,1,0,0:0:0:0:
64,192,26340,1,8,0:0:0:0:
320,192,26340,1,0,0:0:0:0:
448,192,26340,1,0,0:0:0:0:
64,192,26440,1,8,0:0:0:0:
192,192,26440,1,0,0:0:0:0:
448,192,26440,1,0,0:0:0:0:
192,192,26540,1,2,0:0:0:0:
320,192,26540,1,0,0:0:0:0:
320,192,26640,1,2,0:0:0:0:
448,192,26640,1,0,0:0:0:70:Cymatics - Open Hat 5.wav
64,192,26740,1,4,0:0:0:0:
320,192,26740,1,8,0:0:0:0:
448,192,26740,1,0,0:0:0:0:
192,192,26840,1,2,0:0:0:0:
320,192,26840,1,0,0:0:0:0:
64,192,26940,1,2,0:0:0:0:
192,192,26940,1,0,0:0:0:0:
64,192,27040,1,4,0:0:0:0:
192,192,27040,1,8,0:0:0:0:
448,192,27040,1,0,0:0:0:0:
192,192,27140,1,2,0:0:0:0:
320,192,27140,1,0,0:0:0:0:
64,192,27190,1,2,0:0:0:0:
320,192,27240,1,0,0:0:0:70:tom1.wav
448,192,27240,1,0,0:0:0:0:
64,192,27340,1,0,0:0:0:70:tom2.wav
320,192,27340,1,0,0:0:0:0:
448,192,27340,1,0,0:0:0:0:
192,192,27390,1,0,0:0:0:0:
320,192,27440,1,2,0:0:0:0:
448,192,27490,1,0,0:0:0:0:
192,192,27540,1,2,0:0:0:0:
320,192,27590,1,0,0:0:0:0:
64,192,27640,1,8,0:0:0:0:
192,192,27640,1,4,0:0:0:0:
448,192,27640,1,0,0:0:0:0:
320,192,27740,1,8,0:0:0:0:
448,192,27740,1,0,0:0:0:0:
192,192,27840,1,0,0:0:0:70:tom1.wav
320,192,27840,1,0,0:0:0:0:
64,192,27940,1,0,0:0:0:70:tom2.wav
192,192,27940,1,0,0:0:0:0:
64,192,28040,1,2,0:0:0:0:
320,192,28040,1,4,0:0:0:0:
448,192,28040,1,0,0:0:0:0:
64,192,28240,1,2,0:0:0:0:
192,192,28240,1,0,0:0:0:0:
320,192,28240,1,0,0:0:0:0:
64,192,28340,1,2,0:0:0:0:
192,192,28340,1,0,0:0:0:0:
320,192,28340,1,0,0:0:0:0:
64,192,28540,1,2,0:0:0:0:
192,192,28540,1,0,0:0:0:0:
320,192,28540,1,0,0:0:0:0:
64,192,28740,1,2,0:0:0:0:
192,192,28740,1,0,0:0:0:0:
320,192,28740,1,0,0:0:0:0:
448,192,28840,1,0,0:0:0:70:Cymatics - Open Hat 5.wav
64,192,29040,1,2,0:0:0:0:
192,192,29040,1,0,0:0:0:0:
320,192,29040,1,0,0:0:0:0:
448,192,29140,1,0,0:0:0:0:
64,192,29240,1,0,0:0:0:0:
192,192,29340,1,2,0:0:0:0:
320,192,29340,1,4,0:0:0:0:
448,192,29340,1,0,0:0:0:0:
64,192,29440,1,0,0:0:0:0:
448,192,29640,1,0,0:0:0:70:Cymatics - Open Hat 5.wav
64,192,29740,1,2,0:0:0:0:
192,192,29740,1,0,0:0:0:0:
320,192,29740,1,0,0:0:0:0:
64,192,29840,1,4,0:0:0:0:
192,192,29840,1,2,0:0:0:0:
320,192,29840,1,0,0:0:0:0:
448,192,30040,1,0,0:0:0:0:
64,192,30140,1,2,0:0:0:0:
192,192,30140,1,0,0:0:0:0:
320,192,30140,1,0,0:0:0:0:
64,192,30340,1,2,0:0:0:0:
192,192,30340,1,0,0:0:0:0:
320,192,30340,1,0,0:0:0:0:
448,192,30440,1,0,0:0:0:70:Cymatics - Open Hat 5.wav
64,192,30640,1,2,0:0:0:0:
192,192,30640,1,4,0:0:0:0:
320,192,30640,1,0,0:0:0:0:
448,192,30640,1,0,0:0:0:0:
64,192,30840,1,2,0:0:0:0:
320,192,30890,1,8,0:0:0:0:
448,192,30890,1,0,0:0:0:0:
64,192,30940,1,8,0:0:0:0:
192,192,30940,1,0,0:0:0:0:
320,192,31040,1,2,0:0:0:0:
448,192,31040,1,0,0:0:0:0:
320,192,31140,1,2,0:0:0:0:
448,192,31140,1,0,0:0:0:0:
64,192,31240,1,4,0:0:0:0:
192,192,31240,1,8,0:0:0:0:
448,192,31240,1,0,0:0:0:0:
64,192,31340,1,0,0:0:0:70:tom1.wav
192,192,31340,1,0,0:0:0:0:
64,192,31440,1,0,0:0:0:70:tom2.wav
192,192,31440,1,0,0:0:0:0:
64,192,31540,1,4,0:0:0:0:
320,192,31540,1,8,0:0:0:0:
448,192,31540,1,0,0:0:0:0:
320,192,31640,1,0,0:0:0:70:tom1.wav
448,192,31640,1,0,0:0:0:0:
192,192,31690,1,0,0:0:0:70:tom1.wav
320,192,31740,1,0,0:0:0:70:tom2.wav
448,192,31740,1,0,0:0:0:0:
64,192,31840,1,8,0:0:0:0:
192,192,31840,1,4,0:0:0:0:
448,192,31840,1,0,0:0:0:0:
64,192,32040,1,4,0:0:0:0:
320,192,32040,1,2,0:0:0:0:
448,192,32040,1,0,0:0:0:0:
192,192,32440,1,0,0:0:0:70:Cymatics - Open Hihat 1.wav
320,192,32506,1,0,0:0:0:0:
448,192,32573,1,0,0:0:0:70:Cymatics - Open Hihat 1.wav
64,192,32640,1,0,0:0:0:0:
192,192,32706,1,0,0:0:0:0:
320,192,32773,1,0,0:0:0:70:Cymatics - Open Hihat 1.wav
448,192,32840,1,0,0:0:0:70:Cymatics - Open Hihat 1.wav
320,192,32906,1,0,0:0:0:70:Cymatics - Open Hihat 1.wav
192,192,32973,1,0,0:0:0:70:Cymatics - Open Hihat 1.wav
64,192,33040,1,4,0:0:0:0:
448,192,33040,1,2,0:0:0:0:
320,192,33106,1,0,0:0:0:0:
192,192,33173,1,0,0:0:0:70:Cymatics - Open Hihat 1.wav
64,192,33240,1,2,0:0:0:0:
448,192,33240,1,4,0:0:0:0:
320,192,33306,1,0,0:0:0:0:
192,192,33373,1,0,0:0:0:0:
64,192,33440,1,4,0:0:0:0:
448,192,33440,1,8,0:0:0:0:
320,192,33506,1,0,0:0:0:0:
192,192,33573,1,0,0:0:0:0:
64,192,33640,1,2,0:0:0:0:
320,192,33640,1,4,0:0:0:0:
448,192,33640,1,0,0:0:0:0:
320,192,33740,1,0,0:0:0:0:
320,192,33840,1,0,0:0:0:70:HHOpen.wav
64,192,33940,1,2,0:0:0:0:
192,192,33940,1,0,0:0:0:0:
192,192,34040,1,0,0:0:0:0:
192,192,34140,1,0,0:0:0:0:
64,192,34240,1,8,0:0:0:0:
320,192,34240,1,0,0:0:0:70:HHOpen.wav
448,192,34240,1,0,0:0:0:0:
320,192,34340,1,0,0:0:0:0:
320,192,34440,1,0,0:0:0:0:
192,192,34540,1,2,0:0:0:0:
448,192,34540,1,0,0:0:0:0:
448,192,34640,1,0,0:0:0:70:HHOpen.wav
64,192,34740,1,2,0:0:0:0:
448,192,34740,1,0,0:0:0:0:
64,192,34840,1,8,0:0:0:0:
192,192,34840,1,0,0:0:0:0:
320,192,34840,1,0,0:0:0:0:
448,192,34906,1,0,0:0:0:0:
320,192,34973,1,0,0:0:0:0:
192,192,35040,1,0,0:0:0:70:HHOpen.wav
64,192,35106,1,0,0:0:0:0:
320,192,35173,1,0,0:0:0:0:
64,192,35240,1,2,0:0:0:0:
192,192,35240,1,0,0:0:0:0:
448,192,35240,1,0,0:0:0:0:
192,192,35340,1,2,0:0:0:0:
320,192,35340,1,0,0:0:0:0:
64,192,35440,1,8,0:0:0:0:
320,192,35440,1,4,0:0:0:0:
448,192,35440,1,0,0:0:0:0:
448,192,35540,1,0,0:0:0:0:
448,192,35640,1,0,0:0:0:0:
192,192,35740,1,2,0:0:0:0:
320,192,35740,1,0,0:0:0:0:
320,192,35840,1,0,0:0:0:0:
320,192,35940,1,0,0:0:0:0:
64,192,36040,1,2,0:0:0:0:
192,192,36040,1,0,0:0:0:0:
192,192,36140,1,0,0:0:0:0:
192,192,36240,1,0,0:0:0:0:
64,192,36340,1,2,0:0:0:0:
448,192,36340,1,0,0:0:0:0:
64,192,36440,1,8,0:0:0:0:
320,192,36440,1,0,0:0:0:0:
448,192,36440,1,0,0:0:0:0:
192,192,36540,1,2,0:0:0:0:
320,192,36540,1,0,0:0:0:0:
64,192,36640,1,2,0:0:0:0:
192,192,36640,1,0,0:0:0:0:
320,192,36740,1,2,0:0:0:0:
448,192,36740,1,0,0:0:0:0:
64,192,36840,1,2,0:0:0:0:
192,192,36840,1,4,0:0:0:0:
448,192,36840,1,0,0:0:0:0:
64,192,36940,1,0,0:0:0:0:
320,192,37040,1,2,0:0:0:0:
448,192,37040,1,0,0:0:0:70:Cymatics - Open Hat 5.wav
320,192,37140,1,0,0:0:0:0:
64,192,37240,1,8,0:0:0:0:
192,192,37240,1,0,0:0:0:0:
448,192,37240,1,0,0:0:0:0:
192,192,37340,1,0,0:0:0:0:
320,192,37440,1,2,0:0:0:0:
448,192,37440,1,0,0:0:0:70:Cymatics - Open Hat 5.wav
64,192,37540,1,8,0:0:0:0:
192,192,37540,1,0,0:0:0:0:
448,192,37540,1,0,0:0:0:0:
64,192,37640,1,2,0:0:0:0:
320,192,37640,1,0,0:0:0:0:
320,192,37740,1,0,0:0:0:0:
64,192,37840,1,8,0:0:0:0:
192,192,37840,1,0,0:0:0:70:Cymatics - Open Hat 5.wav
448,192,37840,1,0,0:0:0:0:
64,192,37940,1,0,0:0:0:0:
192,192,38040,1,2,0:0:0:0:
320,192,38040,1,0,0:0:0:0:
192,192,38140,1,0,0:0:0:0:
320,192,38240,1,2,0:0:0:0:
448,192,38240,1,0,0:0:0:70:Cymatics - Open Hat 5.wav
320,192,38340,1,0,0:0:0:0:
64,192,38440,1,8,0:0:0:0:
192,192,38440,1,0,0:0:0:0:
448,192,38440,1,0,0:0:0:0:
64,192,38540,1,8,0:0:0:0:
192,192,38540,1,0,0:0:0:0:
448,192,38540,1,0,0:0:0:0:
64,192,38640,1,4,0:0:0:0:
192,192,38640,1,8,0:0:0:0:
448,192,38640,1,0,0:0:0:0:
320,192,38740,1,8,0:0:0:0:
448,192,38740,1,0,0:0:0:0:
192,192,38840,1,0,0:0:0:70:tom1.wav
320,192,38840,1,0,0:0:0:0:
64,192,38940,1,0,0:0:0:70:tom2.wav
192,192,38940,1,0,0:0:0:0:
320,192,39040,1,0,0:0:0:70:tom3.wav
448,192,39040,1,0,0:0:0:0:
192,192,39140,1,0,0:0:0:70:tom4.wav
320,192,39140,1,0,0:0:0:0:
64,192,39240,128,2,39390:0:0:0:0:
192,192,39240,128,4,39390:0:0:0:0:
448,192,39240,1,0,0:0:0:0:
64,192,39440,1,8,0:0:0:0:
320,192,39440,1,0,0:0:0:70:Cymatics - Open Hat 5.wav
448,192,39440,1,0,0:0:0:0:
192,192,39490,1,0,0:0:0:0:
448,192,39540,1,0,0:0:0:0:
320,192,39590,1,0,0:0:0:0:
64,192,39640,1,8,0:0:0:0:
192,192,39640,1,0,0:0:0:0:
448,192,39640,1,0,0:0:0:0:
320,192,39690,1,0,0:0:0:0:
64,192,39740,1,0,0:0:0:0:
192,192,39790,1,0,0:0:0:0:
64,192,39840,1,8,0:0:0:0:
320,192,39840,1,0,0:0:0:70:Cymatics - Open Hat 5.wav
448,192,39840,1,0,0:0:0:0:
192,192,39890,1,0,0:0:0:0:
448,192,39940,1,0,0:0:0:0:
320,192,39990,1,0,0:0:0:0:
64,192,40040,1,8,0:0:0:0:
192,192,40040,1,0,0:0:0:0:
448,192,40040,1,0,0:0:0:0:
320,192,40090,1,8,0:0:0:0:
64,192,40140,1,2,0:0:0:0:
192,192,40140,1,0,0:0:0:0:
320,192,40190,1,2,0:0:0:0:
64,192,40240,1,0,0:0:0:70:tom1.wav
448,192,40240,1,0,0:0:0:0:
192,192,40290,1,0,0:0:0:70:tom2.wav
320,192,40340,1,8,0:0:0:0:
448,192,40340,1,4,0:0:0:0:
64,192,40390,1,0,0:0:0:0:
192,192,40440,1,0,0:0:0:70:tom2.wav
320,192,40440,1,0,0:0:0:0:
448,192,40490,1,0,0:0:0:70:tom3.wav
64,192,40540,1,0,0:0:0:70:tom4.wav
192,192,40540,1,0,0:0:0:0:
320,192,40590,1,0,0:0:0:70:tom4.wav
64,192,40640,1,8,0:0:0:0:
192,192,40640,1,4,0:0:0:0:
448,192,40640,1,0,0:0:0:0:
64,192,40740,1,8,0:0:0:0:
320,192,40740,1,0,0:0:0:0:
448,192,40740,1,0,0:0:0:0:
64,192,40840,1,4,0:0:0:0:
192,192,40840,1,2,0:0:0:0:
448,192,40840,1,0,0:0:0:0:
320,192,40940,1,2,0:0:0:0:
192,192,40990,1,2,0:0:0:0:
64,192,41040,1,8,0:0:0:0:
320,192,41040,1,4,0:0:0:0:
448,192,41040,1,0,0:0:0:0:
64,192,41140,1,2,0:0:0:0:
192,192,41190,1,2,0:0:0:0:
320,192,41240,1,2,0:0:0:0:
448,192,41240,1,0,0:0:0:0:
64,192,41340,1,8,0:0:0:0:
192,192,41340,1,4,0:0:0:0:
448,192,41340,1,0,0:0:0:0:
64,192,41440,1,2,0:0:0:0:
192,192,41440,1,0,0:0:0:0:
320,192,41540,1,2,0:0:0:0:
448,192,41540,1,0,0:0:0:0:
192,192,41590,1,2,0:0:0:0:
64,192,41640,1,8,0:0:0:0:
320,192,41640,1,4,0:0:0:0:
448,192,41640,1,0,0:0:0:0:
320,192,41740,1,2,0:0:0:0:
448,192,41740,1,0,0:0:0:0:
64,192,41840,1,8,0:0:0:0:
192,192,41840,1,0,0:0:0:0:
192,192,41940,1,0,0:0:0:0:
320,192,42040,1,2,0:0:0:0:
448,192,42040,1,0,0:0:0:0:
320,192,42140,1,2,0:0:0:0:
448,192,42140,1,0,0:0:0:0:
64,192,42240,1,8,0:0:0:0:
192,192,42240,1,0,0:0:0:0:
448,192,42240,1,0,0:0:0:0:
64,192,42340,1,8,0:0:0:0:
192,192,42340,1,0,0:0:0:0:
320,192,42340,1,0,0:0:0:0:
64,192,42440,1,8,0:0:0:0:
320,192,42440,1,0,0:0:0:0:
448,192,42440,1,0,0:0:0:0:
192,192,42490,1,8,0:0:0:0:
320,192,42540,1,2,0:0:0:0:
448,192,42540,1,0,0:0:0:0:
192,192,42590,1,2,0:0:0:0:
64,192,42640,1,2,0:0:0:0:
448,192,42640,1,0,0:0:0:0:
320,192,42690,1,2,0:0:0:0:
64,192,42740,1,2,0:0:0:0:
192,192,42740,1,0,0:0:0:0:
448,192,42790,1,2,0:0:0:0:
192,192,42840,1,2,0:0:0:0:
320,192,42840,1,0,0:0:0:0:
64,192,42890,1,2,0:0:0:0:
320,192,42940,1,2,0:0:0:0:
448,192,42940,1,0,0:0:0:0:
192,192,42990,1,2,0:0:0:0:
64,192,43040,1,2,0:0:0:0:
448,192,43040,1,0,0:0:0:0:
320,192,43090,1,2,0:0:0:0:
64,192,43140,1,2,0:0:0:0:
192,192,43140,1,0,0:0:0:0:
320,192,43190,1,2,0:0:0:0:
64,192,43240,128,2,43540:0:0:0:0:
192,192,43240,128,4,43540:0:0:0:0:
448,192,43240,128,0,43540:0:0:0:0:
64,192,43640,128,0,43940:0:0:0:0:
192,192,43640,128,0,43940:0:0:0:0:
320,192,43840,128,0,43940:0:0:0:0:
448,192,43840,128,0,43940:0:0:0:0:
64,192,44040,1,4,0:0:0:0:
320,192,44040,1,2,0:0:0:0:
448,192,44040,1,0,0:0:0:0:
320,192,44140,1,2,0:0:0:0:
448,192,44140,1,0,0:0:0:0:
64,192,44240,1,8,0:0:0:0:
192,192,44240,1,0,0:0:0:70:Cymatics - Open Hihat 1.wav
64,192,44340,1,2,0:0:0:0:
320,192,44340,1,0,0:0:0:0:
448,192,44340,1,0,0:0:0:0:
192,192,44440,1,2,0:0:0:0:
448,192,44440,1,0,0:0:0:70:HHOpen.wav
64,192,44540,1,2,0:0:0:0:
320,192,44540,1,0,0:0:0:0:
64,192,44640,1,8,0:0:0:0:
192,192,44640,1,0,0:0:0:70:Cymatics - Open Hihat 1.wav
448,192,44640,1,0,0:0:0:0:
320,192,44740,1,2,0:0:0:0:
448,192,44740,1,0,0:0:0:0:
64,192,44840,1,2,0:0:0:0:
192,192,44840,1,0,0:0:0:70:HHOpen.wav
320,192,44840,1,0,0:0:0:0:
64,192,44940,1,2,0:0:0:0:
192,192,44940,1,0,0:0:0:0:
64,192,45040,1,8,0:0:0:0:
192,192,45040,1,0,0:0:0:70:Cymatics - Open Hihat 1.wav
64,192,45140,1,2,0:0:0:0:
192,192,45140,1,0,0:0:0:0:
64,192,45240,1,2,0:0:0:0:
320,192,45240,1,0,0:0:0:70:HHOpen.wav
448,192,45240,1,0,0:0:0:0:
192,192,45340,1,2,0:0:0:0:
320,192,45340,1,0,0:0:0:0:
64,192,45440,1,8,0:0:0:0:
192,192,45440,1,0,0:0:0:70:Cymatics - Open Hihat 1.wav
448,192,45440,1,0,0:0:0:0:
64,192,45540,1,2,0:0:0:0:
320,192,45540,1,0,0:0:0:0:
192,192,45640,1,2,0:0:0:0:
320,192,45640,1,0,0:0:0:70:HHOpen.wav
448,192,45640,1,0,0:0:0:0:
64,192,45740,1,2,0:0:0:0:
448,192,45740,1,0,0:0:0:0:
64,192,45840,1,8,0:0:0:0:
192,192,45840,1,0,0:0:0:70:Cymatics - Open Hihat 1.wav
192,192,45940,1,2,0:0:0:0:
320,192,45940,1,0,0:0:0:0:
448,192,45940,1,0,0:0:0:0:
64,192,46040,1,2,0:0:0:0:
320,192,46040,1,0,0:0:0:70:HHOpen.wav
64,192,46140,1,2,0:0:0:0:
448,192,46140,1,0,0:0:0:0:
192,192,46240,1,8,0:0:0:0:
320,192,46240,1,0,0:0:0:70:Cymatics - Open Hihat 1.wav
448,192,46240,1,0,0:0:0:0:
64,192,46340,1,2,0:0:0:0:
192,192,46340,1,0,0:0:0:0:
64,192,46440,1,2,0:0:0:0:
320,192,46440,1,0,0:0:0:70:HHOpen.wav
448,192,46440,1,0,0:0:0:0:
320,192,46540,1,2,0:0:0:0:
448,192,46540,1,0,0:0:0:0:
320,192,46640,1,8,0:0:0:0:
448,192,46640,1,0,0:0:0:70:Cymatics - Open Hihat 1.wav
320,192,46740,1,2,0:0:0:0:
448,192,46740,1,0,0:0:0:0:
192,192,46790,1,2,0:0:0:0:
64,192,46840,1,2,0:0:0:0:
320,192,46840,1,0,0:0:0:70:HHOpen.wav
448,192,46840,1,0,0:0:0:0:
64,192,46940,1,2,0:0:0:0:
192,192,46940,1,0,0:0:0:0:
192,192,47040,1,8,0:0:0:0:
320,192,47040,1,0,0:0:0:70:Cymatics - Open Hihat 1.wav
448,192,47040,1,0,0:0:0:0:
64,192,47140,1,2,0:0:0:0:
448,192,47140,1,0,0:0:0:0:
64,192,47240,1,2,0:0:0:0:
192,192,47240,1,0,0:0:0:70:HHOpen.wav
320,192,47240,1,0,0:0:0:0:
320,192,47340,1,2,0:0:0:0:
448,192,47340,1,0,0:0:0:0:
64,192,47440,1,8,0:0:0:0:
192,192,47440,1,0,0:0:0:70:Cymatics - Open Hihat 1.wav
64,192,47540,1,2,0:0:0:0:
320,192,47540,1,0,0:0:0:0:
448,192,47540,1,0,0:0:0:0:
192,192,47640,1,2,0:0:0:0:
320,192,47640,1,0,0:0:0:70:HHOpen.wav
64,192,47740,1,2,0:0:0:0:
448,192,47740,1,0,0:0:0:0:
192,192,47840,1,8,0:0:0:0:
320,192,47840,1,0,0:0:0:70:Cymatics - Open Hihat 1.wav
448,192,47840,1,0,0:0:0:0:
64,192,47940,1,2,0:0:0:0:
192,192,47940,1,0,0:0:0:0:
64,192,48040,1,2,0:0:0:0:
320,192,48040,1,0,0:0:0:70:HHOpen.wav
448,192,48040,1,0,0:0:0:0:
320,192,48140,1,2,0:0:0:0:
448,192,48140,1,0,0:0:0:0:
64,192,48240,1,8,0:0:0:0:
192,192,48240,1,0,0:0:0:70:Cymatics - Open Hihat 1.wav
448,192,48240,1,0,0:0:0:0:
64,192,48340,1,2,0:0:0:0:
192,192,48340,1,0,0:0:0:0:
64,192,48440,1,2,0:0:0:0:
320,192,48440,1,0,0:0:0:70:HHOpen.wav
448,192,48440,1,0,0:0:0:0:
320,192,48540,1,2,0:0:0:0:
448,192,48540,1,0,0:0:0:0:
64,192,48640,1,8,0:0:0:0:
192,192,48640,1,0,0:0:0:70:Cymatics - Open Hihat 1.wav
448,192,48640,1,0,0:0:0:0:
64,192,48740,1,2,0:0:0:0:
192,192,48740,1,0,0:0:0:0:
64,192,48840,1,2,0:0:0:0:
320,192,48840,1,0,0:0:0:70:HHOpen.wav
448,192,48840,1,0,0:0:0:0:
320,192,48940,1,2,0:0:0:0:
448,192,48940,1,0,0:0:0:0:
64,192,49040,1,8,0:0:0:0:
192,192,49040,1,0,0:0:0:70:Cymatics - Open Hihat 1.wav
192,192,49140,1,2,0:0:0:0:
320,192,49140,1,0,0:0:0:0:
448,192,49140,1,0,0:0:0:0:
64,192,49240,1,2,0:0:0:0:
448,192,49240,1,0,0:0:0:70:HHOpen.wav
192,192,49340,1,2,0:0:0:0:
320,192,49340,1,0,0:0:0:0:
64,192,49440,1,8,0:0:0:0:
192,192,49440,1,0,0:0:0:70:Cymatics - Open Hihat 1.wav
448,192,49440,1,0,0:0:0:0:
320,192,49540,1,2,0:0:0:0:
448,192,49540,1,0,0:0:0:0:
64,192,49640,1,2,0:0:0:0:
192,192,49640,1,0,0:0:0:70:HHOpen.wav
320,192,49640,1,0,0:0:0:0:
64,192,49740,1,2,0:0:0:0:
448,192,49740,1,0,0:0:0:0:
192,192,49840,1,8,0:0:0:0:
320,192,49840,1,4,0:0:0:0:
448,192,49840,1,0,0:0:0:0:
64,192,49940,1,2,0:0:0:0:
320,192,49940,1,0,0:0:0:0:
448,192,49940,1,0,0:0:0:0:
64,192,50040,1,2,0:0:0:0:
192,192,50040,1,0,0:0:0:70:HHOpen.wav
320,192,50090,1,2,0:0:0:0:
64,192,50140,1,2,0:0:0:0:
192,192,50140,1,0,0:0:0:0:
320,192,50190,1,2,0:0:0:0:
64,192,50240,1,8,0:0:0:0:
192,192,50240,1,4,0:0:0:0:
448,192,50240,1,0,0:0:0:0:
320,192,50340,1,2,0:0:0:0:
448,192,50340,1,0,0:0:0:0:
64,192,50440,1,2,0:0:0:0:
192,192,50440,1,4,0:0:0:0:
320,192,50440,1,0,0:0:0:0:
64,192,50540,1,2,0:0:0:0:
448,192,50540,1,0,0:0:0:0:
192,192,50640,1,8,0:0:0:0:
320,192,50640,1,0,0:0:0:70:Cymatics - Open Hihat 1.wav
64,192,50740,1,2,0:0:0:0:
320,192,50740,1,0,0:0:0:0:
448,192,50740,1,0,0:0:0:0:
64,192,50840,1,2,0:0:0:0:
192,192,50840,1,0,0:0:0:70:HHOpen.wav
192,192,50940,1,2,0:0:0:0:
448,192,50940,1,0,0:0:0:0:
64,192,51040,1,8,0:0:0:0:
320,192,51040,1,0,0:0:0:70:Cymatics - Open Hihat 1.wav
448,192,51040,1,0,0:0:0:0:
64,192,51140,1,2,0:0:0:0:
192,192,51140,1,0,0:0:0:0:
192,192,51240,1,2,0:0:0:0:
320,192,51240,1,0,0:0:0:70:HHOpen.wav
448,192,51240,1,0,0:0:0:0:
320,192,51340,1,2,0:0:0:0:
448,192,51340,1,0,0:0:0:0:
320,192,51440,1,8,0:0:0:0:
448,192,51440,1,0,0:0:0:70:Cymatics - Open Hihat 1.wav
320,192,51540,1,2,0:0:0:0:
448,192,51540,1,0,0:0:0:0:
192,192,51640,1,2,0:0:0:0:
320,192,51640,1,0,0:0:0:70:HHOpen.wav
448,192,51640,1,0,0:0:0:0:
64,192,51740,1,2,0:0:0:0:
192,192,51740,1,0,0:0:0:0:
64,192,51840,1,8,0:0:0:0:
320,192,51840,1,0,0:0:0:70:Cymatics - Open Hihat 1.wav
448,192,51840,1,0,0:0:0:0:
192,192,51940,1,2,0:0:0:0:
320,192,51940,1,0,0:0:0:0:
64,192,52040,1,2,0:0:0:0:
192,192,52040,1,0,0:0:0:70:HHOpen.wav
448,192,52040,1,0,0:0:0:0:
320,192,52140,1,2,0:0:0:0:
448,192,52140,1,0,0:0:0:0:
64,192,52240,1,8,0:0:0:0:
320,192,52240,1,0,0:0:0:70:Cymatics - Open Hihat 1.wav
64,192,52340,1,2,0:0:0:0:
192,192,52340,1,0,0:0:0:0:
448,192,52340,1,0,0:0:0:0:
192,192,52440,1,2,0:0:0:0:
320,192,52440,1,0,0:0:0:70:HHOpen.wav
64,192,52540,1,2,0:0:0:0:
448,192,52540,1,0,0:0:0:0:
192,192,52640,1,8,0:0:0:0:
320,192,52640,1,0,0:0:0:70:Cymatics - Open Hihat 1.wav
448,192,52640,1,0,0:0:0:0:
64,192,52740,1,2,0:0:0:0:
192,192,52740,1,0,0:0:0:0:
64,192,52840,1,2,0:0:0:0:
320,192,52840,1,0,0:0:0:70:HHOpen.wav
448,192,52840,1,0,0:0:0:0:
192,192,52940,1,2,0:0:0:0:
448,192,52940,1,0,0:0:0:0:
64,192,53040,1,8,0:0:0:0:
192,192,53040,1,0,0:0:0:70:Cymatics - Open Hihat 1.wav
64,192,53140,1,2,0:0:0:0:
320,192,53140,1,0,0:0:0:0:
448,192,53140,1,0,0:0:0:0:
192,192,53190,1,2,0:0:0:0:
320,192,53240,1,2,0:0:0:0:
448,192,53240,1,0,0:0:0:70:HHOpen.wav
64,192,53340,1,2,0:0:0:0:
192,192,53340,1,0,0:0:0:0:
64,192,53440,1,8,0:0:0:0:
192,192,53440,1,0,0:0:0:70:Cymatics - Open Hihat 1.wav
448,192,53440,1,0,0:0:0:0:
320,192,53540,1,8,0:0:0:0:
448,192,53540,1,0,0:0:0:0:
64,192,53640,1,2,0:0:0:0:
320,192,53640,1,4,0:0:0:0:
448,192,53640,1,0,0:0:0:0:
192,192,53740,1,2,0:0:0:0:
320,192,53740,1,0,0:0:0:0:
64,192,53840,1,8,0:0:0:0:
192,192,53840,1,0,0:0:0:70:Cymatics - Open Hihat 1.wav
64,192,53940,1,2,0:0:0:0:
320,192,53940,1,0,0:0:0:0:
448,192,53940,1,0,0:0:0:0:
192,192,54040,1,2,0:0:0:0:
320,192,54040,1,0,0:0:0:70:HHOpen.wav
64,192,54140,1,2,0:0:0:0:
192,192,54140,1,0,0:0:0:0:
64,192,54240,1,8,0:0:0:0:
320,192,54240,1,4,0:0:0:0:
448,192,54240,1,0,0:0:0:0:
320,192,54340,1,8,0:0:0:0:
448,192,54340,1,0,0:0:0:0:
64,192,54440,1,4,0:0:0:0:
192,192,54440,1,0,0:0:0:70:tom1.wav
320,192,54440,1,0,0:0:0:0:
64,192,54540,1,0,0:0:0:70:tom2.wav
192,192,54540,1,0,0:0:0:0:
64,192,54640,1,2,0:0:0:0:
192,192,54640,1,0,0:0:0:0:
64,192,54740,1,8,0:0:0:0:
192,192,54740,1,4,0:0:0:0:
320,192,54740,1,0,0:0:0:0:
448,192,54840,1,2,0:0:0:0:
320,192,54890,1,2,0:0:0:0:
192,192,54940,1,2,0:0:0:0:
64,192,55040,1,8,0:0:0:0:
192,192,55040,1,4,0:0:0:0:
448,192,55040,1,0,0:0:0:0:
64,192,55140,1,8,0:0:0:0:
320,192,55140,1,0,0:0:0:0:
448,192,55140,1,0,0:0:0:0:
64,192,55240,1,2,0:0:0:0:
192,192,55240,1,0,0:0:0:0:
448,192,55240,1,0,0:0:0:0:
320,192,55290,1,0,0:0:0:0:
64,192,55340,1,2,0:0:0:0:
192,192,55390,1,0,0:0:0:0:
64,192,55440,1,4,0:0:0:0:
320,192,55440,1,8,0:0:0:0:
448,192,55440,1,0,0:0:0:0:
192,192,55490,1,0,0:0:0:0:
448,192,55540,1,2,0:0:0:0:
320,192,55590,1,0,0:0:0:0:
64,192,55640,1,8,0:0:0:0:
192,192,55640,1,4,0:0:0:0:
448,192,55640,1,0,0:0:0:0:
320,192,55690,1,0,0:0:0:0:
64,192,55740,1,2,0:0:0:0:
192,192,55790,1,0,0:0:0:0:
64,192,55840,1,8,0:0:0:0:
320,192,55840,1,4,0:0:0:0:
448,192,55840,1,0,0:0:0:0:
192,192,55890,1,0,0:0:0:0:
448,192,55940,1,2,0:0:0:0:
320,192,55990,1,0,0:0:0:0:
64,192,56040,1,4,0:0:0:0:
192,192,56040,1,8,0:0:0:0:
448,192,56040,1,0,0:0:0:0:
320,192,56090,1,8,0:0:0:0:
64,192,56140,1,2,0:0:0:0:
192,192,56140,1,0,0:0:0:0:
448,192,56190,1,2,0:0:0:0:
64,192,56240,1,0,0:0:0:70:tom1.wav
320,192,56240,1,0,0:0:0:0:
192,192,56290,1,0,0:0:0:70:tom2.wav
320,192,56340,1,0,0:0:0:70:tom3.wav
448,192,56340,1,0,0:0:0:0:
192,192,56390,1,0,0:0:0:70:tom4.wav
64,192,56440,1,2,0:0:0:0:
448,192,56440,1,0,0:0:0:0:
320,192,56490,1,2,0:0:0:0:
64,192,56540,1,0,0:0:0:70:tom1.wav
192,192,56540,1,0,0:0:0:0:
448,192,56590,1,0,0:0:0:70:tom1.wav
192,192,56640,1,8,0:0:0:0:
320,192,56640,1,0,0:0:0:0:
64,192,56690,1,0,0:0:0:0:
320,192,56740,1,0,0:0:0:0:
448,192,56740,1,0,0:0:0:0:
64,192,56840,1,4,0:0:0:0:
192,192,56840,1,2,0:0:0:0:
448,192,56840,1,0,0:0:0:0:
64,192,56940,1,0,0:0:0:0:
192,192,56940,1,0,0:0:0:0:
64,192,57040,1,8,0:0:0:0:
320,192,57040,1,0,0:0:0:70:Cymatics - Open Hat 5.wav
448,192,57040,1,0,0:0:0:0:
448,192,57140,1,0,0:0:0:0:
192,192,57240,1,2,0:0:0:0:
320,192,57240,1,0,0:0:0:0:
64,192,57340,1,2,0:0:0:0:
192,192,57340,1,0,0:0:0:0:
64,192,57440,1,8,0:0:0:0:
320,192,57440,1,0,0:0:0:70:Cymatics - Open Hat 5.wav
448,192,57440,1,0,0:0:0:0:
192,192,57540,1,0,0:0:0:0:
320,192,57540,1,0,0:0:0:0:
64,192,57640,1,2,0:0:0:0:
192,192,57640,1,0,0:0:0:0:
448,192,57640,1,0,0:0:0:0:
448,192,57740,1,0,0:0:0:0:
64,192,57840,1,8,0:0:0:0:
192,192,57840,1,0,0:0:0:70:Cymatics - Open Hat 5.wav
320,192,57840,1,0,0:0:0:0:
320,192,57940,1,2,0:0:0:0:
448,192,57940,1,0,0:0:0:0:
448,192,58040,1,0,0:0:0:0:
64,192,58140,1,2,0:0:0:0:
192,192,58140,1,0,0:0:0:0:
192,192,58240,1,8,0:0:0:0:
320,192,58240,1,0,0:0:0:70:Cymatics - Open Hat 5.wav
448,192,58240,1,0,0:0:0:0:
448,192,58340,1,0,0:0:0:0:
192,192,58440,1,2,0:0:0:0:
320,192,58440,1,0,0:0:0:0:
64,192,58540,1,0,0:0:0:0:
192,192,58540,1,0,0:0:0:0:
64,192,58640,1,8,0:0:0:0:
320,192,58640,1,0,0:0:0:70:Cymatics - Open Hat 5.wav
448,192,58640,1,0,0:0:0:0:
448,192,58740,1,0,0:0:0:0:
64,192,58840,1,2,0:0:0:0:
192,192,58840,1,0,0:0:0:0:
320,192,58940,1,2,0:0:0:0:
448,192,58940,1,0,0:0:0:0:
64,192,59040,1,8,0:0:0:0:
320,192,59040,1,0,0:0:0:70:Cymatics - Open Hat 5.wav
448,192,59040,1,0,0:0:0:0:
192,192,59140,1,0,0:0:0:0:
320,192,59140,1,0,0:0:0:0:
64,192,59240,1,2,0:0:0:0:
192,192,59240,1,0,0:0:0:0:
448,192,59240,1,0,0:0:0:0:
64,192,59340,1,0,0:0:0:0:
192,192,59440,1,8,0:0:0:0:
320,192,59440,1,0,0:0:0:70:Cymatics - Open Hat 5.wav
448,192,59440,1,0,0:0:0:0:
64,192,59540,1,0,0:0:0:0:
192,192,59540,1,0,0:0:0:0:
64,192,59640,1,2,0:0:0:0:
320,192,59740,1,2,0:0:0:0:
448,192,59740,1,0,0:0:0:0:
64,192,59840,1,8,0:0:0:0:
192,192,59840,1,4,0:0:0:0:
448,192,59840,1,0,0:0:0:0:
64,192,59940,1,0,0:0:0:0:
192,192,60040,1,2,0:0:0:0:
320,192,60040,1,0,0:0:0:0:
64,192,60140,1,0,0:0:0:0:
192,192,60140,1,0,0:0:0:0:
64,192,60240,1,8,0:0:0:0:
320,192,60240,1,4,0:0:0:0:
448,192,60240,1,0,0:0:0:0:
448,192,60340,1,0,0:0:0:0:
192,192,60440,1,2,0:0:0:0:
320,192,60440,1,0,0:0:0:0:
64,192,60540,1,2,0:0:0:0:
192,192,60540,1,0,0:0:0:0:
64,192,60640,1,8,0:0:0:0:
320,192,60640,1,0,0:0:0:70:Cymatics - Open Hat 5.wav
448,192,60640,1,0,0:0:0:0:
192,192,60740,1,0,0:0:0:0:
320,192,60740,1,0,0:0:0:0:
64,192,60840,1,2,0:0:0:0:
192,192,60840,1,0,0:0:0:0:
448,192,60840,1,0,0:0:0:0:
448,192,60940,1,0,0:0:0:0:
64,192,61040,1,8,0:0:0:0:
192,192,61040,1,0,0:0:0:70:Cymatics - Open Hat 5.wav
320,192,61040,1,0,0:0:0:0:
320,192,61140,1,2,0:0:0:0:
448,192,61140,1,0,0:0:0:0:
448,192,61240,1,0,0:0:0:0:
64,192,61340,1,2,0:0:0:0:
192,192,61340,1,0,0:0:0:0:
192,192,61440,1,8,0:0:0:0:
320,192,61440,1,0,0:0:0:70:Cymatics - Open Hat 5.wav
448,192,61440,1,0,0:0:0:0:
448,192,61540,1,2,0:0:0:0:
64,192,61640,1,8,0:0:0:0:
192,192,61640,1,4,0:0:0:0:
320,192,61640,1,0,0:0:0:0:
64,192,61740,1,2,0:0:0:0:
192,192,61840,1,8,0:0:0:0:
320,192,61840,1,4,0:0:0:0:
448,192,61840,1,0,0:0:0:0:
448,192,61940,1,2,0:0:0:0:
64,192,62040,1,8,0:0:0:0:
192,192,62040,1,4,0:0:0:0:
320,192,62040,1,0,0:0:0:0:
64,192,62140,1,2,0:0:0:0:
192,192,62190,1,2,0:0:0:0:
64,192,62240,1,4,0:0:0:0:
320,192,62240,1,8,0:0:0:0:
448,192,62240,1,0,0:0:0:0:
448,192,62340,1,2,0:0:0:0:
64,192,62440,1,8,0:0:0:0:
192,192,62440,1,4,0:0:0:0:
320,192,62490,1,8,0:0:0:0:
448,192,62490,1,0,0:0:0:0:
192,192,62540,1,2,0:0:0:0:
64,192,62590,1,2,0:0:0:0:
320,192,62640,1,0,0:0:0:70:tom1.wav
192,192,62690,1,0,0:0:0:70:tom2.wav
448,192,62740,1,0,0:0:0:70:tom3.wav
320,192,62790,1,0,0:0:0:70:tom4.wav
192,192,62840,1,2,0:0:0:0:
64,192,62890,1,2,0:0:0:0:
448,192,62940,1,0,0:0:0:70:tom1.wav
320,192,62990,1,0,0:0:0:70:tom1.wav
64,192,63040,1,0,0:0:0:70:tom2.wav
192,192,63040,1,0,0:0:0:0:
64,192,63240,1,2,0:0:0:0:
192,192,63240,1,4,0:0:0:0:
448,192,63240,1,0,0:0:0:0:
192,192,63340,1,0,0:0:0:0:
320,192,63340,1,0,0:0:0:0:
64,192,63440,1,8,0:0:0:0:
320,192,63440,1,0,0:0:0:70:HHOpen.wav
448,192,63440,1,0,0:0:0:0:
192,192,63540,1,0,0:0:0:0:
448,192,63540,1,0,0:0:0:0:
64,192,63640,1,2,0:0:0:0:
192,192,63640,1,0,0:0:0:0:
320,192,63740,1,2,0:0:0:0:
448,192,63740,1,0,0:0:0:0:
64,192,63840,1,8,0:0:0:0:
192,192,63840,1,0,0:0:0:70:HHOpen.wav
448,192,63840,1,0,0:0:0:0:
64,192,63940,1,0,0:0:0:0:
320,192,63940,1,0,0:0:0:0:
320,192,64040,1,2,0:0:0:0:
448,192,64040,1,0,0:0:0:0:
192,192,64090,1,0,0:0:0:0:
64,192,64140,1,0,0:0:0:0:
448,192,64140,1,0,0:0:0:0:
64,192,64240,1,8,0:0:0:0:
192,192,64240,1,0,0:0:0:70:HHOpen.wav
320,192,64240,1,0,0:0:0:0:
192,192,64340,1,2,0:0:0:0:
448,192,64340,1,0,0:0:0:0:
64,192,64440,1,0,0:0:0:0:
448,192,64440,1,0,0:0:0:0:
320,192,64490,1,0,0:0:0:0:
64,192,64540,1,2,0:0:0:0:
192,192,64540,1,0,0:0:0:0:
192,192,64640,1,8,0:0:0:0:
320,192,64640,1,0,0:0:0:70:HHOpen.wav
448,192,64640,1,0,0:0:0:0:
320,192,64740,1,0,0:0:0:0:
448,192,64740,1,0,0:0:0:0:
64,192,64840,1,2,0:0:0:0:
192,192,64840,1,0,0:0:0:0:
64,192,64940,1,0,0:0:0:0:
192,192,65040,1,8,0:0:0:0:
320,192,65040,1,0,0:0:0:70:HHOpen.wav
448,192,65040,1,0,0:0:0:0:
64,192,65140,1,0,0:0:0:0:
448,192,65140,1,0,0:0:0:0:
192,192,65240,1,2,0:0:0:0:
320,192,65240,1,0,0:0:0:0:
64,192,65340,1,2,0:0:0:0:
192,192,65340,1,0,0:0:0:0:
64,192,65440,1,8,0:0:0:0:
320,192,65440,1,0,0:0:0:70:HHOpen.wav
448,192,65440,1,0,0:0:0:0:
320,192,65540,1,0,0:0:0:0:
192,192,65640,1,2,0:0:0:0:
448,192,65640,1,0,0:0:0:0:
64,192,65740,1,2,0:0:0:0:
320,192,65740,1,0,0:0:0:0:
64,192,65840,1,8,0:0:0:0:
192,192,65840,1,0,0:0:0:70:HHOpen.wav
448,192,65840,1,0,0:0:0:0:
192,192,65940,1,2,0:0:0:0:
320,192,65940,1,0,0:0:0:0:
64,192,66040,1,0,0:0:0:0:
448,192,66040,1,0,0:0:0:0:
192,192,66140,1,2,0:0:0:0:
320,192,66140,1,0,0:0:0:0:
64,192,66240,1,8,0:0:0:0:
320,192,66240,1,0,0:0:0:70:HHOpen.wav
448,192,66240,1,0,0:0:0:0:
192,192,66306,1,0,0:0:0:0:
320,192,66373,1,0,0:0:0:0:
64,192,66440,1,2,0:0:0:0:
448,192,66440,1,0,0:0:0:0:
192,192,66506,1,0,0:0:0:0:
320,192,66573,1,0,0:0:0:0:
64,192,66640,1,8,0:0:0:0:
192,192,66640,1,0,0:0:0:70:HHOpen.wav
448,192,66640,1,0,0:0:0:0:
320,192,66706,1,0,0:0:0:0:
64,192,66773,1,0,0:0:0:0:
192,192,66840,1,2,0:0:0:0:
448,192,66840,1,0,0:0:0:0:
320,192,66906,1,0,0:0:0:0:
192,192,66973,1,0,0:0:0:0:
64,192,67040,1,8,0:0:0:0:
320,192,67040,1,0,0:0:0:70:HHOpen.wav
448,192,67040,1,0,0:0:0:0:
192,192,67106,1,0,0:0:0:0:
64,192,67173,1,0,0:0:0:0:
320,192,67240,1,2,0:0:0:0:
448,192,67240,1,0,0:0:0:0:
192,192,67306,1,0,0:0:0:0:
64,192,67373,1,0,0:0:0:0:
192,192,67440,1,8,0:0:0:0:
320,192,67440,1,0,0:0:0:70:HHOpen.wav
448,192,67440,1,0,0:0:0:0:
64,192,67506,1,0,0:0:0:0:
320,192,67573,1,0,0:0:0:0:
192,192,67640,1,0,0:0:0:0:
448,192,67706,1,0,0:0:0:0:
320,192,67773,1,0,0:0:0:0:
64,192,67840,1,8,0:0:0:0:
192,192,67840,1,0,0:0:0:70:HHOpen.wav
448,192,67840,1,0,0:0:0:0:
320,192,67906,1,0,0:0:0:0:
64,192,67973,1,0,0:0:0:0:
192,192,68040,1,2,0:0:0:0:
448,192,68040,1,0,0:0:0:0:
320,192,68106,1,0,0:0:0:0:
192,192,68173,1,0,0:0:0:0:
64,192,68240,1,8,0:0:0:0:
320,192,68240,1,0,0:0:0:70:HHOpen.wav
448,192,68240,1,0,0:0:0:0:
192,192,68306,1,0,0:0:0:0:
448,192,68373,1,0,0:0:0:0:
64,192,68440,1,2,0:0:0:0:
320,192,68440,1,0,0:0:0:0:
192,192,68506,1,0,0:0:0:0:
320,192,68573,1,0,0:0:0:0:
64,192,68640,1,8,0:0:0:0:
192,192,68640,1,0,0:0:0:70:HHOpen.wav
448,192,68640,1,0,0:0:0:0:
320,192,68706,1,0,0:0:0:0:
192,192,68773,1,0,0:0:0:0:
64,192,68840,1,8,0:0:0:0:
320,192,68840,1,4,0:0:0:0:
448,192,68840,1,0,0:0:0:0:
192,192,68940,1,0,0:0:0:0:
64,192,69040,1,2,0:0:0:0:
320,192,69040,1,0,0:0:0:0:
64,192,69140,1,8,0:0:0:0:
192,192,69140,1,4,0:0:0:0:
448,192,69140,1,0,0:0:0:0:
320,192,69240,1,2,0:0:0:0:
192,192,69290,1,2,0:0:0:0:
320,192,69340,1,2,0:0:0:0:
64,192,69440,1,4,0:0:0:0:
192,192,69440,1,8,0:0:0:0:
448,192,69440,1,0,0:0:0:0:
192,192,69540,1,2,0:0:0:0:
64,192,69640,1,2,0:0:0:0:
320,192,69640,1,4,0:0:0:0:
448,192,69640,1,0,0:0:0:0:
64,192,69740,1,0,0:0:0:0:
192,192,69840,1,8,0:0:0:0:
320,192,69840,1,0,0:0:0:70:Cymatics - Open Hat 5.wav
448,192,69840,1,0,0:0:0:0:
448,192,69940,1,0,0:0:0:0:
192,192,70040,1,2,0:0:0:0:
320,192,70040,1,0,0:0:0:0:
64,192,70140,1,2,0:0:0:0:
192,192,70140,1,0,0:0:0:0:
64,192,70240,1,8,0:0:0:0:
320,192,70240,1,0,0:0:0:70:Cymatics - Open Hat 5.wav
448,192,70240,1,0,0:0:0:0:
320,192,70340,1,0,0:0:0:0:
64,192,70440,1,2,0:0:0:0:
192,192,70440,1,0,0:0:0:0:
192,192,70540,1,0,0:0:0:0:
64,192,70640,1,8,0:0:0:0:
320,192,70640,1,0,0:0:0:70:Cymatics - Open Hat 5.wav
448,192,70640,1,0,0:0:0:0:
192,192,70706,1,0,0:0:0:0:
448,192,70773,1,0,0:0:0:0:
320,192,70840,1,0,0:0:0:0:
64,192,70906,1,0,0:0:0:0:
192,192,70973,1,0,0:0:0:0:
64,192,71040,1,8,0:0:0:0:
320,192,71040,1,0,0:0:0:70:Cymatics - Open Hat 5.wav
448,192,71040,1,0,0:0:0:0:
192,192,71106,1,0,0:0:0:0:
320,192,71173,1,0,0:0:0:0:
64,192,71240,1,2,0:0:0:0:
448,192,71240,1,0,0:0:0:0:
448,192,71340,1,0,0:0:0:0:
64,192,71440,1,8,0:0:0:0:
192,192,71440,1,0,0:0:0:70:Cymatics - Open Hat 5.wav
320,192,71440,1,0,0:0:0:0:
64,192,71540,1,0,0:0:0:0:
448,192,71540,1,0,0:0:0:0:
192,192,71640,1,2,0:0:0:0:
320,192,71640,1,0,0:0:0:0:
64,192,71740,1,2,0:0:0:0:
192,192,71740,1,0,0:0:0:0:
64,192,71840,1,8,0:0:0:0:
320,192,71840,1,0,0:0:0:70:Cymatics - Open Hat 5.wav
448,192,71840,1,0,0:0:0:0:
192,192,71940,1,0,0:0:0:0:
320,192,71940,1,0,0:0:0:0:
64,192,72040,1,2,0:0:0:0:
192,192,72040,1,0,0:0:0:0:
320,192,72140,1,0,0:0:0:0:
64,192,72240,1,8,0:0:0:0:
192,192,72240,1,0,0:0:0:70:Cymatics - Open Hat 5.wav
448,192,72240,1,0,0:0:0:0:
64,192,72340,1,2,0:0:0:0:
320,192,72340,1,0,0:0:0:0:
192,192,72440,1,0,0:0:0:0:
320,192,72540,1,2,0:0:0:0:
448,192,72540,1,0,0:0:0:0:
64,192,72640,1,4,0:0:0:0:
192,192,72640,1,8,0:0:0:0:
448,192,72640,1,0,0:0:0:0:
320,192,72740,1,0,0:0:0:0:
64,192,72840,1,2,0:0:0:0:
192,192,72840,1,4,0:0:0:0:
192,192,72940,1,0,0:0:0:0:
64,192,73040,1,8,0:0:0:0:
320,192,73040,1,0,0:0:0:70:Cymatics - Open Hat 5.wav
448,192,73040,1,0,0:0:0:0:
192,192,73106,1,0,0:0:0:0:
320,192,73173,1,0,0:0:0:0:
64,192,73240,1,2,0:0:0:0:
448,192,73240,1,0,0:0:0:0:
192,192,73306,1,0,0:0:0:0:
320,192,73373,1,0,0:0:0:0:
64,192,73440,1,8,0:0:0:0:
192,192,73440,1,0,0:0:0:70:Cymatics - Open Hat 5.wav
448,192,73440,1,0,0:0:0:0:
320,192,73506,1,0,0:0:0:0:
192,192,73573,1,0,0:0:0:0:
64,192,73640,1,2,0:0:0:0:
320,192,73640,1,4,0:0:0:0:
448,192,73640,1,0,0:0:0:0:
192,192,73706,1,0,0:0:0:0:
448,192,73773,1,0,0:0:0:0:
64,192,73840,1,8,0:0:0:0:
192,192,73840,1,0,0:0:0:70:Cymatics - Open Hat 5.wav
320,192,73840,1,0,0:0:0:0:
448,192,73906,1,0,0:0:0:0:
64,192,73973,1,0,0:0:0:0:
192,192,74040,1,0,0:0:0:0:
448,192,74106,1,0,0:0:0:0:
320,192,74173,1,0,0:0:0:0:
64,192,74240,1,8,0:0:0:0:
192,192,74240,1,0,0:0:0:70:Cymatics - Open Hat 5.wav
448,192,74240,1,0,0:0:0:0:
320,192,74306,1,0,0:0:0:0:
192,192,74373,1,0,0:0:0:0:
64,192,74440,1,2,0:0:0:0:
320,192,74440,1,4,0:0:0:0:
448,192,74440,1,0,0:0:0:0:
320,192,74540,1,2,0:0:0:0:
64,192,74640,1,8,0:0:0:0:
192,192,74640,1,0,0:0:0:0:
448,192,74640,1,0,0:0:0:0:
320,192,74740,1,2,0:0:0:0:
192,192,74790,1,2,0:0:0:0:
64,192,74840,1,8,0:0:0:0:
320,192,74840,1,4,0:0:0:0:
448,192,74840,1,0,0:0:0:0:
192,192,74940,1,2,0:0:0:0:
64,192,75040,1,8,0:0:0:0:
192,192,75040,1,0,0:0:0:0:
448,192,75040,1,0,0:0:0:0:
320,192,75140,1,2,0:0:0:0:
192,192,75190,1,8,0:0:0:0:
448,192,75190,1,0,0:0:0:0:
64,192,75240,1,4,0:0:0:0:
320,192,75240,1,8,0:0:0:0:
192,192,75340,1,0,0:0:0:70:tom1.wav
320,192,75440,1,0,0:0:0:70:tom1.wav
192,192,75490,1,0,0:0:0:70:tom1.wav
64,192,75540,1,0,0:0:0:70:tom2.wav
320,192,75590,1,0,0:0:0:70:tom2.wav
192,192,75640,1,0,0:0:0:70:tom2.wav
448,192,75690,1,0,0:0:0:70:tom3.wav
320,192,75740,1,0,0:0:0:70:tom3.wav
192,192,75790,1,0,0:0:0:70:tom3.wav
64,192,75840,1,4,0:0:0:0:
320,192,75840,1,8,0:0:0:0:
448,192,75840,1,0,0:0:0:0:
64,192,76040,128,2,76240:0:0:0:0:
192,192,76040,1,4,0:0:0:0:
320,192,76040,1,0,0:0:0:0:
448,192,76040,1,0,0:0:0:0:
320,192,76240,1,0,0:0:0:0:
448,192,76340,128,0,76640:0:0:0:0:
192,192,76440,1,2,0:0:0:0:
64,192,76440,1,0,0:0:0:0:
320,192,76640,128,0,76840:0:0:0:0:
64,192,76840,128,8,77640:0:0:0:0:
192,192,76840,1,0,0:0:0:0:
448,192,76840,1,0,0:0:0:0:
192,192,77040,1,0,0:0:0:0:
320,192,77240,1,0,0:0:0:70:HHOpen.wav
192,192,77440,1,8,0:0:0:0:
448,192,77440,1,0,0:0:0:0:
320,192,77640,128,2,77940:0:0:0:0:
448,192,77640,1,0,0:0:0:0:
64,192,77840,1,8,0:0:0:0:
192,192,77840,1,0,0:0:0:0:
448,192,77940,128,0,78240:0:0:0:0:
192,192,78040,1,2,0:0:0:0:
320,192,78040,1,0,0:0:0:70:HHOpen.wav
320,192,78240,128,0,78340:0:0:0:70:tom2.wav
192,192,78290,1,0,0:0:0:70:tom3.wav
64,192,78340,1,0,0:0:0:70:tom2.wav
192,192,78390,1,0,0:0:0:70:tom3.wav
320,192,78440,1,8,0:0:0:0:
448,192,78440,128,0,78740:0:0:0:0:
320,192,78740,128,0,79040:0:0:0:0:
64,192,78840,1,2,0:0:0:0:
192,192,78840,1,0,0:0:0:70:HHOpen.wav
192,192,79040,128,8,79240:0:0:0:0:
448,192,79040,1,0,0:0:0:0:
64,192,79240,128,2,79440:0:0:0:0:
320,192,79240,1,0,0:0:0:0:
320,192,79540,128,0,79840:0:0:0:0:
64,192,79640,1,2,0:0:0:0:
192,192,79640,1,0,0:0:0:70:HHOpen.wav
192,192,79840,128,0,80040:0:0:0:0:
64,192,80040,1,4,0:0:0:0:
320,192,80040,128,8,80340:0:0:0:0:
448,192,80040,1,0,0:0:0:0:
64,192,80340,128,0,80640:0:0:0:0:
192,192,80440,1,2,0:0:0:70:HHOpen.wav
192,192,80640,128,8,80840:0:0:0:0:
320,192,80640,1,0,0:0:0:0:
64,192,80840,128,2,80973:0:0:0:0:
320,192,80840,1,4,0:0:0:0:
448,192,80840,1,0,0:0:0:0:
192,192,80973,128,0,81106:0:0:0:0:
64,192,81106,128,0,81240:0:0:0:0:
192,192,81240,128,2,81373:0:0:0:0:
320,192,81240,1,0,0:0:0:70:HHOpen.wav
64,192,81373,128,0,81506:0:0:0:0:
320,192,81440,1,0,0:0:0:70:tom2.wav
192,192,81506,128,0,81640:0:0:0:0:
448,192,81540,1,0,0:0:0:70:tom2.wav
64,192,81640,1,4,0:0:0:0:
320,192,81640,1,8,0:0:0:0:
448,192,81640,1,0,0:0:0:0:
64,192,81773,1,2,0:0:0:0:
192,192,81773,1,0,0:0:0:0:
192,192,81906,128,0,82040:0:0:0:0:
320,192,81906,1,0,0:0:0:0:
320,192,82040,128,2,82173:0:0:0:0:
448,192,82040,1,0,0:0:0:70:HHOpen.wav
64,192,82173,128,0,82306:0:0:0:70:tom2.wav
192,192,82173,1,0,0:0:0:0:
192,192,82306,128,0,82440:0:0:0:70:tom2.wav
320,192,82306,1,0,0:0:0:0:
64,192,82440,1,4,0:0:0:0:
320,192,82440,128,2,82740:0:0:0:0:
448,192,82440,1,0,0:0:0:0:
448,192,82740,128,0,83040:0:0:0:0:
64,192,82840,1,2,0:0:0:0:
192,192,82840,1,0,0:0:0:70:HHOpen.wav
320,192,83040,128,0,83240:0:0:0:0:
64,192,83240,1,8,0:0:0:0:
192,192,83240,128,0,83540:0:0:0:0:
448,192,83240,1,0,0:0:0:0:
64,192,83540,128,0,83840:0:0:0:0:
448,192,83640,1,0,0:0:0:70:HHOpen.wav
192,192,83840,1,8,0:0:0:0:
320,192,83840,128,0,84040:0:0:0:0:
64,192,84040,1,2,0:0:0:0:
192,192,84040,128,0,84440:0:0:0:0:
320,192,84240,1,8,0:0:0:0:
448,192,84240,1,0,0:0:0:0:
64,192,84440,1,2,0:0:0:0:
320,192,84440,128,0,84573:0:0:0:70:HHOpen.wav
448,192,84573,128,0,84706:0:0:0:0:
64,192,84640,1,0,0:0:0:70:tom2.wav
192,192,84706,128,0,84840:0:0:0:0:
320,192,84740,1,0,0:0:0:70:tom3.wav
64,192,84840,128,8,84973:0:0:0:0:
448,192,84840,1,0,0:0:0:0:
320,192,84973,128,4,85106:0:0:0:0:
448,192,84973,1,0,0:0:0:0:
64,192,85106,1,8,0:0:0:0:
192,192,85106,128,0,85240:0:0:0:0:
64,192,85240,128,2,85573:0:0:0:0:
320,192,85240,1,4,0:0:0:0:
448,192,85240,1,0,0:0:0:0:
192,192,85373,1,0,0:0:0:0:
320,192,85506,1,2,0:0:0:0:
64,192,85640,128,2,86140:0:0:0:0:
192,192,85640,1,4,0:0:0:0:
448,192,85640,1,0,0:0:0:0:
320,192,86040,1,2,0:0:0:0:
448,192,86040,1,0,0:0:0:70:HHOpen.wav
192,192,86240,128,0,86573:0:0:0:0:
64,192,86440,1,8,0:0:0:0:
320,192,86440,1,0,0:0:0:0:
448,192,86440,1,0,0:0:0:0:
320,192,86573,128,0,86706:0:0:0:0:
192,192,86706,128,0,86840:0:0:0:0:
320,192,86840,128,0,86973:0:0:0:70:HHOpen.wav
192,192,86973,128,0,87106:0:0:0:0:
448,192,87040,1,8,0:0:0:0:
320,192,87106,128,0,87240:0:0:0:0:
64,192,87240,1,2,0:0:0:0:
192,192,87240,128,0,87440:0:0:0:0:
64,192,87440,128,8,87540:0:0:0:0:
320,192,87440,1,0,0:0:0:0:
448,192,87440,1,0,0:0:0:0:
192,192,87540,128,0,87640:0:0:0:0:
320,192,87640,128,2,87740:0:0:0:0:
448,192,87640,1,0,0:0:0:70:HHOpen.wav
64,192,87740,128,0,87840:0:0:0:0:
192,192,87840,128,2,87940:0:0:0:0:
320,192,87840,1,0,0:0:0:0:
448,192,87890,1,0,0:0:0:0:
320,192,87940,128,0,88040:0:0:0:0:
64,192,87990,1,0,0:0:0:0:
192,192,88040,1,8,0:0:0:0:
448,192,88040,128,4,88140:0:0:0:0:
64,192,88140,1,0,0:0:0:0:
320,192,88140,128,0,88240:0:0:0:0:
192,192,88240,128,0,88340:0:0:0:70:tom2.wav
448,192,88240,1,0,0:0:0:0:
64,192,88340,1,0,0:0:0:70:tom2.wav
320,192,88340,128,0,88440:0:0:0:0:
192,192,88440,1,0,0:0:0:70:tom3.wav
448,192,88440,128,0,88540:0:0:0:0:
64,192,88540,1,0,0:0:0:70:tom3.wav
320,192,88540,128,0,88640:0:0:0:0:
192,192,88640,128,0,88740:0:0:0:70:tom2.wav
448,192,88640,1,0,0:0:0:0:
64,192,88740,128,0,88840:0:0:0:70:tom2.wav
320,192,88740,1,0,0:0:0:0:
192,192,88840,1,4,0:0:0:0:
320,192,88840,128,2,89040:0:0:0:0:
448,192,88840,1,0,0:0:0:0:
192,192,89040,1,0,0:0:0:0:
448,192,89140,128,0,89440:0:0:0:0:
64,192,89240,1,8,0:0:0:0:
192,192,89240,1,0,0:0:0:0:
320,192,89240,1,0,0:0:0:0:
320,192,89440,128,0,89640:0:0:0:0:
64,192,89640,128,2,90440:0:0:0:0:
192,192,89640,1,0,0:0:0:70:Cymatics - Open Hat 5.wav
320,192,89840,1,2,0:0:0:0:
448,192,89840,1,0,0:0:0:0:
192,192,90040,1,8,0:0:0:0:
320,192,90040,1,0,0:0:0:0:
448,192,90040,1,0,0:0:0:0:
192,192,90240,1,2,0:0:0:0:
320,192,90240,1,0,0:0:0:0:
192,192,90440,128,2,90740:0:0:0:0:
64,192,90640,1,2,0:0:0:0:
448,192,90640,1,0,0:0:0:0:
320,192,90740,128,0,91040:0:0:0:0:
64,192,90840,1,8,0:0:0:0:
192,192,90840,1,0,0:0:0:0:
448,192,90840,1,0,0:0:0:0:
64,192,91040,1,0,0:0:0:0:
192,192,91040,128,0,91140:0:0:0:0:
448,192,91240,128,2,91540:0:0:0:0:
64,192,91440,1,2,0:0:0:0:
192,192,91440,1,0,0:0:0:0:
320,192,91540,128,0,91840:0:0:0:0:
64,192,91640,1,8,0:0:0:0:
192,192,91640,1,0,0:0:0:0:
448,192,91640,1,0,0:0:0:0:
192,192,91840,128,2,92040:0:0:0:0:
448,192,91840,1,0,0:0:0:0:
64,192,92040,128,2,92240:0:0:0:0:
320,192,92040,1,0,0:0:0:70:Cymatics - Open Hat 5.wav
320,192,92240,1,0,0:0:0:0:
448,192,92340,128,0,92740:0:0:0:0:
64,192,92440,1,8,0:0:0:0:
192,192,92440,1,0,0:0:0:0:
320,192,92440,1,0,0:0:0:0:
192,192,92640,1,0,0:0:0:0:
64,192,92740,1,0,0:0:0:0:
320,192,92740,128,0,92840:0:0:0:0:
192,192,92840,128,2,93140:0:0:0:0:
448,192,92840,1,0,0:0:0:70:Cymatics - Open Hat 5.wav
320,192,93040,1,2,0:0:0:0:
448,192,93040,1,0,0:0:0:0:
64,192,93140,128,0,93440:0:0:0:0:
192,192,93240,1,8,0:0:0:0:
320,192,93240,1,0,0:0:0:0:
448,192,93240,1,0,0:0:0:0:
320,192,93440,1,2,0:0:0:0:
448,192,93440,128,0,93640:0:0:0:0:
192,192,93640,128,2,93840:0:0:0:0:
320,192,93840,128,2,93940:0:0:0:0:
448,192,93840,1,0,0:0:0:0:
192,192,93940,128,0,94040:0:0:0:0:
64,192,94040,1,8,0:0:0:0:
448,192,94040,1,0,0:0:0:0:
320,192,94040,128,0,94140:0:0:0:0:
192,192,94140,128,0,94240:0:0:0:0:
320,192,94240,128,0,94340:0:0:0:0:
448,192,94340,1,8,0:0:0:0:
192,192,94340,128,0,94440:0:0:0:0:
64,192,94440,128,2,94640:0:0:0:0:
320,192,94440,1,0,0:0:0:70:Cymatics - Open Hat 5.wav
192,192,94640,1,0,0:0:0:0:
320,192,94640,128,0,94740:0:0:0:0:
448,192,94740,128,0,94840:0:0:0:0:
64,192,94840,128,8,94940:0:0:0:0:
192,192,94840,1,0,0:0:0:0:
320,192,94840,1,0,0:0:0:0:
192,192,94940,128,0,95040:0:0:0:0:
448,192,94940,1,0,0:0:0:0:
64,192,95040,1,0,0:0:0:70:tom2.wav
320,192,95040,128,0,95140:0:0:0:0:
64,192,95140,128,0,95240:0:0:0:70:tom3.wav
192,192,95140,1,0,0:0:0:0:
192,192,95240,1,4,0:0:0:0:
320,192,95240,1,2,0:0:0:0:
448,192,95240,128,0,95440:0:0:0:0:
64,192,95440,1,0,0:0:0:0:
320,192,95440,128,0,95540:0:0:0:0:
448,192,95540,128,0,95640:0:0:0:0:
64,192,95640,1,8,0:0:0:0:
192,192,95640,1,0,0:0:0:0:
320,192,95640,128,0,95740:0:0:0:0:
448,192,95740,128,0,95840:0:0:0:0:
320,192,95840,128,0,95940:0:0:0:0:
192,192,95940,1,8,0:0:0:0:
448,192,95940,128,0,96040:0:0:0:0:
64,192,96040,1,2,0:0:0:0:
320,192,96040,128,0,96240:0:0:0:70:Cymatics - Open Hat 5.wav
64,192,96240,1,2,0:0:0:0:
448,192,96240,128,0,96340:0:0:0:0:
192,192,96340,128,0,96440:0:0:0:0:
64,192,96440,1,8,0:0:0:0:
320,192,96440,128,0,96540:0:0:0:0:
448,192,96440,1,0,0:0:0:0:
64,192,96540,128,0,96640:0:0:0:0:
192,192,96640,128,2,96740:0:0:0:0:
448,192,96640,1,0,0:0:0:0:
320,192,96740,128,0,96840:0:0:0:0:
448,192,96840,128,2,97040:0:0:0:0:
192,192,97040,1,2,0:0:0:0:
320,192,97040,128,0,97140:0:0:0:0:
448,192,97140,128,0,97240:0:0:0:0:
64,192,97240,1,8,0:0:0:0:
192,192,97240,1,0,0:0:0:0:
320,192,97240,128,0,97340:0:0:0:0:
448,192,97340,128,0,97440:0:0:0:0:
192,192,97440,1,2,0:0:0:0:
320,192,97440,128,0,97540:0:0:0:0:
448,192,97540,128,0,97640:0:0:0:0:
64,192,97640,128,2,97940:0:0:0:0:
448,192,97740,1,8,0:0:0:0:
192,192,97840,1,2,0:0:0:0:
320,192,97840,1,0,0:0:0:0:
448,192,97940,128,0,98140:0:0:0:0:
64,192,98040,1,8,0:0:0:0:
192,192,98040,1,0,0:0:0:0:
320,192,98040,1,0,0:0:0:0:
192,192,98240,1,2,0:0:0:0:
320,192,98240,128,0,98440:0:0:0:0:
64,192,98440,1,2,0:0:0:0:
192,192,98440,128,4,98640:0:0:0:0:
448,192,98440,1,0,0:0:0:0:
320,192,98640,128,0,98740:0:0:0:0:
192,192,98740,128,0,98840:0:0:0:0:
64,192,98840,1,8,0:0:0:0:
320,192,98840,128,0,98940:0:0:0:0:
448,192,98840,1,0,0:0:0:0:
192,192,98940,128,0,99040:0:0:0:0:
320,192,99040,128,0,99140:0:0:0:0:
192,192,99140,128,8,99240:0:0:0:0:
448,192,99140,1,0,0:0:0:0:
64,192,99240,128,2,99540:0:0:0:0:
320,192,99240,1,0,0:0:0:70:Cymatics - Open Hat 5.wav
192,192,99440,1,2,0:0:0:0:
448,192,99440,1,0,0:0:0:0:
320,192,99540,128,0,99740:0:0:0:0:
64,192,99640,1,8,0:0:0:0:
192,192,99640,1,4,0:0:0:0:
448,192,99640,1,0,0:0:0:0:
320,192,99840,1,2,0:0:0:0:
448,192,99840,128,0,100040:0:0:0:0:
64,192,100040,128,2,100240:0:0:0:0:
192,192,100240,128,2,100340:0:0:0:0:
320,192,100240,1,0,0:0:0:0:
64,192,100340,128,0,100440:0:0:0:0:
192,192,100440,128,8,100540:0:0:0:0:
320,192,100440,1,0,0:0:0:0:
448,192,100440,1,0,0:0:0:0:
64,192,100540,128,0,100640:0:0:0:0:
192,192,100640,128,0,100840:0:0:0:0:
448,192,100740,1,0,0:0:0:0:
64,192,100840,1,2,0:0:0:0:
320,192,100840,128,0,101140:0:0:0:70:Cymatics - Open Hat 5.wav
64,192,101040,1,2,0:0:0:0:
192,192,101040,1,0,0:0:0:0:
64,192,101140,128,0,101440:0:0:0:0:
192,192,101240,1,8,0:0:0:0:
320,192,101240,1,4,0:0:0:0:
448,192,101240,1,0,0:0:0:0:
448,192,101340,1,2,0:0:0:0:
320,192,101440,128,2,101640:0:0:0:0:
192,192,101540,1,2,0:0:0:0:
64,192,101640,1,4,0:0:0:0:
192,192,101640,128,2,101840:0:0:0:0:
448,192,101640,1,0,0:0:0:0:
320,192,101840,128,0,101940:0:0:0:0:
192,192,101940,128,0,102040:0:0:0:0:
64,192,102040,1,8,0:0:0:0:
320,192,102040,128,0,102140:0:0:0:0:
448,192,102040,1,0,0:0:0:0:
192,192,102140,128,0,102340:0:0:0:0:
320,192,102240,1,2,0:0:0:0:
448,192,102240,1,0,0:0:0:0:
64,192,102340,1,2,0:0:0:0:
448,192,102340,1,0,0:0:0:0:
64,192,102440,1,2,0:0:0:0:
192,192,102440,1,4,0:0:0:0:
320,192,102440,1,0,0:0:0:0:
192,192,102573,1,2,0:0:0:0:
448,192,102573,1,0,0:0:0:0:
64,192,102706,1,2,0:0:0:0:
320,192,102706,1,0,0:0:0:0:
448,192,102706,1,0,0:0:0:0:
64,192,102840,1,2,0:0:0:0:
192,192,102840,1,0,0:0:0:0:
192,192,102973,1,2,0:0:0:0:
320,192,102973,1,0,0:0:0:0:
448,192,102973,1,0,0:0:0:0:
64,192,103106,1,2,0:0:0:0:
320,192,103106,1,0,0:0:0:0:
64,192,103240,1,2,0:0:0:0:
192,192,103240,1,4,0:0:0:0:
448,192,103240,1,0,0:0:0:0:
320,192,103373,1,2,0:0:0:0:
448,192,103373,1,0,0:0:0:0:
192,192,103440,1,2,0:0:0:0:
64,192,103506,1,2,0:0:0:0:
320,192,103506,1,0,0:0:0:0:
448,192,103506,1,0,0:0:0:0:
64,192,103640,1,2,0:0:0:0:
192,192,103640,1,0,0:0:0:0:
320,192,103706,1,2,0:0:0:0:
64,192,103773,1,2,0:0:0:0:
192,192,103773,1,0,0:0:0:0:
448,192,103773,1,0,0:0:0:0:
192,192,103906,1,2,0:0:0:0:
320,192,103906,1,0,0:0:0:0:
448,192,103973,1,2,0:0:0:0:
64,192,104040,1,2,0:0:0:0:
192,192,104040,1,4,0:0:0:0:
320,192,104040,1,0,0:0:0:0:
64,192,104173,1,2,0:0:0:0:
192,192,104290,1,2,0:0:0:0:
320,192,104290,1,0,0:0:0:0:
448,192,104290,1,0,0:0:0:0:
64,192,104323,1,2,0:0:0:0:
448,192,104440,1,2,0:0:0:0:
64,192,104556,1,0,0:0:0:0:
192,192,104556,1,0,0:0:0:0:
320,192,104556,1,2,0:0:0:0:
448,192,104590,1,2,0:0:0:0:
64,192,104690,1,2,0:0:0:0:
64,192,104840,1,2,0:0:0:0:
192,192,104840,1,0,0:0:0:0:
320,192,104840,1,0,0:0:0:0:
320,192,104973,1,2,0:0:0:0:
448,192,104973,1,0,0:0:0:0:
192,192,105040,1,2,0:0:0:0:
64,192,105106,1,4,0:0:0:0:
448,192,105106,1,0,0:0:0:0:
192,192,105240,1,8,0:0:0:0:
320,192,105240,1,0,0:0:0:0:
448,192,105240,1,0,0:0:0:0:
64,192,105373,1,8,0:0:0:0:
192,192,105373,1,0,0:0:0:0:
320,192,105373,1,0,0:0:0:0:
320,192,105506,1,2,0:0:0:0:
448,192,105506,1,0,0:0:0:0:
64,192,105640,1,2,0:0:0:0:
192,192,105640,1,0,0:0:0:0:
320,192,105773,1,2,0:0:0:0:
448,192,105773,1,0,0:0:0:0:
64,192,105906,1,8,0:0:0:0:
192,192,105906,1,0,0:0:0:0:
448,192,105906,1,0,0:0:0:0:
64,192,106040,1,8,0:0:0:0:
192,192,106040,1,0,0:0:0:0:
320,192,106040,1,0,0:0:0:0:
192,192,106173,1,8,0:0:0:0:
320,192,106173,1,0,0:0:0:0:
448,192,106173,1,0,0:0:0:0:
320,192,106306,1,2,0:0:0:0:
448,192,106306,1,0,0:0:0:70:HHOpen.wav
64,192,106440,1,2,0:0:0:0:
192,192,106440,1,0,0:0:0:0:
320,192,106506,1,2,0:0:0:0:
192,192,106573,1,2,0:0:0:0:
448,192,106573,1,0,0:0:0:0:
64,192,106640,1,2,0:0:0:0:
320,192,106706,1,2,0:0:0:0:
448,192,106706,1,0,0:0:0:0:
192,192,106773,1,2,0:0:0:0:
64,192,106840,1,8,0:0:0:0:
448,192,106840,1,0,0:0:0:0:
320,192,106906,1,8,0:0:0:0:
64,192,106973,1,2,0:0:0:0:
192,192,106973,1,0,0:0:0:0:
320,192,107040,1,2,0:0:0:0:
64,192,107106,1,2,0:0:0:0:
448,192,107106,1,0,0:0:0:0:
192,192,107173,1,2,0:0:0:0:
64,192,107240,1,8,0:0:0:0:
320,192,107240,1,4,0:0:0:0:
448,192,107240,1,0,0:0:0:0:
320,192,107373,1,2,0:0:0:0:
448,192,107373,1,0,0:0:0:70:Cymatics - Open Hat 5.wav
192,192,107506,1,2,0:0:0:0:
320,192,107506,1,0,0:0:0:0:
64,192,107573,1,2,0:0:0:0:
448,192,107640,1,2,0:0:0:0:
64,192,107690,128,8,108040:0:0:0:0:
192,192,107690,128,0,108040:0:0:0:70:Cymatics - Open Hat 5.wav
320,192,107690,128,0,108040:0:0:0:0:
192,192,108140,128,2,108340:0:0:0:0:
320,192,108140,128,0,108340:0:0:0:70:Cymatics - Open Hat 5.wav
448,192,108140,128,0,108340:0:0:0:0:
64,192,108440,128,2,108640:0:0:0:0:
192,192,108440,128,0,108640:0:0:0:70:Cymatics - Open Hat 5.wav
448,192,108440,128,0,108640:0:0:0:0:
64,192,108740,1,2,0:0:0:0:
192,192,108740,1,0,0:0:0:0:
320,192,108740,1,0,0:0:0:0:
64,192,108840,1,4,0:0:0:0:
320,192,108840,1,2,0:0:0:0:
448,192,108840,1,0,0:0:0:0:
192,192,108940,1,0,0:0:0:0:
64,192,108990,1,0,0:0:0:0:
320,192,109040,1,0,0:0:0:70:Cymatics - Open Hat 5.wav
192,192,109090,1,0,0:0:0:70:Cymatics - Open Hat 5.wav
448,192,109140,1,0,0:0:0:0:
320,192,109190,1,0,0:0:0:0:
64,192,109240,1,0,0:0:0:70:Cymatics - Open Hat 5.wav
448,192,109290,1,0,0:0:0:70:Cymatics - Open Hat 5.wav
320,192,109340,1,0,0:0:0:70:Cymatics - Open Hat 5.wav
192,192,109390,1,0,0:0:0:0:
64,192,109440,1,8,0:0:0:0:
320,192,109440,1,0,0:0:0:0:
448,192,109440,1,0,0:0:0:0:
64,192,109540,1,4,0:0:0:0:
192,192,109540,1,8,0:0:0:0:
448,192,109540,1,0,0:0:0:0:
192,192,109640,1,0,0:0:0:0:
64,192,109740,1,8,0:0:0:0:
448,192,109740,1,0,0:0:0:0:
320,192,109790,1,0,0:0:0:0:
192,192,109840,1,0,0:0:0:0:
448,192,109890,1,0,0:0:0:0:
320,192,109940,1,2,0:0:0:0:
192,192,109990,1,2,0:0:0:0:
64,192,110040,1,2,0:0:0:0:
320,192,110040,1,0,0:0:0:0:
448,192,110040,1,0,0:0:0:0:
192,192,110173,1,8,0:0:0:0:
320,192,110173,1,0,0:0:0:0:
448,192,110173,1,0,0:0:0:0:
64,192,110306,1,8,0:0:0:0:
192,192,110306,1,0,0:0:0:0:
320,192,110306,1,0,0:0:0:0:
64,192,110440,1,2,0:0:0:0:
192,192,110440,1,4,0:0:0:0:
448,192,110440,1,0,0:0:0:0:
320,192,110506,1,0,0:0:0:0:
64,192,110573,1,0,0:0:0:0:
192,192,110640,1,0,0:0:0:0:
320,192,110706,1,0,0:0:0:0:
448,192,110773,1,0,0:0:0:0:
320,192,110840,1,0,0:0:0:0:
192,192,110906,1,0,0:0:0:0:
64,192,110940,1,8,0:0:0:0:
448,192,110940,1,0,0:0:0:0:
320,192,110973,1,0,0:0:0:0:
64,192,111040,1,2,0:0:0:0:
192,192,111040,1,4,0:0:0:0:
448,192,111040,1,0,0:0:0:0:
320,192,111106,1,0,0:0:0:0:
64,192,111173,1,0,0:0:0:0:
192,192,111240,1,0,0:0:0:0:
320,192,111306,1,0,0:0:0:0:
192,192,111373,1,0,0:0:0:0:
64,192,111440,1,8,0:0:0:0:
448,192,111440,1,0,0:0:0:0:
320,192,111506,1,2,0:0:0:0:
192,192,111573,1,0,0:0:0:0:
64,192,111640,1,8,0:0:0:0:
320,192,111640,1,4,0:0:0:0:
448,192,111640,1,0,0:0:0:0:
192,192,111706,1,0,0:0:0:0:
320,192,111773,1,0,0:0:0:0:
448,192,111840,1,2,0:0:0:0:
320,192,111906,1,0,0:0:0:0:
192,192,111973,1,0,0:0:0:0:
64,192,112040,1,2,0:0:0:0:
448,192,112040,1,0,0:0:0:0:
320,192,112106,1,0,0:0:0:0:
192,192,112173,1,0,0:0:0:0:
64,192,112240,1,8,0:0:0:0:
320,192,112240,1,4,0:0:0:0:
448,192,112240,1,0,0:0:0:0:
192,192,112306,1,0,0:0:0:0:
448,192,112373,1,0,0:0:0:0:
320,192,112440,1,2,0:0:0:0:
192,192,112506,1,0,0:0:0:0:
64,192,112540,1,8,0:0:0:0:
448,192,112540,1,4,0:0:0:0:
320,192,112573,1,0,0:0:0:0:
64,192,112640,1,2,0:0:0:0:
192,192,112706,1,0,0:0:0:0:
320,192,112773,1,0,0:0:0:0:
64,192,112840,1,8,0:0:0:0:
192,192,112840,1,0,0:0:0:0:
448,192,112840,1,0,0:0:0:0:
320,192,112906,1,0,0:0:0:0:
192,192,112973,1,0,0:0:0:0:
64,192,113040,1,2,0:0:0:0:
448,192,113090,1,0,0:0:0:0:
320,192,113140,1,2,0:0:0:0:
192,192,113190,1,0,0:0:0:0:
64,192,113240,1,8,0:0:0:0:
320,192,113240,1,4,0:0:0:0:
448,192,113240,1,0,0:0:0:0:
64,192,113340,1,2,0:0:0:0:
192,192,113440,1,2,0:0:0:0:
448,192,113440,1,0,0:0:0:0:
448,192,113540,1,2,0:0:0:0:
64,192,113640,1,8,0:0:0:0:
192,192,113640,1,4,0:0:0:0:
320,192,113640,1,0,0:0:0:0:
192,192,113740,1,2,0:0:0:0:
192,192,113840,1,2,0:0:0:0:
192,192,113940,1,2,0:0:0:0:
64,192,114040,1,8,0:0:0:0:
320,192,114040,1,0,0:0:0:70:HHOpen.wav
448,192,114040,1,0,0:0:0:0:
320,192,114140,1,2,0:0:0:0:
320,192,114240,1,2,0:0:0:0:
320,192,114340,1,2,0:0:0:0:
64,192,114440,1,8,0:0:0:0:
192,192,114440,1,0,0:0:0:70:HHOpen.wav
448,192,114440,1,0,0:0:0:0:
64,192,114540,1,2,0:0:0:0:
64,192,114640,1,2,0:0:0:0:
320,192,114740,1,2,0:0:0:0:
448,192,114740,1,0,0:0:0:0:
64,192,114840,1,8,0:0:0:0:
192,192,114840,1,0,0:0:0:70:HHOpen.wav
448,192,114840,1,0,0:0:0:0:
192,192,114940,1,2,0:0:0:0:
320,192,115040,1,2,0:0:0:0:
448,192,115040,1,0,0:0:0:0:
320,192,115140,1,2,0:0:0:0:
64,192,115240,1,8,0:0:0:0:
192,192,115240,1,0,0:0:0:70:HHOpen.wav
448,192,115240,1,0,0:0:0:0:
64,192,115340,1,2,0:0:0:0:
64,192,115440,1,2,0:0:0:0:
64,192,115540,1,2,0:0:0:0:
192,192,115640,1,8,0:0:0:0:
320,192,115640,1,0,0:0:0:70:HHOpen.wav
448,192,115640,1,0,0:0:0:0:
448,192,115740,1,2,0:0:0:0:
448,192,115840,1,2,0:0:0:0:
448,192,115940,1,2,0:0:0:0:
64,192,116040,1,8,0:0:0:0:
192,192,116040,1,0,0:0:0:70:HHOpen.wav
320,192,116040,1,0,0:0:0:0:
64,192,116140,1,2,0:0:0:0:
64,192,116240,1,2,0:0:0:0:
320,192,116340,1,2,0:0:0:0:
448,192,116340,1,0,0:0:0:0:
64,192,116440,1,8,0:0:0:0:
192,192,116440,1,4,0:0:0:0:
448,192,116440,1,0,0:0:0:0:
192,192,116540,1,2,0:0:0:0:
320,192,116640,1,2,0:0:0:0:
448,192,116640,1,0,0:0:0:0:
448,192,116740,1,2,0:0:0:0:
64,192,116840,1,8,0:0:0:0:
192,192,116840,1,4,0:0:0:0:
320,192,116840,1,0,0:0:0:0:
320,192,116940,1,2,0:0:0:0:
320,192,117040,1,2,0:0:0:0:
320,192,117140,1,2,0:0:0:0:
64,192,117240,1,8,0:0:0:0:
192,192,117240,1,0,0:0:0:70:HHOpen.wav
448,192,117240,1,0,0:0:0:0:
192,192,117340,1,2,0:0:0:0:
192,192,117440,1,2,0:0:0:0:
192,192,117540,1,2,0:0:0:0:
64,192,117640,1,8,0:0:0:0:
320,192,117640,1,0,0:0:0:70:HHOpen.wav
448,192,117640,1,0,0:0:0:0:
320,192,117740,1,2,0:0:0:0:
320,192,117840,1,2,0:0:0:0:
64,192,117940,1,2,0:0:0:0:
192,192,117940,1,0,0:0:0:0:
64,192,118040,1,8,0:0:0:0:
320,192,118040,1,0,0:0:0:70:HHOpen.wav
448,192,118040,1,0,0:0:0:0:
320,192,118140,1,2,0:0:0:0:
192,192,118240,1,2,0:0:0:0:
448,192,118240,1,0,0:0:0:0:
192,192,118340,1,2,0:0:0:0:
64,192,118440,1,8,0:0:0:0:
320,192,118440,1,4,0:0:0:0:
448,192,118440,1,0,0:0:0:0:
64,192,118540,1,0,0:0:0:0:
448,192,118640,1,2,0:0:0:0:
320,192,118690,1,2,0:0:0:0:
64,192,118740,1,2,0:0:0:0:
448,192,118790,1,2,0:0:0:0:
192,192,118840,1,2,0:0:0:0:
64,192,118890,1,2,0:0:0:0:
320,192,118940,1,2,0:0:0:0:
192,192,118990,1,2,0:0:0:0:
64,192,119040,1,8,0:0:0:0:
320,192,119040,1,4,0:0:0:0:
448,192,119040,1,0,0:0:0:0:
64,192,119140,1,0,0:0:0:0:
448,192,119240,1,2,0:0:0:0:
320,192,119290,1,2,0:0:0:0:
64,192,119340,1,2,0:0:0:0:
448,192,119390,1,2,0:0:0:0:
192,192,119440,1,2,0:0:0:0:
64,192,119490,1,2,0:0:0:0:
320,192,119540,1,2,0:0:0:0:
192,192,119590,1,2,0:0:0:0:
64,192,119640,1,8,0:0:0:0:
320,192,119640,1,4,0:0:0:0:
448,192,119640,1,0,0:0:0:0:
64,192,119740,1,0,0:0:0:0:
192,192,119840,1,2,0:0:0:0:
448,192,119840,1,0,0:0:0:0:
64,192,119940,1,2,0:0:0:0:
320,192,119940,1,0,0:0:0:0:
64,192,120040,128,2,120090:0:0:0:0:
192,192,120040,128,4,120090:0:0:0:0:
320,192,120040,128,0,120090:0:0:0:0:
448,192,120040,128,0,120090:0:0:0:0:
64,192,120140,128,0,120190:0:0:0:0:
192,192,120140,128,0,120190:0:0:0:0:
64,192,120240,128,8,120290:0:0:0:0:
320,192,120240,128,0,120290:0:0:0:70:Cymatics - Open Hat 5.wav
448,192,120240,128,0,120290:0:0:0:0:
192,192,120340,128,0,120390:0:0:0:0:
320,192,120340,128,0,120390:0:0:0:0:
64,192,120440,128,2,120490:0:0:0:0:
192,192,120440,128,0,120490:0:0:0:0:
448,192,120440,128,0,120490:0:0:0:0:
64,192,120540,128,2,120590:0:0:0:0:
320,192,120540,128,0,120590:0:0:0:0:
192,192,120640,128,8,120690:0:0:0:0:
320,192,120640,128,0,120690:0:0:0:70:Cymatics - Open Hat 5.wav
448,192,120640,128,0,120690:0:0:0:0:
64,192,120740,128,2,120790:0:0:0:0:
448,192,120740,128,0,120790:0:0:0:0:
64,192,120840,128,0,120890:0:0:0:0:
192,192,120840,128,0,120890:0:0:0:0:
320,192,120840,128,0,120890:0:0:0:0:
320,192,120940,128,2,120990:0:0:0:0:
448,192,120940,128,0,120990:0:0:0:0:
64,192,121040,128,8,121090:0:0:0:0:
192,192,121040,128,0,121090:0:0:0:70:Cymatics - Open Hat 5.wav
448,192,121040,128,0,121090:0:0:0:0:
192,192,121140,128,0,121190:0:0:0:0:
320,192,121140,128,0,121190:0:0:0:0:
64,192,121240,128,2,121290:0:0:0:0:
320,192,121240,128,0,121290:0:0:0:0:
448,192,121240,128,0,121290:0:0:0:0:
64,192,121340,128,2,121390:0:0:0:0:
192,192,121340,128,0,121390:0:0:0:0:
192,192,121440,128,8,121490:0:0:0:0:
320,192,121440,128,0,121490:0:0:0:70:Cymatics - Open Hat 5.wav
448,192,121440,128,0,121490:0:0:0:0:
64,192,121540,128,0,121590:0:0:0:0:
448,192,121540,128,0,121590:0:0:0:0:
64,192,121640,128,2,121690:0:0:0:0:
192,192,121640,128,0,121690:0:0:0:0:
320,192,121640,128,0,121690:0:0:0:0:
320,192,121740,128,0,121790:0:0:0:0:
448,192,121740,128,0,121790:0:0:0:0:
64,192,121840,128,8,121890:0:0:0:0:
192,192,121840,128,0,121890:0:0:0:70:Cymatics - Open Hat 5.wav
448,192,121840,128,0,121890:0:0:0:0:
64,192,121940,128,0,121990:0:0:0:0:
320,192,121940,128,0,121990:0:0:0:0:
192,192,122040,128,2,122090:0:0:0:0:
320,192,122040,128,0,122090:0:0:0:0:
448,192,122040,128,0,122090:0:0:0:0:
64,192,122140,128,2,122190:0:0:0:0:
192,192,122140,128,0,122190:0:0:0:0:
64,192,122240,128,8,122290:0:0:0:0:
320,192,122240,128,0,122290:0:0:0:70:Cymatics - Open Hat 5.wav
448,192,122240,128,0,122290:0:0:0:0:
192,192,122340,128,2,122390:0:0:0:0:
448,192,122340,128,0,122390:0:0:0:0:
64,192,122440,128,0,122490:0:0:0:0:
192,192,122440,128,0,122490:0:0:0:0:
320,192,122440,128,0,122490:0:0:0:0:
64,192,122540,128,2,122590:0:0:0:0:
448,192,122540,128,0,122590:0:0:0:0:
192,192,122640,128,8,122690:0:0:0:0:
320,192,122640,128,0,122690:0:0:0:70:Cymatics - Open Hat 5.wav
448,192,122640,128,0,122690:0:0:0:0:
64,192,122740,128,2,122790:0:0:0:0:
320,192,122740,128,0,122790:0:0:0:0:
64,192,122840,128,0,122890:0:0:0:0:
192,192,122840,128,0,122890:0:0:0:0:
448,192,122840,128,0,122890:0:0:0:0:
192,192,122940,128,2,122990:0:0:0:0:
320,192,122940,128,0,122990:0:0:0:0:
64,192,123040,128,8,123090:0:0:0:0:
320,192,123040,128,0,123090:0:0:0:70:Cymatics - Open Hat 5.wav
448,192,123040,128,0,123090:0:0:0:0:
64,192,123140,128,8,123190:0:0:0:0:
192,192,123140,128,0,123190:0:0:0:0:
64,192,123240,128,2,123290:0:0:0:0:
192,192,123240,128,4,123290:0:0:0:0:
320,192,123240,128,0,123290:0:0:0:0:
448,192,123240,128,0,123290:0:0:0:0:
320,192,123340,128,0,123390:0:0:0:0:
448,192,123340,128,0,123390:0:0:0:0:
64,192,123440,128,8,123490:0:0:0:0:
192,192,123440,128,0,123490:0:0:0:70:Cymatics - Open Hat 5.wav
448,192,123440,128,0,123490:0:0:0:0:
64,192,123540,128,0,123590:0:0:0:0:
192,192,123540,128,0,123590:0:0:0:0:
64,192,123640,128,2,123690:0:0:0:0:
320,192,123640,128,0,123690:0:0:0:0:
448,192,123640,128,0,123690:0:0:0:0:
320,192,123740,128,2,123790:0:0:0:0:
448,192,123740,128,0,123790:0:0:0:0:
64,192,123840,128,8,123890:0:0:0:0:
192,192,123840,128,0,123890:0:0:0:70:Cymatics - Open Hat 5.wav
448,192,123840,128,0,123890:0:0:0:0:
64,192,123940,128,2,123990:0:0:0:0:
192,192,123940,128,0,123990:0:0:0:0:
64,192,124040,128,2,124090:0:0:0:0:
192,192,124040,128,0,124090:0:0:0:0:
320,192,124040,128,0,124090:0:0:0:0:
192,192,124140,128,2,124190:0:0:0:0:
320,192,124140,128,0,124190:0:0:0:0:
64,192,124240,128,8,124290:0:0:0:0:
320,192,124240,128,0,124290:0:0:0:70:Cymatics - Open Hat 5.wav
448,192,124240,128,0,124290:0:0:0:0:
64,192,124340,128,0,124390:0:0:0:0:
448,192,124340,128,0,124390:0:0:0:0:
192,192,124440,128,2,124490:0:0:0:0:
320,192,124440,128,0,124490:0:0:0:0:
448,192,124440,128,0,124490:0:0:0:0:
192,192,124540,128,2,124590:0:0:0:0:
320,192,124540,128,0,124590:0:0:0:0:
64,192,124640,128,8,124690:0:0:0:0:
192,192,124640,128,0,124690:0:0:0:70:Cymatics - Open Hat 5.wav
448,192,124640,128,0,124690:0:0:0:0:
64,192,124740,128,0,124790:0:0:0:0:
448,192,124740,128,0,124790:0:0:0:0:
192,192,124840,128,2,124890:0:0:0:0:
320,192,124840,128,0,124890:0:0:0:0:
448,192,124840,128,0,124890:0:0:0:0:
64,192,124940,128,0,124990:0:0:0:0:
192,192,124940,128,0,124990:0:0:0:0:
64,192,125040,128,8,125090:0:0:0:0:
320,192,125040,128,0,125090:0:0:0:70:Cymatics - Open Hat 5.wav
448,192,125040,128,0,125090:0:0:0:0:
192,192,125140,128,0,125190:0:0:0:0:
320,192,125140,128,0,125190:0:0:0:0:
64,192,125240,128,2,125290:0:0:0:0:
192,192,125240,128,0,125290:0:0:0:0:
448,192,125240,128,0,125290:0:0:0:0:
320,192,125340,128,2,125390:0:0:0:0:
448,192,125340,128,0,125390:0:0:0:0:
64,192,125440,128,8,125490:0:0:0:0:
192,192,125440,128,0,125490:0:0:0:70:Cymatics - Open Hat 5.wav
320,192,125440,128,0,125490:0:0:0:0:
64,192,125540,128,2,125590:0:0:0:0:
192,192,125540,128,0,125590:0:0:0:0:
320,192,125640,128,2,125706:0:0:0:0:
448,192,125640,128,0,125706:0:0:0:0:
64,192,125706,128,0,125773:0:0:0:0:
192,192,125706,128,0,125773:0:0:0:0:
320,192,125773,128,0,125840:0:0:0:0:
192,192,125840,128,8,125906:0:0:0:0:
64,192,125906,128,0,125973:0:0:0:0:
448,192,125906,128,0,125973:0:0:0:0:
320,192,125973,128,0,126040:0:0:0:0:
64,192,126040,128,2,126106:0:0:0:0:
192,192,126040,128,0,126106:0:0:0:0:
320,192,126106,128,0,126173:0:0:0:0:
448,192,126106,128,0,126173:0:0:0:0:
192,192,126173,128,0,126240:0:0:0:0:
64,192,126240,128,8,126306:0:0:0:0:
448,192,126240,128,0,126306:0:0:0:70:Cymatics - Open Hat 5.wav
320,192,126306,128,0,126373:0:0:0:0:
192,192,126373,128,0,126440:0:0:0:0:
64,192,126440,128,4,126490:0:0:0:0:
320,192,126440,128,2,126490:0:0:0:0:
448,192,126440,128,0,126490:0:0:0:0:
64,192,126540,128,0,126590:0:0:0:0:
192,192,126540,128,0,126590:0:0:0:0:
192,192,126640,128,8,126690:0:0:0:0:
320,192,126640,128,0,126690:0:0:0:70:Cymatics - Open Hat 5.wav
448,192,126640,128,0,126690:0:0:0:0:
64,192,126740,128,0,126790:0:0:0:0:
448,192,126740,128,0,126790:0:0:0:0:
64,192,126840,128,2,126890:0:0:0:0:
192,192,126840,128,0,126890:0:0:0:0:
320,192,126840,128,0,126890:0:0:0:0:
320,192,126940,128,2,126990:0:0:0:0:
448,192,126940,128,0,126990:0:0:0:0:
64,192,127040,128,8,127090:0:0:0:0:
192,192,127040,128,0,127090:0:0:0:70:Cymatics - Open Hat 5.wav
448,192,127040,128,0,127090:0:0:0:0:
192,192,127140,128,2,127190:0:0:0:0:
320,192,127140,128,0,127190:0:0:0:0:
64,192,127240,128,0,127290:0:0:0:0:
320,192,127240,128,0,127290:0:0:0:0:
448,192,127240,128,0,127290:0:0:0:0:
64,192,127340,128,2,127390:0:0:0:0:
192,192,127340,128,0,127390:0:0:0:0:
192,192,127440,128,8,127490:0:0:0:0:
320,192,127440,128,0,127490:0:0:0:70:Cymatics - Open Hat 5.wav
448,192,127440,128,0,127490:0:0:0:0:
64,192,127540,128,0,127590:0:0:0:0:
320,192,127540,128,0,127590:0:0:0:0:
64,192,127640,128,2,127690:0:0:0:0:
192,192,127640,128,0,127690:0:0:0:0:
448,192,127640,128,0,127690:0:0:0:0:
320,192,127740,128,2,127790:0:0:0:0:
448,192,127740,128,0,127790:0:0:0:0:
64,192,127840,128,8,127890:0:0:0:0:
192,192,127840,128,0,127890:0:0:0:70:Cymatics - Open Hat 5.wav
320,192,127840,128,0,127890:0:0:0:0:
64,192,127940,128,0,127990:0:0:0:0:
448,192,127940,128,0,127990:0:0:0:0:
192,192,128040,128,2,128090:0:0:0:0:
320,192,128040,128,0,128090:0:0:0:0:
448,192,128040,128,0,128090:0:0:0:0:
64,192,128140,128,0,128190:0:0:0:0:
320,192,128140,128,0,128190:0:0:0:0:
64,192,128240,128,8,128290:0:0:0:0:
192,192,128240,128,0,128290:0:0:0:70:Cymatics - Open Hat 5.wav
448,192,128240,128,0,128290:0:0:0:0:
320,192,128340,128,0,128390:0:0:0:0:
448,192,128340,128,0,128390:0:0:0:0:
64,192,128440,128,2,128490:0:0:0:0:
192,192,128440,128,0,128490:0:0:0:0:
320,192,128440,128,0,128490:0:0:0:0:
64,192,128540,128,2,128590:0:0:0:0:
448,192,128540,128,0,128590:0:0:0:0:
192,192,128640,128,8,128690:0:0:0:0:
320,192,128640,128,0,128690:0:0:0:70:Cymatics - Open Hat 5.wav
448,192,128640,128,0,128690:0:0:0:0:
64,192,128740,128,2,128790:0:0:0:0:
192,192,128740,128,0,128790:0:0:0:0:
64,192,128840,128,2,128890:0:0:0:0:
320,192,128840,128,0,128890:0:0:0:0:
448,192,128840,128,0,128890:0:0:0:0:
192,192,128940,128,2,128990:0:0:0:0:
320,192,128940,128,0,128990:0:0:0:0:
64,192,129040,128,8,129090:0:0:0:0:
192,192,129040,128,0,129090:0:0:0:70:Cymatics - Open Hat 5.wav
448,192,129040,128,0,129090:0:0:0:0:
320,192,129140,128,2,129190:0:0:0:0:
448,192,129140,128,0,129190:0:0:0:0:
64,192,129240,128,0,129290:0:0:0:0:
192,192,129240,128,0,129290:0:0:0:0:
320,192,129240,128,0,129290:0:0:0:0:
192,192,129340,128,2,129390:0:0:0:0:
448,192,129340,128,0,129390:0:0:0:0:
64,192,129440,128,8,129490:0:0:0:0:
320,192,129440,128,0,129490:0:0:0:70:Cymatics - Open Hat 5.wav
448,192,129440,128,0,129490:0:0:0:0:
64,192,129540,128,8,129590:0:0:0:0:
192,192,129540,128,0,129590:0:0:0:0:
64,192,129640,128,2,129690:0:0:0:0:
192,192,129640,128,4,129690:0:0:0:0:
320,192,129640,128,0,129690:0:0:0:0:
448,192,129640,128,0,129690:0:0:0:0:
320,192,129740,128,0,129790:0:0:0:0:
448,192,129740,128,0,129790:0:0:0:0:
64,192,129840,128,8,129890:0:0:0:0:
192,192,129840,128,0,129890:0:0:0:70:Cymatics - Open Hat 5.wav
448,192,129840,128,0,129890:0:0:0:0:
192,192,129940,128,0,129990:0:0:0:0:
320,192,129940,128,0,129990:0:0:0:0:
64,192,130040,128,2,130090:0:0:0:0:
320,192,130040,128,0,130090:0:0:0:0:
448,192,130040,128,0,130090:0:0:0:0:
64,192,130140,128,2,130190:0:0:0:0:
192,192,130140,128,0,130190:0:0:0:0:
192,192,130240,128,8,130290:0:0:0:0:
320,192,130240,128,0,130290:0:0:0:70:Cymatics - Open Hat 5.wav
448,192,130240,128,0,130290:0:0:0:0:
64,192,130340,128,2,130390:0:0:0:0:
448,192,130340,128,0,130390:0:0:0:0:
64,192,130440,128,0,130490:0:0:0:0:
192,192,130440,128,0,130490:0:0:0:0:
320,192,130440,128,0,130490:0:0:0:0:
320,192,130540,128,2,130590:0:0:0:0:
448,192,130540,128,0,130590:0:0:0:0:
64,192,130640,128,8,130690:0:0:0:0:
192,192,130640,128,0,130690:0:0:0:70:Cymatics - Open Hat 5.wav
448,192,130640,128,0,130690:0:0:0:0:
64,192,130740,128,0,130790:0:0:0:0:
320,192,130740,128,0,130790:0:0:0:0:
192,192,130840,128,2,130890:0:0:0:0:
320,192,130840,128,0,130890:0:0:0:0:
448,192,130840,128,0,130890:0:0:0:0:
64,192,130940,128,2,130990:0:0:0:0:
448,192,130940,128,0,130990:0:0:0:0:
64,192,131040,128,8,131090:0:0:0:0:
192,192,131040,128,0,131090:0:0:0:70:Cymatics - Open Hat 5.wav
320,192,131040,128,0,131090:0:0:0:0:
320,192,131140,128,0,131190:0:0:0:0:
448,192,131140,128,0,131190:0:0:0:0:
64,192,131240,128,2,131290:0:0:0:0:
192,192,131240,128,0,131290:0:0:0:0:
448,192,131240,128,0,131290:0:0:0:0:
64,192,131340,128,0,131390:0:0:0:0:
192,192,131340,128,0,131390:0:0:0:0:
64,192,131440,128,8,131490:0:0:0:0:
320,192,131440,128,0,131490:0:0:0:70:Cymatics - Open Hat 5.wav
448,192,131440,128,0,131490:0:0:0:0:
320,192,131540,128,0,131590:0:0:0:0:
448,192,131540,128,0,131590:0:0:0:0:
64,192,131640,128,2,131690:0:0:0:0:
192,192,131640,128,0,131690:0:0:0:0:
320,192,131640,128,0,131690:0:0:0:0:
192,192,131740,128,2,131790:0:0:0:0:
320,192,131740,128,0,131790:0:0:0:0:
64,192,131840,128,8,131890:0:0:0:0:
192,192,131840,128,4,131890:0:0:0:0:
448,192,131840,128,0,131890:0:0:0:0:
64,192,131940,128,2,131990:0:0:0:0:
448,192,131940,128,0,131990:0:0:0:0:
192,192,132040,128,0,132090:0:0:0:0:
320,192,132040,128,0,132090:0:0:0:0:
448,192,132040,128,0,132090:0:0:0:0:
64,192,132140,128,2,132190:0:0:0:0:
320,192,132140,128,0,132190:0:0:0:0:
64,192,132240,128,8,132290:0:0:0:0:
192,192,132240,128,4,132290:0:0:0:0:
448,192,132240,128,0,132290:0:0:0:0:
320,192,132340,128,2,132390:0:0:0:0:
448,192,132340,128,0,132390:0:0:0:0:
64,192,132440,128,8,132490:0:0:0:0:
192,192,132440,128,0,132490:0:0:0:0:
320,192,132440,128,0,132490:0:0:0:0:
192,192,132540,128,2,132590:0:0:0:0:
448,192,132540,128,0,132590:0:0:0:0:
64,192,132640,128,2,132690:0:0:0:0:
320,192,132640,128,0,132690:0:0:0:0:
448,192,132640,128,0,132690:0:0:0:0:
64,192,132740,128,2,132790:0:0:0:0:
192,192,132740,128,0,132790:0:0:0:0:
64,192,132840,128,8,132906:0:0:0:0:
192,192,132840,128,4,132906:0:0:0:0:
320,192,132840,128,0,132906:0:0:0:0:
448,192,132840,128,0,132906:0:0:0:0:
320,192,132973,128,0,133040:0:0:0:0:
192,192,133040,128,2,133106:0:0:0:0:
320,192,133106,128,0,133173:0:0:0:0:
192,192,133173,128,0,133240:0:0:0:0:
64,192,133240,128,8,133306:0:0:0:0:
320,192,133240,128,0,133306:0:0:0:70:HHOpen.wav
448,192,133240,128,0,133306:0:0:0:0:
192,192,133373,128,0,133440:0:0:0:0:
320,192,133440,128,2,133506:0:0:0:0:
64,192,133506,128,0,133573:0:0:0:0:
192,192,133573,128,0,133640:0:0:0:0:
320,192,133640,128,2,133690:0:0:0:0:
448,192,133640,128,0,133690:0:0:0:0:
448,192,133740,128,2,133790:0:0:0:0:
448,192,133840,128,2,133890:0:0:0:0:
320,192,133940,128,2,133990:0:0:0:0:
448,192,133940,128,0,133990:0:0:0:0:
64,192,134040,128,8,134090:0:0:0:0:
192,192,134040,128,4,134090:0:0:0:0:
320,192,134040,128,0,134090:0:0:0:0:
64,192,134140,128,2,134190:0:0:0:0:
320,192,134240,128,2,134290:0:0:0:0:
448,192,134240,128,0,134290:0:0:0:0:
448,192,134340,128,2,134390:0:0:0:0:
64,192,134440,128,2,134490:0:0:0:0:
192,192,134440,128,0,134490:0:0:0:70:HHOpen.wav
320,192,134440,128,0,134490:0:0:0:0:
64,192,134540,128,8,134590:0:0:0:0:
64,192,134640,128,2,134690:0:0:0:0:
64,192,134740,128,2,134840:0:0:0:0:
192,192,134840,128,8,134940:0:0:0:0:
320,192,134840,128,0,134940:0:0:0:70:HHOpen.wav
448,192,134840,128,0,134940:0:0:0:0:
64,192,134940,128,2,135040:0:0:0:0:
192,192,135040,128,8,135140:0:0:0:0:
320,192,135040,128,0,135140:0:0:0:0:
64,192,135140,128,8,135240:0:0:0:0:
448,192,135140,128,0,135240:0:0:0:0:
320,192,135240,1,0,0:0:0:70:tom1.wav
192,192,135290,1,0,0:0:0:70:tom1.wav
448,192,135340,1,0,0:0:0:70:tom2.wav
320,192,135390,1,0,0:0:0:70:tom2.wav
192,192,135440,1,0,0:0:0:70:tom3.wav
64,192,135490,1,0,0:0:0:70:tom3.wav
448,192,135540,1,0,0:0:0:70:tom4.wav
320,192,135590,1,0,0:0:0:70:tom4.wav
64,192,135640,1,4,0:0:0:0:
192,192,135640,1,8,0:0:0:0:
320,192,135740,1,0,0:0:0:0:
448,192,135740,1,0,0:0:0:0:
64,192,135840,1,0,0:0:0:0:
192,192,135840,1,0,0:0:0:0:
64,192,136040,1,2,0:0:0:0:
192,192,136040,1,4,0:0:0:0:
320,192,136040,1,0,0:0:0:0:
448,192,136040,1,0,0:0:0:0:
64,192,136140,1,0,0:0:0:0:
192,192,136140,1,0,0:0:0:0:
320,192,136240,1,0,0:0:0:0:
448,192,136240,1,0,0:0:0:0:
320,192,136340,1,0,0:0:0:0:
448,192,136340,1,0,0:0:0:0:
64,192,136440,1,0,0:0:0:0:
192,192,136440,1,0,0:0:0:0:
64,192,136540,1,0,0:0:0:0:
192,192,136540,1,0,0:0:0:0:
320,192,136640,1,0,0:0:0:0:
448,192,136640,1,0,0:0:0:0:
320,192,136740,1,0,0:0:0:0:
448,192,136740,1,0,0:0:0:0:
64,192,136840,1,0,0:0:0:0:
192,192,136840,1,0,0:0:0:0:
64,192,136940,1,0,0:0:0:0:
320,192,136940,1,0,0:0:0:0:
192,192,137040,1,0,0:0:0:0:
448,192,137040,1,0,0:0:0:0:
64,192,137140,1,0,0:0:0:0:
320,192,137140,1,0,0:0:0:0:
64,192,137240,1,0,0:0:0:0:
192,192,137240,1,0,0:0:0:0:
320,192,137340,1,0,0:0:0:0:
448,192,137340,1,0,0:0:0:0:
64,192,137440,1,0,0:0:0:0:
192,192,137440,1,0,0:0:0:0:
64,192,137540,1,0,0:0:0:0:
320,192,137540,1,0,0:0:0:0:
192,192,137640,1,0,0:0:0:0:
448,192,137640,1,0,0:0:0:0:
320,192,137740,1,0,0:0:0:0:
448,192,137740,1,0,0:0:0:0:
64,192,137840,1,0,0:0:0:0:
192,192,137840,1,0,0:0:0:0:
320,192,137940,1,0,0:0:0:0:
448,192,137940,1,0,0:0:0:0:
64,192,138040,1,0,0:0:0:0:
448,192,138040,1,0,0:0:0:0:
192,192,138140,1,0,0:0:0:0:
320,192,138140,1,0,0:0:0:0:
64,192,138240,1,2,0:0:0:0:
192,192,138240,1,0,0:0:0:0:
320,192,138290,1,2,0:0:0:0:
64,192,138340,1,2,0:0:0:0:
448,192,138340,1,0,0:0:0:0:
192,192,138440,1,8,0:0:0:0:
320,192,138440,128,0,138590:0:0:0:70:Cymatics - Open Hat 5.wav
448,192,138440,128,0,138640:0:0:0:0:
192,192,138640,1,2,0:0:0:0:
320,192,138690,1,2,0:0:0:0:
64,192,138740,128,8,138840:0:0:0:0:
192,192,138740,128,0,138790:0:0:0:70:HHOpen.wav
448,192,138740,1,0,0:0:0:0:
320,192,138840,1,2,0:0:0:0:
192,192,138890,1,2,0:0:0:0:
64,192,138940,1,2,0:0:0:0:
320,192,138990,1,2,0:0:0:0:
64,192,139040,128,8,139240:0:0:0:0:
192,192,139040,128,0,139240:0:0:0:70:HHOpen.wav
448,192,139040,1,0,0:0:0:0:
320,192,139240,128,2,139440:0:0:0:0:
448,192,139240,128,4,139440:0:0:0:0:
64,192,139440,1,0,0:0:0:0:
192,192,139440,1,0,0:0:0:0:
64,192,139540,1,0,0:0:0:0:
192,192,139540,1,0,0:0:0:0:
320,192,139640,1,0,0:0:0:70:HHOpen.wav
448,192,139640,1,0,0:0:0:0:
320,192,139740,1,0,0:0:0:0:
448,192,139740,1,0,0:0:0:0:
64,192,139840,1,0,0:0:0:0:
192,192,139840,1,0,0:0:0:0:
64,192,139940,1,0,0:0:0:0:
192,192,139940,1,0,0:0:0:0:
320,192,140040,1,0,0:0:0:70:HHOpen.wav
448,192,140040,1,0,0:0:0:0:
320,192,140140,1,0,0:0:0:0:
448,192,140140,1,0,0:0:0:0:
64,192,140240,1,0,0:0:0:0:
192,192,140240,1,0,0:0:0:0:
64,192,140340,1,0,0:0:0:0:
320,192,140340,1,0,0:0:0:0:
192,192,140440,1,0,0:0:0:70:HHOpen.wav
448,192,140440,1,0,0:0:0:0:
64,192,140540,1,0,0:0:0:0:
320,192,140540,1,0,0:0:0:0:
320,192,140640,1,2,0:0:0:0:
448,192,140640,1,0,0:0:0:0:
64,192,140690,1,2,0:0:0:0:
192,192,140740,1,2,0:0:0:0:
320,192,140790,1,2,0:0:0:0:
64,192,140840,1,8,0:0:0:0:
192,192,140840,1,4,0:0:0:0:
448,192,140840,1,0,0:0:0:0:
448,192,140940,1,2,0:0:0:0:
320,192,141040,1,2,0:0:0:0:
448,192,141040,1,0,0:0:0:0:
64,192,141140,1,8,0:0:0:0:
192,192,141140,1,0,0:0:0:70:HHOpen.wav
320,192,141140,1,0,0:0:0:0:
64,192,141240,1,2,0:0:0:0:
64,192,141340,1,2,0:0:0:0:
192,192,141340,1,0,0:0:0:0:
192,192,141440,1,8,0:0:0:0:
320,192,141440,1,4,0:0:0:0:
448,192,141440,1,0,0:0:0:0:
448,192,141540,1,0,0:0:0:0:
320,192,141640,1,2,0:0:0:0:
448,192,141640,1,0,0:0:0:0:
64,192,141740,1,8,0:0:0:0:
192,192,141740,1,0,0:0:0:70:HHOpen.wav
320,192,141740,1,0,0:0:0:0:
64,192,141840,1,2,0:0:0:0:
192,192,141840,1,0,0:0:0:0:
320,192,141890,1,2,0:0:0:0:
64,192,141940,1,2,0:0:0:0:
448,192,141940,1,0,0:0:0:0:
192,192,141990,1,2,0:0:0:0:
64,192,142040,1,8,0:0:0:0:
320,192,142040,1,4,0:0:0:0:
448,192,142040,1,0,0:0:0:0:
192,192,142140,1,2,0:0:0:0:
320,192,142140,1,0,0:0:0:0:
64,192,142240,128,2,142440:0:0:0:0:
192,192,142240,128,0,142440:0:0:0:0:
448,192,142240,1,0,0:0:0:0:
320,192,142440,1,2,0:0:0:0:
448,192,142440,1,4,0:0:0:0:
64,192,142540,1,8,0:0:0:0:
192,192,142540,1,0,0:0:0:70:HHOpen.wav
320,192,142590,1,0,0:0:0:0:
64,192,142640,1,2,0:0:0:0:
192,192,142690,1,2,0:0:0:0:
320,192,142740,1,8,0:0:0:0:
448,192,142740,1,0,0:0:0:70:HHOpen.wav
192,192,142790,1,0,0:0:0:0:
64,192,142840,1,2,0:0:0:0:
320,192,142890,1,0,0:0:0:0:
64,192,142940,1,8,0:0:0:0:
448,192,142940,1,0,0:0:0:70:HHOpen.wav
192,192,142990,1,0,0:0:0:0:
320,192,143040,1,2,0:0:0:0:
448,192,143090,1,0,0:0:0:0:
64,192,143140,1,8,0:0:0:0:
192,192,143140,1,0,0:0:0:70:HHOpen.wav
448,192,143190,1,0,0:0:0:0:
64,192,143240,1,2,0:0:0:0:
320,192,143240,1,0,0:0:0:0:
192,192,143290,1,2,0:0:0:0:
320,192,143340,1,8,0:0:0:0:
448,192,143340,1,0,0:0:0:70:HHOpen.wav
64,192,143390,1,0,0:0:0:0:
192,192,143440,1,2,0:0:0:0:
320,192,143490,1,0,0:0:0:0:
64,192,143540,1,8,0:0:0:0:
448,192,143540,1,0,0:0:0:70:HHOpen.wav
192,192,143590,1,0,0:0:0:0:
448,192,143640,1,2,0:0:0:0:
320,192,143690,1,0,0:0:0:0:
64,192,143740,1,8,0:0:0:0:
192,192,143740,1,0,0:0:0:70:HHOpen.wav
448,192,143790,1,0,0:0:0:0:
320,192,143840,1,2,0:0:0:0:
192,192,143890,1,0,0:0:0:0:
64,192,143940,1,8,0:0:0:0:
320,192,143940,1,0,0:0:0:70:HHOpen.wav
448,192,143990,1,0,0:0:0:0:
192,192,144040,1,2,0:0:0:0:
320,192,144090,1,0,0:0:0:0:
64,192,144140,1,8,0:0:0:0:
448,192,144140,1,0,0:0:0:70:HHOpen.wav
192,192,144190,1,0,0:0:0:0:
320,192,144240,1,2,0:0:0:0:
448,192,144240,1,0,0:0:0:0:
192,192,144290,1,2,0:0:0:0:
64,192,144340,1,8,0:0:0:0:
448,192,144340,1,0,0:0:0:70:HHOpen.wav
320,192,144390,1,0,0:0:0:0:
192,192,144440,1,2,0:0:0:0:
64,192,144490,1,0,0:0:0:0:
320,192,144540,1,8,0:0:0:0:
448,192,144540,1,0,0:0:0:70:HHOpen.wav
64,192,144590,1,0,0:0:0:0:
192,192,144640,1,2,0:0:0:0:
320,192,144690,1,0,0:0:0:0:
64,192,144740,1,8,0:0:0:0:
448,192,144740,1,0,0:0:0:70:HHOpen.wav
192,192,144790,1,0,0:0:0:0:
320,192,144840,1,2,0:0:0:0:
448,192,144840,1,0,0:0:0:0:
64,192,144890,1,2,0:0:0:0:
192,192,144940,1,8,0:0:0:0:
448,192,144940,1,0,0:0:0:70:HHOpen.wav
320,192,144990,1,0,0:0:0:0:
192,192,145040,1,2,0:0:0:0:
64,192,145090,1,0,0:0:0:0:
320,192,145140,1,8,0:0:0:0:
448,192,145140,1,0,0:0:0:70:HHOpen.wav
192,192,145190,1,0,0:0:0:0:
64,192,145240,1,2,0:0:0:0:
320,192,145290,1,0,0:0:0:0:
192,192,145340,1,8,0:0:0:0:
448,192,145340,1,0,0:0:0:70:HHOpen.wav
64,192,145390,1,0,0:0:0:0:
448,192,145440,1,2,0:0:0:0:
320,192,145490,1,0,0:0:0:0:
64,192,145540,1,8,0:0:0:0:
192,192,145540,1,0,0:0:0:70:HHOpen.wav
320,192,145590,1,0,0:0:0:0:
64,192,145640,1,4,0:0:0:0:
192,192,145640,1,2,0:0:0:0:
448,192,145640,1,0,0:0:0:0:
320,192,145740,1,0,0:0:0:70:Cymatics - Open Hat 5.wav
448,192,145740,1,0,0:0:0:0:
64,192,145740,1,8,0:0:0:0:
192,192,145840,1,2,0:0:0:0:
320,192,145890,1,2,0:0:0:0:
64,192,145940,1,8,0:0:0:0:
192,192,145940,1,0,0:0:0:70:Cymatics - Open Hat 5.wav
448,192,145940,1,0,0:0:0:0:
64,192,146040,1,2,0:0:0:0:
192,192,146140,1,8,0:0:0:0:
320,192,146140,1,0,0:0:0:70:Cymatics - Open Hat 5.wav
448,192,146140,1,0,0:0:0:0:
320,192,146240,1,2,0:0:0:0:
64,192,146340,1,8,0:0:0:0:
192,192,146340,1,0,0:0:0:70:Cymatics - Open Hat 5.wav
448,192,146340,1,0,0:0:0:0:
320,192,146440,1,2,0:0:0:0:
192,192,146490,1,2,0:0:0:0:
64,192,146540,1,8,0:0:0:0:
320,192,146540,1,0,0:0:0:70:Cymatics - Open Hat 5.wav
448,192,146540,1,0,0:0:0:0:
448,192,146640,1,2,0:0:0:0:
64,192,146740,1,8,0:0:0:0:
192,192,146740,1,0,0:0:0:70:Cymatics - Open Hat 5.wav
320,192,146740,1,0,0:0:0:0:
64,192,146840,1,2,0:0:0:0:
192,192,146940,1,8,0:0:0:0:
320,192,146940,1,0,0:0:0:0:
448,192,146940,1,0,0:0:0:0:
320,192,147040,1,2,0:0:0:0:
64,192,147090,1,2,0:0:0:0:
192,192,147140,1,2,0:0:0:0:
320,192,147190,1,2,0:0:0:0:
64,192,147240,1,8,0:0:0:0:
192,192,147240,1,0,0:0:0:70:Cymatics - Open Hat 5.wav
448,192,147240,1,0,0:0:0:0:
320,192,147340,1,2,0:0:0:0:
448,192,147340,1,0,0:0:0:0:
64,192,147440,1,2,0:0:0:0:
192,192,147440,1,0,0:0:0:0:
64,192,147540,1,8,0:0:0:0:
192,192,147540,1,0,0:0:0:70:Cymatics - Open Hat 5.wav
448,192,147540,1,0,0:0:0:0:
320,192,147640,1,2,0:0:0:0:
448,192,147640,1,0,0:0:0:0:
64,192,147740,1,2,0:0:0:0:
192,192,147740,1,0,0:0:0:0:
64,192,147840,1,8,0:0:0:0:
320,192,147840,1,0,0:0:0:0:
448,192,147840,1,0,0:0:0:0:
320,192,147940,1,2,0:0:0:0:
448,192,147940,1,0,0:0:0:0:
64,192,148040,1,2,0:0:0:0:
192,192,148040,1,0,0:0:0:0:
64,192,148140,1,8,0:0:0:0:
192,192,148140,1,4,0:0:0:0:
448,192,148140,1,0,0:0:0:0:
320,192,148190,1,2,0:0:0:0:
64,192,148240,1,2,0:0:0:0:
192,192,148290,1,2,0:0:0:0:
448,192,148340,1,2,0:0:0:0:
320,192,148390,1,2,0:0:0:0:
64,192,148440,1,8,0:0:0:0:
192,192,148440,1,0,0:0:0:0:
448,192,148440,1,0,0:0:0:0:
64,192,148540,1,2,0:0:0:0:
192,192,148540,1,0,0:0:0:0:
64,192,148640,1,8,0:0:0:0:
192,192,148640,1,0,0:0:0:0:
448,192,148640,128,0,148840:0:0:0:0:
320,192,148665,128,0,148840:0:0:0:0:
64,192,148840,1,4,0:0:0:0:
192,192,148840,1,2,0:0:0:0:
192,192,148940,1,2,0:0:0:0:
320,192,148940,1,0,0:0:0:0:
64,192,149040,1,8,0:0:0:0:
320,192,149040,1,0,0:0:0:70:HHOpen.wav
448,192,149040,1,0,0:0:0:0:
64,192,149140,1,0,0:0:0:0:
192,192,149140,1,0,0:0:0:0:
192,192,149240,1,2,0:0:0:0:
448,192,149240,1,0,0:0:0:0:
320,192,149340,1,2,0:0:0:0:
448,192,149340,1,0,0:0:0:0:
64,192,149440,1,8,0:0:0:0:
192,192,149440,1,0,0:0:0:70:HHOpen.wav
320,192,149440,1,0,0:0:0:0:
64,192,149540,1,0,0:0:0:0:
448,192,149540,1,0,0:0:0:0:
192,192,149640,1,2,0:0:0:0:
320,192,149640,1,0,0:0:0:0:
320,192,149740,1,0,0:0:0:0:
64,192,149840,1,8,0:0:0:0:
192,192,149840,1,0,0:0:0:70:HHOpen.wav
448,192,149840,1,0,0:0:0:0:
320,192,149940,1,2,0:0:0:0:
192,192,150040,1,2,0:0:0:0:
320,192,150040,1,0,0:0:0:0:
64,192,150140,1,2,0:0:0:0:
448,192,150140,1,0,0:0:0:0:
64,192,150240,1,8,0:0:0:0:
192,192,150240,1,0,0:0:0:70:HHOpen.wav
320,192,150240,1,0,0:0:0:0:
320,192,150340,1,0,0:0:0:0:
448,192,150340,1,0,0:0:0:0:
64,192,150440,1,2,0:0:0:0:
192,192,150440,1,0,0:0:0:0:
192,192,150540,1,2,0:0:0:0:
64,192,150640,1,8,0:0:0:0:
320,192,150640,1,0,0:0:0:70:HHOpen.wav
448,192,150640,1,0,0:0:0:0:
192,192,150740,1,0,0:0:0:0:
192,192,150840,1,2,0:0:0:0:
320,192,150840,1,0,0:0:0:0:
320,192,150940,1,2,0:0:0:0:
64,192,151040,1,8,0:0:0:0:
192,192,151040,1,0,0:0:0:70:HHOpen.wav
448,192,151040,1,0,0:0:0:0:
320,192,151140,1,0,0:0:0:0:
448,192,151140,1,0,0:0:0:0:
64,192,151240,1,2,0:0:0:0:
192,192,151240,1,0,0:0:0:0:
64,192,151340,1,0,0:0:0:0:
192,192,151440,1,8,0:0:0:0:
320,192,151440,1,0,0:0:0:70:HHOpen.wav
448,192,151440,1,0,0:0:0:0:
64,192,151540,1,2,0:0:0:0:
64,192,151640,1,2,0:0:0:0:
192,192,151640,1,0,0:0:0:0:
320,192,151740,1,2,0:0:0:0:
64,192,151790,1,0,0:0:0:0:
192,192,151790,1,0,0:0:0:0:
320,192,151840,1,8,0:0:0:0:
448,192,151840,1,0,0:0:0:70:HHOpen.wav
64,192,151940,1,8,0:0:0:0:
320,192,151940,1,0,0:0:0:0:
448,192,151940,1,0,0:0:0:0:
64,192,152040,1,2,0:0:0:0:
192,192,152040,1,0,0:0:0:0:
448,192,152040,1,0,0:0:0:0:
192,192,152140,1,0,0:0:0:0:
320,192,152140,1,0,0:0:0:0:
64,192,152240,1,8,0:0:0:0:
320,192,152240,1,0,0:0:0:70:HHOpen.wav
448,192,152240,1,0,0:0:0:0:
64,192,152340,1,0,0:0:0:0:
192,192,152340,1,0,0:0:0:0:
320,192,152440,1,2,0:0:0:0:
448,192,152440,1,0,0:0:0:0:
64,192,152540,1,2,0:0:0:0:
320,192,152540,1,0,0:0:0:0:
64,192,152640,1,8,0:0:0:0:
192,192,152640,1,0,0:0:0:70:HHOpen.wav
448,192,152640,1,0,0:0:0:0:
192,192,152740,1,0,0:0:0:0:
320,192,152740,1,0,0:0:0:0:
320,192,152840,1,2,0:0:0:0:
448,192,152840,1,0,0:0:0:0:
448,192,152940,1,0,0:0:0:0:
64,192,153040,1,8,0:0:0:0:
192,192,153040,1,0,0:0:0:70:HHOpen.wav
320,192,153040,1,0,0:0:0:0:
64,192,153140,1,2,0:0:0:0:
448,192,153140,1,0,0:0:0:0:
192,192,153240,1,2,0:0:0:0:
320,192,153240,1,0,0:0:0:0:
320,192,153340,1,2,0:0:0:0:
64,192,153440,1,8,0:0:0:0:
192,192,153440,1,0,0:0:0:70:HHOpen.wav
448,192,153440,1,0,0:0:0:0:
64,192,153540,1,8,0:0:0:0:
320,192,153540,1,0,0:0:0:0:
448,192,153540,1,0,0:0:0:0:
192,192,153640,1,8,0:0:0:0:
320,192,153640,1,0,0:0:0:0:
448,192,153640,1,0,0:0:0:0:
64,192,153740,1,2,0:0:0:0:
192,192,153740,1,0,0:0:0:0:
64,192,153840,1,8,0:0:0:0:
320,192,153840,1,4,0:0:0:0:
448,192,153840,1,0,0:0:0:0:
192,192,153940,1,2,0:0:0:0:
320,192,153940,1,0,0:0:0:0:
64,192,154040,1,8,0:0:0:0:
192,192,154040,1,4,0:0:0:0:
448,192,154040,1,0,0:0:0:0:
320,192,154140,1,2,0:0:0:0:
448,192,154140,1,0,0:0:0:0:
192,192,154190,1,0,0:0:0:0:
64,192,154240,1,8,0:0:0:0:
320,192,154240,1,4,0:0:0:0:
448,192,154240,1,0,0:0:0:0:
64,192,154340,1,2,0:0:0:0:
192,192,154340,1,0,0:0:0:0:
192,192,154440,1,4,0:0:0:0:
320,192,154440,1,0,0:0:0:70:tom1.wav
448,192,154440,1,0,0:0:0:0:
320,192,154540,1,0,0:0:0:70:tom1.wav
448,192,154540,1,0,0:0:0:0:
320,192,154640,1,0,0:0:0:70:tom2.wav
448,192,154640,1,0,0:0:0:0:
320,192,154740,1,0,0:0:0:70:tom2.wav
448,192,154740,1,0,0:0:0:0:
64,192,154840,1,0,0:0:0:70:tom3.wav
192,192,154840,1,0,0:0:0:0:
64,192,154940,1,0,0:0:0:70:tom4.wav
192,192,154940,1,0,0:0:0:0:
64,192,155040,1,0,0:0:0:70:tom4.wav
192,192,155040,1,0,0:0:0:0:
64,192,155140,1,0,0:0:0:70:tom4.wav
192,192,155140,1,0,0:0:0:0:
64,192,155240,1,4,0:0:0:0:
320,192,155240,1,2,0:0:0:0:
448,192,155240,1,0,0:0:0:0:
192,192,155340,1,0,0:0:0:0:
320,192,155340,1,0,0:0:0:0:
64,192,155440,1,8,0:0:0:0:
192,192,155440,1,0,0:0:0:70:Cymatics - Open Hat 5.wav
448,192,155440,1,0,0:0:0:0:
320,192,155540,1,0,0:0:0:0:
448,192,155540,1,0,0:0:0:0:
64,192,155640,1,2,0:0:0:0:
192,192,155640,1,0,0:0:0:0:
192,192,155740,1,2,0:0:0:0:
320,192,155740,1,0,0:0:0:0:
64,192,155840,1,8,0:0:0:0:
320,192,155840,1,0,0:0:0:70:Cymatics - Open Hat 5.wav
448,192,155840,1,0,0:0:0:0:
192,192,155940,1,0,0:0:0:0:
448,192,155940,1,0,0:0:0:0:
64,192,156040,1,2,0:0:0:0:
320,192,156040,1,0,0:0:0:0:
64,192,156140,1,0,0:0:0:0:
448,192,156140,1,0,0:0:0:0:
192,192,156240,1,8,0:0:0:0:
320,192,156240,1,0,0:0:0:70:Cymatics - Open Hat 5.wav
448,192,156240,1,0,0:0:0:0:
64,192,156340,1,2,0:0:0:0:
192,192,156340,1,0,0:0:0:0:
320,192,156440,1,2,0:0:0:0:
448,192,156440,1,0,0:0:0:0:
320,192,156540,1,2,0:0:0:0:
448,192,156540,1,0,0:0:0:0:
64,192,156640,1,8,0:0:0:0:
192,192,156640,1,0,0:0:0:70:Cymatics - Open Hat 5.wav
448,192,156640,1,0,0:0:0:0:
64,192,156740,1,0,0:0:0:0:
192,192,156740,1,0,0:0:0:0:
320,192,156840,1,2,0:0:0:0:
448,192,156840,1,0,0:0:0:0:
192,192,156940,1,0,0:0:0:0:
320,192,156940,1,0,0:0:0:0:
64,192,157040,1,8,0:0:0:0:
192,192,157040,1,0,0:0:0:70:Cymatics - Open Hat 5.wav
448,192,157040,1,0,0:0:0:0:
64,192,157140,1,0,0:0:0:0:
320,192,157140,1,0,0:0:0:0:
320,192,157240,1,2,0:0:0:0:
448,192,157240,1,0,0:0:0:0:
64,192,157340,1,2,0:0:0:0:
192,192,157340,1,0,0:0:0:0:
64,192,157440,1,8,0:0:0:0:
320,192,157440,1,0,0:0:0:70:Cymatics - Open Hat 5.wav
448,192,157440,1,0,0:0:0:0:
192,192,157540,1,0,0:0:0:0:
448,192,157540,1,0,0:0:0:0:
64,192,157640,1,2,0:0:0:0:
320,192,157640,1,0,0:0:0:0:
64,192,157740,1,2,0:0:0:0:
192,192,157740,1,0,0:0:0:0:
320,192,157840,1,8,0:0:0:0:
448,192,157840,1,0,0:0:0:70:Cymatics - Open Hat 5.wav
64,192,157940,1,8,0:0:0:0:
320,192,157940,1,0,0:0:0:0:
448,192,157940,1,0,0:0:0:0:
64,192,158040,1,8,0:0:0:0:
192,192,158040,1,4,0:0:0:0:
448,192,158040,1,0,0:0:0:0:
64,192,158140,1,2,0:0:0:0:
192,192,158140,1,0,0:0:0:0:
64,192,158240,1,8,0:0:0:0:
320,192,158240,1,4,0:0:0:0:
448,192,158240,1,0,0:0:0:0:
320,192,158340,1,2,0:0:0:0:
448,192,158340,1,0,0:0:0:0:
64,192,158440,1,2,0:0:0:0:
192,192,158440,1,4,0:0:0:0:
448,192,158440,1,0,0:0:0:0:
192,192,158540,1,2,0:0:0:0:
320,192,158540,1,0,0:0:0:0:
64,192,158640,1,8,0:0:0:0:
320,192,158640,1,4,0:0:0:0:
448,192,158640,1,0,0:0:0:0:
64,192,158740,1,0,0:0:0:0:
192,192,158740,1,0,0:0:0:0:
320,192,158840,1,2,0:0:0:0:
448,192,158840,1,0,0:0:0:0:
64,192,158940,1,2,0:0:0:0:
448,192,158940,1,0,0:0:0:0:
64,192,159040,1,8,0:0:0:0:
192,192,159040,1,0,0:0:0:70:Cymatics - Open Hat 5.wav
320,192,159040,1,0,0:0:0:0:
320,192,159140,1,0,0:0:0:0:
448,192,159140,1,0,0:0:0:0:
64,192,159240,1,2,0:0:0:0:
192,192,159240,1,0,0:0:0:0:
64,192,159340,1,0,0:0:0:0:
448,192,159340,1,0,0:0:0:0:
192,192,159440,1,8,0:0:0:0:
320,192,159440,1,0,0:0:0:70:Cymatics - Open Hat 5.wav
448,192,159440,1,0,0:0:0:0:
64,192,159540,1,2,0:0:0:0:
192,192,159540,1,0,0:0:0:0:
320,192,159640,1,2,0:0:0:0:
448,192,159640,1,0,0:0:0:0:
192,192,159740,1,2,0:0:0:0:
320,192,159740,1,0,0:0:0:0:
64,192,159840,1,8,0:0:0:0:
192,192,159840,1,0,0:0:0:70:Cymatics - Open Hat 5.wav
448,192,159840,1,0,0:0:0:0:
64,192,159940,1,8,0:0:0:0:
192,192,159940,1,0,0:0:0:0:
448,192,159940,1,0,0:0:0:0:
64,192,160040,1,8,0:0:0:0:
320,192,160040,1,0,0:0:0:0:
448,192,160040,1,0,0:0:0:0:
64,192,160140,1,2,0:0:0:0:
192,192,160140,1,0,0:0:0:0:
320,192,160240,1,2,0:0:0:0:
448,192,160240,1,0,0:0:0:70:Cymatics - Open Hat 5.wav
64,192,160340,1,4,0:0:0:0:
192,192,160340,1,8,0:0:0:0:
448,192,160340,1,0,0:0:0:0:
64,192,160440,1,2,0:0:0:0:
192,192,160440,1,0,0:0:0:0:
320,192,160540,1,2,0:0:0:0:
448,192,160540,1,0,0:0:0:0:
64,192,160640,1,4,0:0:0:0:
192,192,160640,1,8,0:0:0:0:
448,192,160640,1,0,0:0:0:0:
192,192,160740,1,2,0:0:0:0:
320,192,160790,1,2,0:0:0:0:
448,192,160840,1,0,0:0:0:70:tom1.wav
64,192,160940,1,0,0:0:0:70:tom2.wav
320,192,160940,1,0,0:0:0:0:
448,192,160940,1,0,0:0:0:0:
64,192,161040,1,2,0:0:0:0:
192,192,161040,1,0,0:0:0:0:
320,192,161140,1,2,0:0:0:0:
448,192,161140,1,0,0:0:0:0:
64,192,161240,1,8,0:0:0:0:
192,192,161240,1,4,0:0:0:0:
448,192,161240,1,0,0:0:0:0:
64,192,161340,1,8,0:0:0:0:
320,192,161340,1,0,0:0:0:0:
192,192,161440,1,0,0:0:0:70:tom1.wav
448,192,161440,1,0,0:0:0:0:
64,192,161540,1,0,0:0:0:70:tom2.wav
320,192,161540,1,0,0:0:0:0:
64,192,161640,1,4,0:0:0:0:
192,192,161640,1,2,0:0:0:0:
448,192,161640,1,0,0:0:0:0:
448,192,161740,1,2,0:0:0:0:
64,192,161840,1,8,0:0:0:0:
192,192,161840,1,0,0:0:0:70:HHOpen.wav
320,192,161840,1,0,0:0:0:0:
64,192,161940,1,0,0:0:0:0:
448,192,161940,1,0,0:0:0:0:
320,192,162040,1,2,0:0:0:0:
448,192,162040,1,0,0:0:0:0:
64,192,162140,1,2,0:0:0:0:
192,192,162140,1,0,0:0:0:0:
64,192,162240,1,8,0:0:0:0:
320,192,162240,1,0,0:0:0:70:HHOpen.wav
448,192,162240,1,0,0:0:0:0:
320,192,162340,1,0,0:0:0:0:
64,192,162440,1,2,0:0:0:0:
192,192,162440,1,4,0:0:0:0:
448,192,162440,1,0,0:0:0:0:
64,192,162540,1,0,0:0:0:0:
320,192,162540,1,0,0:0:0:0:
192,192,162640,1,8,0:0:0:0:
320,192,162640,1,0,0:0:0:70:HHOpen.wav
448,192,162640,1,0,0:0:0:0:
192,192,162740,1,2,0:0:0:0:
320,192,162840,1,2,0:0:0:0:
448,192,162840,1,0,0:0:0:0:
64,192,162940,1,2,0:0:0:0:
192,192,162940,1,0,0:0:0:0:
64,192,163040,1,8,0:0:0:0:
320,192,163040,1,0,0:0:0:70:HHOpen.wav
448,192,163040,1,0,0:0:0:0:
192,192,163140,1,0,0:0:0:0:
320,192,163140,1,0,0:0:0:0:
64,192,163240,1,2,0:0:0:0:
192,192,163240,1,4,0:0:0:0:
448,192,163240,1,0,0:0:0:0:
64,192,163340,1,2,0:0:0:0:
192,192,163440,1,8,0:0:0:0:
320,192,163440,1,0,0:0:0:70:HHOpen.wav
448,192,163440,1,0,0:0:0:0:
64,192,163540,1,0,0:0:0:0:
448,192,163540,1,0,0:0:0:0:
64,192,163640,1,2,0:0:0:0:
192,192,163640,1,0,0:0:0:0:
320,192,163740,1,2,0:0:0:0:
448,192,163740,1,0,0:0:0:0:
64,192,163840,1,8,0:0:0:0:
192,192,163840,1,0,0:0:0:70:HHOpen.wav
448,192,163840,1,0,0:0:0:0:
192,192,163940,1,0,0:0:0:0:
64,192,164040,1,2,0:0:0:0:
320,192,164040,1,4,0:0:0:0:
448,192,164040,1,0,0:0:0:0:
192,192,164140,1,0,0:0:0:0:
320,192,164140,1,0,0:0:0:0:
64,192,164240,1,8,0:0:0:0:
192,192,164240,1,0,0:0:0:70:HHOpen.wav
448,192,164240,1,0,0:0:0:0:
64,192,164340,1,2,0:0:0:0:
192,192,164440,1,0,0:0:0:70:tom2.wav
320,192,164440,1,0,0:0:0:0:
448,192,164440,1,0,0:0:0:0:
64,192,164540,1,0,0:0:0:0:
448,192,164540,1,0,0:0:0:0:
64,192,164640,1,0,0:0:0:70:tom2.wav
192,192,164640,1,0,0:0:0:0:
192,192,164740,1,0,0:0:0:70:tom2.wav
320,192,164740,1,0,0:0:0:0:
64,192,164840,1,8,0:0:0:0:
320,192,164840,1,4,0:0:0:0:
448,192,164840,1,0,0:0:0:0:
448,192,164940,1,2,0:0:0:0:
64,192,165040,1,8,0:0:0:0:
192,192,165040,1,0,0:0:0:70:Cymatics - Open Hat 5.wav
320,192,165040,1,0,0:0:0:0:
64,192,165140,1,0,0:0:0:0:
192,192,165240,1,8,0:0:0:0:
320,192,165240,1,0,0:0:0:0:
448,192,165240,1,0,0:0:0:0:
64,192,165340,1,2,0:0:0:0:
448,192,165340,1,0,0:0:0:0:
64,192,165440,1,8,0:0:0:0:
192,192,165440,1,0,0:0:0:70:Cymatics - Open Hat 5.wav
320,192,165440,1,0,0:0:0:0:
320,192,165540,1,2,0:0:0:0:
448,192,165540,1,0,0:0:0:0:
64,192,165590,1,0,0:0:0:0:
192,192,165640,1,8,0:0:0:0:
320,192,165640,1,4,0:0:0:0:
448,192,165640,1,0,0:0:0:0:
64,192,165690,1,0,0:0:0:0:
192,192,165740,1,2,0:0:0:0:
320,192,165790,1,0,0:0:0:0:
64,192,165840,1,8,0:0:0:0:
448,192,165840,1,0,0:0:0:70:Cymatics - Open Hat 5.wav
192,192,165890,1,0,0:0:0:0:
320,192,165940,1,0,0:0:0:0:
64,192,165990,1,0,0:0:0:0:
192,192,166040,1,8,0:0:0:0:
320,192,166040,1,4,0:0:0:0:
448,192,166040,1,0,0:0:0:0:
64,192,166090,1,0,0:0:0:0:
192,192,166140,1,2,0:0:0:0:
320,192,166190,1,0,0:0:0:0:
64,192,166240,1,2,0:0:0:0:
448,192,166240,1,0,0:0:0:70:Cymatics - Open Hat 5.wav
192,192,166290,1,0,0:0:0:0:
320,192,166340,1,2,0:0:0:0:
448,192,166340,1,0,0:0:0:0:
192,192,166390,1,0,0:0:0:0:
64,192,166440,1,8,0:0:0:0:
320,192,166440,1,0,0:0:0:70:Cymatics - Open Hat 5.wav
448,192,166440,1,0,0:0:0:0:
64,192,166540,1,0,0:0:0:0:
192,192,166640,1,8,0:0:0:0:
320,192,166640,1,0,0:0:0:70:Cymatics - Open Hat 5.wav
448,192,166640,1,0,0:0:0:0:
64,192,166740,1,2,0:0:0:0:
192,192,166740,1,0,0:0:0:0:
64,192,166840,1,8,0:0:0:0:
320,192,166840,1,4,0:0:0:0:
448,192,166840,1,0,0:0:0:0:
192,192,166940,1,0,0:0:0:0:
448,192,166940,1,0,0:0:0:0:
64,192,167040,1,8,0:0:0:0:
192,192,167040,1,4,0:0:0:0:
320,192,167040,1,0,0:0:0:0:
64,192,167140,1,0,0:0:0:0:
320,192,167240,1,8,0:0:0:0:
448,192,167240,1,0,0:0:0:0:
64,192,167290,1,8,0:0:0:0:
192,192,167290,1,0,0:0:0:0:
320,192,167340,1,0,0:0:0:70:tom2.wav
448,192,167340,1,0,0:0:0:0:
192,192,167390,1,0,0:0:0:70:tom2.wav
64,192,167440,1,0,0:0:0:70:tom3.wav
448,192,167440,1,0,0:0:0:0:
320,192,167490,1,0,0:0:0:70:tom3.wav
64,192,167540,1,0,0:0:0:70:tom4.wav
192,192,167540,1,0,0:0:0:0:
448,192,167590,1,0,0:0:0:70:tom4.wav
192,192,167640,1,0,0:0:0:70:tom1.wav
320,192,167640,1,0,0:0:0:0:
64,192,167690,1,0,0:0:0:70:tom1.wav
320,192,167740,1,0,0:0:0:70:tom2.wav
448,192,167740,1,0,0:0:0:0:
192,192,167790,1,0,0:0:0:70:tom2.wav
64,192,167840,1,0,0:0:0:70:tom3.wav
448,192,167840,1,0,0:0:0:0:
320,192,167890,1,0,0:0:0:0:
64,192,167940,1,0,0:0:0:0:
192,192,167940,1,0,0:0:0:0:
64,192,168040,1,2,0:0:0:0:
320,192,168040,1,4,0:0:0:0:
448,192,168040,1,0,0:0:0:0:
320,192,168140,1,0,0:0:0:0:
64,192,168240,1,8,0:0:0:0:
192,192,168240,1,0,0:0:0:70:HHOpen.wav
448,192,168240,1,0,0:0:0:0:
448,192,168340,1,0,0:0:0:0:
64,192,168440,1,2,0:0:0:0:
192,192,168440,1,0,0:0:0:0:
64,192,168540,1,2,0:0:0:0:
192,192,168540,1,0,0:0:0:0:
64,192,168640,1,8,0:0:0:0:
320,192,168640,1,0,0:0:0:70:HHOpen.wav
448,192,168640,1,0,0:0:0:0:
320,192,168740,1,0,0:0:0:0:
64,192,168840,1,2,0:0:0:0:
192,192,168840,1,0,0:0:0:0:
192,192,168940,1,0,0:0:0:0:
64,192,169040,1,8,0:0:0:0:
320,192,169040,1,0,0:0:0:70:HHOpen.wav
448,192,169040,1,0,0:0:0:0:
320,192,169140,1,2,0:0:0:0:
448,192,169140,1,0,0:0:0:0:
192,192,169240,1,0,0:0:0:0:
64,192,169340,1,2,0:0:0:0:
192,192,169340,1,0,0:0:0:0:
64,192,169440,1,8,0:0:0:0:
320,192,169440,1,0,0:0:0:70:HHOpen.wav
448,192,169440,1,0,0:0:0:0:
192,192,169540,1,0,0:0:0:0:
448,192,169540,1,0,0:0:0:0:
64,192,169640,1,2,0:0:0:0:
320,192,169640,1,0,0:0:0:0:
448,192,169740,1,0,0:0:0:0:
64,192,169790,1,0,0:0:0:0:
192,192,169790,1,0,0:0:0:0:
320,192,169840,1,8,0:0:0:0:
448,192,169840,1,0,0:0:0:70:HHOpen.wav
192,192,169940,1,0,0:0:0:0:
320,192,169940,1,0,0:0:0:0:
64,192,170040,1,2,0:0:0:0:
192,192,170040,1,0,0:0:0:0:
320,192,170140,1,2,0:0:0:0:
448,192,170140,1,0,0:0:0:0:
64,192,170240,1,8,0:0:0:0:
192,192,170240,1,0,0:0:0:70:HHOpen.wav
448,192,170240,1,0,0:0:0:0:
64,192,170340,1,0,0:0:0:0:
320,192,170340,1,0,0:0:0:0:
192,192,170440,1,2,0:0:0:0:
448,192,170440,1,0,0:0:0:0:
64,192,170540,1,0,0:0:0:0:
192,192,170540,1,0,0:0:0:0:
64,192,170640,1,8,0:0:0:0:
320,192,170640,1,0,0:0:0:70:HHOpen.wav
448,192,170640,1,0,0:0:0:0:
192,192,170740,1,2,0:0:0:0:
448,192,170740,1,0,0:0:0:0:
64,192,170840,1,0,0:0:0:0:
320,192,170840,1,0,0:0:0:0:
64,192,170940,1,2,0:0:0:0:
192,192,170940,1,0,0:0:0:0:
192,192,171040,1,8,0:0:0:0:
320,192,171040,1,0,0:0:0:70:HHOpen.wav
448,192,171040,1,0,0:0:0:0:
64,192,171140,1,0,0:0:0:0:
448,192,171140,1,0,0:0:0:0:
192,192,171240,1,2,0:0:0:0:
320,192,171240,1,0,0:0:0:0:
64,192,171340,1,0,0:0:0:0:
320,192,171340,1,0,0:0:0:0:
64,192,171440,1,8,0:0:0:0:
192,192,171440,1,0,0:0:0:70:HHOpen.wav
448,192,171440,1,0,0:0:0:0:
320,192,171540,1,0,0:0:0:0:
448,192,171540,1,0,0:0:0:0:
64,192,171640,1,2,0:0:0:0:
192,192,171640,1,0,0:0:0:0:
64,192,171740,1,2,0:0:0:0:
448,192,171740,1,0,0:0:0:0:
192,192,171840,1,8,0:0:0:0:
320,192,171840,1,0,0:0:0:70:HHOpen.wav
448,192,171840,1,0,0:0:0:0:
64,192,171940,1,0,0:0:0:0:
320,192,171940,1,0,0:0:0:0:
64,192,172040,1,2,0:0:0:0:
448,192,172040,1,0,0:0:0:0:
192,192,172140,1,0,0:0:0:0:
320,192,172140,1,0,0:0:0:0:
64,192,172240,1,8,0:0:0:0:
192,192,172240,1,0,0:0:0:70:HHOpen.wav
448,192,172240,1,0,0:0:0:0:
320,192,172340,1,2,0:0:0:0:
448,192,172340,1,0,0:0:0:0:
64,192,172440,1,0,0:0:0:0:
192,192,172440,1,0,0:0:0:0:
192,192,172540,1,2,0:0:0:0:
320,192,172540,1,0,0:0:0:0:
64,192,172640,1,8,0:0:0:0:
320,192,172640,1,0,0:0:0:70:HHOpen.wav
448,192,172640,1,0,0:0:0:0:
64,192,172740,1,0,0:0:0:0:
192,192,172740,1,0,0:0:0:0:
320,192,172840,1,2,0:0:0:0:
448,192,172840,1,0,0:0:0:0:
64,192,172906,1,0,0:0:0:0:
192,192,172973,1,0,0:0:0:0:
64,192,173040,1,8,0:0:0:0:
320,192,173040,1,0,0:0:0:70:HHOpen.wav
448,192,173040,1,0,0:0:0:0:
192,192,173106,1,0,0:0:0:0:
320,192,173173,1,0,0:0:0:0:
64,192,173240,1,2,0:0:0:0:
448,192,173240,1,0,0:0:0:0:
192,192,173306,1,0,0:0:0:0:
320,192,173373,1,0,0:0:0:0:
64,192,173440,1,8,0:0:0:0:
192,192,173440,1,0,0:0:0:70:HHOpen.wav
448,192,173440,1,0,0:0:0:0:
320,192,173506,1,0,0:0:0:0:
192,192,173573,1,0,0:0:0:0:
64,192,173640,1,2,0:0:0:0:
448,192,173640,1,0,0:0:0:0:
192,192,173706,1,0,0:0:0:0:
320,192,173773,1,0,0:0:0:0:
64,192,173840,1,8,0:0:0:0:
192,192,173840,1,0,0:0:0:70:HHOpen.wav
448,192,173840,1,0,0:0:0:0:
320,192,173906,1,0,0:0:0:0:
448,192,173973,1,0,0:0:0:0:
64,192,174040,1,0,0:0:0:0:
192,192,174106,1,0,0:0:0:0:
320,192,174173,1,0,0:0:0:0:
64,192,174240,1,8,0:0:0:0:
192,192,174240,1,0,0:0:0:70:HHOpen.wav
448,192,174240,1,0,0:0:0:0:
320,192,174306,1,0,0:0:0:0:
192,192,174373,1,0,0:0:0:0:
64,192,174440,1,2,0:0:0:0:
320,192,174440,1,4,0:0:0:0:
448,192,174440,1,0,0:0:0:0:
64,192,174540,1,0,0:0:0:0:
192,192,174640,1,8,0:0:0:0:
320,192,174640,1,0,0:0:0:70:Cymatics - Open Hat 5.wav
448,192,174640,1,0,0:0:0:0:
320,192,174740,1,0,0:0:0:0:
448,192,174740,1,0,0:0:0:0:
64,192,174840,1,2,0:0:0:0:
192,192,174840,1,0,0:0:0:0:
320,192,174940,1,2,0:0:0:0:
448,192,174940,1,0,0:0:0:0:
64,192,175040,1,8,0:0:0:0:
320,192,175040,1,0,0:0:0:70:Cymatics - Open Hat 5.wav
448,192,175040,1,0,0:0:0:0:
64,192,175140,1,0,0:0:0:0:
192,192,175140,1,0,0:0:0:0:
320,192,175240,1,2,0:0:0:0:
448,192,175240,1,0,0:0:0:0:
64,192,175340,1,0,0:0:0:0:
192,192,175340,1,0,0:0:0:0:
64,192,175440,1,8,0:0:0:0:
320,192,175440,1,0,0:0:0:70:Cymatics - Open Hat 5.wav
448,192,175440,1,0,0:0:0:0:
320,192,175540,1,2,0:0:0:0:
448,192,175540,1,0,0:0:0:0:
64,192,175640,1,0,0:0:0:0:
192,192,175640,1,0,0:0:0:0:
192,192,175740,1,2,0:0:0:0:
320,192,175740,1,0,0:0:0:0:
64,192,175840,1,8,0:0:0:0:
320,192,175840,1,0,0:0:0:70:Cymatics - Open Hat 5.wav
448,192,175840,1,0,0:0:0:0:
64,192,175940,1,0,0:0:0:0:
192,192,175940,1,0,0:0:0:0:
320,192,176040,1,2,0:0:0:0:
448,192,176040,1,0,0:0:0:0:
64,192,176106,1,0,0:0:0:0:
192,192,176173,1,0,0:0:0:0:
64,192,176240,1,8,0:0:0:0:
320,192,176240,1,0,0:0:0:70:Cymatics - Open Hat 5.wav
448,192,176240,1,0,0:0:0:0:
192,192,176306,1,0,0:0:0:0:
448,192,176373,1,0,0:0:0:0:
64,192,176440,1,2,0:0:0:0:
320,192,176440,1,0,0:0:0:0:
192,192,176506,1,0,0:0:0:0:
320,192,176573,1,0,0:0:0:0:
64,192,176640,1,8,0:0:0:0:
192,192,176640,1,0,0:0:0:70:Cymatics - Open Hat 5.wav
448,192,176640,1,0,0:0:0:0:
320,192,176706,1,0,0:0:0:0:
192,192,176773,1,0,0:0:0:0:
64,192,176840,1,2,0:0:0:0:
448,192,176840,1,0,0:0:0:0:
320,192,176906,1,0,0:0:0:0:
192,192,176973,1,0,0:0:0:0:
64,192,177040,1,8,0:0:0:0:
320,192,177040,1,0,0:0:0:70:Cymatics - Open Hat 5.wav
448,192,177040,1,0,0:0:0:0:
192,192,177106,1,0,0:0:0:0:
448,192,177173,1,0,0:0:0:0:
320,192,177240,1,0,0:0:0:0:
192,192,177306,1,0,0:0:0:0:
64,192,177373,1,0,0:0:0:0:
192,192,177440,1,8,0:0:0:0:
320,192,177440,1,0,0:0:0:70:Cymatics - Open Hat 5.wav
448,192,177440,1,0,0:0:0:0:
64,192,177506,1,0,0:0:0:0:
192,192,177573,1,0,0:0:0:0:
320,192,177640,1,2,0:0:0:0:
448,192,177640,1,0,0:0:0:0:
192,192,177740,1,0,0:0:0:0:
320,192,177740,1,0,0:0:0:0:
64,192,177840,1,8,0:0:0:0:
192,192,177840,1,0,0:0:0:70:Cymatics - Open Hat 5.wav
448,192,177840,1,0,0:0:0:0:
64,192,177940,1,0,0:0:0:0:
320,192,177940,1,0,0:0:0:0:
192,192,178040,1,2,0:0:0:0:
448,192,178040,1,0,0:0:0:0:
64,192,178140,1,2,0:0:0:0:
320,192,178140,1,0,0:0:0:0:
64,192,178240,1,8,0:0:0:0:
192,192,178240,1,0,0:0:0:70:Cymatics - Open Hat 5.wav
448,192,178240,1,0,0:0:0:0:
320,192,178340,1,0,0:0:0:0:
448,192,178340,1,0,0:0:0:0:
64,192,178440,1,2,0:0:0:0:
192,192,178440,1,0,0:0:0:0:
64,192,178540,1,0,0:0:0:0:
320,192,178540,1,0,0:0:0:0:
192,192,178640,1,8,0:0:0:0:
320,192,178640,1,0,0:0:0:70:Cymatics - Open Hat 5.wav
448,192,178640,1,0,0:0:0:0:
64,192,178740,1,2,0:0:0:0:
448,192,178740,1,0,0:0:0:0:
64,192,178840,1,0,0:0:0:0:
192,192,178840,1,0,0:0:0:0:
320,192,178940,1,2,0:0:0:0:
448,192,178940,1,0,0:0:0:0:
64,192,179040,1,8,0:0:0:0:
192,192,179040,1,0,0:0:0:70:Cymatics - Open Hat 5.wav
448,192,179040,1,0,0:0:0:0:
192,192,179140,1,0,0:0:0:0:
320,192,179140,1,0,0:0:0:0:
320,192,179240,1,2,0:0:0:0:
448,192,179240,1,0,0:0:0:0:
192,192,179340,1,0,0:0:0:0:
64,192,179440,1,8,0:0:0:0:
320,192,179440,1,0,0:0:0:70:Cymatics - Open Hat 5.wav
448,192,179440,1,0,0:0:0:0:
192,192,179540,1,0,0:0:0:0:
64,192,179640,1,2,0:0:0:0:
320,192,179640,1,0,0:0:0:0:
192,192,179740,1,2,0:0:0:0:
448,192,179740,1,0,0:0:0:0:
64,192,179840,1,8,0:0:0:0:
320,192,179840,1,0,0:0:0:70:Cymatics - Open Hat 5.wav
448,192,179840,1,0,0:0:0:0:
64,192,179940,1,0,0:0:0:0:
192,192,179940,1,0,0:0:0:0:
192,192,180040,1,2,0:0:0:0:
320,192,180040,1,0,0:0:0:0:
320,192,180140,1,0,0:0:0:0:
448,192,180140,1,0,0:0:0:0:
64,192,180240,1,8,0:0:0:0:
192,192,180240,1,4,0:0:0:0:
448,192,180240,1,0,0:0:0:0:
64,192,180340,1,2,0:0:0:0:
320,192,180340,1,0,0:0:0:0:
192,192,180440,1,0,0:0:0:0:
448,192,180440,1,0,0:0:0:0:
320,192,180540,1,2,0:0:0:0:
448,192,180540,1,0,0:0:0:0:
64,192,180640,1,8,0:0:0:0:
192,192,180640,1,0,0:0:0:70:Cymatics - Open Hat 5.wav
320,192,180640,1,0,0:0:0:0:
64,192,180740,1,0,0:0:0:0:
448,192,180740,1,0,0:0:0:0:
192,192,180840,1,2,0:0:0:0:
320,192,180840,1,4,0:0:0:0:
448,192,180840,1,0,0:0:0:0:
192,192,180940,1,0,0:0:0:0:
64,192,181040,1,8,0:0:0:0:
320,192,181040,1,0,0:0:0:70:HHOpen.wav
448,192,181040,1,0,0:0:0:0:
320,192,181140,1,0,0:0:0:0:
64,192,181240,1,2,0:0:0:0:
448,192,181240,1,0,0:0:0:0:
192,192,181340,1,2,0:0:0:0:
320,192,181340,1,0,0:0:0:0:
64,192,181440,1,8,0:0:0:0:
192,192,181440,1,0,0:0:0:70:HHOpen.wav
448,192,181440,1,0,0:0:0:0:
64,192,181540,1,0,0:0:0:0:
320,192,181640,1,2,0:0:0:0:
448,192,181640,1,0,0:0:0:0:
448,192,181740,1,0,0:0:0:0:
64,192,181840,1,8,0:0:0:0:
192,192,181840,1,0,0:0:0:70:HHOpen.wav
448,192,181840,1,0,0:0:0:0:
64,192,181940,1,2,0:0:0:0:
320,192,181940,1,0,0:0:0:0:
64,192,182040,1,0,0:0:0:0:
192,192,182140,1,2,0:0:0:0:
320,192,182140,1,0,0:0:0:0:
64,192,182240,1,8,0:0:0:0:
320,192,182240,1,0,0:0:0:70:HHOpen.wav
448,192,182240,1,0,0:0:0:0:
448,192,182340,1,0,0:0:0:0:
64,192,182440,1,2,0:0:0:0:
192,192,182440,1,0,0:0:0:0:
64,192,182540,1,0,0:0:0:0:
192,192,182640,1,8,0:0:0:0:
320,192,182640,1,0,0:0:0:70:HHOpen.wav
448,192,182640,1,0,0:0:0:0:
64,192,182740,1,0,0:0:0:0:
320,192,182840,1,2,0:0:0:0:
448,192,182840,1,0,0:0:0:0:
64,192,182940,1,2,0:0:0:0:
192,192,182940,1,0,0:0:0:0:
64,192,183040,1,8,0:0:0:0:
320,192,183040,1,0,0:0:0:70:HHOpen.wav
448,192,183040,1,0,0:0:0:0:
320,192,183140,1,0,0:0:0:0:
64,192,183240,1,2,0:0:0:0:
192,192,183240,1,0,0:0:0:0:
64,192,183340,1,0,0:0:0:0:
320,192,183340,1,0,0:0:0:0:
192,192,183440,1,8,0:0:0:0:
320,192,183440,1,0,0:0:0:70:HHOpen.wav
448,192,183440,1,0,0:0:0:0:
64,192,183540,1,2,0:0:0:0:
448,192,183540,1,0,0:0:0:0:
192,192,183640,1,0,0:0:0:0:
320,192,183640,1,0,0:0:0:0:
64,192,183740,1,2,0:0:0:0:
192,192,183740,1,0,0:0:0:0:
64,192,183840,1,8,0:0:0:0:
320,192,183840,1,0,0:0:0:70:HHOpen.wav
448,192,183840,1,0,0:0:0:0:
192,192,183940,1,0,0:0:0:0:
320,192,183940,1,0,0:0:0:0:
64,192,184040,1,2,0:0:0:0:
192,192,184040,1,0,0:0:0:0:
448,192,184106,1,0,0:0:0:0:
320,192,184173,1,0,0:0:0:0:
64,192,184240,1,8,0:0:0:0:
192,192,184240,1,0,0:0:0:70:HHOpen.wav
448,192,184240,1,0,0:0:0:0:
320,192,184306,1,0,0:0:0:0:
192,192,184373,1,0,0:0:0:0:
64,192,184440,1,2,0:0:0:0:
448,192,184440,1,0,0:0:0:0:
320,192,184506,1,0,0:0:0:0:
192,192,184573,1,0,0:0:0:0:
64,192,184640,1,8,0:0:0:0:
320,192,184640,1,0,0:0:0:70:HHOpen.wav
448,192,184640,1,0,0:0:0:0:
192,192,184706,1,0,0:0:0:0:
320,192,184773,1,0,0:0:0:0:
64,192,184840,1,2,0:0:0:0:
448,192,184840,1,0,0:0:0:0:
192,192,184906,1,0,0:0:0:0:
320,192,184973,1,0,0:0:0:0:
64,192,185040,1,8,0:0:0:0:
192,192,185040,1,0,0:0:0:70:HHOpen.wav
448,192,185040,1,0,0:0:0:0:
320,192,185106,1,0,0:0:0:0:
192,192,185173,1,0,0:0:0:0:
64,192,185240,1,0,0:0:0:0:
320,192,185306,1,0,0:0:0:0:
192,192,185373,1,0,0:0:0:0:
64,192,185440,1,8,0:0:0:0:
320,192,185440,1,0,0:0:0:70:HHOpen.wav
448,192,185440,1,0,0:0:0:0:
192,192,185506,1,0,0:0:0:0:
320,192,185573,1,0,0:0:0:0:
64,192,185640,1,2,0:0:0:0:
448,192,185640,1,0,0:0:0:0:
64,192,185740,1,0,0:0:0:0:
192,192,185840,1,8,0:0:0:0:
320,192,185840,1,0,0:0:0:70:HHOpen.wav
448,192,185840,1,0,0:0:0:0:
320,192,185940,1,0,0:0:0:0:
448,192,185940,1,0,0:0:0:0:
64,192,186040,1,2,0:0:0:0:
192,192,186040,1,0,0:0:0:0:
64,192,186140,1,2,0:0:0:0:
320,192,186140,1,0,0:0:0:0:
192,192,186240,1,8,0:0:0:0:
320,192,186240,1,0,0:0:0:70:HHOpen.wav
448,192,186240,1,0,0:0:0:0:
64,192,186340,1,0,0:0:0:0:
448,192,186340,1,0,0:0:0:0:
192,192,186440,1,2,0:0:0:0:
320,192,186440,1,0,0:0:0:0:
64,192,186540,1,0,0:0:0:0:
192,192,186540,1,0,0:0:0:0:
64,192,186640,1,8,0:0:0:0:
320,192,186640,1,0,0:0:0:70:HHOpen.wav
448,192,186640,1,0,0:0:0:0:
192,192,186740,1,2,0:0:0:0:
448,192,186740,1,0,0:0:0:0:
64,192,186840,1,0,0:0:0:0:
320,192,186840,1,0,0:0:0:0:
64,192,186940,1,2,0:0:0:0:
192,192,186940,1,0,0:0:0:0:
192,192,187040,1,8,0:0:0:0:
320,192,187040,1,0,0:0:0:70:HHOpen.wav
448,192,187040,1,0,0:0:0:0:
64,192,187140,1,0,0:0:0:0:
320,192,187140,1,0,0:0:0:0:
448,192,187140,1,0,0:0:0:0:
64,192,187240,1,2,0:0:0:0:
192,192,187240,1,4,0:0:0:0:
448,192,187240,1,0,0:0:0:0:
320,192,187306,1,0,0:0:0:0:
192,192,187373,1,0,0:0:0:0:
64,192,187440,1,8,0:0:0:0:
320,192,187440,1,0,0:0:0:70:Cymatics - Open Hat 5.wav
448,192,187440,1,0,0:0:0:0:
192,192,187506,1,0,0:0:0:0:
320,192,187573,1,0,0:0:0:0:
64,192,187640,1,2,0:0:0:0:
448,192,187640,1,0,0:0:0:0:
320,192,187706,1,0,0:0:0:0:
192,192,187773,1,0,0:0:0:0:
64,192,187840,1,8,0:0:0:0:
320,192,187840,1,0,0:0:0:70:Cymatics - Open Hat 5.wav
448,192,187840,1,0,0:0:0:0:
192,192,187906,1,0,0:0:0:0:
320,192,187973,1,0,0:0:0:0:
64,192,188040,1,2,0:0:0:0:
448,192,188040,1,0,0:0:0:0:
320,192,188106,1,0,0:0:0:0:
192,192,188173,1,0,0:0:0:0:
64,192,188240,1,8,0:0:0:0:
320,192,188240,1,0,0:0:0:70:Cymatics - Open Hat 5.wav
448,192,188240,1,0,0:0:0:0:
192,192,188306,1,0,0:0:0:0:
320,192,188373,1,0,0:0:0:0:
448,192,188440,1,0,0:0:0:0:
192,192,188506,1,0,0:0:0:0:
320,192,188573,1,0,0:0:0:0:
64,192,188640,1,8,0:0:0:0:
192,192,188640,1,0,0:0:0:70:Cymatics - Open Hat 5.wav
448,192,188640,1,0,0:0:0:0:
320,192,188706,1,0,0:0:0:0:
192,192,188773,1,0,0:0:0:0:
64,192,188840,1,2,0:0:0:0:
448,192,188840,1,0,0:0:0:0:
192,192,188940,1,0,0:0:0:0:
320,192,188940,1,0,0:0:0:0:
64,192,189040,1,8,0:0:0:0:
320,192,189040,1,0,0:0:0:70:Cymatics - Open Hat 5.wav
448,192,189040,1,0,0:0:0:0:
64,192,189140,1,0,0:0:0:0:
192,192,189140,1,0,0:0:0:0:
320,192,189240,1,2,0:0:0:0:
448,192,189240,1,0,0:0:0:0:
64,192,189340,1,2,0:0:0:0:
448,192,189340,1,0,0:0:0:0:
64,192,189440,1,8,0:0:0:0:
192,192,189440,1,0,0:0:0:70:Cymatics - Open Hat 5.wav
320,192,189440,1,0,0:0:0:0:
320,192,189540,1,0,0:0:0:0:
448,192,189540,1,0,0:0:0:0:
64,192,189640,1,2,0:0:0:0:
192,192,189640,1,0,0:0:0:0:
320,192,189740,1,0,0:0:0:0:
448,192,189740,1,0,0:0:0:0:
64,192,189840,1,8,0:0:0:0:
192,192,189840,1,0,0:0:0:70:Cymatics - Open Hat 5.wav
448,192,189840,1,0,0:0:0:0:
64,192,189940,1,2,0:0:0:0:
320,192,189940,1,0,0:0:0:0:
192,192,190040,1,0,0:0:0:0:
448,192,190040,1,0,0:0:0:0:
64,192,190140,1,2,0:0:0:0:
192,192,190140,1,0,0:0:0:0:
64,192,190240,1,8,0:0:0:0:
320,192,190240,1,0,0:0:0:70:Cymatics - Open Hat 5.wav
448,192,190240,1,0,0:0:0:0:
192,192,190340,1,0,0:0:0:0:
320,192,190340,1,0,0:0:0:0:
64,192,190440,1,2,0:0:0:0:
448,192,190440,1,0,0:0:0:0:
448,192,190540,1,0,0:0:0:0:
64,192,190640,1,8,0:0:0:0:
192,192,190640,1,0,0:0:0:70:Cymatics - Open Hat 5.wav
320,192,190640,1,0,0:0:0:0:
320,192,190740,1,0,0:0:0:0:
448,192,190740,1,0,0:0:0:0:
192,192,190790,1,0,0:0:0:0:
64,192,190840,1,2,0:0:0:0:
448,192,190840,1,0,0:0:0:0:
192,192,190940,1,2,0:0:0:0:
320,192,190940,1,0,0:0:0:0:
64,192,191040,1,8,0:0:0:0:
320,192,191040,1,0,0:0:0:70:Cymatics - Open Hat 5.wav
448,192,191040,1,0,0:0:0:0:
64,192,191140,1,0,0:0:0:0:
192,192,191240,1,2,0:0:0:0:
320,192,191240,1,0,0:0:0:0:
64,192,191340,1,0,0:0:0:0:
192,192,191340,1,0,0:0:0:0:
64,192,191440,1,8,0:0:0:0:
320,192,191440,1,0,0:0:0:70:Cymatics - Open Hat 5.wav
448,192,191440,1,0,0:0:0:0:
192,192,191540,1,2,0:0:0:0:
448,192,191540,1,0,0:0:0:0:
64,192,191640,1,0,0:0:0:0:
320,192,191640,1,0,0:0:0:0:
64,192,191740,1,2,0:0:0:0:
448,192,191740,1,0,0:0:0:0:
192,192,191840,1,8,0:0:0:0:
320,192,191840,1,0,0:0:0:70:Cymatics - Open Hat 5.wav
448,192,191840,1,0,0:0:0:0:
64,192,191940,1,0,0:0:0:0:
192,192,191940,1,0,0:0:0:0:
64,192,192040,1,2,0:0:0:0:
448,192,192040,1,0,0:0:0:0:
192,192,192140,1,0,0:0:0:0:
320,192,192140,1,0,0:0:0:0:
64,192,192240,1,8,0:0:0:0:
320,192,192240,1,0,0:0:0:70:Cymatics - Open Hat 5.wav
448,192,192240,1,0,0:0:0:0:
64,192,192340,1,0,0:0:0:0:
192,192,192340,1,0,0:0:0:0:
320,192,192440,1,2,0:0:0:0:
448,192,192440,1,0,0:0:0:0:
64,192,192540,1,2,0:0:0:0:
192,192,192540,1,0,0:0:0:0:
64,192,192640,1,8,0:0:0:0:
320,192,192640,1,0,0:0:0:70:Cymatics - Open Hat 5.wav
448,192,192640,1,0,0:0:0:0:
64,192,192740,1,8,0:0:0:0:
320,192,192740,1,0,0:0:0:0:
448,192,192740,1,0,0:0:0:0:
192,192,192840,1,8,0:0:0:0:
320,192,192840,1,4,0:0:0:0:
448,192,192840,1,0,0:0:0:0:
192,192,192940,1,0,0:0:0:0:
320,192,193040,1,2,0:0:0:0:
448,192,193040,1,0,0:0:0:0:
64,192,193140,1,8,0:0:0:0:
192,192,193140,1,4,0:0:0:0:
448,192,193140,1,0,0:0:0:0:
320,192,193190,1,2,0:0:0:0:
64,192,193240,1,2,0:0:0:0:
192,192,193240,1,0,0:0:0:0:
448,192,193290,1,2,0:0:0:0:
320,192,193340,1,2,0:0:0:0:
192,192,193390,1,2,0:0:0:0:
64,192,193440,1,8,0:0:0:0:
320,192,193440,1,4,0:0:0:0:
448,192,193440,1,0,0:0:0:0:
64,192,193540,1,2,0:0:0:0:
192,192,193540,1,0,0:0:0:0:
64,192,193640,1,2,0:0:0:0:
320,192,193640,1,4,0:0:0:0:
448,192,193640,1,0,0:0:0:0:
320,192,193740,1,0,0:0:0:0:
448,192,193740,1,0,0:0:0:0:
64,192,193840,1,0,0:0:0:0:
192,192,193840,1,0,0:0:0:0:
64,192,193940,1,2,0:0:0:0:
192,192,193940,1,4,0:0:0:0:
448,192,193940,1,0,0:0:0:0:
320,192,194040,1,0,0:0:0:0:
448,192,194040,1,0,0:0:0:0:
64,192,194140,1,0,0:0:0:0:
192,192,194140,1,0,0:0:0:0:
64,192,194240,128,2,194540:0:0:0:0:
320,192,194240,128,4,194540:0:0:0:0:
448,192,194240,128,0,194540:0:0:0:0:
64,192,194640,1,2,0:0:0:0:
448,192,194640,1,0,0:0:0:0:
192,192,194740,1,2,0:0:0:0:
64,192,194840,1,8,0:0:0:0:
320,192,194840,1,0,0:0:0:0:
448,192,194840,1,0,0:0:0:0:
320,192,194940,1,2,0:0:0:0:
192,192,195015,1,0,0:0:0:0:
64,192,195040,1,0,0:0:0:70:tom2.wav
448,192,195040,1,0,0:0:0:0:
320,192,195140,1,0,0:0:0:70:tom3.wav
64,192,195240,1,2,0:0:0:0:
192,192,195240,1,4,0:0:0:0:
448,192,195240,1,0,0:0:0:0:
320,192,195340,1,0,0:0:0:0:
448,192,195340,1,0,0:0:0:0:
64,192,195440,1,0,0:0:0:0:
192,192,195440,1,0,0:0:0:0:
64,192,195540,1,2,0:0:0:0:
320,192,195540,1,4,0:0:0:0:
448,192,195540,1,0,0:0:0:0:
320,192,195640,1,0,0:0:0:0:
448,192,195640,1,0,0:0:0:0:
64,192,195740,1,0,0:0:0:0:
192,192,195740,1,0,0:0:0:0:
64,192,195840,1,2,0:0:0:0:
192,192,195840,1,4,0:0:0:0:
448,192,195840,1,0,0:0:0:0:
64,192,195940,1,8,0:0:0:0:
320,192,195940,1,0,0:0:0:0:
448,192,195940,1,0,0:0:0:0:
192,192,196040,1,4,0:0:0:0:
320,192,196040,1,8,0:0:0:0:
448,192,196040,1,0,0:0:0:0:
192,192,196140,1,2,0:0:0:0:
320,192,196240,1,2,0:0:0:0:
192,192,196290,1,2,0:0:0:0:
64,192,196340,1,2,0:0:0:0:
448,192,196340,1,0,0:0:0:0:
320,192,196390,1,2,0:0:0:0:
192,192,196440,1,2,0:0:0:0:
448,192,196490,1,2,0:0:0:0:
320,192,196540,1,2,0:0:0:0:
192,192,196590,1,2,0:0:0:0:
64,192,196640,1,8,0:0:0:0:
448,192,196640,1,0,0:0:0:0:
192,192,196740,1,2,0:0:0:0:
64,192,196840,1,4,0:0:0:0:
320,192,196840,1,8,0:0:0:0:
448,192,196840,1,0,0:0:0:0:
320,192,196940,1,0,0:0:0:0:
448,192,196940,1,0,0:0:0:0:
64,192,197040,1,2,0:0:0:0:
192,192,197040,1,0,0:0:0:0:
64,192,197140,1,4,0:0:0:0:
192,192,197140,1,8,0:0:0:0:
448,192,197140,1,0,0:0:0:0:
320,192,197190,1,2,0:0:0:0:
192,192,197240,1,2,0:0:0:0:
448,192,197290,1,2,0:0:0:0:
320,192,197340,1,2,0:0:0:0:
192,192,197390,1,2,0:0:0:0:
64,192,197440,128,4,197640:0:0:0:0:
320,192,197440,128,8,197640:0:0:0:0:
448,192,197440,128,0,197640:0:0:0:0:
192,192,197640,1,2,0:0:0:0:
64,192,197740,1,8,0:0:0:0:
320,192,197740,1,0,0:0:0:0:
448,192,197740,1,0,0:0:0:0:
192,192,197840,1,2,0:0:0:0:
64,192,197890,1,2,0:0:0:0:
320,192,197940,1,2,0:0:0:0:
192,192,197990,1,2,0:0:0:0:
64,192,198040,1,8,0:0:0:0:
320,192,198040,1,0,0:0:0:0:
448,192,198040,1,0,0:0:0:0:
448,192,198140,1,2,0:0:0:0:
64,192,198240,1,2,0:0:0:0:
192,192,198240,1,0,0:0:0:0:
192,192,198340,1,2,0:0:0:0:
320,192,198340,1,0,0:0:0:0:
64,192,198440,1,4,0:0:0:0:
320,192,198440,1,8,0:0:0:0:
448,192,198440,1,0,0:0:0:0:
192,192,198490,1,0,0:0:0:0:
64,192,198540,1,2,0:0:0:0:
448,192,198590,1,0,0:0:0:0:
64,192,198640,1,8,0:0:0:0:
192,192,198640,1,0,0:0:0:0:
320,192,198640,1,0,0:0:0:0:
448,192,198690,1,0,0:0:0:0:
320,192,198740,1,2,0:0:0:0:
64,192,198790,1,0,0:0:0:0:
192,192,198840,1,8,0:0:0:0:
320,192,198840,1,4,0:0:0:0:
448,192,198840,1,0,0:0:0:0:
64,192,198890,1,0,0:0:0:0:
192,192,198940,1,2,0:0:0:0:
448,192,198990,1,2,0:0:0:0:
64,192,199040,1,8,0:0:0:0:
192,192,199040,1,0,0:0:0:0:
320,192,199040,1,0,0:0:0:0:
448,192,199090,1,0,0:0:0:0:
320,192,199140,1,2,0:0:0:0:
192,192,199190,1,0,0:0:0:0:
64,192,199240,1,2,0:0:0:0:
320,192,199240,1,0,0:0:0:0:
448,192,199240,1,0,0:0:0:0:
192,192,199290,1,2,0:0:0:0:
64,192,199340,1,2,0:0:0:0:
320,192,199390,1,2,0:0:0:0:
192,192,199440,1,2,0:0:0:0:
448,192,199490,1,2,0:0:0:0:
320,192,199540,1,2,0:0:0:0:
192,192,199590,1,2,0:0:0:0:
64,192,199640,1,2,0:0:0:0:
448,192,199640,1,0,0:0:0:0:
320,192,199690,1,2,0:0:0:0:
192,192,199740,1,2,0:0:0:0:
448,192,199790,1,2,0:0:0:0:
64,192,199840,1,2,0:0:0:0:
320,192,199840,1,0,0:0:0:0:
192,192,199890,1,2,0:0:0:0:
320,192,199940,1,2,0:0:0:0:
448,192,199940,1,0,0:0:0:0:
64,192,200040,1,2,0:0:0:0:
192,192,200040,1,4,0:0:0:0:
448,192,200040,1,0,0:0:0:0:
64,192,200140,1,0,0:0:0:0:
320,192,200140,1,0,0:0:0:0:
192,192,200240,1,8,0:0:0:0:
320,192,200240,1,0,0:0:0:70:HHOpen.wav
448,192,200240,1,0,0:0:0:0:
64,192,200340,1,2,0:0:0:0:
448,192,200340,1,0,0:0:0:0:
192,192,200440,1,0,0:0:0:0:
320,192,200440,1,0,0:0:0:0:
64,192,200540,1,2,0:0:0:0:
192,192,200540,1,0,0:0:0:0:
64,192,200640,1,8,0:0:0:0:
320,192,200640,1,0,0:0:0:70:HHOpen.wav
448,192,200640,1,0,0:0:0:0:
320,192,200740,1,0,0:0:0:0:
192,192,200840,1,2,0:0:0:0:
320,192,200840,1,0,0:0:0:0:
320,192,200940,1,0,0:0:0:0:
64,192,201040,1,8,0:0:0:0:
192,192,201040,1,0,0:0:0:70:HHOpen.wav
448,192,201040,1,0,0:0:0:0:
64,192,201140,1,2,0:0:0:0:
320,192,201140,1,0,0:0:0:0:
64,192,201240,1,0,0:0:0:0:
64,192,201340,1,2,0:0:0:0:
192,192,201340,1,0,0:0:0:0:
192,192,201440,1,8,0:0:0:0:
320,192,201440,1,0,0:0:0:70:HHOpen.wav
448,192,201440,1,0,0:0:0:0:
320,192,201540,1,0,0:0:0:0:
192,192,201640,1,2,0:0:0:0:
448,192,201640,1,0,0:0:0:0:
64,192,201740,1,0,0:0:0:0:
320,192,201740,1,0,0:0:0:0:
64,192,201840,1,8,0:0:0:0:
192,192,201840,1,0,0:0:0:70:HHOpen.wav
448,192,201840,1,0,0:0:0:0:
320,192,201940,1,2,0:0:0:0:
448,192,201940,1,0,0:0:0:0:
64,192,202040,1,0,0:0:0:0:
192,192,202040,1,0,0:0:0:0:
320,192,202140,1,2,0:0:0:0:
448,192,202140,1,0,0:0:0:0:
64,192,202240,1,8,0:0:0:0:
192,192,202240,1,0,0:0:0:70:HHOpen.wav
448,192,202240,1,0,0:0:0:0:
192,192,202340,1,0,0:0:0:0:
192,192,202440,1,2,0:0:0:0:
320,192,202440,1,0,0:0:0:0:
64,192,202540,1,2,0:0:0:0:
192,192,202540,1,0,0:0:0:0:
64,192,202640,1,8,0:0:0:0:
320,192,202640,1,0,0:0:0:70:HHOpen.wav
448,192,202640,1,0,0:0:0:0:
192,192,202740,1,2,0:0:0:0:
448,192,202740,1,0,0:0:0:0:
448,192,202840,1,0,0:0:0:0:
320,192,202940,1,2,0:0:0:0:
448,192,202940,1,0,0:0:0:0:
64,192,203040,1,8,0:0:0:0:
192,192,203040,1,0,0:0:0:70:HHOpen.wav
320,192,203040,1,0,0:0:0:0:
64,192,203140,1,8,0:0:0:0:
192,192,203140,1,0,0:0:0:0:
64,192,203240,1,4,0:0:0:0:
320,192,203240,1,2,0:0:0:0:
448,192,203240,1,0,0:0:0:0:
320,192,203340,1,0,0:0:0:0:
64,192,203440,1,8,0:0:0:0:
192,192,203440,1,0,0:0:0:70:HHOpen.wav
448,192,203440,1,0,0:0:0:0:
192,192,203540,1,2,0:0:0:0:
320,192,203540,1,0,0:0:0:0:
320,192,203640,1,0,0:0:0:0:
320,192,203740,1,2,0:0:0:0:
448,192,203740,1,0,0:0:0:0:
64,192,203840,1,8,0:0:0:0:
192,192,203840,1,0,0:0:0:70:HHOpen.wav
448,192,203840,1,0,0:0:0:0:
64,192,203940,1,0,0:0:0:0:
64,192,204040,1,2,0:0:0:0:
192,192,204040,1,0,0:0:0:0:
64,192,204140,1,2,0:0:0:0:
320,192,204140,1,0,0:0:0:0:
64,192,204240,1,8,0:0:0:0:
192,192,204240,1,0,0:0:0:70:HHOpen.wav
448,192,204240,1,0,0:0:0:0:
320,192,204340,1,2,0:0:0:0:
448,192,204340,1,0,0:0:0:0:
64,192,204440,1,8,0:0:0:0:
192,192,204440,1,4,0:0:0:0:
320,192,204440,1,0,0:0:0:0:
64,192,204540,1,2,0:0:0:0:
192,192,204640,1,2,0:0:0:0:
320,192,204665,1,0,0:0:0:0:
448,192,204740,1,2,0:0:0:0:
64,192,204840,1,2,0:0:0:0:
192,192,204840,1,4,0:0:0:0:
320,192,204840,1,0,0:0:0:0:
64,192,204940,1,0,0:0:0:0:
64,192,205040,1,0,0:0:0:0:
192,192,205140,1,0,0:0:0:0:
320,192,205140,1,0,0:0:0:0:
64,192,205240,1,8,0:0:0:0:
192,192,205240,1,0,0:0:0:0:
448,192,205240,1,0,0:0:0:0:
192,192,205340,1,0,0:0:0:0:
320,192,205440,1,0,0:0:0:0:
448,192,205440,1,0,0:0:0:0:
320,192,205540,1,2,0:0:0:0:
64,192,205640,1,2,0:0:0:0:
192,192,205640,1,0,0:0:0:70:Cymatics - Open Hat 5.wav
448,192,205640,1,0,0:0:0:0:
448,192,205740,1,0,0:0:0:0:
448,192,205840,1,2,0:0:0:0:
448,192,205940,1,0,0:0:0:0:
64,192,206040,1,8,0:0:0:0:
192,192,206040,1,4,0:0:0:0:
320,192,206040,1,0,0:0:0:0:
320,192,206140,1,0,0:0:0:0:
320,192,206240,1,0,0:0:0:0:
320,192,206340,1,0,0:0:0:0:
64,192,206440,1,2,0:0:0:0:
192,192,206440,1,0,0:0:0:70:HHOpen.wav
448,192,206440,1,0,0:0:0:0:
192,192,206540,1,0,0:0:0:0:
192,192,206640,1,2,0:0:0:0:
64,192,206740,1,0,0:0:0:0:
448,192,206740,1,0,0:0:0:0:
64,192,206840,1,8,0:0:0:0:
320,192,206840,1,0,0:0:0:0:
448,192,206840,1,0,0:0:0:0:
64,192,206940,1,0,0:0:0:0:
192,192,207040,1,0,0:0:0:0:
320,192,207040,1,0,0:0:0:0:
320,192,207140,1,2,0:0:0:0:
64,192,207240,1,2,0:0:0:0:
192,192,207240,1,0,0:0:0:70:Cymatics - Open Hat 5.wav
448,192,207240,1,0,0:0:0:0:
448,192,207340,1,8,0:0:0:0:
448,192,207440,1,2,0:0:0:0:
448,192,207540,1,0,0:0:0:0:
64,192,207640,1,4,0:0:0:0:
192,192,207640,1,8,0:0:0:0:
320,192,207640,1,0,0:0:0:0:
320,192,207740,1,2,0:0:0:0:
320,192,207840,1,2,0:0:0:0:
192,192,207865,1,0,0:0:0:0:
320,192,207940,1,2,0:0:0:0:
64,192,208040,1,2,0:0:0:0:
192,192,208040,1,4,0:0:0:0:
448,192,208040,1,0,0:0:0:0:
320,192,208140,1,2,0:0:0:0:
192,192,208190,1,2,0:0:0:0:
64,192,208240,1,8,0:0:0:0:
320,192,208240,1,0,0:0:0:0:
448,192,208240,1,0,0:0:0:0:
192,192,208340,1,2,0:0:0:0:
320,192,208390,1,2,0:0:0:0:
64,192,208440,1,2,0:0:0:0:
448,192,208440,1,0,0:0:0:0:
64,192,208540,1,8,0:0:0:0:
192,192,208540,1,0,0:0:0:0:
320,192,208540,1,0,0:0:0:0:
320,192,208640,1,2,0:0:0:0:
64,192,208740,1,2,0:0:0:0:
192,192,208740,1,0,0:0:0:0:
320,192,208790,1,2,0:0:0:0:
64,192,208840,1,8,0:0:0:0:
192,192,208840,1,4,0:0:0:0:
448,192,208840,1,0,0:0:0:0:
64,192,208940,1,2,0:0:0:0:
192,192,208940,1,0,0:0:0:0:
320,192,209040,1,2,0:0:0:0:
448,192,209040,1,0,0:0:0:0:
320,192,209140,1,0,0:0:0:0:
64,192,209240,1,2,0:0:0:0:
192,192,209240,1,0,0:0:0:0:
192,192,209340,1,2,0:0:0:0:
320,192,209340,1,0,0:0:0:0:
64,192,209440,1,8,0:0:0:0:
320,192,209440,1,0,0:0:0:0:
448,192,209440,1,0,0:0:0:0:
64,192,209540,1,8,0:0:0:0:
192,192,209540,1,0,0:0:0:0:
448,192,209540,1,0,0:0:0:0:
64,192,209640,1,8,0:0:0:0:
320,192,209640,1,0,0:0:0:0:
448,192,209640,1,0,0:0:0:0:
192,192,209690,1,8,0:0:0:0:
320,192,209740,1,2,0:0:0:0:
448,192,209740,1,0,0:0:0:0:
192,192,209790,1,2,0:0:0:0:
64,192,209840,1,2,0:0:0:0:
448,192,209840,1,0,0:0:0:0:
320,192,209890,1,2,0:0:0:0:
64,192,209940,1,2,0:0:0:0:
192,192,209940,1,0,0:0:0:0:
448,192,209990,1,2,0:0:0:0:
192,192,210040,1,2,0:0:0:0:
320,192,210040,1,0,0:0:0:0:
64,192,210090,1,2,0:0:0:0:
320,192,210140,1,2,0:0:0:0:
448,192,210140,1,0,0:0:0:0:
192,192,210190,1,2,0:0:0:0:
64,192,210240,1,2,0:0:0:0:
448,192,210240,1,0,0:0:0:0:
320,192,210290,1,2,0:0:0:0:
64,192,210340,1,2,0:0:0:0:
192,192,210340,1,0,0:0:0:0:
320,192,210390,1,2,0:0:0:0:
64,192,210440,128,2,210740:0:0:0:0:
192,192,210440,128,4,210740:0:0:0:0:
448,192,210440,128,0,210740:0:0:0:0:
64,192,210840,128,0,211140:0:0:0:0:
320,192,210840,128,0,211140:0:0:0:0:
192,192,211040,128,0,211140:0:0:0:0:
448,192,211040,128,0,211140:0:0:0:0:
64,192,211240,1,4,0:0:0:0:
192,192,211240,1,2,0:0:0:0:
448,192,211240,1,0,0:0:0:0:
192,192,211340,1,2,0:0:0:0:
320,192,211340,1,0,0:0:0:0:
320,192,211440,1,8,0:0:0:0:
448,192,211440,1,0,0:0:0:70:Cymatics - Open Hihat 1.wav
64,192,211540,1,2,0:0:0:0:
192,192,211540,1,0,0:0:0:0:
448,192,211540,1,0,0:0:0:0:
64,192,211640,1,2,0:0:0:0:
320,192,211640,1,0,0:0:0:70:HHOpen.wav
192,192,211740,1,2,0:0:0:0:
448,192,211740,1,0,0:0:0:0:
64,192,211840,1,8,0:0:0:0:
320,192,211840,1,0,0:0:0:70:Cymatics - Open Hihat 1.wav
448,192,211840,1,0,0:0:0:0:
64,192,211940,1,2,0:0:0:0:
192,192,211940,1,0,0:0:0:0:
192,192,212040,1,2,0:0:0:0:
320,192,212040,1,0,0:0:0:70:HHOpen.wav
448,192,212040,1,0,0:0:0:0:
320,192,212140,1,2,0:0:0:0:
448,192,212140,1,0,0:0:0:0:
320,192,212240,1,8,0:0:0:0:
448,192,212240,1,0,0:0:0:70:Cymatics - Open Hihat 1.wav
320,192,212340,1,2,0:0:0:0:
448,192,212340,1,0,0:0:0:0:
64,192,212440,1,2,0:0:0:0:
192,192,212440,1,0,0:0:0:70:HHOpen.wav
448,192,212440,1,0,0:0:0:0:
64,192,212540,1,2,0:0:0:0:
320,192,212540,1,0,0:0:0:0:
192,192,212640,1,8,0:0:0:0:
320,192,212640,1,0,0:0:0:70:Cymatics - Open Hihat 1.wav
448,192,212640,1,0,0:0:0:0:
64,192,212740,1,2,0:0:0:0:
448,192,212740,1,0,0:0:0:0:
64,192,212840,1,2,0:0:0:0:
192,192,212840,1,0,0:0:0:70:HHOpen.wav
320,192,212840,1,0,0:0:0:0:
320,192,212940,1,2,0:0:0:0:
448,192,212940,1,0,0:0:0:0:
64,192,213040,1,8,0:0:0:0:
192,192,213040,1,0,0:0:0:70:Cymatics - Open Hihat 1.wav
64,192,213140,1,2,0:0:0:0:
320,192,213140,1,0,0:0:0:0:
448,192,213140,1,0,0:0:0:0:
192,192,213240,1,2,0:0:0:0:
448,192,213240,1,0,0:0:0:70:HHOpen.wav
64,192,213340,1,2,0:0:0:0:
320,192,213340,1,0,0:0:0:0:
64,192,213440,1,8,0:0:0:0:
192,192,213440,1,0,0:0:0:70:Cymatics - Open Hihat 1.wav
448,192,213440,1,0,0:0:0:0:
320,192,213540,1,2,0:0:0:0:
448,192,213540,1,0,0:0:0:0:
64,192,213640,1,2,0:0:0:0:
192,192,213640,1,0,0:0:0:70:HHOpen.wav
320,192,213640,1,0,0:0:0:0:
64,192,213740,1,2,0:0:0:0:
192,192,213740,1,0,0:0:0:0:
64,192,213840,1,8,0:0:0:0:
192,192,213840,1,0,0:0:0:70:Cymatics - Open Hihat 1.wav
64,192,213940,1,2,0:0:0:0:
192,192,213940,1,0,0:0:0:0:
320,192,213990,1,2,0:0:0:0:
64,192,214040,1,2,0:0:0:0:
192,192,214040,1,0,0:0:0:70:HHOpen.wav
448,192,214040,1,0,0:0:0:0:
320,192,214140,1,2,0:0:0:0:
448,192,214140,1,0,0:0:0:0:
64,192,214240,1,8,0:0:0:0:
192,192,214240,1,0,0:0:0:70:Cymatics - Open Hihat 1.wav
320,192,214240,1,0,0:0:0:0:
64,192,214340,1,2,0:0:0:0:
448,192,214340,1,0,0:0:0:0:
192,192,214440,1,2,0:0:0:0:
320,192,214440,1,0,0:0:0:70:HHOpen.wav
448,192,214440,1,0,0:0:0:0:
64,192,214540,1,2,0:0:0:0:
192,192,214540,1,0,0:0:0:0:
320,192,214640,1,8,0:0:0:0:
448,192,214640,1,0,0:0:0:70:Cymatics - Open Hihat 1.wav
64,192,214740,1,2,0:0:0:0:
192,192,214740,1,0,0:0:0:0:
448,192,214740,1,0,0:0:0:0:
64,192,214840,1,2,0:0:0:0:
320,192,214840,1,0,0:0:0:70:HHOpen.wav
192,192,214940,1,2,0:0:0:0:
320,192,214940,1,0,0:0:0:0:
64,192,215040,1,8,0:0:0:0:
192,192,215040,1,0,0:0:0:70:Cymatics - Open Hihat 1.wav
448,192,215040,1,0,0:0:0:0:
64,192,215140,1,2,0:0:0:0:
320,192,215140,1,0,0:0:0:0:
192,192,215240,1,2,0:0:0:0:
320,192,215240,1,0,0:0:0:70:HHOpen.wav
448,192,215240,1,0,0:0:0:0:
192,192,215340,1,2,0:0:0:0:
448,192,215340,1,0,0:0:0:0:
64,192,215440,1,8,0:0:0:0:
192,192,215440,1,0,0:0:0:70:Cymatics - Open Hihat 1.wav
320,192,215440,1,0,0:0:0:0:
64,192,215540,1,2,0:0:0:0:
320,192,215540,1,0,0:0:0:0:
192,192,215640,1,2,0:0:0:0:
320,192,215640,1,0,0:0:0:70:HHOpen.wav
448,192,215640,1,0,0:0:0:0:
192,192,215740,1,2,0:0:0:0:
448,192,215740,1,0,0:0:0:0:
64,192,215840,1,8,0:0:0:0:
192,192,215840,1,0,0:0:0:70:Cymatics - Open Hihat 1.wav
320,192,215840,1,0,0:0:0:0:
64,192,215940,1,2,0:0:0:0:
320,192,215940,1,0,0:0:0:0:
64,192,216040,1,2,0:0:0:0:
192,192,216040,1,0,0:0:0:70:HHOpen.wav
448,192,216040,1,0,0:0:0:0:
320,192,216140,1,2,0:0:0:0:
448,192,216140,1,0,0:0:0:0:
64,192,216240,1,8,0:0:0:0:
192,192,216240,1,0,0:0:0:70:Cymatics - Open Hihat 1.wav
64,192,216340,1,2,0:0:0:0:
320,192,216340,1,0,0:0:0:0:
448,192,216340,1,0,0:0:0:0:
192,192,216440,1,2,0:0:0:0:
320,192,216440,1,0,0:0:0:70:HHOpen.wav
64,192,216540,1,2,0:0:0:0:
448,192,216540,1,0,0:0:0:0:
192,192,216640,1,8,0:0:0:0:
320,192,216640,1,0,0:0:0:70:Cymatics - Open Hihat 1.wav
448,192,216640,1,0,0:0:0:0:
64,192,216740,1,2,0:0:0:0:
192,192,216740,1,0,0:0:0:0:
64,192,216840,1,2,0:0:0:0:
320,192,216840,1,0,0:0:0:70:HHOpen.wav
448,192,216840,1,0,0:0:0:0:
320,192,216940,1,2,0:0:0:0:
448,192,216940,1,0,0:0:0:0:
64,192,217040,1,8,0:0:0:0:
192,192,217040,1,4,0:0:0:0:
320,192,217040,1,0,0:0:0:0:
64,192,217140,1,2,0:0:0:0:
192,192,217140,1,0,0:0:0:0:
448,192,217140,1,0,0:0:0:0:
320,192,217240,1,2,0:0:0:0:
448,192,217240,1,0,0:0:0:70:HHOpen.wav
192,192,217290,1,2,0:0:0:0:
320,192,217340,1,2,0:0:0:0:
448,192,217340,1,0,0:0:0:0:
192,192,217390,1,2,0:0:0:0:
64,192,217440,1,8,0:0:0:0:
320,192,217440,1,4,0:0:0:0:
448,192,217440,1,0,0:0:0:0:
192,192,217540,1,2,0:0:0:0:
320,192,217540,1,0,0:0:0:0:
64,192,217640,1,2,0:0:0:0:
192,192,217640,1,4,0:0:0:0:
448,192,217640,1,0,0:0:0:0:
64,192,217740,1,2,0:0:0:0:
320,192,217740,1,0,0:0:0:0:
192,192,217840,1,8,0:0:0:0:
448,192,217840,1,0,0:0:0:70:Cymatics - Open Hihat 1.wav
64,192,217940,1,2,0:0:0:0:
320,192,217940,1,0,0:0:0:0:
448,192,217940,1,0,0:0:0:0:
64,192,218040,1,2,0:0:0:0:
192,192,218040,1,0,0:0:0:70:HHOpen.wav
320,192,218140,1,2,0:0:0:0:
448,192,218140,1,0,0:0:0:0:
64,192,218240,1,8,0:0:0:0:
192,192,218240,1,0,0:0:0:70:Cymatics - Open Hihat 1.wav
448,192,218240,1,0,0:0:0:0:
192,192,218340,1,2,0:0:0:0:
320,192,218340,1,0,0:0:0:0:
64,192,218440,1,2,0:0:0:0:
320,192,218440,1,0,0:0:0:70:HHOpen.wav
448,192,218440,1,0,0:0:0:0:
320,192,218540,1,2,0:0:0:0:
448,192,218540,1,0,0:0:0:0:
320,192,218640,1,8,0:0:0:0:
448,192,218640,1,0,0:0:0:70:Cymatics - Open Hihat 1.wav
320,192,218740,1,2,0:0:0:0:
448,192,218740,1,0,0:0:0:0:
64,192,218840,1,2,0:0:0:0:
320,192,218840,1,0,0:0:0:70:HHOpen.wav
448,192,218840,1,0,0:0:0:0:
192,192,218940,1,2,0:0:0:0:
320,192,218940,1,0,0:0:0:0:
64,192,219040,1,8,0:0:0:0:
192,192,219040,1,0,0:0:0:70:Cymatics - Open Hihat 1.wav
448,192,219040,1,0,0:0:0:0:
320,192,219140,1,2,0:0:0:0:
448,192,219140,1,0,0:0:0:0:
64,192,219240,1,2,0:0:0:0:
192,192,219240,1,0,0:0:0:70:HHOpen.wav
320,192,219240,1,0,0:0:0:0:
64,192,219340,1,2,0:0:0:0:
448,192,219340,1,0,0:0:0:0:
192,192,219440,1,8,0:0:0:0:
320,192,219440,1,0,0:0:0:70:Cymatics - Open Hihat 1.wav
64,192,219540,1,2,0:0:0:0:
320,192,219540,1,0,0:0:0:0:
448,192,219540,1,0,0:0:0:0:
64,192,219640,1,2,0:0:0:0:
192,192,219640,1,0,0:0:0:70:HHOpen.wav
320,192,219740,1,2,0:0:0:0:
448,192,219740,1,0,0:0:0:0:
64,192,219840,1,8,0:0:0:0:
192,192,219840,1,0,0:0:0:70:Cymatics - Open Hihat 1.wav
448,192,219840,1,0,0:0:0:0:
192,192,219940,1,2,0:0:0:0:
320,192,219940,1,0,0:0:0:0:
64,192,220040,1,2,0:0:0:0:
320,192,220040,1,0,0:0:0:70:HHOpen.wav
448,192,220040,1,0,0:0:0:0:
64,192,220140,1,2,0:0:0:0:
192,192,220140,1,0,0:0:0:0:
320,192,220240,1,8,0:0:0:0:
448,192,220240,1,0,0:0:0:70:Cymatics - Open Hihat 1.wav
64,192,220340,1,2,0:0:0:0:
192,192,220340,1,0,0:0:0:0:
448,192,220340,1,0,0:0:0:0:
320,192,220390,1,2,0:0:0:0:
64,192,220440,1,2,0:0:0:0:
192,192,220440,1,0,0:0:0:70:HHOpen.wav
320,192,220540,1,2,0:0:0:0:
448,192,220540,1,0,0:0:0:0:
64,192,220640,1,8,0:0:0:0:
192,192,220640,1,0,0:0:0:70:Cymatics - Open Hihat 1.wav
448,192,220640,1,0,0:0:0:0:
64,192,220740,1,8,0:0:0:0:
192,192,220740,1,0,0:0:0:0:
64,192,220840,1,2,0:0:0:0:
320,192,220840,1,4,0:0:0:0:
448,192,220840,1,0,0:0:0:0:
192,192,220940,1,2,0:0:0:0:
320,192,220940,1,0,0:0:0:0:
64,192,221040,1,8,0:0:0:0:
192,192,221040,1,0,0:0:0:70:Cymatics - Open Hihat 1.wav
64,192,221140,1,2,0:0:0:0:
320,192,221140,1,0,0:0:0:0:
448,192,221140,1,0,0:0:0:0:
192,192,221240,1,2,0:0:0:0:
320,192,221240,1,0,0:0:0:70:HHOpen.wav
64,192,221340,1,2,0:0:0:0:
448,192,221340,1,0,0:0:0:0:
192,192,221440,1,8,0:0:0:0:
320,192,221440,1,4,0:0:0:0:
448,192,221440,1,0,0:0:0:0:
64,192,221540,1,8,0:0:0:0:
192,192,221540,1,0,0:0:0:0:
320,192,221540,1,0,0:0:0:0:
64,192,221640,1,4,0:0:0:0:
192,192,221640,1,0,0:0:0:70:tom1.wav
448,192,221640,1,0,0:0:0:0:
64,192,221740,1,0,0:0:0:70:tom2.wav
192,192,221740,1,0,0:0:0:0:
64,192,221840,1,2,0:0:0:0:
192,192,221840,1,0,0:0:0:0:
64,192,221940,1,8,0:0:0:0:
320,192,221940,1,4,0:0:0:0:
448,192,221940,1,0,0:0:0:0:
320,192,222040,1,2,0:0:0:0:
448,192,222040,1,0,0:0:0:0:
192,192,222090,1,2,0:0:0:0:
64,192,222140,1,2,0:0:0:0:
64,192,222240,1,8,0:0:0:0:
320,192,222240,1,4,0:0:0:0:
448,192,222240,1,0,0:0:0:0:
320,192,222340,1,2,0:0:0:0:
448,192,222340,1,0,0:0:0:0:
64,192,222440,1,4,0:0:0:0:
192,192,222440,1,8,0:0:0:0:
448,192,222440,1,0,0:0:0:0:
320,192,222490,1,0,0:0:0:0:
192,192,222540,1,2,0:0:0:0:
64,192,222590,1,0,0:0:0:0:
192,192,222640,1,4,0:0:0:0:
320,192,222640,1,8,0:0:0:0:
448,192,222640,1,0,0:0:0:0:
64,192,222690,1,0,0:0:0:0:
320,192,222740,1,2,0:0:0:0:
448,192,222790,1,0,0:0:0:0:
64,192,222840,1,8,0:0:0:0:
192,192,222840,1,4,0:0:0:0:
320,192,222840,1,0,0:0:0:0:
448,192,222890,1,0,0:0:0:0:
192,192,222940,1,2,0:0:0:0:
64,192,222990,1,0,0:0:0:0:
192,192,223040,1,8,0:0:0:0:
320,192,223040,1,4,0:0:0:0:
448,192,223040,1,0,0:0:0:0:
64,192,223090,1,0,0:0:0:0:
320,192,223140,1,2,0:0:0:0:
448,192,223190,1,0,0:0:0:0:
64,192,223240,1,4,0:0:0:0:
192,192,223240,1,8,0:0:0:0:
320,192,223240,1,0,0:0:0:0:
448,192,223290,1,8,0:0:0:0:
64,192,223340,1,2,0:0:0:0:
192,192,223340,1,0,0:0:0:0:
320,192,223390,1,2,0:0:0:0:
64,192,223440,1,0,0:0:0:70:tom1.wav
448,192,223440,1,0,0:0:0:0:
192,192,223490,1,0,0:0:0:70:tom2.wav
320,192,223540,1,0,0:0:0:70:tom3.wav
448,192,223540,1,0,0:0:0:0:
64,192,223590,1,0,0:0:0:70:tom4.wav
192,192,223640,1,2,0:0:0:0:
448,192,223640,1,0,0:0:0:0:
320,192,223690,1,2,0:0:0:0:
64,192,223740,1,0,0:0:0:70:tom1.wav
192,192,223740,1,0,0:0:0:0:
320,192,223790,1,0,0:0:0:70:tom1.wav
64,192,223840,1,8,0:0:0:0:
192,192,223840,1,0,0:0:0:0:
448,192,223840,1,0,0:0:0:0:
192,192,223940,1,0,0:0:0:70:tom3.wav
320,192,223940,1,0,0:0:0:0:
64,192,224040,128,4,224740:0:0:0:0:
320,192,224040,128,2,224640:0:0:0:0:
448,192,224040,128,0,225040:0:0:0:0:
320,192,224740,1,0,0:0:0:70:tom1.wav
192,192,224790,1,0,0:0:0:70:tom1.wav
64,192,224840,128,0,225540:0:0:0:70:tom2.wav
192,192,225040,1,0,0:0:0:70:tom2.wav
320,192,225090,1,0,0:0:0:70:tom2.wav
448,192,225140,128,0,225540:0:0:0:70:tom1.wav
192,192,225340,1,0,0:0:0:70:tom4.wav
320,192,225440,1,0,0:0:0:70:tom3.wav
192,192,225540,1,0,0:0:0:70:tom2.wav
64,192,225640,1,2,0:0:0:0:
320,192,225640,1,4,0:0:0:0:
448,192,225640,1,0,0:0:0:0:
192,192,225740,1,8,0:0:0:0:
320,192,225740,1,0,0:0:0:70:Cymatics - Open Hat 5.wav
448,192,225740,1,0,0:0:0:0:
64,192,225840,1,2,0:0:0:0:
192,192,225840,1,0,0:0:0:0:
64,192,225940,1,8,0:0:0:0:
320,192,225940,1,0,0:0:0:70:Cymatics - Open Hat 5.wav
448,192,225940,1,0,0:0:0:0:
192,192,226040,1,2,0:0:0:0:
320,192,226040,1,0,0:0:0:0:
64,192,226140,1,8,0:0:0:0:
192,192,226140,1,0,0:0:0:70:Cymatics - Open Hat 5.wav
448,192,226140,1,0,0:0:0:0:
320,192,226240,1,2,0:0:0:0:
448,192,226240,1,0,0:0:0:0:
64,192,226340,1,8,0:0:0:0:
192,192,226340,1,0,0:0:0:70:Cymatics - Open Hat 5.wav
320,192,226340,1,0,0:0:0:0:
64,192,226440,1,2,0:0:0:0:
448,192,226440,1,0,0:0:0:0:
192,192,226540,1,8,0:0:0:0:
320,192,226540,1,0,0:0:0:70:Cymatics - Open Hat 5.wav
448,192,226540,1,0,0:0:0:0:
64,192,226640,1,2,0:0:0:0:
192,192,226640,1,0,0:0:0:0:
448,192,226690,1,2,0:0:0:0:
64,192,226740,1,8,0:0:0:0:
192,192,226740,1,0,0:0:0:70:Cymatics - Open Hat 5.wav
320,192,226740,1,0,0:0:0:0:
448,192,226790,1,0,0:0:0:0:
64,192,226840,1,2,0:0:0:0:
192,192,226890,1,0,0:0:0:0:
64,192,226940,1,8,0:0:0:0:
320,192,226940,1,0,0:0:0:70:Cymatics - Open Hat 5.wav
448,192,226940,1,0,0:0:0:0:
192,192,226990,1,0,0:0:0:0:
448,192,227040,1,2,0:0:0:0:
320,192,227090,1,0,0:0:0:0:
64,192,227140,1,8,0:0:0:0:
192,192,227140,1,0,0:0:0:70:Cymatics - Open Hat 5.wav
448,192,227140,1,0,0:0:0:0:
320,192,227190,1,0,0:0:0:0:
192,192,227240,1,2,0:0:0:0:
64,192,227290,1,0,0:0:0:0:
192,192,227340,1,8,0:0:0:0:
320,192,227340,1,0,0:0:0:70:Cymatics - Open Hat 5.wav
448,192,227340,1,0,0:0:0:0:
64,192,227390,1,0,0:0:0:0:
448,192,227440,1,2,0:0:0:0:
320,192,227490,1,0,0:0:0:0:
64,192,227540,1,8,0:0:0:0:
192,192,227540,1,0,0:0:0:70:Cymatics - Open Hat 5.wav
448,192,227540,1,0,0:0:0:0:
192,192,227640,1,2,0:0:0:0:
320,192,227640,1,0,0:0:0:0:
64,192,227740,1,8,0:0:0:0:
320,192,227740,1,0,0:0:0:70:Cymatics - Open Hat 5.wav
448,192,227740,1,0,0:0:0:0:
64,192,227840,1,2,0:0:0:0:
192,192,227840,1,0,0:0:0:0:
192,192,227940,1,8,0:0:0:0:
320,192,227940,1,0,0:0:0:70:Cymatics - Open Hat 5.wav
448,192,227940,1,0,0:0:0:0:
64,192,228040,1,2,0:0:0:0:
192,192,228090,1,0,0:0:0:0:
64,192,228140,1,8,0:0:0:0:
320,192,228140,1,0,0:0:0:70:Cymatics - Open Hat 5.wav
448,192,228140,1,0,0:0:0:0:
192,192,228190,1,0,0:0:0:0:
320,192,228240,1,2,0:0:0:0:
448,192,228240,1,0,0:0:0:0:
64,192,228290,1,2,0:0:0:0:
192,192,228340,1,8,0:0:0:0:
448,192,228340,1,0,0:0:0:70:Cymatics - Open Hat 5.wav
320,192,228390,1,2,0:0:0:0:
64,192,228440,1,2,0:0:0:0:
192,192,228440,1,0,0:0:0:0:
448,192,228490,1,2,0:0:0:0:
64,192,228540,1,8,0:0:0:0:
192,192,228540,1,0,0:0:0:70:Cymatics - Open Hat 5.wav
448,192,228590,1,0,0:0:0:0:
192,192,228640,1,2,0:0:0:0:
320,192,228640,1,0,0:0:0:0:
64,192,228690,1,0,0:0:0:0:
320,192,228740,1,8,0:0:0:0:
448,192,228740,1,0,0:0:0:70:Cymatics - Open Hat 5.wav
192,192,228790,1,0,0:0:0:0:
64,192,228840,1,4,0:0:0:0:
320,192,228840,1,2,0:0:0:0:
448,192,228840,1,0,0:0:0:0:
64,192,228940,1,8,0:0:0:0:
192,192,228940,1,0,0:0:0:70:Cymatics - Open Hat 5.wav
320,192,228940,1,0,0:0:0:0:
320,192,229040,1,2,0:0:0:0:
448,192,229040,1,0,0:0:0:0:
64,192,229140,1,8,0:0:0:0:
192,192,229140,1,0,0:0:0:70:Cymatics - Open Hat 5.wav
448,192,229140,1,0,0:0:0:0:
192,192,229240,1,2,0:0:0:0:
320,192,229240,1,0,0:0:0:0:
64,192,229340,1,8,0:0:0:0:
320,192,229340,1,0,0:0:0:70:Cymatics - Open Hat 5.wav
448,192,229340,1,0,0:0:0:0:
192,192,229440,1,2,0:0:0:0:
448,192,229440,1,0,0:0:0:0:
64,192,229540,1,8,0:0:0:0:
192,192,229540,1,0,0:0:0:70:Cymatics - Open Hat 5.wav
320,192,229540,1,0,0:0:0:0:
320,192,229640,1,2,0:0:0:0:
448,192,229640,1,0,0:0:0:0:
64,192,229740,1,8,0:0:0:0:
192,192,229740,1,0,0:0:0:70:Cymatics - Open Hat 5.wav
448,192,229740,1,0,0:0:0:0:
64,192,229840,1,2,0:0:0:0:
192,192,229840,1,0,0:0:0:0:
320,192,229890,1,2,0:0:0:0:
64,192,229940,1,8,0:0:0:0:
192,192,229940,1,0,0:0:0:70:Cymatics - Open Hat 5.wav
448,192,229940,1,0,0:0:0:0:
192,192,230040,1,2,0:0:0:0:
320,192,230040,1,0,0:0:0:0:
64,192,230140,1,8,0:0:0:0:
320,192,230140,1,0,0:0:0:70:Cymatics - Open Hat 5.wav
448,192,230140,1,0,0:0:0:0:
64,192,230240,1,2,0:0:0:0:
192,192,230240,1,0,0:0:0:0:
448,192,230290,1,0,0:0:0:0:
64,192,230340,1,8,0:0:0:0:
192,192,230340,1,0,0:0:0:70:Cymatics - Open Hat 5.wav
320,192,230340,1,0,0:0:0:0:
448,192,230390,1,0,0:0:0:0:
320,192,230440,1,2,0:0:0:0:
192,192,230490,1,0,0:0:0:0:
64,192,230540,1,8,0:0:0:0:
320,192,230540,1,0,0:0:0:70:Cymatics - Open Hat 5.wav
448,192,230540,1,0,0:0:0:0:
192,192,230590,1,0,0:0:0:0:
448,192,230640,1,2,0:0:0:0:
320,192,230690,1,0,0:0:0:0:
64,192,230740,1,8,0:0:0:0:
192,192,230740,1,0,0:0:0:70:Cymatics - Open Hat 5.wav
448,192,230740,1,0,0:0:0:0:
320,192,230790,1,0,0:0:0:0:
64,192,230840,1,2,0:0:0:0:
192,192,230890,1,0,0:0:0:0:
64,192,230940,1,8,0:0:0:0:
320,192,230940,1,0,0:0:0:70:Cymatics - Open Hat 5.wav
448,192,230940,1,0,0:0:0:0:
192,192,230990,1,0,0:0:0:0:
448,192,231040,1,2,0:0:0:0:
320,192,231090,1,0,0:0:0:0:
64,192,231140,1,8,0:0:0:0:
192,192,231140,1,0,0:0:0:70:Cymatics - Open Hat 5.wav
448,192,231140,1,0,0:0:0:0:
320,192,231190,1,0,0:0:0:0:
64,192,231240,1,2,0:0:0:0:
192,192,231240,1,0,0:0:0:0:
448,192,231290,1,2,0:0:0:0:
192,192,231340,1,8,0:0:0:0:
320,192,231340,1,0,0:0:0:70:Cymatics - Open Hat 5.wav
64,192,231390,1,2,0:0:0:0:
320,192,231440,1,2,0:0:0:0:
448,192,231440,1,0,0:0:0:0:
64,192,231490,1,2,0:0:0:0:
192,192,231540,1,8,0:0:0:0:
448,192,231540,1,4,0:0:0:0:
320,192,231590,1,2,0:0:0:0:
64,192,231640,1,2,0:0:0:0:
192,192,231640,1,0,0:0:0:0:
448,192,231690,1,2,0:0:0:0:
192,192,231740,1,8,0:0:0:0:
320,192,231740,1,4,0:0:0:0:
64,192,231790,1,2,0:0:0:0:
320,192,231840,1,2,0:0:0:0:
448,192,231840,1,0,0:0:0:0:
192,192,231890,1,2,0:0:0:0:
64,192,231940,1,8,0:0:0:0:
448,192,231940,1,4,0:0:0:0:
320,192,231990,1,2,0:0:0:0:
64,192,232040,1,4,0:0:0:0:
192,192,232040,1,2,0:0:0:0:
448,192,232090,1,0,0:0:0:0:
64,192,232140,1,8,0:0:0:0:
192,192,232140,1,0,0:0:0:70:HHOpen.wav
320,192,232140,1,0,0:0:0:0:
448,192,232190,1,0,0:0:0:0:
320,192,232240,1,2,0:0:0:0:
192,192,232290,1,0,0:0:0:0:
64,192,232340,1,8,0:0:0:0:
320,192,232340,1,0,0:0:0:70:HHOpen.wav
448,192,232340,1,0,0:0:0:0:
192,192,232390,1,0,0:0:0:0:
448,192,232440,1,2,0:0:0:0:
320,192,232490,1,0,0:0:0:0:
64,192,232540,1,8,0:0:0:0:
192,192,232540,1,0,0:0:0:70:HHOpen.wav
448,192,232540,1,0,0:0:0:0:
320,192,232590,1,0,0:0:0:0:
192,192,232640,1,2,0:0:0:0:
64,192,232690,1,0,0:0:0:0:
192,192,232740,1,8,0:0:0:0:
320,192,232740,1,0,0:0:0:70:HHOpen.wav
448,192,232740,1,0,0:0:0:0:
64,192,232790,1,0,0:0:0:0:
448,192,232840,1,2,0:0:0:0:
320,192,232890,1,0,0:0:0:0:
64,192,232940,1,8,0:0:0:0:
192,192,232940,1,0,0:0:0:70:HHOpen.wav
448,192,232940,1,0,0:0:0:0:
320,192,232990,1,0,0:0:0:0:
64,192,233040,1,2,0:0:0:0:
192,192,233090,1,2,0:0:0:0:
64,192,233140,1,8,0:0:0:0:
320,192,233140,1,0,0:0:0:70:HHOpen.wav
448,192,233140,1,0,0:0:0:0:
192,192,233190,1,0,0:0:0:0:
448,192,233240,1,2,0:0:0:0:
320,192,233290,1,0,0:0:0:0:
64,192,233340,1,8,0:0:0:0:
192,192,233340,1,0,0:0:0:70:HHOpen.wav
448,192,233340,1,0,0:0:0:0:
320,192,233390,1,0,0:0:0:0:
192,192,233440,1,2,0:0:0:0:
64,192,233490,1,0,0:0:0:0:
192,192,233540,1,8,0:0:0:0:
320,192,233540,1,0,0:0:0:70:HHOpen.wav
448,192,233540,1,0,0:0:0:0:
64,192,233590,1,0,0:0:0:0:
448,192,233640,1,2,0:0:0:0:
320,192,233690,1,0,0:0:0:0:
64,192,233740,1,8,0:0:0:0:
192,192,233740,1,0,0:0:0:70:HHOpen.wav
448,192,233740,1,0,0:0:0:0:
320,192,233790,1,0,0:0:0:0:
64,192,233840,1,2,0:0:0:0:
192,192,233840,1,0,0:0:0:0:
64,192,233940,1,8,0:0:0:0:
320,192,233940,1,0,0:0:0:70:HHOpen.wav
448,192,233940,1,0,0:0:0:0:
192,192,234040,1,2,0:0:0:0:
320,192,234040,1,0,0:0:0:0:
64,192,234140,1,8,0:0:0:0:
192,192,234140,1,0,0:0:0:70:HHOpen.wav
448,192,234140,1,0,0:0:0:0:
320,192,234240,1,2,0:0:0:0:
448,192,234240,1,0,0:0:0:0:
64,192,234340,1,8,0:0:0:0:
192,192,234340,1,0,0:0:0:70:HHOpen.wav
320,192,234340,1,0,0:0:0:0:
64,192,234440,1,2,0:0:0:0:
192,192,234440,1,0,0:0:0:0:
64,192,234540,1,8,0:0:0:0:
320,192,234540,1,0,0:0:0:70:HHOpen.wav
448,192,234540,1,0,0:0:0:0:
448,192,234640,1,2,0:0:0:0:
320,192,234640,1,0,0:0:0:0:
192,192,234690,1,2,0:0:0:0:
64,192,234740,1,8,0:0:0:0:
448,192,234740,1,0,0:0:0:70:HHOpen.wav
320,192,234790,1,2,0:0:0:0:
64,192,234840,1,2,0:0:0:0:
192,192,234840,1,0,0:0:0:0:
320,192,234890,1,2,0:0:0:0:
64,192,234940,1,8,0:0:0:0:
192,192,234940,1,0,0:0:0:70:HHOpen.wav
448,192,234940,1,0,0:0:0:0:
320,192,235040,1,2,0:0:0:0:
448,192,235040,1,0,0:0:0:0:
64,192,235140,1,8,0:0:0:0:
192,192,235140,1,0,0:0:0:70:HHOpen.wav
320,192,235140,1,0,0:0:0:0:
64,192,235240,1,2,0:0:0:0:
192,192,235240,1,4,0:0:0:0:
448,192,235240,1,0,0:0:0:0:
64,192,235340,1,8,0:0:0:0:
320,192,235340,1,0,0:0:0:70:HHOpen.wav
448,192,235340,1,0,0:0:0:0:
192,192,235440,1,2,0:0:0:0:
320,192,235440,1,0,0:0:0:0:
64,192,235540,1,8,0:0:0:0:
192,192,235540,1,0,0:0:0:70:HHOpen.wav
448,192,235540,1,0,0:0:0:0:
64,192,235640,1,2,0:0:0:0:
320,192,235640,1,0,0:0:0:0:
192,192,235740,1,8,0:0:0:0:
320,192,235740,1,0,0:0:0:70:HHOpen.wav
448,192,235740,1,0,0:0:0:0:
64,192,235840,1,2,0:0:0:0:
192,192,235840,1,0,0:0:0:0:
64,192,235940,1,8,0:0:0:0:
320,192,235940,1,0,0:0:0:70:HHOpen.wav
448,192,235940,1,0,0:0:0:0:
192,192,236040,1,2,0:0:0:0:
448,192,236040,1,0,0:0:0:0:
64,192,236140,1,8,0:0:0:0:
192,192,236140,1,0,0:0:0:70:HHOpen.wav
320,192,236140,1,0,0:0:0:0:
320,192,236240,1,2,0:0:0:0:
448,192,236240,1,0,0:0:0:0:
192,192,236290,1,2,0:0:0:0:
64,192,236340,1,8,0:0:0:0:
320,192,236340,1,0,0:0:0:70:HHOpen.wav
448,192,236340,1,0,0:0:0:0:
64,192,236440,1,2,0:0:0:0:
192,192,236440,1,0,0:0:0:0:
192,192,236540,1,8,0:0:0:0:
320,192,236540,1,0,0:0:0:70:HHOpen.wav
448,192,236540,1,0,0:0:0:0:
320,192,236640,1,2,0:0:0:0:
448,192,236640,1,0,0:0:0:0:
64,192,236740,1,8,0:0:0:0:
192,192,236740,1,0,0:0:0:70:HHOpen.wav
448,192,236740,1,0,0:0:0:0:
64,192,236840,1,2,0:0:0:0:
192,192,236840,1,0,0:0:0:0:
320,192,236890,1,2,0:0:0:0:
64,192,236940,1,8,0:0:0:0:
448,192,236940,1,0,0:0:0:70:HHOpen.wav
192,192,236990,1,2,0:0:0:0:
320,192,237040,1,2,0:0:0:0:
448,192,237040,1,0,0:0:0:0:
64,192,237090,1,2,0:0:0:0:
320,192,237140,1,8,0:0:0:0:
448,192,237140,1,0,0:0:0:70:HHOpen.wav
192,192,237190,1,2,0:0:0:0:
64,192,237240,1,2,0:0:0:0:
448,192,237240,1,0,0:0:0:0:
320,192,237290,1,2,0:0:0:0:
64,192,237340,1,8,0:0:0:0:
192,192,237340,1,0,0:0:0:70:HHOpen.wav
448,192,237390,1,2,0:0:0:0:
64,192,237440,1,2,0:0:0:0:
192,192,237440,1,0,0:0:0:0:
320,192,237490,1,2,0:0:0:0:
64,192,237540,1,8,0:0:0:0:
448,192,237540,1,0,0:0:0:70:HHOpen.wav
192,192,237590,1,2,0:0:0:0:
320,192,237640,1,2,0:0:0:0:
448,192,237640,1,0,0:0:0:0:
64,192,237690,1,2,0:0:0:0:
320,192,237740,1,8,0:0:0:0:
448,192,237740,1,0,0:0:0:70:HHOpen.wav
192,192,237790,1,2,0:0:0:0:
64,192,237840,1,2,0:0:0:0:
448,192,237840,1,0,0:0:0:0:
320,192,237890,1,2,0:0:0:0:
64,192,237940,1,8,0:0:0:0:
192,192,237940,1,0,0:0:0:70:HHOpen.wav
448,192,237990,1,2,0:0:0:0:
64,192,238040,1,2,0:0:0:0:
192,192,238040,1,0,0:0:0:0:
320,192,238090,1,2,0:0:0:0:
64,192,238140,1,8,0:0:0:0:
448,192,238140,1,0,0:0:0:70:HHOpen.wav
192,192,238190,1,2,0:0:0:0:
320,192,238240,1,2,0:0:0:0:
64,192,238290,1,2,0:0:0:0:
192,192,238340,1,8,0:0:0:0:
320,192,238390,1,2,0:0:0:0:
64,192,238440,128,4,238540:0:0:0:0:
192,192,238440,128,2,238540:0:0:0:0:
448,192,238440,128,0,238540:0:0:0:0:
64,192,238640,1,2,0:0:0:0:
192,192,238640,1,0,0:0:0:0:
192,192,238740,128,4,238840:0:0:0:0:
320,192,238740,128,2,238840:0:0:0:0:
448,192,238740,128,0,238840:0:0:0:0:
320,192,238940,1,2,0:0:0:0:
192,192,238990,1,2,0:0:0:0:
64,192,239040,128,8,239140:0:0:0:0:
320,192,239040,128,4,239140:0:0:0:0:
448,192,239040,128,0,239140:0:0:0:0:
192,192,239240,1,2,0:0:0:0:
320,192,239240,1,0,0:0:0:0:
64,192,239340,128,4,239440:0:0:0:0:
192,192,239340,128,8,239440:0:0:0:0:
448,192,239340,128,0,239440:0:0:0:0:
320,192,239540,128,2,239640:0:0:0:0:
64,192,239540,128,4,239740:0:0:0:0:
448,192,239540,128,0,239740:0:0:0:0:
192,192,239640,128,2,239740:0:0:0:0:
192,192,239840,128,8,239940:0:0:0:0:
320,192,239840,128,4,239940:0:0:0:0:
448,192,239840,128,0,239940:0:0:0:0:
192,192,240040,128,8,240140:0:0:0:0:
320,192,240040,128,4,240140:0:0:0:0:
448,192,240040,128,0,240140:0:0:0:0:
320,192,240240,1,2,0:0:0:0:
448,192,240240,1,0,0:0:0:0:
192,192,240290,1,2,0:0:0:0:
64,192,240340,1,8,0:0:0:0:
320,192,240340,1,4,0:0:0:0:
448,192,240340,1,0,0:0:0:0:
64,192,240440,1,0,0:0:0:70:Cymatics - Open Hat 5.wav
192,192,240490,1,0,0:0:0:70:Cymatics - Open Hat 5.wav
320,192,240540,1,0,0:0:0:70:Cymatics - Open Hat 5.wav
64,192,240590,1,0,0:0:0:70:Cymatics - Open Hat 5.wav
192,192,240640,1,0,0:0:0:70:Cymatics - Open Hat 5.wav
320,192,240690,1,0,0:0:0:0:
64,192,240740,128,4,240940:0:0:0:0:
192,192,240740,128,2,240840:0:0:0:0:
448,192,240740,128,0,240940:0:0:0:0:
320,192,240840,128,2,240940:0:0:0:0:
64,192,241040,1,8,0:0:0:0:
320,192,241040,128,4,241140:0:0:0:0:
448,192,241040,128,0,241140:0:0:0:0:
192,192,241140,1,2,0:0:0:0:
64,192,241190,1,2,0:0:0:0:
320,192,241240,1,2,0:0:0:0:
192,192,241290,1,2,0:0:0:0:
64,192,241340,1,8,0:0:0:0:
320,192,241340,1,4,0:0:0:0:
448,192,241340,1,0,0:0:0:0:
192,192,241440,1,2,0:0:0:0:
320,192,241490,1,2,0:0:0:0:
64,192,241540,1,8,0:0:0:0:
192,192,241540,1,4,0:0:0:0:
448,192,241540,1,0,0:0:0:0:
64,192,241640,1,2,0:0:0:0:
192,192,241640,1,0,0:0:0:0:
448,192,241690,1,2,0:0:0:0:
320,192,241740,1,2,0:0:0:0:
192,192,241790,1,2,0:0:0:0:
64,192,241840,1,2,0:0:0:0:
320,192,241890,1,2,0:0:0:0:
192,192,241940,1,2,0:0:0:0:
448,192,241940,1,0,0:0:0:0:
64,192,241990,1,2,0:0:0:0:
320,192,242040,1,2,0:0:0:0:
192,192,242090,1,2,0:0:0:0:
64,192,242140,1,2,0:0:0:0:
448,192,242140,1,0,0:0:0:0:
320,192,242190,1,2,0:0:0:0:
192,192,242240,1,2,0:0:0:0:
64,192,242290,1,2,0:0:0:0:
320,192,242340,128,2,242440:0:0:0:0:
448,192,242340,128,0,242440:0:0:0:0:
64,192,242540,1,2,0:0:0:0:
192,192,242540,1,4,0:0:0:0:
448,192,242540,1,0,0:0:0:0:
64,192,242640,1,8,0:0:0:0:
320,192,242640,1,0,0:0:0:70:HHOpen.wav
448,192,242640,1,0,0:0:0:0:
192,192,242740,1,2,0:0:0:0:
320,192,242740,1,0,0:0:0:0:
64,192,242840,1,8,0:0:0:0:
192,192,242840,1,0,0:0:0:70:HHOpen.wav
448,192,242840,1,0,0:0:0:0:
64,192,242940,1,2,0:0:0:0:
320,192,242940,1,0,0:0:0:0:
192,192,243040,1,8,0:0:0:0:
320,192,243040,1,0,0:0:0:70:HHOpen.wav
448,192,243040,1,0,0:0:0:0:
64,192,243140,1,2,0:0:0:0:
448,192,243140,1,0,0:0:0:0:
64,192,243240,1,8,0:0:0:0:
192,192,243240,1,0,0:0:0:70:HHOpen.wav
320,192,243240,1,0,0:0:0:0:
320,192,243340,1,2,0:0:0:0:
448,192,243340,1,0,0:0:0:0:
64,192,243440,1,8,0:0:0:0:
192,192,243440,1,0,0:0:0:70:HHOpen.wav
448,192,243440,1,0,0:0:0:0:
64,192,243540,1,2,0:0:0:0:
192,192,243540,1,0,0:0:0:0:
320,192,243590,1,2,0:0:0:0:
64,192,243640,1,8,0:0:0:0:
192,192,243640,1,0,0:0:0:70:HHOpen.wav
448,192,243640,1,0,0:0:0:0:
192,192,243740,1,2,0:0:0:0:
320,192,243740,1,0,0:0:0:0:
64,192,243840,1,8,0:0:0:0:
320,192,243840,1,0,0:0:0:70:HHOpen.wav
448,192,243840,1,0,0:0:0:0:
64,192,243940,1,2,0:0:0:0:
192,192,243940,1,0,0:0:0:0:
192,192,244040,1,8,0:0:0:0:
320,192,244040,1,0,0:0:0:70:HHOpen.wav
448,192,244040,1,0,0:0:0:0:
64,192,244140,1,2,0:0:0:0:
192,192,244190,1,0,0:0:0:0:
64,192,244240,1,8,0:0:0:0:
320,192,244240,1,0,0:0:0:70:HHOpen.wav
448,192,244240,1,0,0:0:0:0:
192,192,244290,1,0,0:0:0:0:
448,192,244340,1,2,0:0:0:0:
320,192,244390,1,0,0:0:0:0:
64,192,244440,1,8,0:0:0:0:
192,192,244440,1,0,0:0:0:70:HHOpen.wav
448,192,244440,1,0,0:0:0:0:
320,192,244490,1,0,0:0:0:0:
64,192,244540,1,2,0:0:0:0:
192,192,244590,1,0,0:0:0:0:
64,192,244640,1,8,0:0:0:0:
320,192,244640,1,0,0:0:0:70:HHOpen.wav
448,192,244640,1,0,0:0:0:0:
192,192,244690,1,0,0:0:0:0:
320,192,244740,1,2,0:0:0:0:
448,192,244790,1,0,0:0:0:0:
64,192,244840,1,8,0:0:0:0:
192,192,244840,1,0,0:0:0:70:HHOpen.wav
320,192,244840,1,0,0:0:0:0:
448,192,244890,1,0,0:0:0:0:
192,192,244940,1,2,0:0:0:0:
64,192,244990,1,0,0:0:0:0:
192,192,245040,1,8,0:0:0:0:
320,192,245040,1,0,0:0:0:70:HHOpen.wav
448,192,245040,1,0,0:0:0:0:
64,192,245090,1,0,0:0:0:0:
320,192,245140,1,2,0:0:0:0:
448,192,245140,1,0,0:0:0:0:
192,192,245190,1,2,0:0:0:0:
64,192,245240,1,8,0:0:0:0:
448,192,245240,1,0,0:0:0:70:HHOpen.wav
320,192,245290,1,2,0:0:0:0:
64,192,245340,1,2,0:0:0:0:
192,192,245340,1,0,0:0:0:0:
320,192,245390,1,2,0:0:0:0:
64,192,245440,1,8,0:0:0:0:
192,192,245440,1,0,0:0:0:70:HHOpen.wav
320,192,245490,1,0,0:0:0:0:
64,192,245540,1,2,0:0:0:0:
448,192,245540,1,0,0:0:0:0:
192,192,245590,1,0,0:0:0:0:
320,192,245640,1,8,0:0:0:0:
448,192,245640,1,0,0:0:0:70:HHOpen.wav
192,192,245690,1,0,0:0:0:0:
64,192,245740,1,4,0:0:0:0:
320,192,245740,1,2,0:0:0:0:
448,192,245740,1,0,0:0:0:0:
64,192,245840,1,8,0:0:0:0:
192,192,245840,1,0,0:0:0:70:HHOpen.wav
448,192,245840,1,0,0:0:0:0:
192,192,245940,1,2,0:0:0:0:
320,192,245940,1,0,0:0:0:0:
64,192,246040,1,8,0:0:0:0:
320,192,246040,1,0,0:0:0:70:HHOpen.wav
448,192,246040,1,0,0:0:0:0:
192,192,246140,1,2,0:0:0:0:
448,192,246140,1,0,0:0:0:0:
64,192,246240,1,8,0:0:0:0:
192,192,246240,1,0,0:0:0:70:HHOpen.wav
320,192,246240,1,0,0:0:0:0:
320,192,246340,1,2,0:0:0:0:
448,192,246340,1,0,0:0:0:0:
64,192,246440,1,8,0:0:0:0:
192,192,246440,1,0,0:0:0:70:HHOpen.wav
448,192,246440,1,0,0:0:0:0:
64,192,246540,1,2,0:0:0:0:
320,192,246540,1,0,0:0:0:0:
192,192,246640,1,8,0:0:0:0:
320,192,246640,1,0,0:0:0:70:HHOpen.wav
448,192,246640,1,0,0:0:0:0:
64,192,246740,1,2,0:0:0:0:
192,192,246740,1,0,0:0:0:0:
320,192,246790,1,2,0:0:0:0:
64,192,246840,1,8,0:0:0:0:
192,192,246840,1,0,0:0:0:70:HHOpen.wav
448,192,246840,1,0,0:0:0:0:
320,192,246940,1,2,0:0:0:0:
448,192,246940,1,0,0:0:0:0:
64,192,247040,1,8,0:0:0:0:
192,192,247040,1,0,0:0:0:70:HHOpen.wav
448,192,247040,1,0,0:0:0:0:
320,192,247140,1,2,0:0:0:0:
192,192,247190,1,0,0:0:0:0:
64,192,247240,1,8,0:0:0:0:
448,192,247240,1,0,0:0:0:70:HHOpen.wav
320,192,247290,1,2,0:0:0:0:
64,192,247340,1,2,0:0:0:0:
192,192,247340,1,0,0:0:0:0:
448,192,247390,1,2,0:0:0:0:
192,192,247440,1,8,0:0:0:0:
320,192,247440,1,0,0:0:0:70:HHOpen.wav
64,192,247490,1,2,0:0:0:0:
320,192,247540,1,2,0:0:0:0:
448,192,247540,1,0,0:0:0:0:
64,192,247590,1,2,0:0:0:0:
192,192,247640,1,8,0:0:0:0:
320,192,247640,1,0,0:0:0:70:HHOpen.wav
448,192,247690,1,2,0:0:0:0:
64,192,247740,1,2,0:0:0:0:
192,192,247740,1,0,0:0:0:0:
448,192,247790,1,2,0:0:0:0:
192,192,247840,1,8,0:0:0:0:
320,192,247840,1,0,0:0:0:70:HHOpen.wav
64,192,247890,1,2,0:0:0:0:
320,192,247940,1,2,0:0:0:0:
448,192,247940,1,0,0:0:0:0:
64,192,247990,1,2,0:0:0:0:
192,192,248040,1,8,0:0:0:0:
320,192,248040,1,0,0:0:0:70:HHOpen.wav
448,192,248090,1,2,0:0:0:0:
64,192,248140,1,2,0:0:0:0:
192,192,248140,1,0,0:0:0:0:
448,192,248190,1,2,0:0:0:0:
192,192,248240,1,8,0:0:0:0:
320,192,248240,1,0,0:0:0:70:HHOpen.wav
64,192,248290,1,2,0:0:0:0:
320,192,248340,1,2,0:0:0:0:
448,192,248340,1,0,0:0:0:0:
192,192,248390,1,2,0:0:0:0:
64,192,248440,1,8,0:0:0:0:
320,192,248440,1,4,0:0:0:0:
448,192,248440,1,0,0:0:0:0:
192,192,248540,1,0,0:0:0:70:tom1.wav
320,192,248590,1,0,0:0:0:70:tom1.wav
448,192,248640,1,0,0:0:0:70:tom2.wav
64,192,248690,1,0,0:0:0:70:tom2.wav
320,192,248740,1,0,0:0:0:70:tom3.wav
192,192,248790,1,0,0:0:0:70:tom3.wav
64,192,248840,1,0,0:0:0:70:tom4.wav
320,192,248890,1,0,0:0:0:70:tom4.wav
64,192,248940,1,4,0:0:0:0:
192,192,248940,1,2,0:0:0:0:
448,192,248940,1,0,0:0:0:0:
320,192,248990,1,0,0:0:0:0:
64,192,249040,1,2,0:0:0:0:
192,192,249040,1,0,0:0:0:70:Cymatics - Open Hat 5.wav
448,192,249090,1,0,0:0:0:0:
192,192,249140,1,2,0:0:0:0:
320,192,249140,1,0,0:0:0:0:
64,192,249190,1,0,0:0:0:0:
320,192,249240,1,2,0:0:0:0:
448,192,249240,1,0,0:0:0:70:Cymatics - Open Hat 5.wav
192,192,249290,1,0,0:0:0:0:
64,192,249340,1,2,0:0:0:0:
448,192,249340,1,0,0:0:0:0:
320,192,249390,1,0,0:0:0:0:
64,192,249440,1,2,0:0:0:0:
192,192,249440,1,0,0:0:0:70:Cymatics - Open Hat 5.wav
320,192,249490,1,0,0:0:0:0:
192,192,249540,1,2,0:0:0:0:
448,192,249540,1,0,0:0:0:0:
64,192,249590,1,0,0:0:0:0:
320,192,249640,1,2,0:0:0:0:
448,192,249640,1,0,0:0:0:70:Cymatics - Open Hat 5.wav
64,192,249690,1,0,0:0:0:0:
192,192,249740,1,2,0:0:0:0:
448,192,249740,1,0,0:0:0:0:
320,192,249790,1,0,0:0:0:0:
64,192,249840,1,2,0:0:0:0:
192,192,249840,1,0,0:0:0:70:Cymatics - Open Hat 5.wav
448,192,249890,1,0,0:0:0:0:
192,192,249940,1,2,0:0:0:0:
320,192,249940,1,0,0:0:0:0:
64,192,249990,1,0,0:0:0:0:
320,192,250040,1,2,0:0:0:0:
448,192,250040,1,0,0:0:0:70:Cymatics - Open Hat 5.wav
64,192,250090,1,0,0:0:0:0:
192,192,250140,1,2,0:0:0:0:
448,192,250140,1,0,0:0:0:0:
320,192,250190,1,0,0:0:0:0:
64,192,250240,1,2,0:0:0:0:
192,192,250240,1,0,0:0:0:70:Cymatics - Open Hat 5.wav
320,192,250290,1,0,0:0:0:0:
64,192,250340,1,2,0:0:0:0:
448,192,250340,1,0,0:0:0:0:
192,192,250390,1,0,0:0:0:0:
320,192,250440,1,2,0:0:0:0:
448,192,250440,1,0,0:0:0:70:Cymatics - Open Hat 5.wav
64,192,250490,1,0,0:0:0:0:
192,192,250540,1,2,0:0:0:0:
320,192,250540,1,0,0:0:0:0:
448,192,250590,1,0,0:0:0:0:
64,192,250640,1,2,0:0:0:0:
192,192,250640,1,0,0:0:0:70:Cymatics - Open Hat 5.wav
448,192,250690,1,0,0:0:0:0:
64,192,250740,1,2,0:0:0:0:
320,192,250740,1,0,0:0:0:0:
192,192,250790,1,0,0:0:0:0:
320,192,250840,1,2,0:0:0:0:
448,192,250840,1,0,0:0:0:70:Cymatics - Open Hat 5.wav
64,192,250890,1,0,0:0:0:0:
192,192,250940,1,2,0:0:0:0:
448,192,250940,1,0,0:0:0:0:
320,192,250990,1,0,0:0:0:0:
64,192,251040,1,2,0:0:0:0:
192,192,251040,1,0,0:0:0:70:Cymatics - Open Hat 5.wav
448,192,251090,1,0,0:0:0:0:
64,192,251140,1,2,0:0:0:0:
320,192,251140,1,0,0:0:0:0:
192,192,251190,1,0,0:0:0:0:
320,192,251240,1,2,0:0:0:0:
448,192,251240,1,0,0:0:0:70:Cymatics - Open Hat 5.wav
192,192,251290,1,0,0:0:0:0:
64,192,251340,1,0,0:0:0:70:tom1.wav
448,192,251340,1,0,0:0:0:0:
320,192,251390,1,0,0:0:0:70:tom1.wav
192,192,251440,1,0,0:0:0:70:tom1.wav
64,192,251490,1,0,0:0:0:70:tom1.wav
448,192,251540,1,0,0:0:0:70:tom2.wav
192,192,251590,1,0,0:0:0:70:tom2.wav
64,192,251640,1,0,0:0:0:70:tom2.wav
448,192,251690,1,0,0:0:0:70:tom2.wav
320,192,251740,1,0,0:0:0:70:tom3.wav
64,192,251790,1,0,0:0:0:70:tom3.wav
448,192,251840,1,0,0:0:0:70:tom4.wav
320,192,251890,1,0,0:0:0:70:tom4.wav
64,192,251940,1,8,0:0:0:0:
192,192,251940,1,0,0:0:0:0:
448,192,251940,1,0,0:0:0:0:
64,192,252040,1,8,0:0:0:0:
192,192,252040,1,0,0:0:0:0:
320,192,252040,1,0,0:0:0:0:
192,192,252140,1,2,0:0:0:0:
320,192,252140,1,4,0:0:0:0:
448,192,252140,1,0,0:0:0:0:
64,192,252240,1,8,0:0:0:0:
320,192,252240,1,0,0:0:0:70:Cymatics - Open Hat 5.wav
448,192,252240,1,0,0:0:0:0:
64,192,252340,1,2,0:0:0:0:
192,192,252340,1,0,0:0:0:0:
192,192,252440,1,8,0:0:0:0:
320,192,252440,1,0,0:0:0:70:Cymatics - Open Hat 5.wav
448,192,252440,1,0,0:0:0:0:
64,192,252540,1,2,0:0:0:0:
448,192,252540,1,0,0:0:0:0:
64,192,252640,1,8,0:0:0:0:
192,192,252640,1,0,0:0:0:70:Cymatics - Open Hat 5.wav
320,192,252640,1,0,0:0:0:0:
192,192,252740,1,2,0:0:0:0:
448,192,252740,1,0,0:0:0:0:
64,192,252840,1,8,0:0:0:0:
320,192,252840,1,0,0:0:0:70:Cymatics - Open Hat 5.wav
448,192,252840,1,0,0:0:0:0:
192,192,252940,1,2,0:0:0:0:
320,192,252940,1,0,0:0:0:0:
64,192,253040,1,8,0:0:0:0:
192,192,253040,1,0,0:0:0:70:Cymatics - Open Hat 5.wav
448,192,253040,1,0,0:0:0:0:
320,192,253140,1,2,0:0:0:0:
448,192,253140,1,0,0:0:0:0:
192,192,253190,1,2,0:0:0:0:
64,192,253240,1,8,0:0:0:0:
320,192,253240,1,0,0:0:0:70:Cymatics - Open Hat 5.wav
448,192,253240,1,0,0:0:0:0:
64,192,253340,1,2,0:0:0:0:
192,192,253340,1,0,0:0:0:0:
192,192,253440,1,8,0:0:0:0:
320,192,253440,1,0,0:0:0:70:Cymatics - Open Hat 5.wav
448,192,253440,1,0,0:0:0:0:
64,192,253540,1,2,0:0:0:0:
448,192,253540,1,0,0:0:0:0:
64,192,253640,1,8,0:0:0:0:
192,192,253640,1,0,0:0:0:70:Cymatics - Open Hat 5.wav
320,192,253640,1,0,0:0:0:0:
320,192,253740,1,2,0:0:0:0:
448,192,253740,1,0,0:0:0:0:
64,192,253790,1,2,0:0:0:0:
192,192,253840,1,8,0:0:0:0:
320,192,253840,1,0,0:0:0:70:Cymatics - Open Hat 5.wav
448,192,253890,1,2,0:0:0:0:
64,192,253940,1,2,0:0:0:0:
192,192,253940,1,0,0:0:0:0:
448,192,253990,1,2,0:0:0:0:
192,192,254040,1,8,0:0:0:0:
320,192,254040,1,0,0:0:0:70:Cymatics - Open Hat 5.wav
64,192,254090,1,2,0:0:0:0:
320,192,254140,1,2,0:0:0:0:
448,192,254140,1,0,0:0:0:0:
64,192,254190,1,2,0:0:0:0:
192,192,254240,1,8,0:0:0:0:
320,192,254240,1,0,0:0:0:70:Cymatics - Open Hat 5.wav
448,192,254290,1,2,0:0:0:0:
64,192,254340,1,2,0:0:0:0:
192,192,254340,1,0,0:0:0:0:
448,192,254390,1,2,0:0:0:0:
192,192,254440,1,8,0:0:0:0:
320,192,254440,1,0,0:0:0:70:Cymatics - Open Hat 5.wav
64,192,254490,1,2,0:0:0:0:
320,192,254540,1,2,0:0:0:0:
448,192,254540,1,0,0:0:0:0:
64,192,254590,1,2,0:0:0:0:
192,192,254640,1,0,0:0:0:70:Cymatics - Open Hat 5.wav
320,192,254640,1,0,0:0:0:0:
448,192,254690,1,2,0:0:0:0:
64,192,254740,1,2,0:0:0:0:
192,192,254740,1,0,0:0:0:0:
320,192,254790,1,2,0:0:0:0:
64,192,254840,1,8,0:0:0:0:
192,192,254840,1,4,0:0:0:0:
448,192,254840,1,0,0:0:0:0:
320,192,254940,1,2,0:0:0:0:
448,192,254940,1,0,0:0:0:0:
192,192,254990,1,2,0:0:0:0:
64,192,255040,1,8,0:0:0:0:
320,192,255040,1,4,0:0:0:0:
448,192,255040,1,0,0:0:0:0:
64,192,255140,1,8,0:0:0:0:
192,192,255140,1,0,0:0:0:0:
320,192,255190,1,2,0:0:0:0:
192,192,255240,1,2,0:0:0:0:
320,192,255290,1,2,0:0:0:0:
64,192,255340,128,4,255440:0:0:0:0:
192,192,255340,128,2,255440:0:0:0:0:
448,192,255340,128,0,255440:0:0:0:0:
192,192,255540,1,2,0:0:0:0:
320,192,255540,1,0,0:0:0:0:
64,192,255640,128,4,255740:0:0:0:0:
320,192,255640,128,2,255740:0:0:0:0:
448,192,255640,128,0,255740:0:0:0:0:
192,192,255840,1,2,0:0:0:0:
320,192,255890,1,2,0:0:0:0:
64,192,255940,128,8,256040:0:0:0:0:
192,192,255940,128,4,256040:0:0:0:0:
448,192,255940,128,0,256040:0:0:0:0:
192,192,256140,1,2,0:0:0:0:
320,192,256140,1,0,0:0:0:0:
192,192,256240,128,4,256340:0:0:0:0:
320,192,256240,128,8,256340:0:0:0:0:
448,192,256240,128,0,256340:0:0:0:0:
320,192,256440,128,8,256540:0:0:0:0:
448,192,256440,128,0,256640:0:0:0:0:
64,192,256440,128,4,256640:0:0:0:0:
192,192,256540,128,2,256640:0:0:0:0:
64,192,256740,128,8,256840:0:0:0:0:
192,192,256740,128,4,256840:0:0:0:0:
320,192,256740,128,0,256840:0:0:0:0:
64,192,256940,128,8,257040:0:0:0:0:
192,192,256940,128,4,257040:0:0:0:0:
320,192,256940,128,0,257040:0:0:0:0:
64,192,257140,1,2,0:0:0:0:
192,192,257140,1,0,0:0:0:0:
320,192,257190,1,2,0:0:0:0:
64,192,257240,1,8,0:0:0:0:
192,192,257240,1,4,0:0:0:0:
448,192,257240,1,0,0:0:0:0:
448,192,257340,1,0,0:0:0:70:Cymatics - Open Hat 5.wav
320,192,257390,1,0,0:0:0:70:Cymatics - Open Hat 5.wav
192,192,257440,1,0,0:0:0:70:Cymatics - Open Hat 5.wav
448,192,257490,1,0,0:0:0:70:Cymatics - Open Hat 5.wav
320,192,257540,1,0,0:0:0:70:Cymatics - Open Hat 5.wav
192,192,257590,1,0,0:0:0:0:
64,192,257640,128,4,257840:0:0:0:0:
320,192,257640,128,2,257740:0:0:0:0:
448,192,257640,128,0,257840:0:0:0:0:
192,192,257740,128,2,257840:0:0:0:0:
64,192,257940,128,8,258040:0:0:0:0:
320,192,257940,128,0,258040:0:0:0:0:
448,192,257940,128,0,258040:0:0:0:0:
320,192,258140,1,2,0:0:0:0:
448,192,258140,1,0,0:0:0:0:
192,192,258190,1,2,0:0:0:0:
64,192,258240,128,2,258340:0:0:0:0:
448,192,258240,128,0,258340:0:0:0:0:
64,192,258440,1,8,0:0:0:0:
192,192,258440,1,0,0:0:0:0:
320,192,258440,1,0,0:0:0:0:
320,192,258540,128,2,258640:0:0:0:0:
448,192,258540,128,0,258640:0:0:0:0:
64,192,258740,1,4,0:0:0:0:
192,192,258740,1,8,0:0:0:0:
448,192,258740,1,0,0:0:0:0:
64,192,258840,1,8,0:0:0:0:
320,192,258840,1,0,0:0:0:0:
448,192,258840,1,0,0:0:0:0:
192,192,258940,1,8,0:0:0:0:
320,192,258940,1,0,0:0:0:0:
64,192,259040,1,8,0:0:0:0:
192,192,259040,1,0,0:0:0:0:
320,192,259140,1,2,0:0:0:0:
448,192,259140,1,0,0:0:0:0:
64,192,259240,1,2,0:0:0:0:
192,192,259240,1,0,0:0:0:0:
320,192,259340,1,2,0:0:0:0:
448,192,259340,1,0,0:0:0:0:
64,192,259406,1,2,0:0:0:0:
192,192,259406,1,0,0:0:0:0:
320,192,259473,1,2,0:0:0:0:
64,192,259540,1,2,0:0:0:0:
448,192,259540,1,0,0:0:0:0:
192,192,259606,1,2,0:0:0:0:
320,192,259673,1,2,0:0:0:0:
448,192,259673,1,0,0:0:0:0:
64,192,259740,1,2,0:0:0:0:
192,192,259740,1,0,0:0:0:0:
448,192,259806,1,2,0:0:0:0:
320,192,259873,1,2,0:0:0:0:
64,192,259940,1,8,0:0:0:0:
192,192,259940,1,0,0:0:0:70:Cymatics - Open Hat 5.wav
448,192,259940,1,0,0:0:0:0:
64,192,260140,1,2,0:0:0:0:
320,192,260140,1,0,0:0:0:0:
448,192,260140,1,0,0:0:0:0:
64,192,260240,1,2,0:0:0:0:
192,192,260240,1,0,0:0:0:0:
320,192,260340,1,0,0:0:0:0:
448,192,260340,1,0,0:0:0:0:
64,192,260440,128,8,260540:0:0:0:0:
192,192,260440,128,0,260540:0:0:0:0:
448,192,260440,128,0,260540:0:0:0:0:
320,192,260640,1,2,0:0:0:0:
448,192,260640,1,0,0:0:0:0:
64,192,260740,1,8,0:0:0:0:
192,192,260740,1,0,0:0:0:0:
448,192,260740,1,0,0:0:0:0:
192,192,260840,1,0,0:0:0:0:
320,192,260840,1,0,0:0:0:0:
320,192,260940,128,2,261040:0:0:0:0:
448,192,260940,128,0,261040:0:0:0:0:
64,192,261140,1,2,0:0:0:0:
192,192,261140,1,0,0:0:0:0:
320,192,261206,1,2,0:0:0:0:
448,192,261206,1,0,0:0:0:0:
192,192,261273,1,2,0:0:0:0:
64,192,261340,128,8,261440:0:0:0:0:
320,192,261340,128,4,261440:0:0:0:0:
448,192,261340,128,0,261440:0:0:0:0:
64,192,261540,128,8,261640:0:0:0:0:
192,192,261540,128,4,261640:0:0:0:0:
448,192,261540,128,0,261640:0:0:0:0:
320,192,261740,1,2,0:0:0:0:
448,192,261740,1,0,0:0:0:0:
64,192,261806,1,8,0:0:0:0:
192,192,261806,1,0,0:0:0:0:
64,192,261973,1,2,0:0:0:0:
192,192,261973,1,0,0:0:0:0:
192,192,262106,1,2,0:0:0:0:
320,192,262106,1,0,0:0:0:0:
64,192,262240,128,2,262740:0:0:0:0:
320,192,262240,128,4,262740:0:0:0:0:
448,192,262240,128,0,262740:0:0:0:0:
320,192,262840,1,8,0:0:0:0:
448,192,262840,1,0,0:0:0:0:
64,192,262906,1,8,0:0:0:0:
192,192,262906,1,0,0:0:0:0:
320,192,262973,1,8,0:0:0:0:
64,192,263040,1,2,0:0:0:0:
192,192,263040,1,4,0:0:0:0:
448,192,263040,1,0,0:0:0:0:
320,192,263173,1,0,0:0:0:0:
448,192,263173,1,0,0:0:0:0:
64,192,263306,1,8,0:0:0:0:
192,192,263306,1,0,0:0:0:0:
192,192,263440,1,0,0:0:0:0:
320,192,263440,1,0,0:0:0:0:
320,192,263573,1,2,0:0:0:0:
448,192,263573,1,0,0:0:0:0:
64,192,263706,1,2,0:0:0:0:
448,192,263706,1,0,0:0:0:0:
64,192,263840,1,8,0:0:0:0:
192,192,263840,1,0,0:0:0:0:
320,192,263840,1,0,0:0:0:0:
320,192,263973,1,2,0:0:0:0:
448,192,263973,1,0,0:0:0:0:
64,192,264106,1,2,0:0:0:0:
192,192,264106,1,0,0:0:0:0:
64,192,264240,128,4,264440:0:0:0:0:
320,192,264240,128,2,264440:0:0:0:0:
448,192,264240,128,0,264440:0:0:0:0:
64,192,264640,1,2,0:0:0:0:
192,192,264640,1,4,0:0:0:0:
448,192,264640,128,0,264940:0:0:0:0:
320,192,264940,128,0,265240:0:0:0:0:
192,192,265040,1,0,0:0:0:70:HHOpen.wav
64,192,265240,128,0,265440:0:0:0:0:
448,192,265440,128,0,265840:0:0:0:0:
64,192,265840,128,0,266040:0:0:0:70:HHOpen.wav
320,192,265840,1,0,0:0:0:0:
192,192,266040,128,0,266240:0:0:0:0:
320,192,266240,1,0,0:0:0:0:
448,192,266240,128,0,266590:0:0:0:0:
320,192,266590,128,0,266840:0:0:0:0:
192,192,266640,1,0,0:0:0:70:HHOpen.wav
64,192,266840,128,0,267040:0:0:0:0:
320,192,267040,1,2,0:0:0:0:
448,192,267040,128,0,267440:0:0:0:0:
64,192,267440,128,2,267640:0:0:0:0:
192,192,267440,1,4,0:0:0:0:
320,192,267440,1,0,0:0:0:0:
192,192,267640,128,0,267840:0:0:0:0:
320,192,267840,128,0,268140:0:0:0:0:
192,192,268140,128,0,268440:0:0:0:0:
64,192,268240,1,2,0:0:0:0:
320,192,268240,1,0,0:0:0:70:HHOpen.wav
448,192,268240,1,0,0:0:0:0:
64,192,268440,128,0,268640:0:0:0:0:
448,192,268640,128,0,268840:0:0:0:0:
192,192,268840,128,0,269040:0:0:0:0:
64,192,269040,128,2,269240:0:0:0:0:
320,192,269040,1,4,0:0:0:0:
448,192,269040,1,0,0:0:0:0:
320,192,269240,128,0,269440:0:0:0:0:
448,192,269440,128,0,269740:0:0:0:0:
64,192,269740,128,0,270040:0:0:0:0:
192,192,269840,1,2,0:0:0:0:
320,192,269840,1,4,0:0:0:0:
448,192,269840,1,0,0:0:0:0:
448,192,270040,128,0,270240:0:0:0:0:
64,192,270240,1,2,0:0:0:0:
192,192,270240,1,4,0:0:0:0:
320,192,270240,128,0,270540:0:0:0:0:
192,192,270540,128,0,271040:0:0:0:0:
64,192,270640,1,2,0:0:0:0:
320,192,270640,1,4,0:0:0:0:
448,192,270640,1,0,0:0:0:0:
64,192,271040,1,4,0:0:0:0:
320,192,271040,1,2,0:0:0:0:
448,192,271040,1,0,0:0:0:0:
192,192,271106,1,2,0:0:0:0:
320,192,271173,1,2,0:0:0:0:
64,192,271240,1,8,0:0:0:0:
192,192,271240,1,0,0:0:0:70:Cymatics - Open Hihat 1.wav
320,192,271340,1,0,0:0:0:0:
448,192,271340,1,0,0:0:0:0:
64,192,271340,1,0,0:0:0:0:
192,192,271440,1,2,0:0:0:0:
448,192,271440,1,0,0:0:0:70:HHOpen.wav
64,192,271540,1,2,0:0:0:0:
320,192,271540,1,0,0:0:0:0:
64,192,271640,1,8,0:0:0:0:
192,192,271640,1,0,0:0:0:70:Cymatics - Open Hihat 1.wav
448,192,271640,1,0,0:0:0:0:
320,192,271740,1,0,0:0:0:0:
448,192,271740,1,0,0:0:0:0:
64,192,271840,1,2,0:0:0:0:
192,192,271840,1,0,0:0:0:70:HHOpen.wav
320,192,271840,1,0,0:0:0:0:
64,192,271940,1,0,0:0:0:0:
192,192,271940,1,0,0:0:0:0:
64,192,272040,1,8,0:0:0:0:
192,192,272040,1,0,0:0:0:70:Cymatics - Open Hihat 1.wav
64,192,272140,1,2,0:0:0:0:
192,192,272140,1,0,0:0:0:0:
64,192,272240,1,2,0:0:0:0:
320,192,272240,1,0,0:0:0:70:HHOpen.wav
448,192,272240,1,0,0:0:0:0:
192,192,272340,1,2,0:0:0:0:
320,192,272340,1,0,0:0:0:0:
64,192,272440,1,8,0:0:0:0:
192,192,272440,1,0,0:0:0:70:Cymatics - Open Hihat 1.wav
448,192,272440,1,0,0:0:0:0:
320,192,272540,1,0,0:0:0:0:
448,192,272540,1,0,0:0:0:0:
64,192,272640,1,2,0:0:0:0:
192,192,272640,1,0,0:0:0:70:HHOpen.wav
320,192,272640,1,0,0:0:0:0:
64,192,272740,1,0,0:0:0:0:
448,192,272740,1,0,0:0:0:0:
192,192,272840,1,8,0:0:0:0:
320,192,272840,1,0,0:0:0:70:Cymatics - Open Hihat 1.wav
64,192,272940,1,0,0:0:0:0:
320,192,272940,1,0,0:0:0:0:
448,192,272940,1,0,0:0:0:0:
64,192,273040,1,2,0:0:0:0:
192,192,273040,1,0,0:0:0:70:HHOpen.wav
320,192,273140,1,2,0:0:0:0:
448,192,273140,1,0,0:0:0:0:
64,192,273240,1,8,0:0:0:0:
192,192,273240,1,0,0:0:0:70:Cymatics - Open Hihat 1.wav
448,192,273240,1,0,0:0:0:0:
192,192,273340,1,0,0:0:0:0:
320,192,273340,1,0,0:0:0:0:
64,192,273440,1,2,0:0:0:0:
320,192,273440,1,0,0:0:0:70:HHOpen.wav
448,192,273440,1,0,0:0:0:0:
320,192,273540,1,0,0:0:0:0:
448,192,273540,1,0,0:0:0:0:
320,192,273640,1,8,0:0:0:0:
448,192,273640,1,0,0:0:0:70:Cymatics - Open Hihat 1.wav
320,192,273740,1,2,0:0:0:0:
448,192,273740,1,0,0:0:0:0:
64,192,273840,1,0,0:0:0:70:HHOpen.wav
192,192,273840,1,0,0:0:0:0:
448,192,273840,1,0,0:0:0:0:
64,192,273940,1,2,0:0:0:0:
320,192,273940,1,0,0:0:0:0:
192,192,274040,1,8,0:0:0:0:
320,192,274040,1,0,0:0:0:70:Cymatics - Open Hihat 1.wav
448,192,274040,1,0,0:0:0:0:
64,192,274140,1,0,0:0:0:0:
448,192,274140,1,0,0:0:0:0:
64,192,274240,1,2,0:0:0:0:
192,192,274240,1,0,0:0:0:70:HHOpen.wav
320,192,274240,1,0,0:0:0:0:
320,192,274340,1,0,0:0:0:0:
448,192,274340,1,0,0:0:0:0:
64,192,274440,1,8,0:0:0:0:
448,192,274440,1,0,0:0:0:70:Cymatics - Open Hihat 1.wav
64,192,274540,1,0,0:0:0:0:
192,192,274540,1,0,0:0:0:0:
320,192,274540,1,0,0:0:0:0:
320,192,274640,1,2,0:0:0:0:
448,192,274640,1,0,0:0:0:70:HHOpen.wav
64,192,274740,1,2,0:0:0:0:
448,192,274740,1,0,0:0:0:0:
64,192,274840,1,8,0:0:0:0:
192,192,274840,1,0,0:0:0:70:Cymatics - Open Hihat 1.wav
320,192,274840,1,0,0:0:0:0:
320,192,274940,1,0,0:0:0:0:
448,192,274940,1,0,0:0:0:0:
64,192,275040,1,2,0:0:0:0:
192,192,275040,1,0,0:0:0:70:HHOpen.wav
448,192,275040,1,0,0:0:0:0:
64,192,275140,1,0,0:0:0:0:
192,192,275140,1,0,0:0:0:0:
64,192,275240,1,8,0:0:0:0:
320,192,275240,1,0,0:0:0:70:Cymatics - Open Hihat 1.wav
448,192,275240,1,0,0:0:0:0:
320,192,275340,1,2,0:0:0:0:
448,192,275340,1,0,0:0:0:0:
64,192,275440,1,0,0:0:0:70:HHOpen.wav
192,192,275440,1,0,0:0:0:0:
448,192,275440,1,0,0:0:0:0:
64,192,275540,1,2,0:0:0:0:
192,192,275540,1,0,0:0:0:0:
64,192,275640,1,8,0:0:0:0:
320,192,275640,1,0,0:0:0:0:
448,192,275640,1,0,0:0:0:0:
320,192,275740,1,8,0:0:0:0:
448,192,275740,1,0,0:0:0:0:
192,192,275840,1,8,0:0:0:0:
320,192,275840,1,4,0:0:0:0:
448,192,275840,1,0,0:0:0:0:
64,192,275940,1,2,0:0:0:0:
192,192,275940,1,0,0:0:0:0:
64,192,276040,1,8,0:0:0:0:
320,192,276040,1,0,0:0:0:70:HHOpen.wav
448,192,276040,1,0,0:0:0:0:
192,192,276140,1,2,0:0:0:0:
448,192,276140,1,0,0:0:0:0:
64,192,276240,1,8,0:0:0:0:
192,192,276240,1,4,0:0:0:0:
320,192,276240,1,0,0:0:0:0:
64,192,276340,1,2,0:0:0:0:
448,192,276340,1,0,0:0:0:0:
192,192,276440,1,8,0:0:0:0:
320,192,276440,1,0,0:0:0:70:HHOpen.wav
448,192,276440,1,0,0:0:0:0:
64,192,276540,1,2,0:0:0:0:
192,192,276540,1,0,0:0:0:0:
64,192,276640,1,0,0:0:0:70:tom1.wav
448,192,276640,1,0,0:0:0:0:
320,192,276706,1,0,0:0:0:70:tom1.wav
192,192,276773,1,0,0:0:0:70:tom2.wav
448,192,276840,1,0,0:0:0:70:tom2.wav
320,192,276906,1,0,0:0:0:70:tom3.wav
192,192,276973,1,0,0:0:0:70:tom4.wav
64,192,277040,1,0,0:0:0:70:tom1.wav
448,192,277040,1,0,0:0:0:0:
320,192,277106,1,0,0:0:0:70:tom1.wav
192,192,277173,1,0,0:0:0:70:tom2.wav
64,192,277240,1,8,0:0:0:0:
320,192,277306,1,0,0:0:0:0:
192,192,277373,1,0,0:0:0:0:
64,192,277440,1,2,0:0:0:0:
320,192,277440,1,4,0:0:0:0:
448,192,277440,1,0,0:0:0:0:
64,192,277540,1,2,0:0:0:0:
192,192,277540,1,0,0:0:0:0:
448,192,277540,1,0,0:0:0:0:
192,192,277640,1,8,0:0:0:0:
320,192,277640,1,0,0:0:0:70:Cymatics - Open Hihat 1.wav
320,192,277740,1,2,0:0:0:0:
448,192,277740,1,0,0:0:0:0:
64,192,277840,1,2,0:0:0:0:
192,192,277840,1,0,0:0:0:70:HHOpen.wav
448,192,277840,1,0,0:0:0:0:
64,192,277940,1,2,0:0:0:0:
320,192,277940,1,0,0:0:0:0:
192,192,278040,1,8,0:0:0:0:
320,192,278040,1,0,0:0:0:70:Cymatics - Open Hihat 1.wav
448,192,278040,1,0,0:0:0:0:
64,192,278140,1,2,0:0:0:0:
448,192,278140,1,0,0:0:0:0:
64,192,278240,1,2,0:0:0:0:
192,192,278240,1,0,0:0:0:70:HHOpen.wav
320,192,278240,1,0,0:0:0:0:
192,192,278340,1,2,0:0:0:0:
320,192,278340,1,0,0:0:0:0:
192,192,278440,1,8,0:0:0:0:
320,192,278440,1,0,0:0:0:70:Cymatics - Open Hihat 1.wav
192,192,278540,1,2,0:0:0:0:
320,192,278540,1,0,0:0:0:0:
64,192,278640,1,2,0:0:0:0:
320,192,278640,1,0,0:0:0:70:HHOpen.wav
448,192,278640,1,0,0:0:0:0:
64,192,278740,1,2,0:0:0:0:
192,192,278740,1,0,0:0:0:0:
192,192,278840,1,8,0:0:0:0:
320,192,278840,1,0,0:0:0:70:Cymatics - Open Hihat 1.wav
448,192,278840,1,0,0:0:0:0:
64,192,278940,1,2,0:0:0:0:
320,192,278940,1,0,0:0:0:0:
64,192,279040,1,2,0:0:0:0:
192,192,279040,1,0,0:0:0:70:HHOpen.wav
448,192,279040,1,0,0:0:0:0:
192,192,279140,1,2,0:0:0:0:
320,192,279140,1,0,0:0:0:0:
64,192,279240,1,8,0:0:0:0:
448,192,279240,1,0,0:0:0:70:Cymatics - Open Hihat 1.wav
192,192,279340,1,2,0:0:0:0:
320,192,279340,1,0,0:0:0:0:
448,192,279340,1,0,0:0:0:0:
64,192,279440,1,2,0:0:0:0:
192,192,279440,1,0,0:0:0:70:HHOpen.wav
320,192,279490,1,0,0:0:0:0:
64,192,279540,1,2,0:0:0:0:
448,192,279540,1,0,0:0:0:0:
192,192,279590,1,0,0:0:0:0:
64,192,279640,1,8,0:0:0:0:
320,192,279640,1,0,0:0:0:70:Cymatics - Open Hihat 1.wav
448,192,279640,1,0,0:0:0:0:
192,192,279690,1,0,0:0:0:0:
448,192,279740,1,2,0:0:0:0:
320,192,279790,1,0,0:0:0:0:
64,192,279840,1,2,0:0:0:0:
192,192,279840,1,0,0:0:0:70:HHOpen.wav
448,192,279840,1,0,0:0:0:0:
320,192,279890,1,0,0:0:0:0:
64,192,279940,1,2,0:0:0:0:
320,192,279990,1,0,0:0:0:0:
64,192,280040,1,8,0:0:0:0:
448,192,280040,1,0,0:0:0:70:Cymatics - Open Hihat 1.wav
192,192,280090,1,0,0:0:0:0:
448,192,280140,1,2,0:0:0:0:
192,192,280190,1,2,0:0:0:0:
64,192,280240,1,2,0:0:0:0:
320,192,280240,1,0,0:0:0:70:HHOpen.wav
448,192,280240,1,0,0:0:0:0:
192,192,280290,1,0,0:0:0:0:
64,192,280340,1,2,0:0:0:0:
448,192,280390,1,0,0:0:0:0:
64,192,280440,1,8,0:0:0:0:
192,192,280440,1,0,0:0:0:70:Cymatics - Open Hihat 1.wav
320,192,280440,1,0,0:0:0:0:
448,192,280490,1,0,0:0:0:0:
320,192,280540,1,2,0:0:0:0:
192,192,280590,1,0,0:0:0:0:
64,192,280640,1,2,0:0:0:0:
320,192,280640,1,0,0:0:0:70:HHOpen.wav
448,192,280640,1,0,0:0:0:0:
64,192,280740,1,2,0:0:0:0:
192,192,280740,1,0,0:0:0:0:
192,192,280840,1,8,0:0:0:0:
448,192,280840,1,0,0:0:0:70:Cymatics - Open Hihat 1.wav
64,192,280940,1,2,0:0:0:0:
320,192,280940,1,0,0:0:0:0:
448,192,280940,1,0,0:0:0:0:
64,192,281040,1,2,0:0:0:0:
192,192,281040,1,0,0:0:0:70:HHOpen.wav
320,192,281140,1,2,0:0:0:0:
448,192,281140,1,0,0:0:0:0:
64,192,281240,1,8,0:0:0:0:
192,192,281240,1,0,0:0:0:70:Cymatics - Open Hihat 1.wav
448,192,281240,1,0,0:0:0:0:
192,192,281340,1,2,0:0:0:0:
320,192,281340,1,0,0:0:0:0:
64,192,281440,1,2,0:0:0:0:
320,192,281440,1,0,0:0:0:70:HHOpen.wav
448,192,281440,1,0,0:0:0:0:
320,192,281540,1,2,0:0:0:0:
448,192,281540,1,0,0:0:0:0:
64,192,281640,1,8,0:0:0:0:
192,192,281640,1,0,0:0:0:70:Cymatics - Open Hihat 1.wav
448,192,281640,1,0,0:0:0:0:
64,192,281740,1,2,0:0:0:0:
192,192,281740,1,0,0:0:0:0:
64,192,281840,1,2,0:0:0:0:
192,192,281840,1,0,0:0:0:70:HHOpen.wav
320,192,281840,1,0,0:0:0:0:
192,192,281940,1,2,0:0:0:0:
320,192,281940,1,0,0:0:0:0:
64,192,282040,1,8,0:0:0:0:
320,192,282040,1,0,0:0:0:70:Cymatics - Open Hihat 1.wav
448,192,282040,1,0,0:0:0:0:
320,192,282140,1,2,0:0:0:0:
448,192,282140,1,0,0:0:0:0:
64,192,282240,1,2,0:0:0:0:
192,192,282240,1,0,0:0:0:70:HHOpen.wav
448,192,282240,1,0,0:0:0:0:
192,192,282340,1,2,0:0:0:0:
320,192,282340,1,0,0:0:0:0:
64,192,282440,1,8,0:0:0:0:
448,192,282440,1,0,0:0:0:70:Cymatics - Open Hihat 1.wav
64,192,282540,1,2,0:0:0:0:
192,192,282540,1,0,0:0:0:0:
320,192,282540,1,0,0:0:0:0:
320,192,282640,1,2,0:0:0:0:
448,192,282640,1,0,0:0:0:70:HHOpen.wav
64,192,282740,1,2,0:0:0:0:
192,192,282740,1,0,0:0:0:0:
64,192,282840,1,8,0:0:0:0:
320,192,282840,1,0,0:0:0:70:Cymatics - Open Hihat 1.wav
448,192,282840,1,0,0:0:0:0:
192,192,282940,1,2,0:0:0:0:
320,192,282940,1,0,0:0:0:0:
64,192,283040,1,2,0:0:0:0:
192,192,283040,1,0,0:0:0:70:HHOpen.wav
448,192,283040,1,0,0:0:0:0:
64,192,283140,1,2,0:0:0:0:
320,192,283140,1,0,0:0:0:0:
192,192,283240,1,4,0:0:0:0:
320,192,283240,1,8,0:0:0:0:
448,192,283240,1,0,0:0:0:0:
64,192,283340,1,2,0:0:0:0:
192,192,283340,1,0,0:0:0:0:
320,192,283440,1,2,0:0:0:0:
448,192,283440,1,0,0:0:0:70:HHOpen.wav
192,192,283490,1,2,0:0:0:0:
320,192,283540,1,2,0:0:0:0:
448,192,283540,1,0,0:0:0:0:
192,192,283590,1,2,0:0:0:0:
64,192,283640,1,4,0:0:0:0:
320,192,283640,1,8,0:0:0:0:
448,192,283640,1,0,0:0:0:0:
192,192,283740,1,2,0:0:0:0:
320,192,283740,1,0,0:0:0:0:
64,192,283840,1,4,0:0:0:0:
192,192,283840,1,2,0:0:0:0:
448,192,283840,1,0,0:0:0:0:
64,192,283940,1,2,0:0:0:0:
320,192,283940,1,0,0:0:0:0:
192,192,284040,1,8,0:0:0:0:
448,192,284040,1,0,0:0:0:70:Cymatics - Open Hihat 1.wav
64,192,284140,1,2,0:0:0:0:
320,192,284140,1,0,0:0:0:0:
448,192,284140,1,0,0:0:0:0:
64,192,284240,1,2,0:0:0:0:
192,192,284240,1,0,0:0:0:70:HHOpen.wav
320,192,284340,1,2,0:0:0:0:
448,192,284340,1,0,0:0:0:0:
64,192,284440,1,8,0:0:0:0:
192,192,284440,1,0,0:0:0:70:Cymatics - Open Hihat 1.wav
448,192,284440,1,0,0:0:0:0:
192,192,284540,1,2,0:0:0:0:
320,192,284540,1,0,0:0:0:0:
64,192,284640,1,2,0:0:0:0:
320,192,284640,1,0,0:0:0:70:HHOpen.wav
448,192,284640,1,0,0:0:0:0:
64,192,284740,1,2,0:0:0:0:
448,192,284740,1,0,0:0:0:0:
64,192,284840,1,8,0:0:0:0:
448,192,284840,1,0,0:0:0:70:Cymatics - Open Hihat 1.wav
64,192,284940,1,2,0:0:0:0:
448,192,284940,1,0,0:0:0:0:
64,192,285040,1,2,0:0:0:0:
192,192,285040,1,0,0:0:0:70:HHOpen.wav
320,192,285040,1,0,0:0:0:0:
320,192,285140,1,2,0:0:0:0:
448,192,285140,1,0,0:0:0:0:
64,192,285240,1,8,0:0:0:0:
192,192,285240,1,0,0:0:0:70:Cymatics - Open Hihat 1.wav
448,192,285240,1,0,0:0:0:0:
192,192,285340,1,2,0:0:0:0:
320,192,285340,1,0,0:0:0:0:
64,192,285440,1,2,0:0:0:0:
320,192,285440,1,0,0:0:0:70:HHOpen.wav
448,192,285440,1,0,0:0:0:0:
64,192,285540,1,2,0:0:0:0:
192,192,285540,1,0,0:0:0:0:
320,192,285640,1,8,0:0:0:0:
448,192,285640,1,0,0:0:0:70:Cymatics - Open Hihat 1.wav
64,192,285740,1,2,0:0:0:0:
192,192,285740,1,0,0:0:0:0:
448,192,285740,1,0,0:0:0:0:
64,192,285840,1,2,0:0:0:0:
320,192,285840,1,0,0:0:0:70:HHOpen.wav
192,192,285940,1,2,0:0:0:0:
448,192,285940,1,0,0:0:0:0:
64,192,286040,1,8,0:0:0:0:
320,192,286040,1,0,0:0:0:70:Cymatics - Open Hihat 1.wav
448,192,286040,1,0,0:0:0:0:
64,192,286140,1,2,0:0:0:0:
192,192,286140,1,0,0:0:0:0:
192,192,286240,1,2,0:0:0:0:
320,192,286240,1,0,0:0:0:70:HHOpen.wav
448,192,286240,1,0,0:0:0:0:
64,192,286340,1,2,0:0:0:0:
448,192,286340,1,0,0:0:0:0:
64,192,286440,1,8,0:0:0:0:
192,192,286440,1,0,0:0:0:70:Cymatics - Open Hihat 1.wav
64,192,286540,1,2,0:0:0:0:
320,192,286540,1,0,0:0:0:0:
448,192,286540,1,0,0:0:0:0:
192,192,286590,1,2,0:0:0:0:
320,192,286640,1,2,0:0:0:0:
448,192,286640,1,0,0:0:0:70:HHOpen.wav
64,192,286740,1,2,0:0:0:0:
192,192,286740,1,0,0:0:0:0:
64,192,286840,1,8,0:0:0:0:
320,192,286840,1,0,0:0:0:70:Cymatics - Open Hihat 1.wav
448,192,286840,1,0,0:0:0:0:
320,192,286940,1,8,0:0:0:0:
448,192,286940,1,0,0:0:0:0:
64,192,287040,1,4,0:0:0:0:
192,192,287040,1,2,0:0:0:0:
448,192,287040,1,0,0:0:0:0:
192,192,287140,1,2,0:0:0:0:
320,192,287140,1,0,0:0:0:0:
64,192,287240,1,8,0:0:0:0:
448,192,287240,1,0,0:0:0:70:Cymatics - Open Hihat 1.wav
64,192,287340,1,2,0:0:0:0:
192,192,287340,1,0,0:0:0:0:
320,192,287340,1,0,0:0:0:0:
320,192,287440,1,2,0:0:0:0:
448,192,287440,1,0,0:0:0:70:HHOpen.wav
64,192,287540,1,2,0:0:0:0:
192,192,287540,1,0,0:0:0:0:
64,192,287640,1,4,0:0:0:0:
320,192,287640,1,8,0:0:0:0:
448,192,287640,1,0,0:0:0:0:
320,192,287740,1,8,0:0:0:0:
448,192,287740,1,0,0:0:0:0:
64,192,287840,1,4,0:0:0:0:
192,192,287840,1,0,0:0:0:70:tom1.wav
448,192,287840,1,0,0:0:0:0:
64,192,287940,1,0,0:0:0:70:tom2.wav
192,192,287940,1,0,0:0:0:0:
64,192,288040,1,2,0:0:0:0:
192,192,288040,1,0,0:0:0:0:
64,192,288140,1,4,0:0:0:0:
320,192,288140,1,8,0:0:0:0:
448,192,288140,1,0,0:0:0:0:
192,192,288240,1,2,0:0:0:0:
320,192,288290,1,2,0:0:0:0:
192,192,288340,1,2,0:0:0:0:
64,192,288440,1,4,0:0:0:0:
320,192,288440,1,8,0:0:0:0:
448,192,288440,1,0,0:0:0:0:
64,192,288540,1,8,0:0:0:0:
320,192,288540,1,0,0:0:0:0:
448,192,288540,1,0,0:0:0:0:
64,192,288640,1,2,0:0:0:0:
192,192,288640,1,0,0:0:0:0:
448,192,288640,1,0,0:0:0:0:
320,192,288690,1,0,0:0:0:0:
64,192,288740,1,2,0:0:0:0:
192,192,288790,1,0,0:0:0:0:
64,192,288840,1,8,0:0:0:0:
320,192,288840,1,4,0:0:0:0:
448,192,288840,1,0,0:0:0:0:
192,192,288890,1,0,0:0:0:0:
320,192,288940,1,2,0:0:0:0:
448,192,288990,1,0,0:0:0:0:
64,192,289040,1,4,0:0:0:0:
192,192,289040,1,8,0:0:0:0:
320,192,289040,1,0,0:0:0:0:
448,192,289090,1,0,0:0:0:0:
192,192,289140,1,2,0:0:0:0:
64,192,289190,1,0,0:0:0:0:
192,192,289240,1,4,0:0:0:0:
320,192,289240,1,8,0:0:0:0:
448,192,289240,1,0,0:0:0:0:
64,192,289290,1,0,0:0:0:0:
448,192,289340,1,2,0:0:0:0:
320,192,289390,1,0,0:0:0:0:
64,192,289440,1,8,0:0:0:0:
192,192,289440,1,0,0:0:0:0:
448,192,289440,1,0,0:0:0:0:
320,192,289490,1,0,0:0:0:0:
192,192,289540,1,2,0:0:0:0:
64,192,289590,1,0,0:0:0:0:
320,192,289640,1,8,0:0:0:0:
192,192,289690,1,2,0:0:0:0:
448,192,289740,1,2,0:0:0:0:
320,192,289790,1,2,0:0:0:0:
64,192,289840,1,2,0:0:0:0:
192,192,289840,1,0,0:0:0:0:
448,192,289890,1,0,0:0:0:0:
320,192,289940,1,2,0:0:0:0:
192,192,289990,1,2,0:0:0:0:
64,192,290040,1,8,0:0:0:0:
448,192,290040,1,0,0:0:0:0:
320,192,290090,1,0,0:0:0:0:
64,192,290140,1,0,0:0:0:0:
192,192,290190,1,0,0:0:0:0:
64,192,290240,128,2,290940:0:0:0:0:
320,192,290240,128,4,290840:0:0:0:0:
448,192,290240,128,0,290840:0:0:0:0:
192,192,290640,128,0,290890:0:0:0:70:HHOpen.wav
320,192,290940,1,2,0:0:0:0:
448,192,290940,1,0,0:0:0:0:
192,192,290990,1,2,0:0:0:0:
64,192,291040,1,8,0:0:0:0:
320,192,291040,1,4,0:0:0:0:
448,192,291040,1,0,0:0:0:0:
64,192,291173,1,8,0:0:0:0:
192,192,291173,1,0,0:0:0:0:
448,192,291173,1,0,0:0:0:0:
64,192,291306,1,0,0:0:0:70:tom1.wav
320,192,291306,1,0,0:0:0:0:
448,192,291306,1,0,0:0:0:0:
192,192,291440,1,0,0:0:0:70:tom2.wav
320,192,291440,1,0,0:0:0:0:
448,192,291465,1,0,0:0:0:70:tom2.wav
64,192,291573,1,2,0:0:0:0:
192,192,291573,1,0,0:0:0:0:
320,192,291573,1,0,0:0:0:0:
192,192,291706,1,0,0:0:0:70:tom3.wav
320,192,291706,1,0,0:0:0:0:
448,192,291706,1,0,0:0:0:0:
64,192,291840,128,2,291940:0:0:0:0:
320,192,291840,128,0,291940:0:0:0:0:
448,192,291840,128,0,291940:0:0:0:0:
64,192,292040,128,4,292140:0:0:0:0:
192,192,292040,128,8,292140:0:0:0:0:
448,192,292040,128,0,292140:0:0:0:0:
64,192,292240,1,2,0:0:0:0:
320,192,292240,1,0,0:0:0:0:
448,192,292240,1,0,0:0:0:0:
64,192,292340,128,8,292440:0:0:0:0:
192,192,292340,128,0,292440:0:0:0:0:
448,192,292340,128,0,292440:0:0:0:0:
320,192,292523,1,0,0:0:0:70:tom2.wav
448,192,292556,1,0,0:0:0:0:
192,192,292740,1,2,0:0:0:0:
320,192,292740,1,0,0:0:0:70:Cymatics - Open Hat 5.wav
64,192,292840,128,4,293340:0:0:0:0:
192,192,292840,128,0,293140:0:0:0:0:
448,192,292840,128,0,293340:0:0:0:0:
192,192,293240,128,0,293340:0:0:0:70:HHOpen.wav
64,192,293440,1,2,0:0:0:0:
192,192,293506,1,0,0:0:0:0:
320,192,293573,1,0,0:0:0:0:
64,192,293640,1,0,0:0:0:70:HHOpen.wav
448,192,293640,1,0,0:0:0:0:
192,192,293706,1,0,0:0:0:0:
320,192,293773,1,0,0:0:0:0:
448,192,293840,1,0,0:0:0:0:
192,192,293906,1,0,0:0:0:0:
64,192,293973,1,0,0:0:0:0:
320,192,294040,1,0,0:0:0:70:HHOpen.wav
448,192,294040,1,0,0:0:0:0:
192,192,294106,1,0,0:0:0:0:
64,192,294173,1,0,0:0:0:0:
320,192,294240,1,2,0:0:0:0:
448,192,294240,1,0,0:0:0:0:
64,192,294306,1,2,0:0:0:0:
192,192,294306,1,0,0:0:0:0:
320,192,294373,1,2,0:0:0:0:
448,192,294373,1,0,0:0:0:0:
64,192,294440,128,8,295806:0:0:0:0:
192,192,294440,128,4,295740:0:0:0:0:
320,192,294540,128,0,295873:0:0:0:0:
448,192,294540,128,0,295940:0:0:0:0:
192,192,295840,1,2,0:0:0:0:
64,192,295906,1,2,0:0:0:0:
320,192,295973,1,2,0:0:0:0:
64,192,296040,1,2,0:0:0:0:
192,192,296040,1,4,0:0:0:0:
448,192,296040,1,0,0:0:0:0:
64,192,296140,1,0,0:0:0:0:
192,192,296140,1,0,0:0:0:0:
320,192,296240,1,0,0:0:0:0:
448,192,296240,1,0,0:0:0:0:
320,192,296340,1,0,0:0:0:0:
448,192,296340,1,0,0:0:0:0:
64,192,296440,1,0,0:0:0:0:
192,192,296440,1,0,0:0:0:0:
64,192,296540,1,0,0:0:0:0:
192,192,296540,1,0,0:0:0:0:
320,192,296640,1,0,0:0:0:0:
448,192,296640,1,0,0:0:0:0:
320,192,296740,1,0,0:0:0:0:
448,192,296740,1,0,0:0:0:0:
64,192,296840,1,0,0:0:0:0:
192,192,296840,1,0,0:0:0:0:
64,192,296940,1,0,0:0:0:0:
192,192,296940,1,0,0:0:0:0:
320,192,297040,1,0,0:0:0:0:
448,192,297040,1,0,0:0:0:0:
192,192,297140,1,0,0:0:0:0:
448,192,297140,1,0,0:0:0:0:
64,192,297240,1,0,0:0:0:0:
320,192,297240,1,0,0:0:0:0:
64,192,297340,1,0,0:0:0:0:
192,192,297340,1,0,0:0:0:0:
320,192,297440,1,0,0:0:0:0:
448,192,297440,1,0,0:0:0:0:
64,192,297540,1,0,0:0:0:0:
320,192,297540,1,0,0:0:0:0:
192,192,297640,1,0,0:0:0:0:
448,192,297640,1,0,0:0:0:0:
320,192,297740,1,0,0:0:0:0:
448,192,297740,1,0,0:0:0:0:
64,192,297840,1,0,0:0:0:0:
192,192,297840,1,0,0:0:0:0:
64,192,297940,1,0,0:0:0:0:
192,192,297940,1,0,0:0:0:0:
320,192,298040,1,0,0:0:0:0:
448,192,298040,1,0,0:0:0:0:
320,192,298140,1,0,0:0:0:0:
448,192,298140,1,0,0:0:0:0:
64,192,298240,1,0,0:0:0:0:
192,192,298240,1,0,0:0:0:0:
64,192,298340,1,0,0:0:0:0:
192,192,298340,1,0,0:0:0:0:
320,192,298440,128,0,298640:0:0:0:0:
448,192,298440,128,0,298640:0:0:0:0:
64,192,298640,1,0,0:0:0:0:
192,192,298740,128,0,298940:0:0:0:0:
320,192,298740,128,0,298940:0:0:0:0:
448,192,298940,1,0,0:0:0:0:
64,192,299040,128,0,299240:0:0:0:0:
192,192,299040,128,0,299240:0:0:0:0:
320,192,299240,128,0,299440:0:0:0:0:
448,192,299240,128,0,299440:0:0:0:0:
64,192,299440,1,0,0:0:0:0:
192,192,299440,1,0,0:0:0:0:
64,192,299540,1,0,0:0:0:0:
192,192,299540,1,0,0:0:0:0:
320,192,299640,1,0,0:0:0:0:
448,192,299640,1,0,0:0:0:0:
320,192,299740,1,0,0:0:0:0:
448,192,299740,1,0,0:0:0:0:
64,192,299840,1,0,0:0:0:0:
192,192,299840,1,0,0:0:0:0:
64,192,299940,1,0,0:0:0:0:
192,192,299940,1,0,0:0:0:0:
320,192,300040,1,0,0:0:0:0:
448,192,300040,1,0,0:0:0:0:
320,192,300140,1,0,0:0:0:0:
448,192,300140,1,0,0:0:0:0:
64,192,300240,1,0,0:0:0:0:
192,192,300240,1,0,0:0:0:0:
64,192,300340,1,0,0:0:0:0:
320,192,300340,1,0,0:0:0:0:
192,192,300440,1,0,0:0:0:0:
448,192,300440,1,0,0:0:0:0:
64,192,300540,1,0,0:0:0:0:
320,192,300540,1,0,0:0:0:0:
320,192,300640,1,0,0:0:0:0:
448,192,300640,1,0,0:0:0:0:
64,192,300740,1,0,0:0:0:0:
192,192,300740,1,0,0:0:0:0:
192,192,300840,1,2,0:0:0:0:
320,192,300840,1,4,0:0:0:0:
448,192,300840,1,0,0:0:0:0:
320,192,300940,1,2,0:0:0:0:
448,192,300940,1,0,0:0:0:0:
192,192,300990,1,2,0:0:0:0:
64,192,301040,1,2,0:0:0:0:
448,192,301040,1,0,0:0:0:0:
64,192,301140,1,4,0:0:0:0:
192,192,301140,1,2,0:0:0:0:
320,192,301140,1,0,0:0:0:0:
64,192,301240,1,2,0:0:0:0:
192,192,301240,1,0,0:0:0:0:
320,192,301290,1,2,0:0:0:0:
64,192,301340,1,2,0:0:0:0:
448,192,301340,1,0,0:0:0:0:
192,192,301440,1,2,0:0:0:0:
320,192,301440,1,4,0:0:0:0:
448,192,301440,1,0,0:0:0:0:
320,192,301540,1,2,0:0:0:0:
448,192,301540,1,0,0:0:0:0:
192,192,301590,1,2,0:0:0:0:
64,192,301640,1,2,0:0:0:0:
448,192,301640,1,0,0:0:0:0:
64,192,301740,1,4,0:0:0:0:
192,192,301740,1,2,0:0:0:0:
320,192,301740,1,0,0:0:0:0:
64,192,301840,1,2,0:0:0:0:
192,192,301840,1,0,0:0:0:0:
320,192,301890,1,2,0:0:0:0:
64,192,301940,1,2,0:0:0:0:
448,192,301940,1,0,0:0:0:0:
64,192,302040,1,2,0:0:0:0:
320,192,302040,1,4,0:0:0:0:
448,192,302040,1,0,0:0:0:0:
192,192,302090,1,2,0:0:0:0:
448,192,302140,1,2,0:0:0:0:
320,192,302190,1,2,0:0:0:0:
64,192,302240,1,2,0:0:0:0:
192,192,302240,1,4,0:0:0:0:
448,192,302240,1,0,0:0:0:0:
192,192,302340,1,2,0:0:0:0:
320,192,302340,1,0,0:0:0:0:
64,192,302440,1,4,0:0:0:0:
320,192,302440,1,2,0:0:0:0:
448,192,302440,1,0,0:0:0:0:
192,192,302490,1,2,0:0:0:0:
320,192,302540,1,2,0:0:0:0:
448,192,302540,1,0,0:0:0:0:
64,192,302590,1,2,0:0:0:0:
192,192,302640,1,2,0:0:0:0:
320,192,302640,1,0,0:0:0:0:
448,192,302690,1,2,0:0:0:0:
64,192,302740,1,2,0:0:0:0:
192,192,302740,1,0,0:0:0:0:
320,192,302790,1,2,0:0:0:0:
64,192,302840,1,2,0:0:0:0:
192,192,302840,1,0,0:0:0:0:
448,192,302890,1,2,0:0:0:0:
192,192,302940,1,2,0:0:0:0:
320,192,302940,1,0,0:0:0:0:
64,192,302990,1,2,0:0:0:0:
320,192,303040,1,2,0:0:0:0:
448,192,303040,1,0,0:0:0:0:
192,192,303090,1,2,0:0:0:0:
320,192,303140,1,2,0:0:0:0:
448,192,303140,1,0,0:0:0:0:
64,192,303190,1,2,0:0:0:0:
192,192,303240,1,2,0:0:0:0:
320,192,303240,1,0,0:0:0:0:
448,192,303290,1,2,0:0:0:0:
64,192,303340,1,2,0:0:0:0:
192,192,303340,1,0,0:0:0:0:
320,192,303390,1,2,0:0:0:0:
64,192,303440,1,2,0:0:0:0:
192,192,303440,1,0,0:0:0:0:
448,192,303490,1,2,0:0:0:0:
192,192,303540,1,2,0:0:0:0:
320,192,303540,1,0,0:0:0:0:
64,192,303590,1,2,0:0:0:0:
320,192,303640,1,2,0:0:0:0:
448,192,303640,1,0,0:0:0:0:
192,192,303690,1,2,0:0:0:0:
320,192,303740,1,2,0:0:0:0:
448,192,303740,1,0,0:0:0:0:
64,192,303790,1,2,0:0:0:0:
192,192,303840,1,2,0:0:0:0:
320,192,303840,1,0,0:0:0:0:
448,192,303890,1,2,0:0:0:0:
64,192,303940,1,2,0:0:0:0:
192,192,303940,1,0,0:0:0:0:
320,192,303990,1,2,0:0:0:0:
64,192,304040,1,2,0:0:0:0:
192,192,304040,1,0,0:0:0:0:
448,192,304090,1,2,0:0:0:0:
192,192,304140,1,2,0:0:0:0:
320,192,304140,1,0,0:0:0:0:
64,192,304190,1,2,0:0:0:0:
320,192,304240,1,2,0:0:0:0:
448,192,304240,1,0,0:0:0:0:
192,192,304290,1,2,0:0:0:0:
320,192,304340,1,2,0:0:0:0:
448,192,304340,1,0,0:0:0:0:
64,192,304390,1,2,0:0:0:0:
192,192,304440,1,2,0:0:0:0:
320,192,304440,1,0,0:0:0:0:
448,192,304490,1,2,0:0:0:0:
64,192,304540,1,2,0:0:0:0:
192,192,304540,1,0,0:0:0:0:
320,192,304590,1,2,0:0:0:0:
64,192,304640,1,2,0:0:0:0:
192,192,304640,1,0,0:0:0:0:
448,192,304690,1,2,0:0:0:0:
192,192,304740,1,2,0:0:0:0:
320,192,304740,1,0,0:0:0:0:
64,192,304790,1,2,0:0:0:0:
320,192,304840,1,8,0:0:0:0:
448,192,304840,1,0,0:0:0:0:
64,192,304890,1,8,0:0:0:0:
192,192,304890,1,0,0:0:0:0:
448,192,304940,1,2,0:0:0:0:
320,192,304990,1,2,0:0:0:0:
192,192,305040,1,2,0:0:0:0:
448,192,305090,1,2,0:0:0:0:
320,192,305140,1,2,0:0:0:0:
64,192,305190,1,2,0:0:0:0:
192,192,305240,1,2,0:0:0:0:
448,192,305290,1,2,0:0:0:0:
320,192,305340,1,2,0:0:0:0:
192,192,305390,1,2,0:0:0:0:
64,192,305440,1,8,0:0:0:0:
320,192,305440,1,0,0:0:0:0:
448,192,305440,1,0,0:0:0:0:
192,192,305490,1,0,0:0:0:0:
448,192,305540,1,2,0:0:0:0:
320,192,305590,1,0,0:0:0:0:
64,192,305640,1,2,0:0:0:0:
192,192,305640,1,4,0:0:0:0:
448,192,305640,1,0,0:0:0:0:
320,192,305690,1,2,0:0:0:0:
64,192,305740,1,2,0:0:0:0:
192,192,305740,1,0,0:0:0:0:
448,192,305790,1,2,0:0:0:0:
192,192,305840,1,2,0:0:0:0:
320,192,305840,1,0,0:0:0:0:
64,192,305890,1,2,0:0:0:0:
320,192,305940,1,2,0:0:0:0:
448,192,305940,1,0,0:0:0:0:
192,192,305990,1,2,0:0:0:0:
320,192,306040,1,2,0:0:0:0:
448,192,306040,1,0,0:0:0:0:
64,192,306090,1,2,0:0:0:0:
192,192,306140,1,2,0:0:0:0:
320,192,306140,1,0,0:0:0:0:
448,192,306190,1,2,0:0:0:0:
64,192,306240,1,2,0:0:0:0:
192,192,306240,1,0,0:0:0:0:
320,192,306290,1,2,0:0:0:0:
64,192,306340,1,2,0:0:0:0:
192,192,306340,1,0,0:0:0:0:
448,192,306390,1,2,0:0:0:0:
192,192,306440,1,2,0:0:0:0:
320,192,306440,1,0,0:0:0:0:
64,192,306490,1,2,0:0:0:0:
320,192,306540,1,2,0:0:0:0:
448,192,306540,1,0,0:0:0:0:
192,192,306590,1,2,0:0:0:0:
320,192,306640,1,2,0:0:0:0:
448,192,306640,1,0,0:0:0:0:
64,192,306690,1,2,0:0:0:0:
192,192,306740,1,2,0:0:0:0:
320,192,306740,1,0,0:0:0:0:
448,192,306790,1,2,0:0:0:0:
64,192,306840,1,2,0:0:0:0:
192,192,306840,1,0,0:0:0:0:
320,192,306890,1,2,0:0:0:0:
64,192,306940,1,2,0:0:0:0:
192,192,306940,1,0,0:0:0:0:
448,192,306990,1,2,0:0:0:0:
192,192,307040,1,2,0:0:0:0:
320,192,307040,1,0,0:0:0:0:
64,192,307090,1,2,0:0:0:0:
320,192,307140,1,2,0:0:0:0:
448,192,307140,1,0,0:0:0:0:
192,192,307190,1,2,0:0:0:0:
64,192,307240,1,8,0:0:0:0:
320,192,307240,1,0,0:0:0:0:
448,192,307240,1,0,0:0:0:0:
192,192,307290,1,2,0:0:0:0:
448,192,307340,1,2,0:0:0:0:
320,192,307390,1,2,0:0:0:0:
64,192,307440,1,2,0:0:0:0:
192,192,307490,1,2,0:0:0:0:
64,192,307540,1,8,0:0:0:0:
320,192,307540,1,0,0:0:0:0:
448,192,307540,1,0,0:0:0:0:
192,192,307590,1,2,0:0:0:0:
448,192,307640,1,2,0:0:0:0:
320,192,307690,1,2,0:0:0:0:
64,192,307740,1,2,0:0:0:0:
192,192,307790,1,2,0:0:0:0:
64,192,307840,1,8,0:0:0:0:
320,192,307840,1,0,0:0:0:0:
448,192,307840,1,0,0:0:0:0:
192,192,307890,1,2,0:0:0:0:
448,192,307940,1,2,0:0:0:0:
320,192,307990,1,2,0:0:0:0:
64,192,308040,1,2,0:0:0:0:
192,192,308090,1,2,0:0:0:0:
64,192,308140,1,8,0:0:0:0:
320,192,308140,1,0,0:0:0:0:
448,192,308140,1,0,0:0:0:0:
192,192,308190,1,2,0:0:0:0:
448,192,308240,1,2,0:0:0:0:
320,192,308290,1,2,0:0:0:0:
64,192,308340,1,2,0:0:0:0:
192,192,308390,1,2,0:0:0:0:
64,192,308440,1,8,0:0:0:0:
320,192,308440,1,0,0:0:0:0:
448,192,308440,1,0,0:0:0:0:
192,192,308490,1,2,0:0:0:0:
448,192,308540,1,2,0:0:0:0:
320,192,308590,1,2,0:0:0:0:
64,192,308640,1,2,0:0:0:0:
192,192,308640,1,0,0:0:0:0:
448,192,308640,1,0,0:0:0:0:
320,192,308690,1,2,0:0:0:0:
64,192,308740,1,8,0:0:0:0:
192,192,308790,1,2,0:0:0:0:
64,192,308840,1,4,0:0:0:0:
320,192,308840,1,2,0:0:0:0:
448,192,308840,1,0,0:0:0:0:
64,192,308990,1,2,0:0:0:0:
448,192,308990,1,0,0:0:0:0:
320,192,309040,1,2,0:0:0:0:
192,192,309090,1,2,0:0:0:0:
64,192,309140,1,2,0:0:0:0:
320,192,309140,1,4,0:0:0:0:
448,192,309140,1,0,0:0:0:0:
64,192,309290,1,2,0:0:0:0:
448,192,309290,1,0,0:0:0:0:
192,192,309340,1,2,0:0:0:0:
320,192,309390,1,2,0:0:0:0:
64,192,309440,1,2,0:0:0:0:
192,192,309440,1,4,0:0:0:0:
448,192,309440,1,0,0:0:0:0:
64,192,309540,128,2,310040:0:0:0:0:
192,192,309540,128,4,310006:0:0:0:0:
320,192,309540,128,0,309973:0:0:0:0:
448,192,309540,128,0,309940:0:0:0:0:
