osu file format v14

[General]
AudioFilename: audio.ogg
AudioLeadIn: 0
PreviewTime: 43585
Countdown: 0
SampleSet: Normal
StackLeniency: 0.7
Mode: 3
LetterboxInBreaks: 0
SpecialStyle: 0
WidescreenStoryboard: 0

[Editor]
DistanceSpacing: 0.8
BeatDivisor: 4
GridSize: 32
TimelineZoom: 2.1

[Metadata]
Title:Deadly force - Put an end
TitleUnicode:Deadly force - Put an end
Artist:Noah
ArtistUnicode:Noah
Creator:Wonki
Version:Crisis
Source:SOUND VOLTEX IV HEAVENLY HAVEN
Tags:Metal Instrumental electronic Revolt from the abyss video game sdvx コナステ konasute konaste Ω omega dimension 1 full version EXTR-0005 BEMANI KONAMI
BeatmapID:3438697
BeatmapSetID:1683035

[Difficulty]
HPDrainRate:8.8
CircleSize:7
OverallDifficulty:8.5
ApproachRate:5
SliderMultiplier:1.4
SliderTickRate:1

[Events]
//Background and Video events
0,0,"BG.jpg",0,0
//Break Periods
//Storyboard Layer 0 (Background)
//Storyboard Layer 1 (Fail)
//Storyboard Layer 2 (Pass)
//Storyboard Layer 3 (Foreground)
//Storyboard Layer 4 (Overlay)
//Storyboard Sound Samples

[TimingPoints]
785,200,4,1,1,60,1,0
36785,200,3,1,1,60,1,0
39185,200,4,1,1,60,1,0
110385,200,3,1,1,60,1,0
112785,200,4,1,1,60,1,0
240685,200,4,1,1,60,1,0
242485,200,4,1,1,60,1,0
257585,200,4,1,1,60,1,0
258885,200,6,1,1,60,1,0
260085,200,4,1,1,60,1,0
260585,200,4,1,1,60,1,0
261085,200,4,1,1,60,1,0
261285,200,4,1,1,60,1,0
261785,200,4,1,1,60,1,0
262185,200,4,1,1,60,1,0
291785,200,5,1,1,60,1,0
292785,200,4,1,1,60,1,0

[HitObjects]
182,192,785,5,0,0:0:0:0:
182,192,885,1,0,0:0:0:0:
182,192,985,1,0,0:0:0:0:
182,192,1085,1,0,0:0:0:0:
182,192,1185,1,0,0:0:0:0:
182,192,1285,1,0,0:0:0:0:
182,192,1385,1,0,0:0:0:0:
182,192,1485,1,0,0:0:0:0:
182,192,1585,1,0,0:0:0:0:
182,192,1685,1,0,0:0:0:0:
329,192,1785,1,0,0:0:0:0:
109,192,1885,1,0,0:0:0:0:
402,192,1985,1,0,0:0:0:0:
182,192,2085,1,0,0:0:0:0:
475,192,2185,1,0,0:0:0:0:
256,192,2285,1,0,0:0:0:0:
109,192,2385,1,0,0:0:0:0:
402,192,2485,1,0,0:0:0:0:
182,192,2585,1,0,0:0:0:0:
182,192,2685,1,0,0:0:0:0:
182,192,2785,1,0,0:0:0:0:
182,192,2885,1,0,0:0:0:0:
182,192,2985,1,0,0:0:0:0:
182,192,3085,1,0,0:0:0:0:
402,192,3185,128,0,3385:0:0:0:0:
256,192,3485,128,0,3685:0:0:0:0:
109,192,3785,128,0,3985:0:0:0:0:
329,192,3985,1,0,0:0:0:0:
182,192,4085,1,0,0:0:0:0:
182,192,4185,1,0,0:0:0:0:
182,192,4285,1,0,0:0:0:0:
182,192,4385,1,0,0:0:0:0:
182,192,4485,1,0,0:0:0:0:
182,192,4585,1,0,0:0:0:0:
182,192,4685,1,0,0:0:0:0:
182,192,4785,1,0,0:0:0:0:
182,192,4885,1,0,0:0:0:0:
329,192,4985,1,0,0:0:0:0:
36,192,5085,1,0,0:0:0:0:
402,192,5185,1,0,0:0:0:0:
109,192,5285,1,0,0:0:0:0:
475,192,5385,1,0,0:0:0:0:
182,192,5485,1,0,0:0:0:0:
329,192,5585,1,0,0:0:0:0:
402,192,5585,1,0,0:0:0:0:
36,192,5585,1,0,0:0:0:0:
109,192,5585,1,0,0:0:0:0:
256,192,5685,1,0,0:0:0:0:
475,192,5685,1,0,0:0:0:0:
182,192,5735,1,0,0:0:0:0:
109,192,5785,1,0,0:0:0:0:
329,192,5785,1,0,0:0:0:0:
36,192,5885,1,0,0:0:0:0:
256,192,5885,1,0,0:0:0:0:
402,192,5885,1,0,0:0:0:0:
475,192,5885,1,0,0:0:0:0:
109,192,5985,1,0,0:0:0:0:
329,192,5985,1,0,0:0:0:0:
182,192,6035,1,0,0:0:0:0:
256,192,6085,1,0,0:0:0:0:
402,192,6085,1,0,0:0:0:0:
36,192,6185,1,0,0:0:0:0:
109,192,6185,1,0,0:0:0:0:
329,192,6185,1,0,0:0:0:0:
475,192,6185,1,0,0:0:0:0:
182,192,6285,1,0,0:0:0:0:
402,192,6285,1,0,0:0:0:0:
329,192,6335,1,0,0:0:0:0:
256,192,6385,1,0,0:0:0:0:
109,192,6385,1,0,0:0:0:0:
182,192,6485,1,0,0:0:0:0:
36,192,6485,1,0,0:0:0:0:
329,192,6485,1,0,0:0:0:0:
402,192,6485,1,0,0:0:0:0:
256,192,6585,1,0,0:0:0:0:
475,192,6585,1,0,0:0:0:0:
329,192,6635,1,0,0:0:0:0:
402,192,6685,1,0,0:0:0:0:
109,192,6685,1,0,0:0:0:0:
182,192,6785,1,0,0:0:0:0:
36,192,6785,1,0,0:0:0:0:
329,192,6835,1,0,0:0:0:0:
256,192,6885,1,0,0:0:0:0:
109,192,6885,1,0,0:0:0:0:
36,192,6935,1,0,0:0:0:0:
182,192,6985,1,0,0:0:0:0:
329,192,6985,1,0,0:0:0:0:
475,192,7035,1,0,0:0:0:0:
402,192,7085,1,0,0:0:0:0:
256,192,7085,1,0,0:0:0:0:
109,192,7135,1,0,0:0:0:0:
182,192,7185,1,0,0:0:0:0:
36,192,7185,1,0,0:0:0:0:
329,192,7185,1,0,0:0:0:0:
475,192,7185,1,0,0:0:0:0:
182,192,7285,1,0,0:0:0:0:
182,192,7385,1,0,0:0:0:0:
329,192,7385,1,0,0:0:0:0:
475,192,7385,1,0,0:0:0:0:
182,192,7485,1,0,0:0:0:0:
182,192,7585,1,0,0:0:0:0:
329,192,7585,1,0,0:0:0:0:
475,192,7585,1,0,0:0:0:0:
182,192,7685,1,0,0:0:0:0:
182,192,7785,1,0,0:0:0:0:
329,192,7785,1,0,0:0:0:0:
475,192,7785,1,0,0:0:0:0:
182,192,7885,1,0,0:0:0:0:
182,192,7985,1,0,0:0:0:0:
329,192,7985,1,0,0:0:0:0:
475,192,7985,1,0,0:0:0:0:
182,192,8085,1,0,0:0:0:0:
182,192,8185,1,0,0:0:0:0:
329,192,8185,1,0,0:0:0:0:
475,192,8185,1,0,0:0:0:0:
402,192,8285,1,0,0:0:0:0:
36,192,8385,1,0,0:0:0:0:
329,192,8385,1,0,0:0:0:0:
475,192,8385,1,0,0:0:0:0:
109,192,8485,1,0,0:0:0:0:
182,192,8585,1,0,0:0:0:0:
329,192,8585,1,0,0:0:0:0:
475,192,8585,1,0,0:0:0:0:
256,192,8685,1,0,0:0:0:0:
36,192,8785,1,0,0:0:0:0:
329,192,8785,1,0,0:0:0:0:
475,192,8785,1,0,0:0:0:0:
402,192,8885,1,0,0:0:0:0:
182,192,8985,1,0,0:0:0:0:
329,192,8985,1,0,0:0:0:0:
475,192,8985,1,0,0:0:0:0:
182,192,9085,1,0,0:0:0:0:
182,192,9185,1,0,0:0:0:0:
329,192,9185,1,0,0:0:0:0:
475,192,9185,1,0,0:0:0:0:
182,192,9285,1,0,0:0:0:0:
182,192,9385,1,0,0:0:0:0:
329,192,9385,1,0,0:0:0:0:
475,192,9385,1,0,0:0:0:0:
182,192,9485,1,0,0:0:0:0:
256,192,9585,1,0,0:0:0:0:
329,192,9585,1,0,0:0:0:0:
475,192,9585,1,0,0:0:0:0:
109,192,9685,1,0,0:0:0:0:
182,192,9685,1,0,0:0:0:0:
329,192,9735,1,0,0:0:0:0:
402,192,9785,1,0,0:0:0:0:
475,192,9785,1,0,0:0:0:0:
329,192,9885,1,0,0:0:0:0:
475,192,9885,1,0,0:0:0:0:
182,192,9885,1,0,0:0:0:0:
109,192,9985,1,0,0:0:0:0:
36,192,9985,1,0,0:0:0:0:
256,192,10035,1,0,0:0:0:0:
475,192,10085,1,0,0:0:0:0:
402,192,10085,1,0,0:0:0:0:
109,192,10185,1,0,0:0:0:0:
329,192,10185,1,0,0:0:0:0:
475,192,10185,1,0,0:0:0:0:
109,192,10285,1,0,0:0:0:0:
36,192,10285,1,0,0:0:0:0:
182,192,10335,1,0,0:0:0:0:
329,192,10385,1,0,0:0:0:0:
256,192,10385,1,0,0:0:0:0:
475,192,10385,1,0,0:0:0:0:
329,192,10485,1,0,0:0:0:0:
475,192,10485,1,0,0:0:0:0:
109,192,10485,1,0,0:0:0:0:
329,192,10585,1,0,0:0:0:0:
475,192,10585,1,0,0:0:0:0:
182,192,10585,1,0,0:0:0:0:
182,192,10685,1,0,0:0:0:0:
182,192,10785,1,0,0:0:0:0:
329,192,10785,1,0,0:0:0:0:
475,192,10785,1,0,0:0:0:0:
182,192,10885,1,0,0:0:0:0:
182,192,10985,1,0,0:0:0:0:
329,192,10985,1,0,0:0:0:0:
475,192,10985,1,0,0:0:0:0:
182,192,11085,1,0,0:0:0:0:
182,192,11185,1,0,0:0:0:0:
329,192,11185,1,0,0:0:0:0:
475,192,11185,1,0,0:0:0:0:
109,192,11285,1,0,0:0:0:0:
329,192,11385,1,0,0:0:0:0:
475,192,11385,1,0,0:0:0:0:
256,192,11385,1,0,0:0:0:0:
182,192,11485,1,0,0:0:0:0:
36,192,11485,1,0,0:0:0:0:
402,192,11485,1,0,0:0:0:0:
329,192,11585,1,0,0:0:0:0:
475,192,11585,1,0,0:0:0:0:
109,192,11585,1,0,0:0:0:0:
182,192,11685,1,0,0:0:0:0:
36,192,11685,1,0,0:0:0:0:
256,192,11685,1,0,0:0:0:0:
329,192,11785,1,0,0:0:0:0:
475,192,11785,1,0,0:0:0:0:
402,192,11785,1,0,0:0:0:0:
182,192,11885,1,0,0:0:0:0:
36,192,11885,1,0,0:0:0:0:
109,192,11885,1,0,0:0:0:0:
256,192,11985,1,0,0:0:0:0:
329,192,11985,1,0,0:0:0:0:
475,192,11985,1,0,0:0:0:0:
182,192,12085,1,0,0:0:0:0:
109,192,12085,1,0,0:0:0:0:
36,192,12135,1,0,0:0:0:0:
329,192,12185,1,0,0:0:0:0:
256,192,12185,1,0,0:0:0:0:
329,192,12285,1,0,0:0:0:0:
475,192,12285,1,0,0:0:0:0:
182,192,12285,1,0,0:0:0:0:
182,192,12385,1,0,0:0:0:0:
256,192,12385,1,0,0:0:0:0:
109,192,12435,1,0,0:0:0:0:
329,192,12485,1,0,0:0:0:0:
402,192,12485,1,0,0:0:0:0:
256,192,12585,1,0,0:0:0:0:
475,192,12585,1,0,0:0:0:0:
109,192,12585,1,0,0:0:0:0:
256,192,12685,1,0,0:0:0:0:
329,192,12685,1,0,0:0:0:0:
182,192,12735,1,0,0:0:0:0:
402,192,12785,1,0,0:0:0:0:
475,192,12785,1,0,0:0:0:0:
329,192,12885,1,0,0:0:0:0:
475,192,12885,1,0,0:0:0:0:
36,192,12885,1,0,0:0:0:0:
109,192,12985,1,0,0:0:0:0:
182,192,12985,1,0,0:0:0:0:
256,192,13035,1,0,0:0:0:0:
329,192,13085,1,0,0:0:0:0:
402,192,13085,1,0,0:0:0:0:
475,192,13185,1,0,0:0:0:0:
36,192,13185,1,0,0:0:0:0:
256,192,13185,1,0,0:0:0:0:
402,192,13235,1,0,0:0:0:0:
329,192,13285,1,0,0:0:0:0:
182,192,13335,1,0,0:0:0:0:
109,192,13385,1,0,0:0:0:0:
36,192,13385,1,0,0:0:0:0:
475,192,13385,1,0,0:0:0:0:
329,192,13435,1,0,0:0:0:0:
256,192,13485,1,0,0:0:0:0:
182,192,13535,1,0,0:0:0:0:
109,192,13585,1,0,0:0:0:0:
36,192,13585,1,0,0:0:0:0:
329,192,13585,1,0,0:0:0:0:
475,192,13585,1,0,0:0:0:0:
182,192,14685,1,0,0:0:0:0:
329,192,14735,1,0,0:0:0:0:
402,192,14785,1,0,0:0:0:0:
475,192,14785,1,0,0:0:0:0:
36,192,14785,1,0,0:0:0:0:
109,192,14785,1,0,0:0:0:0:
182,192,14885,1,0,0:0:0:0:
329,192,14885,1,0,0:0:0:0:
109,192,14985,1,0,0:0:0:0:
256,192,14985,1,0,0:0:0:0:
256,192,15085,1,0,0:0:0:0:
402,192,15085,1,0,0:0:0:0:
329,192,15185,1,0,0:0:0:0:
475,192,15185,1,0,0:0:0:0:
36,192,15185,1,0,0:0:0:0:
109,192,15185,1,0,0:0:0:0:
182,192,15285,1,0,0:0:0:0:
402,192,15285,1,0,0:0:0:0:
475,192,15385,1,0,0:0:0:0:
109,192,15385,1,0,0:0:0:0:
256,192,15385,1,0,0:0:0:0:
329,192,15485,1,0,0:0:0:0:
182,192,15485,1,0,0:0:0:0:
256,192,15585,1,0,0:0:0:0:
402,192,15585,1,0,0:0:0:0:
109,192,15685,1,0,0:0:0:0:
475,192,15685,1,0,0:0:0:0:
182,192,15785,1,0,0:0:0:0:
329,192,15785,1,0,0:0:0:0:
36,192,15785,1,0,0:0:0:0:
256,192,15885,1,0,0:0:0:0:
109,192,15885,1,0,0:0:0:0:
182,192,15985,128,0,16485:0:0:0:0:
402,192,15985,1,0,0:0:0:0:
475,192,15985,1,0,0:0:0:0:
329,192,16085,1,0,0:0:0:0:
256,192,16185,1,0,0:0:0:0:
36,192,16185,1,0,0:0:0:0:
109,192,16185,1,0,0:0:0:0:
329,192,16285,1,0,0:0:0:0:
402,192,16385,1,0,0:0:0:0:
475,192,16385,1,0,0:0:0:0:
475,192,16485,1,0,0:0:0:0:
402,192,16485,1,0,0:0:0:0:
36,192,16585,1,0,0:0:0:0:
256,192,16585,1,0,0:0:0:0:
329,192,16585,1,0,0:0:0:0:
182,192,16685,1,0,0:0:0:0:
402,192,16685,1,0,0:0:0:0:
329,192,16785,128,0,17185:0:0:0:0:
109,192,16785,1,0,0:0:0:0:
36,192,16785,1,0,0:0:0:0:
256,192,16885,1,0,0:0:0:0:
475,192,16885,1,0,0:0:0:0:
402,192,16985,1,0,0:0:0:0:
182,192,16985,1,0,0:0:0:0:
36,192,16985,1,0,0:0:0:0:
256,192,17085,1,0,0:0:0:0:
109,192,17185,1,0,0:0:0:0:
36,192,17185,1,0,0:0:0:0:
182,192,17235,1,0,0:0:0:0:
329,192,17285,1,0,0:0:0:0:
402,192,17285,1,0,0:0:0:0:
256,192,17335,1,0,0:0:0:0:
182,192,17385,1,0,0:0:0:0:
36,192,17385,1,0,0:0:0:0:
475,192,17385,1,0,0:0:0:0:
109,192,17485,1,0,0:0:0:0:
329,192,17485,1,0,0:0:0:0:
36,192,17585,128,0,17985:0:0:0:0:
402,192,17585,1,0,0:0:0:0:
256,192,17585,1,0,0:0:0:0:
182,192,17685,1,0,0:0:0:0:
109,192,17785,1,0,0:0:0:0:
329,192,17785,1,0,0:0:0:0:
475,192,17785,1,0,0:0:0:0:
182,192,17885,1,0,0:0:0:0:
256,192,17985,1,0,0:0:0:0:
402,192,17985,1,0,0:0:0:0:
256,192,18085,1,0,0:0:0:0:
402,192,18085,1,0,0:0:0:0:
109,192,18185,1,0,0:0:0:0:
36,192,18185,1,0,0:0:0:0:
475,192,18185,1,0,0:0:0:0:
182,192,18285,1,0,0:0:0:0:
329,192,18285,1,0,0:0:0:0:
402,192,18285,1,0,0:0:0:0:
256,192,18385,1,0,0:0:0:0:
36,192,18385,1,0,0:0:0:0:
475,192,18385,1,0,0:0:0:0:
182,192,18485,1,0,0:0:0:0:
329,192,18485,1,0,0:0:0:0:
109,192,18585,1,0,0:0:0:0:
475,192,18585,1,0,0:0:0:0:
402,192,18585,1,0,0:0:0:0:
256,192,18685,1,0,0:0:0:0:
36,192,18685,1,0,0:0:0:0:
182,192,18785,1,0,0:0:0:0:
402,192,18785,1,0,0:0:0:0:
329,192,18885,1,0,0:0:0:0:
475,192,18885,1,0,0:0:0:0:
36,192,18985,1,0,0:0:0:0:
256,192,18985,1,0,0:0:0:0:
182,192,18985,1,0,0:0:0:0:
109,192,19085,1,0,0:0:0:0:
402,192,19085,1,0,0:0:0:0:
36,192,19185,1,0,0:0:0:0:
329,192,19185,1,0,0:0:0:0:
475,192,19185,128,0,19485:0:0:0:0:
256,192,19285,1,0,0:0:0:0:
109,192,19385,1,0,0:0:0:0:
36,192,19385,1,0,0:0:0:0:
402,192,19385,1,0,0:0:0:0:
182,192,19485,128,0,19985:0:0:0:0:
329,192,19485,1,0,0:0:0:0:
36,192,19585,1,0,0:0:0:0:
109,192,19585,1,0,0:0:0:0:
36,192,19685,1,0,0:0:0:0:
109,192,19685,1,0,0:0:0:0:
329,192,19785,1,0,0:0:0:0:
402,192,19785,1,0,0:0:0:0:
475,192,19785,1,0,0:0:0:0:
329,192,19885,1,0,0:0:0:0:
402,192,19885,1,0,0:0:0:0:
475,192,19885,1,0,0:0:0:0:
109,192,19985,1,0,0:0:0:0:
36,192,19985,1,0,0:0:0:0:
256,192,19985,1,0,0:0:0:0:
182,192,20085,1,0,0:0:0:0:
329,192,20085,1,0,0:0:0:0:
256,192,20185,1,0,0:0:0:0:
109,192,20185,1,0,0:0:0:0:
36,192,20185,1,0,0:0:0:0:
402,192,20285,1,0,0:0:0:0:
329,192,20285,1,0,0:0:0:0:
256,192,20385,1,0,0:0:0:0:
109,192,20385,1,0,0:0:0:0:
36,192,20385,1,0,0:0:0:0:
329,192,20485,1,0,0:0:0:0:
475,192,20485,1,0,0:0:0:0:
256,192,20585,1,0,0:0:0:0:
109,192,20585,1,0,0:0:0:0:
36,192,20585,1,0,0:0:0:0:
402,192,20685,1,0,0:0:0:0:
475,192,20685,1,0,0:0:0:0:
329,192,20785,1,0,0:0:0:0:
36,192,20785,1,0,0:0:0:0:
182,192,20785,128,0,21185:0:0:0:0:
36,192,20885,1,0,0:0:0:0:
329,192,20985,1,0,0:0:0:0:
475,192,20985,1,0,0:0:0:0:
329,192,21085,1,0,0:0:0:0:
109,192,21185,1,0,0:0:0:0:
256,192,21185,1,0,0:0:0:0:
402,192,21185,128,0,21585:0:0:0:0:
109,192,21285,1,0,0:0:0:0:
329,192,21385,1,0,0:0:0:0:
475,192,21385,1,0,0:0:0:0:
329,192,21485,1,0,0:0:0:0:
256,192,21585,1,0,0:0:0:0:
36,192,21585,1,0,0:0:0:0:
475,192,21585,1,0,0:0:0:0:
182,192,21585,1,0,0:0:0:0:
329,192,21685,1,0,0:0:0:0:
182,192,21685,1,0,0:0:0:0:
329,192,21785,1,0,0:0:0:0:
109,192,21785,1,0,0:0:0:0:
36,192,21785,1,0,0:0:0:0:
402,192,21885,1,0,0:0:0:0:
109,192,21885,1,0,0:0:0:0:
329,192,21985,1,0,0:0:0:0:
182,192,21985,1,0,0:0:0:0:
329,192,22085,1,0,0:0:0:0:
182,192,22085,1,0,0:0:0:0:
475,192,22185,1,0,0:0:0:0:
36,192,22185,1,0,0:0:0:0:
109,192,22185,1,0,0:0:0:0:
329,192,22285,1,0,0:0:0:0:
36,192,22285,1,0,0:0:0:0:
329,192,22385,1,0,0:0:0:0:
109,192,22385,1,0,0:0:0:0:
402,192,22485,1,0,0:0:0:0:
109,192,22485,1,0,0:0:0:0:
329,192,22585,1,0,0:0:0:0:
182,192,22585,1,0,0:0:0:0:
475,192,22585,1,0,0:0:0:0:
329,192,22685,1,0,0:0:0:0:
182,192,22685,1,0,0:0:0:0:
475,192,22785,1,0,0:0:0:0:
36,192,22785,1,0,0:0:0:0:
402,192,22885,1,0,0:0:0:0:
36,192,22885,1,0,0:0:0:0:
329,192,22985,1,0,0:0:0:0:
109,192,22985,1,0,0:0:0:0:
182,192,22985,1,0,0:0:0:0:
256,192,23085,1,0,0:0:0:0:
182,192,23085,1,0,0:0:0:0:
475,192,23185,1,0,0:0:0:0:
36,192,23185,1,0,0:0:0:0:
329,192,23285,1,0,0:0:0:0:
36,192,23285,1,0,0:0:0:0:
329,192,23385,1,0,0:0:0:0:
109,192,23385,1,0,0:0:0:0:
182,192,23385,1,0,0:0:0:0:
402,192,23485,1,0,0:0:0:0:
109,192,23485,1,0,0:0:0:0:
329,192,23585,1,0,0:0:0:0:
182,192,23585,1,0,0:0:0:0:
329,192,23685,1,0,0:0:0:0:
182,192,23685,1,0,0:0:0:0:
475,192,23785,1,0,0:0:0:0:
36,192,23785,1,0,0:0:0:0:
109,192,23785,1,0,0:0:0:0:
329,192,23885,1,0,0:0:0:0:
36,192,23885,1,0,0:0:0:0:
329,192,23985,1,0,0:0:0:0:
182,192,23985,1,0,0:0:0:0:
402,192,24085,1,0,0:0:0:0:
182,192,24085,1,0,0:0:0:0:
329,192,24185,1,0,0:0:0:0:
109,192,24185,1,0,0:0:0:0:
475,192,24185,1,0,0:0:0:0:
329,192,24285,1,0,0:0:0:0:
109,192,24285,1,0,0:0:0:0:
182,192,24285,1,0,0:0:0:0:
256,192,24385,1,0,0:0:0:0:
36,192,24385,1,0,0:0:0:0:
475,192,24385,1,0,0:0:0:0:
329,192,24485,1,0,0:0:0:0:
36,192,24485,1,0,0:0:0:0:
182,192,24585,1,0,0:0:0:0:
109,192,24585,1,0,0:0:0:0:
475,192,24585,1,0,0:0:0:0:
475,192,24685,1,0,0:0:0:0:
329,192,24685,1,0,0:0:0:0:
256,192,24785,1,0,0:0:0:0:
402,192,24785,1,0,0:0:0:0:
109,192,24785,1,0,0:0:0:0:
36,192,24785,1,0,0:0:0:0:
329,192,24885,1,0,0:0:0:0:
109,192,24885,1,0,0:0:0:0:
329,192,24985,1,0,0:0:0:0:
36,192,24985,1,0,0:0:0:0:
182,192,24985,1,0,0:0:0:0:
402,192,25085,1,0,0:0:0:0:
182,192,25085,1,0,0:0:0:0:
475,192,25185,1,0,0:0:0:0:
36,192,25185,1,0,0:0:0:0:
475,192,25285,1,0,0:0:0:0:
36,192,25285,1,0,0:0:0:0:
402,192,25385,1,0,0:0:0:0:
109,192,25385,1,0,0:0:0:0:
182,192,25385,1,0,0:0:0:0:
329,192,25485,1,0,0:0:0:0:
109,192,25485,1,0,0:0:0:0:
329,192,25585,1,0,0:0:0:0:
36,192,25585,1,0,0:0:0:0:
402,192,25685,1,0,0:0:0:0:
36,192,25685,1,0,0:0:0:0:
475,192,25785,1,0,0:0:0:0:
182,192,25785,1,0,0:0:0:0:
256,192,25785,1,0,0:0:0:0:
475,192,25885,1,0,0:0:0:0:
182,192,25885,1,0,0:0:0:0:
36,192,25985,1,0,0:0:0:0:
402,192,25985,1,0,0:0:0:0:
109,192,26085,1,0,0:0:0:0:
329,192,26085,1,0,0:0:0:0:
182,192,26185,1,0,0:0:0:0:
256,192,26185,1,0,0:0:0:0:
475,192,26185,1,0,0:0:0:0:
109,192,26285,1,0,0:0:0:0:
36,192,26285,1,0,0:0:0:0:
402,192,26285,1,0,0:0:0:0:
329,192,26385,1,0,0:0:0:0:
182,192,26385,1,0,0:0:0:0:
36,192,26385,1,0,0:0:0:0:
109,192,26385,1,0,0:0:0:0:
256,192,26485,1,0,0:0:0:0:
402,192,26485,1,0,0:0:0:0:
329,192,26585,1,0,0:0:0:0:
475,192,26585,1,0,0:0:0:0:
109,192,26585,1,0,0:0:0:0:
36,192,26685,1,0,0:0:0:0:
182,192,26685,1,0,0:0:0:0:
256,192,26685,1,0,0:0:0:0:
402,192,26685,1,0,0:0:0:0:
329,192,26785,1,0,0:0:0:0:
109,192,26785,1,0,0:0:0:0:
36,192,26885,1,0,0:0:0:0:
256,192,26885,1,0,0:0:0:0:
402,192,26885,1,0,0:0:0:0:
475,192,26985,1,0,0:0:0:0:
329,192,26985,1,0,0:0:0:0:
182,192,26985,1,0,0:0:0:0:
109,192,26985,1,0,0:0:0:0:
36,192,27085,1,0,0:0:0:0:
256,192,27085,1,0,0:0:0:0:
329,192,27135,1,0,0:0:0:0:
402,192,27185,1,0,0:0:0:0:
182,192,27185,1,0,0:0:0:0:
109,192,27285,1,0,0:0:0:0:
36,192,27285,1,0,0:0:0:0:
256,192,27285,1,0,0:0:0:0:
475,192,27285,1,0,0:0:0:0:
329,192,27385,1,0,0:0:0:0:
402,192,27385,1,0,0:0:0:0:
256,192,27435,1,0,0:0:0:0:
182,192,27485,1,0,0:0:0:0:
475,192,27535,1,0,0:0:0:0:
402,192,27585,1,0,0:0:0:0:
109,192,27585,1,0,0:0:0:0:
36,192,27585,1,0,0:0:0:0:
256,192,27585,1,0,0:0:0:0:
182,192,27685,1,0,0:0:0:0:
329,192,27685,1,0,0:0:0:0:
475,192,27685,1,0,0:0:0:0:
402,192,27785,1,0,0:0:0:0:
256,192,27785,1,0,0:0:0:0:
109,192,27785,1,0,0:0:0:0:
36,192,27885,1,0,0:0:0:0:
182,192,27885,1,0,0:0:0:0:
329,192,27885,1,0,0:0:0:0:
109,192,27985,1,0,0:0:0:0:
36,192,27985,1,0,0:0:0:0:
256,192,27985,1,0,0:0:0:0:
402,192,27985,1,0,0:0:0:0:
475,192,27985,1,0,0:0:0:0:
36,192,28185,1,0,0:0:0:0:
182,192,28185,1,0,0:0:0:0:
109,192,28185,1,0,0:0:0:0:
402,192,28185,1,0,0:0:0:0:
329,192,28185,1,0,0:0:0:0:
329,192,28285,1,0,0:0:0:0:
402,192,28285,1,0,0:0:0:0:
475,192,28285,1,0,0:0:0:0:
182,192,28285,1,0,0:0:0:0:
109,192,28285,1,0,0:0:0:0:
36,192,28485,1,0,0:0:0:0:
182,192,28485,1,0,0:0:0:0:
256,192,28485,1,0,0:0:0:0:
402,192,28485,1,0,0:0:0:0:
475,192,28485,1,0,0:0:0:0:
109,192,28685,1,0,0:0:0:0:
36,192,28685,1,0,0:0:0:0:
182,192,28685,1,0,0:0:0:0:
329,192,28685,1,0,0:0:0:0:
475,192,28685,1,0,0:0:0:0:
36,192,28985,1,0,0:0:0:0:
182,192,28985,1,0,0:0:0:0:
256,192,28985,1,0,0:0:0:0:
329,192,28985,1,0,0:0:0:0:
475,192,28985,1,0,0:0:0:0:
36,192,29285,128,0,29585:0:0:0:0:
182,192,29285,128,0,29585:0:0:0:0:
256,192,29285,128,0,29585:0:0:0:0:
402,192,29285,128,0,29585:0:0:0:0:
475,192,29285,128,0,29585:0:0:0:0:
109,192,29685,1,0,0:0:0:0:
36,192,29685,1,0,0:0:0:0:
256,192,29685,1,0,0:0:0:0:
329,192,29685,1,0,0:0:0:0:
475,192,29685,1,0,0:0:0:0:
256,192,29785,1,0,0:0:0:0:
329,192,29785,1,0,0:0:0:0:
475,192,29785,1,0,0:0:0:0:
109,192,29785,1,0,0:0:0:0:
36,192,29785,1,0,0:0:0:0:
36,192,30085,1,0,0:0:0:0:
182,192,30085,1,0,0:0:0:0:
256,192,30085,1,0,0:0:0:0:
402,192,30085,1,0,0:0:0:0:
475,192,30085,1,0,0:0:0:0:
109,192,30285,1,0,0:0:0:0:
182,192,30285,1,0,0:0:0:0:
256,192,30285,1,0,0:0:0:0:
329,192,30285,1,0,0:0:0:0:
475,192,30285,1,0,0:0:0:0:
36,192,30585,1,0,0:0:0:0:
109,192,30585,1,0,0:0:0:0:
256,192,30585,1,0,0:0:0:0:
402,192,30585,1,0,0:0:0:0:
475,192,30585,1,0,0:0:0:0:
182,192,30785,1,0,0:0:0:0:
256,192,30785,1,0,0:0:0:0:
329,192,30785,1,0,0:0:0:0:
402,192,30851,1,0,0:0:0:0:
475,192,30851,1,0,0:0:0:0:
182,192,30851,1,0,0:0:0:0:
109,192,30851,1,0,0:0:0:0:
36,192,30851,1,0,0:0:0:0:
329,192,30918,1,0,0:0:0:0:
256,192,30985,1,0,0:0:0:0:
182,192,31035,1,0,0:0:0:0:
109,192,31085,1,0,0:0:0:0:
36,192,31135,1,0,0:0:0:0:
182,192,31185,1,0,0:0:0:0:
256,192,31185,1,0,0:0:0:0:
329,192,31185,1,0,0:0:0:0:
402,192,31185,1,0,0:0:0:0:
475,192,31185,1,0,0:0:0:0:
109,192,31235,1,0,0:0:0:0:
36,192,31285,1,0,0:0:0:0:
256,192,31335,1,0,0:0:0:0:
329,192,31385,1,0,0:0:0:0:
402,192,31435,1,0,0:0:0:0:
475,192,31485,1,0,0:0:0:0:
182,192,31485,1,0,0:0:0:0:
109,192,31485,1,0,0:0:0:0:
36,192,31485,1,0,0:0:0:0:
256,192,31485,1,0,0:0:0:0:
329,192,31585,1,0,0:0:0:0:
402,192,31585,1,0,0:0:0:0:
182,192,31635,1,0,0:0:0:0:
109,192,31635,1,0,0:0:0:0:
329,192,31685,1,0,0:0:0:0:
402,192,31685,1,0,0:0:0:0:
36,192,31785,1,0,0:0:0:0:
256,192,31785,1,0,0:0:0:0:
329,192,31785,1,0,0:0:0:0:
182,192,31785,1,0,0:0:0:0:
475,192,31785,1,0,0:0:0:0:
36,192,31985,1,0,0:0:0:0:
109,192,31985,1,0,0:0:0:0:
182,192,31985,1,0,0:0:0:0:
329,192,31985,1,0,0:0:0:0:
402,192,31985,1,0,0:0:0:0:
475,192,31985,1,0,0:0:0:0:
36,192,32385,1,0,0:0:0:0:
182,192,32385,1,0,0:0:0:0:
256,192,32451,1,0,0:0:0:0:
329,192,32518,1,0,0:0:0:0:
402,192,32585,1,0,0:0:0:0:
475,192,32651,1,0,0:0:0:0:
182,192,32718,1,0,0:0:0:0:
402,192,32785,1,0,0:0:0:0:
329,192,32851,1,0,0:0:0:0:
256,192,32918,1,0,0:0:0:0:
182,192,32985,1,0,0:0:0:0:
402,192,32985,1,0,0:0:0:0:
475,192,32985,1,0,0:0:0:0:
109,192,33051,1,0,0:0:0:0:
36,192,33118,1,0,0:0:0:0:
182,192,33185,1,0,0:0:0:0:
256,192,33185,1,0,0:0:0:0:
475,192,33185,1,0,0:0:0:0:
329,192,33251,1,0,0:0:0:0:
182,192,33318,1,0,0:0:0:0:
109,192,33385,1,0,0:0:0:0:
36,192,33385,1,0,0:0:0:0:
402,192,33385,1,0,0:0:0:0:
475,192,33385,1,0,0:0:0:0:
256,192,33451,1,0,0:0:0:0:
182,192,33518,1,0,0:0:0:0:
36,192,33585,1,0,0:0:0:0:
329,192,33585,1,0,0:0:0:0:
402,192,33585,1,0,0:0:0:0:
475,192,33585,1,0,0:0:0:0:
109,192,33685,1,0,0:0:0:0:
182,192,33785,1,0,0:0:0:0:
256,192,33885,1,0,0:0:0:0:
475,192,33885,1,0,0:0:0:0:
402,192,33985,1,0,0:0:0:0:
329,192,34085,1,0,0:0:0:0:
256,192,34185,1,0,0:0:0:0:
36,192,34185,1,0,0:0:0:0:
475,192,34185,1,0,0:0:0:0:
109,192,34285,1,0,0:0:0:0:
182,192,34385,1,0,0:0:0:0:
256,192,34485,1,0,0:0:0:0:
475,192,34485,1,0,0:0:0:0:
402,192,34585,1,0,0:0:0:0:
329,192,34685,1,0,0:0:0:0:
182,192,34685,1,0,0:0:0:0:
109,192,34785,1,0,0:0:0:0:
36,192,34785,1,0,0:0:0:0:
475,192,34785,1,0,0:0:0:0:
329,192,34851,1,0,0:0:0:0:
182,192,34918,1,0,0:0:0:0:
402,192,34985,1,0,0:0:0:0:
36,192,34985,1,0,0:0:0:0:
256,192,35051,1,0,0:0:0:0:
109,192,35118,1,0,0:0:0:0:
182,192,35185,1,0,0:0:0:0:
329,192,35185,1,0,0:0:0:0:
256,192,35285,1,0,0:0:0:0:
402,192,35285,1,0,0:0:0:0:
329,192,35385,1,0,0:0:0:0:
475,192,35385,1,0,0:0:0:0:
109,192,35385,1,0,0:0:0:0:
256,192,35485,1,0,0:0:0:0:
182,192,35585,1,0,0:0:0:0:
36,192,35685,1,0,0:0:0:0:
402,192,35685,1,0,0:0:0:0:
109,192,35785,1,0,0:0:0:0:
329,192,35885,1,0,0:0:0:0:
182,192,35985,1,0,0:0:0:0:
475,192,35985,1,0,0:0:0:0:
329,192,36085,1,0,0:0:0:0:
182,192,36185,1,0,0:0:0:0:
36,192,36285,1,0,0:0:0:0:
475,192,36285,1,0,0:0:0:0:
182,192,36385,1,0,0:0:0:0:
329,192,36385,1,0,0:0:0:0:
402,192,36385,1,0,0:0:0:0:
109,192,36485,1,0,0:0:0:0:
36,192,36485,1,0,0:0:0:0:
182,192,36585,1,0,0:0:0:0:
256,192,36585,1,0,0:0:0:0:
329,192,36685,1,0,0:0:0:0:
475,192,36685,1,0,0:0:0:0:
109,192,36785,1,0,0:0:0:0:
36,192,36785,1,0,0:0:0:0:
256,192,36785,128,0,36885:0:0:0:0:
402,192,36785,128,0,36885:0:0:0:0:
475,192,36885,1,0,0:0:0:0:
182,192,36985,128,0,37085:0:0:0:0:
329,192,36985,128,0,37085:0:0:0:0:
475,192,37085,1,0,0:0:0:0:
36,192,37185,1,0,0:0:0:0:
109,192,37185,128,0,37285:0:0:0:0:
256,192,37185,128,0,37285:0:0:0:0:
475,192,37285,1,0,0:0:0:0:
182,192,37385,128,0,37485:0:0:0:0:
329,192,37385,128,0,37485:0:0:0:0:
36,192,37485,1,0,0:0:0:0:
256,192,37585,128,0,37685:0:0:0:0:
402,192,37585,128,0,37685:0:0:0:0:
36,192,37685,1,0,0:0:0:0:
182,192,37785,1,0,0:0:0:0:
329,192,37785,128,0,37885:0:0:0:0:
475,192,37785,128,0,37885:0:0:0:0:
36,192,37885,1,0,0:0:0:0:
256,192,37985,128,0,38085:0:0:0:0:
329,192,37985,128,0,38085:0:0:0:0:
475,192,38085,1,0,0:0:0:0:
256,192,38185,128,0,38285:0:0:0:0:
182,192,38185,128,0,38285:0:0:0:0:
475,192,38285,1,0,0:0:0:0:
329,192,38385,1,0,0:0:0:0:
109,192,38385,128,0,38485:0:0:0:0:
182,192,38385,128,0,38485:0:0:0:0:
256,192,38485,1,0,0:0:0:0:
36,192,38485,1,0,0:0:0:0:
402,192,38585,1,0,0:0:0:0:
475,192,38585,1,0,0:0:0:0:
182,192,38585,128,0,38685:0:0:0:0:
329,192,38585,128,0,38685:0:0:0:0:
109,192,38685,1,0,0:0:0:0:
36,192,38685,1,0,0:0:0:0:
329,192,38785,128,0,38885:0:0:0:0:
475,192,38785,128,0,38885:0:0:0:0:
256,192,38835,1,0,0:0:0:0:
182,192,38885,1,0,0:0:0:0:
36,192,38885,1,0,0:0:0:0:
256,192,38985,128,0,39085:0:0:0:0:
402,192,38985,128,0,39085:0:0:0:0:
329,192,39085,1,0,0:0:0:0:
182,192,39085,1,0,0:0:0:0:
109,192,39185,1,0,0:0:0:0:
36,192,39185,1,0,0:0:0:0:
256,192,39185,1,0,0:0:0:0:
475,192,39185,1,0,0:0:0:0:
182,192,39385,1,0,0:0:0:0:
36,192,39385,1,0,0:0:0:0:
329,192,39385,1,0,0:0:0:0:
475,192,39385,1,0,0:0:0:0:
256,192,39485,1,0,0:0:0:0:
182,192,39585,1,0,0:0:0:0:
36,192,39585,1,0,0:0:0:0:
329,192,39585,1,0,0:0:0:0:
475,192,39585,1,0,0:0:0:0:
256,192,39685,1,0,0:0:0:0:
36,192,39785,1,0,0:0:0:0:
182,192,39785,1,0,0:0:0:0:
329,192,39785,1,0,0:0:0:0:
475,192,39785,1,0,0:0:0:0:
256,192,39885,1,0,0:0:0:0:
36,192,39985,1,0,0:0:0:0:
475,192,39985,1,0,0:0:0:0:
402,192,40035,1,0,0:0:0:0:
329,192,40085,1,0,0:0:0:0:
256,192,40135,1,0,0:0:0:0:
182,192,40185,1,0,0:0:0:0:
36,192,40185,1,0,0:0:0:0:
329,192,40235,1,0,0:0:0:0:
475,192,40235,1,0,0:0:0:0:
182,192,40285,1,0,0:0:0:0:
36,192,40285,1,0,0:0:0:0:
256,192,40335,1,0,0:0:0:0:
329,192,40385,1,0,0:0:0:0:
109,192,40385,1,0,0:0:0:0:
402,192,40435,1,0,0:0:0:0:
182,192,40485,1,0,0:0:0:0:
475,192,40485,1,0,0:0:0:0:
109,192,40535,1,0,0:0:0:0:
36,192,40585,1,0,0:0:0:0:
256,192,40585,1,0,0:0:0:0:
402,192,40585,1,0,0:0:0:0:
256,192,40685,1,0,0:0:0:0:
402,192,40685,1,0,0:0:0:0:
109,192,40785,1,0,0:0:0:0:
36,192,40785,1,0,0:0:0:0:
182,192,40785,1,0,0:0:0:0:
475,192,40785,128,0,41385:0:0:0:0:
329,192,40885,1,0,0:0:0:0:
256,192,40935,1,0,0:0:0:0:
182,192,40985,1,0,0:0:0:0:
36,192,40985,1,0,0:0:0:0:
402,192,40985,1,0,0:0:0:0:
109,192,41085,1,0,0:0:0:0:
256,192,41135,1,0,0:0:0:0:
402,192,41185,1,0,0:0:0:0:
36,192,41285,1,0,0:0:0:0:
182,192,41285,1,0,0:0:0:0:
329,192,41285,1,0,0:0:0:0:
109,192,41385,1,0,0:0:0:0:
256,192,41385,1,0,0:0:0:0:
182,192,41485,1,0,0:0:0:0:
256,192,41535,1,0,0:0:0:0:
36,192,41585,128,0,42385:0:0:0:0:
329,192,41585,1,0,0:0:0:0:
475,192,41585,1,0,0:0:0:0:
109,192,41685,1,0,0:0:0:0:
182,192,41785,1,0,0:0:0:0:
256,192,41785,1,0,0:0:0:0:
475,192,41785,1,0,0:0:0:0:
109,192,41885,1,0,0:0:0:0:
329,192,41985,1,0,0:0:0:0:
402,192,41985,1,0,0:0:0:0:
329,192,42085,1,0,0:0:0:0:
402,192,42085,1,0,0:0:0:0:
109,192,42185,1,0,0:0:0:0:
256,192,42185,1,0,0:0:0:0:
475,192,42185,1,0,0:0:0:0:
182,192,42285,1,0,0:0:0:0:
329,192,42285,1,0,0:0:0:0:
256,192,42385,1,0,0:0:0:0:
402,192,42385,1,0,0:0:0:0:
109,192,42435,1,0,0:0:0:0:
329,192,42485,1,0,0:0:0:0:
182,192,42485,1,0,0:0:0:0:
402,192,42535,1,0,0:0:0:0:
109,192,42585,1,0,0:0:0:0:
256,192,42585,1,0,0:0:0:0:
36,192,42635,1,0,0:0:0:0:
329,192,42685,1,0,0:0:0:0:
182,192,42685,1,0,0:0:0:0:
475,192,42735,1,0,0:0:0:0:
402,192,42785,1,0,0:0:0:0:
256,192,42785,1,0,0:0:0:0:
182,192,42835,1,0,0:0:0:0:
109,192,42885,1,0,0:0:0:0:
329,192,42885,1,0,0:0:0:0:
256,192,42935,1,0,0:0:0:0:
182,192,42985,1,0,0:0:0:0:
36,192,42985,1,0,0:0:0:0:
402,192,43035,1,0,0:0:0:0:
329,192,43085,1,0,0:0:0:0:
109,192,43085,1,0,0:0:0:0:
182,192,43135,1,0,0:0:0:0:
256,192,43185,1,0,0:0:0:0:
36,192,43185,1,0,0:0:0:0:
402,192,43185,1,0,0:0:0:0:
475,192,43185,1,0,0:0:0:0:
182,192,43585,128,0,43785:0:0:0:0:
329,192,43785,128,0,43985:0:0:0:0:
475,192,43985,128,0,44285:0:0:0:0:
36,192,43985,1,0,0:0:0:0:
109,192,43985,1,0,0:0:0:0:
256,192,43985,1,0,0:0:0:0:
329,192,44085,1,0,0:0:0:0:
182,192,44185,1,0,0:0:0:0:
109,192,44185,1,0,0:0:0:0:
402,192,44185,1,0,0:0:0:0:
256,192,44285,128,0,44585:0:0:0:0:
36,192,44285,1,0,0:0:0:0:
329,192,44285,1,0,0:0:0:0:
402,192,44385,1,0,0:0:0:0:
475,192,44385,1,0,0:0:0:0:
182,192,44485,1,0,0:0:0:0:
36,192,44585,128,0,44785:0:0:0:0:
109,192,44585,1,0,0:0:0:0:
329,192,44585,1,0,0:0:0:0:
402,192,44585,1,0,0:0:0:0:
475,192,44685,1,0,0:0:0:0:
402,192,44785,128,0,45185:0:0:0:0:
182,192,44785,1,0,0:0:0:0:
256,192,44785,1,0,0:0:0:0:
329,192,44785,1,0,0:0:0:0:
109,192,44885,1,0,0:0:0:0:
36,192,44985,1,0,0:0:0:0:
329,192,44985,1,0,0:0:0:0:
256,192,44985,1,0,0:0:0:0:
182,192,45085,1,0,0:0:0:0:
109,192,45185,128,0,45385:0:0:0:0:
329,192,45185,1,0,0:0:0:0:
475,192,45185,1,0,0:0:0:0:
36,192,45185,1,0,0:0:0:0:
182,192,45285,1,0,0:0:0:0:
256,192,45385,128,0,45585:0:0:0:0:
36,192,45385,1,0,0:0:0:0:
402,192,45385,1,0,0:0:0:0:
475,192,45385,1,0,0:0:0:0:
182,192,45485,1,0,0:0:0:0:
402,192,45585,128,0,45885:0:0:0:0:
109,192,45585,1,0,0:0:0:0:
36,192,45585,1,0,0:0:0:0:
475,192,45585,1,0,0:0:0:0:
256,192,45685,1,0,0:0:0:0:
329,192,45785,1,0,0:0:0:0:
475,192,45785,1,0,0:0:0:0:
36,192,45785,1,0,0:0:0:0:
182,192,45885,128,0,46185:0:0:0:0:
109,192,45885,1,0,0:0:0:0:
256,192,45885,1,0,0:0:0:0:
36,192,45985,1,0,0:0:0:0:
402,192,45985,1,0,0:0:0:0:
329,192,46085,1,0,0:0:0:0:
36,192,46185,128,0,46385:0:0:0:0:
475,192,46185,1,0,0:0:0:0:
109,192,46185,1,0,0:0:0:0:
256,192,46185,1,0,0:0:0:0:
329,192,46285,1,0,0:0:0:0:
256,192,46385,128,0,46785:0:0:0:0:
402,192,46385,1,0,0:0:0:0:
182,192,46385,1,0,0:0:0:0:
475,192,46385,1,0,0:0:0:0:
109,192,46485,1,0,0:0:0:0:
36,192,46585,1,0,0:0:0:0:
402,192,46585,1,0,0:0:0:0:
475,192,46585,1,0,0:0:0:0:
182,192,46685,1,0,0:0:0:0:
475,192,46735,1,0,0:0:0:0:
36,192,46785,128,0,46985:0:0:0:0:
109,192,46785,1,0,0:0:0:0:
329,192,46785,1,0,0:0:0:0:
402,192,46785,1,0,0:0:0:0:
256,192,46885,1,0,0:0:0:0:
182,192,46985,128,0,47185:0:0:0:0:
402,192,46985,1,0,0:0:0:0:
475,192,46985,1,0,0:0:0:0:
329,192,46985,1,0,0:0:0:0:
109,192,47085,1,0,0:0:0:0:
329,192,47185,128,0,47485:0:0:0:0:
36,192,47185,1,0,0:0:0:0:
402,192,47185,1,0,0:0:0:0:
475,192,47185,1,0,0:0:0:0:
256,192,47285,1,0,0:0:0:0:
182,192,47385,1,0,0:0:0:0:
109,192,47385,1,0,0:0:0:0:
402,192,47385,1,0,0:0:0:0:
256,192,47485,128,0,47785:0:0:0:0:
475,192,47485,1,0,0:0:0:0:
36,192,47485,1,0,0:0:0:0:
109,192,47585,1,0,0:0:0:0:
329,192,47585,1,0,0:0:0:0:
402,192,47685,1,0,0:0:0:0:
182,192,47785,128,0,47985:0:0:0:0:
329,192,47785,1,0,0:0:0:0:
475,192,47785,1,0,0:0:0:0:
36,192,47785,1,0,0:0:0:0:
109,192,47885,1,0,0:0:0:0:
36,192,47985,128,0,48185:0:0:0:0:
256,192,47985,1,0,0:0:0:0:
402,192,47985,1,0,0:0:0:0:
475,192,47985,1,0,0:0:0:0:
182,192,48085,1,0,0:0:0:0:
402,192,48185,128,0,48385:0:0:0:0:
329,192,48185,1,0,0:0:0:0:
109,192,48185,1,0,0:0:0:0:
475,192,48185,1,0,0:0:0:0:
256,192,48285,1,0,0:0:0:0:
109,192,48385,128,0,48585:0:0:0:0:
182,192,48385,1,0,0:0:0:0:
475,192,48385,1,0,0:0:0:0:
36,192,48385,1,0,0:0:0:0:
402,192,48485,1,0,0:0:0:0:
329,192,48585,128,0,48785:0:0:0:0:
256,192,48585,1,0,0:0:0:0:
36,192,48585,1,0,0:0:0:0:
475,192,48585,1,0,0:0:0:0:
109,192,48685,1,0,0:0:0:0:
475,192,48785,128,0,49085:0:0:0:0:
256,192,48785,1,0,0:0:0:0:
402,192,48785,1,0,0:0:0:0:
36,192,48785,1,0,0:0:0:0:
182,192,48885,1,0,0:0:0:0:
329,192,48985,1,0,0:0:0:0:
109,192,48985,1,0,0:0:0:0:
402,192,48985,1,0,0:0:0:0:
36,192,49085,128,0,49385:0:0:0:0:
182,192,49085,1,0,0:0:0:0:
256,192,49085,1,0,0:0:0:0:
109,192,49185,1,0,0:0:0:0:
402,192,49185,1,0,0:0:0:0:
329,192,49285,1,0,0:0:0:0:
475,192,49385,128,0,49585:0:0:0:0:
256,192,49385,1,0,0:0:0:0:
182,192,49385,1,0,0:0:0:0:
109,192,49385,1,0,0:0:0:0:
402,192,49485,1,0,0:0:0:0:
329,192,49585,128,0,49985:0:0:0:0:
182,192,49585,1,0,0:0:0:0:
109,192,49585,1,0,0:0:0:0:
36,192,49585,1,0,0:0:0:0:
256,192,49685,1,0,0:0:0:0:
36,192,49785,1,0,0:0:0:0:
475,192,49785,1,0,0:0:0:0:
182,192,49785,1,0,0:0:0:0:
402,192,49885,1,0,0:0:0:0:
182,192,49985,128,0,50385:0:0:0:0:
256,192,49985,1,0,0:0:0:0:
109,192,49985,1,0,0:0:0:0:
329,192,50035,1,0,0:0:0:0:
402,192,50085,1,0,0:0:0:0:
475,192,50135,1,0,0:0:0:0:
329,192,50185,1,0,0:0:0:0:
36,192,50185,1,0,0:0:0:0:
109,192,50185,1,0,0:0:0:0:
256,192,50285,1,0,0:0:0:0:
329,192,50385,128,0,50685:0:0:0:0:
36,192,50385,1,0,0:0:0:0:
402,192,50385,1,0,0:0:0:0:
475,192,50385,1,0,0:0:0:0:
182,192,50485,1,0,0:0:0:0:
36,192,50585,1,0,0:0:0:0:
256,192,50585,1,0,0:0:0:0:
402,192,50585,1,0,0:0:0:0:
109,192,50685,128,0,50985:0:0:0:0:
182,192,50685,1,0,0:0:0:0:
475,192,50685,1,0,0:0:0:0:
256,192,50785,1,0,0:0:0:0:
329,192,50785,1,0,0:0:0:0:
36,192,50885,1,0,0:0:0:0:
475,192,50985,128,0,51185:0:0:0:0:
182,192,50985,1,0,0:0:0:0:
329,192,50985,1,0,0:0:0:0:
402,192,50985,1,0,0:0:0:0:
36,192,51085,1,0,0:0:0:0:
182,192,51185,128,0,51585:0:0:0:0:
109,192,51185,1,0,0:0:0:0:
329,192,51185,1,0,0:0:0:0:
256,192,51185,1,0,0:0:0:0:
402,192,51285,1,0,0:0:0:0:
475,192,51385,1,0,0:0:0:0:
256,192,51385,1,0,0:0:0:0:
36,192,51385,1,0,0:0:0:0:
109,192,51485,1,0,0:0:0:0:
36,192,51585,128,0,51785:0:0:0:0:
329,192,51585,1,0,0:0:0:0:
402,192,51585,1,0,0:0:0:0:
475,192,51585,1,0,0:0:0:0:
182,192,51685,1,0,0:0:0:0:
256,192,51785,128,0,51985:0:0:0:0:
109,192,51785,1,0,0:0:0:0:
475,192,51785,1,0,0:0:0:0:
402,192,51785,1,0,0:0:0:0:
329,192,51885,1,0,0:0:0:0:
475,192,51985,128,0,52285:0:0:0:0:
182,192,51985,1,0,0:0:0:0:
36,192,51985,1,0,0:0:0:0:
402,192,51985,1,0,0:0:0:0:
256,192,52085,1,0,0:0:0:0:
402,192,52185,1,0,0:0:0:0:
36,192,52185,1,0,0:0:0:0:
182,192,52185,1,0,0:0:0:0:
109,192,52285,128,0,52585:0:0:0:0:
256,192,52285,1,0,0:0:0:0:
329,192,52285,1,0,0:0:0:0:
402,192,52385,1,0,0:0:0:0:
182,192,52385,1,0,0:0:0:0:
329,192,52485,1,0,0:0:0:0:
402,192,52585,128,0,52785:0:0:0:0:
256,192,52585,1,0,0:0:0:0:
36,192,52585,1,0,0:0:0:0:
475,192,52585,1,0,0:0:0:0:
182,192,52685,1,0,0:0:0:0:
109,192,52785,1,0,0:0:0:0:
256,192,52785,1,0,0:0:0:0:
36,192,52785,128,0,53085:0:0:0:0:
475,192,52785,1,0,0:0:0:0:
329,192,52885,1,0,0:0:0:0:
402,192,52985,1,0,0:0:0:0:
475,192,52985,1,0,0:0:0:0:
109,192,52985,1,0,0:0:0:0:
256,192,53085,1,0,0:0:0:0:
182,192,53085,128,0,53385:0:0:0:0:
329,192,53135,1,0,0:0:0:0:
402,192,53185,1,0,0:0:0:0:
475,192,53185,1,0,0:0:0:0:
256,192,53285,1,0,0:0:0:0:
36,192,53385,1,0,0:0:0:0:
402,192,53385,1,0,0:0:0:0:
475,192,53385,1,0,0:0:0:0:
329,192,53385,128,0,53585:0:0:0:0:
109,192,53485,1,0,0:0:0:0:
256,192,53485,1,0,0:0:0:0:
182,192,53585,1,0,0:0:0:0:
402,192,53585,1,0,0:0:0:0:
475,192,53585,128,0,53885:0:0:0:0:
36,192,53585,1,0,0:0:0:0:
256,192,53685,1,0,0:0:0:0:
109,192,53785,1,0,0:0:0:0:
329,192,53785,1,0,0:0:0:0:
36,192,53785,1,0,0:0:0:0:
256,192,53885,128,0,54185:0:0:0:0:
182,192,53885,1,0,0:0:0:0:
402,192,53885,1,0,0:0:0:0:
475,192,53985,1,0,0:0:0:0:
36,192,53985,1,0,0:0:0:0:
329,192,54085,1,0,0:0:0:0:
36,192,54185,128,0,54385:0:0:0:0:
182,192,54185,1,0,0:0:0:0:
109,192,54185,1,0,0:0:0:0:
475,192,54185,1,0,0:0:0:0:
256,192,54285,1,0,0:0:0:0:
402,192,54285,1,0,0:0:0:0:
182,192,54385,1,0,0:0:0:0:
475,192,54385,1,0,0:0:0:0:
329,192,54385,128,0,54685:0:0:0:0:
109,192,54385,1,0,0:0:0:0:
256,192,54585,1,0,0:0:0:0:
402,192,54585,1,0,0:0:0:0:
109,192,54685,128,0,54985:0:0:0:0:
182,192,54685,1,0,0:0:0:0:
36,192,54685,1,0,0:0:0:0:
475,192,54685,1,0,0:0:0:0:
402,192,54785,1,0,0:0:0:0:
329,192,54835,1,0,0:0:0:0:
256,192,54885,1,0,0:0:0:0:
36,192,54885,1,0,0:0:0:0:
402,192,54985,128,0,55185:0:0:0:0:
182,192,54985,1,0,0:0:0:0:
329,192,54985,1,0,0:0:0:0:
475,192,54985,1,0,0:0:0:0:
109,192,55085,1,0,0:0:0:0:
256,192,55185,1,0,0:0:0:0:
475,192,55185,1,0,0:0:0:0:
36,192,55185,128,0,55985:0:0:0:0:
402,192,55235,1,0,0:0:0:0:
329,192,55285,1,0,0:0:0:0:
182,192,55285,1,0,0:0:0:0:
109,192,55335,1,0,0:0:0:0:
256,192,55385,1,0,0:0:0:0:
402,192,55385,1,0,0:0:0:0:
182,192,55435,1,0,0:0:0:0:
329,192,55485,1,0,0:0:0:0:
109,192,55485,1,0,0:0:0:0:
402,192,55535,1,0,0:0:0:0:
475,192,55585,1,0,0:0:0:0:
182,192,55585,1,0,0:0:0:0:
256,192,55635,1,0,0:0:0:0:
329,192,55685,1,0,0:0:0:0:
109,192,55685,1,0,0:0:0:0:
402,192,55735,1,0,0:0:0:0:
475,192,55785,1,0,0:0:0:0:
182,192,55785,1,0,0:0:0:0:
329,192,55835,1,0,0:0:0:0:
256,192,55885,1,0,0:0:0:0:
109,192,55935,1,0,0:0:0:0:
182,192,55985,1,0,0:0:0:0:
402,192,55985,1,0,0:0:0:0:
475,192,55985,1,0,0:0:0:0:
329,192,56035,1,0,0:0:0:0:
256,192,56035,1,0,0:0:0:0:
109,192,56085,1,0,0:0:0:0:
36,192,56085,1,0,0:0:0:0:
182,192,56135,1,0,0:0:0:0:
329,192,56185,1,0,0:0:0:0:
402,192,56185,1,0,0:0:0:0:
182,192,56235,1,0,0:0:0:0:
256,192,56235,1,0,0:0:0:0:
36,192,56285,1,0,0:0:0:0:
475,192,56285,1,0,0:0:0:0:
329,192,56335,1,0,0:0:0:0:
182,192,56385,1,0,0:0:0:0:
109,192,56385,1,0,0:0:0:0:
402,192,56435,1,0,0:0:0:0:
475,192,56435,1,0,0:0:0:0:
256,192,56485,1,0,0:0:0:0:
329,192,56485,1,0,0:0:0:0:
36,192,56535,1,0,0:0:0:0:
109,192,56585,1,0,0:0:0:0:
182,192,56585,1,0,0:0:0:0:
329,192,56635,1,0,0:0:0:0:
402,192,56635,1,0,0:0:0:0:
36,192,56685,1,0,0:0:0:0:
256,192,56685,1,0,0:0:0:0:
475,192,56735,1,0,0:0:0:0:
109,192,56785,1,0,0:0:0:0:
36,192,56785,1,0,0:0:0:0:
182,192,56785,1,0,0:0:0:0:
402,192,56785,1,0,0:0:0:0:
256,192,56885,1,0,0:0:0:0:
329,192,56885,1,0,0:0:0:0:
182,192,56985,1,0,0:0:0:0:
109,192,56985,1,0,0:0:0:0:
402,192,56985,1,0,0:0:0:0:
36,192,57185,1,0,0:0:0:0:
329,192,57185,1,0,0:0:0:0:
182,192,57285,1,0,0:0:0:0:
475,192,57285,1,0,0:0:0:0:
329,192,57385,1,0,0:0:0:0:
402,192,57385,1,0,0:0:0:0:
109,192,57385,1,0,0:0:0:0:
256,192,57485,1,0,0:0:0:0:
36,192,57585,128,0,57785:0:0:0:0:
329,192,57585,128,0,57785:0:0:0:0:
109,192,57785,1,0,0:0:0:0:
256,192,57785,1,0,0:0:0:0:
475,192,57785,1,0,0:0:0:0:
36,192,57885,128,0,58085:0:0:0:0:
329,192,57885,128,0,58085:0:0:0:0:
256,192,57985,1,0,0:0:0:0:
182,192,58085,1,0,0:0:0:0:
402,192,58085,1,0,0:0:0:0:
36,192,58185,128,0,58385:0:0:0:0:
329,192,58185,128,0,58385:0:0:0:0:
109,192,58185,1,0,0:0:0:0:
475,192,58185,1,0,0:0:0:0:
182,192,58385,1,0,0:0:0:0:
402,192,58385,1,0,0:0:0:0:
109,192,58485,1,0,0:0:0:0:
256,192,58485,1,0,0:0:0:0:
182,192,58585,1,0,0:0:0:0:
402,192,58585,1,0,0:0:0:0:
329,192,58585,1,0,0:0:0:0:
256,192,58685,1,0,0:0:0:0:
36,192,58785,1,0,0:0:0:0:
329,192,58785,1,0,0:0:0:0:
182,192,58885,1,0,0:0:0:0:
475,192,58885,1,0,0:0:0:0:
402,192,58985,1,0,0:0:0:0:
329,192,58985,1,0,0:0:0:0:
36,192,58985,1,0,0:0:0:0:
182,192,59085,1,0,0:0:0:0:
109,192,59185,128,0,59385:0:0:0:0:
402,192,59185,128,0,59385:0:0:0:0:
182,192,59385,1,0,0:0:0:0:
256,192,59385,1,0,0:0:0:0:
329,192,59385,1,0,0:0:0:0:
109,192,59485,128,0,59685:0:0:0:0:
402,192,59485,128,0,59685:0:0:0:0:
329,192,59585,1,0,0:0:0:0:
182,192,59585,1,0,0:0:0:0:
256,192,59685,1,0,0:0:0:0:
109,192,59785,128,0,59985:0:0:0:0:
402,192,59785,128,0,59985:0:0:0:0:
36,192,59785,1,0,0:0:0:0:
475,192,59785,1,0,0:0:0:0:
182,192,59985,1,0,0:0:0:0:
329,192,59985,1,0,0:0:0:0:
256,192,60085,1,0,0:0:0:0:
475,192,60085,1,0,0:0:0:0:
329,192,60185,1,0,0:0:0:0:
182,192,60185,1,0,0:0:0:0:
36,192,60185,1,0,0:0:0:0:
402,192,60285,1,0,0:0:0:0:
256,192,60385,1,0,0:0:0:0:
109,192,60385,1,0,0:0:0:0:
182,192,60485,1,0,0:0:0:0:
329,192,60485,1,0,0:0:0:0:
109,192,60585,1,0,0:0:0:0:
256,192,60585,1,0,0:0:0:0:
36,192,60585,1,0,0:0:0:0:
402,192,60685,1,0,0:0:0:0:
182,192,60785,128,0,60985:0:0:0:0:
475,192,60785,128,0,60985:0:0:0:0:
256,192,60885,1,0,0:0:0:0:
109,192,60985,1,0,0:0:0:0:
402,192,60985,1,0,0:0:0:0:
36,192,60985,1,0,0:0:0:0:
182,192,61085,128,0,61285:0:0:0:0:
475,192,61085,128,0,61285:0:0:0:0:
329,192,61185,1,0,0:0:0:0:
256,192,61285,1,0,0:0:0:0:
109,192,61285,1,0,0:0:0:0:
36,192,61385,1,0,0:0:0:0:
182,192,61385,128,0,61585:0:0:0:0:
475,192,61385,128,0,61585:0:0:0:0:
329,192,61485,1,0,0:0:0:0:
109,192,61585,1,0,0:0:0:0:
36,192,61585,1,0,0:0:0:0:
402,192,61585,1,0,0:0:0:0:
256,192,61685,1,0,0:0:0:0:
182,192,61685,1,0,0:0:0:0:
36,192,61785,1,0,0:0:0:0:
402,192,61785,1,0,0:0:0:0:
475,192,61785,1,0,0:0:0:0:
109,192,61885,1,0,0:0:0:0:
256,192,61885,1,0,0:0:0:0:
182,192,61985,1,0,0:0:0:0:
475,192,61985,1,0,0:0:0:0:
402,192,61985,1,0,0:0:0:0:
109,192,62085,1,0,0:0:0:0:
36,192,62085,1,0,0:0:0:0:
182,192,62135,1,0,0:0:0:0:
256,192,62185,1,0,0:0:0:0:
402,192,62185,1,0,0:0:0:0:
475,192,62185,1,0,0:0:0:0:
36,192,62285,1,0,0:0:0:0:
182,192,62285,1,0,0:0:0:0:
109,192,62385,1,0,0:0:0:0:
402,192,62385,1,0,0:0:0:0:
329,192,62435,1,0,0:0:0:0:
256,192,62485,1,0,0:0:0:0:
36,192,62485,1,0,0:0:0:0:
109,192,62535,1,0,0:0:0:0:
182,192,62585,1,0,0:0:0:0:
329,192,62585,1,0,0:0:0:0:
402,192,62635,1,0,0:0:0:0:
475,192,62685,1,0,0:0:0:0:
36,192,62685,1,0,0:0:0:0:
182,192,62735,1,0,0:0:0:0:
329,192,62785,1,0,0:0:0:0:
402,192,62785,1,0,0:0:0:0:
256,192,62835,1,0,0:0:0:0:
182,192,62885,1,0,0:0:0:0:
36,192,62885,1,0,0:0:0:0:
402,192,62935,1,0,0:0:0:0:
329,192,62985,1,0,0:0:0:0:
109,192,62985,1,0,0:0:0:0:
256,192,63085,1,0,0:0:0:0:
475,192,63085,1,0,0:0:0:0:
402,192,63185,1,0,0:0:0:0:
109,192,63185,1,0,0:0:0:0:
36,192,63185,1,0,0:0:0:0:
182,192,63185,128,0,63285:0:0:0:0:
256,192,63285,128,0,63385:0:0:0:0:
329,192,63385,128,0,63485:0:0:0:0:
109,192,63385,1,0,0:0:0:0:
36,192,63385,1,0,0:0:0:0:
475,192,63385,1,0,0:0:0:0:
402,192,63485,128,0,63585:0:0:0:0:
36,192,63585,128,0,63685:0:0:0:0:
182,192,63585,1,0,0:0:0:0:
329,192,63585,1,0,0:0:0:0:
109,192,63685,128,0,63785:0:0:0:0:
256,192,63685,1,0,0:0:0:0:
402,192,63685,1,0,0:0:0:0:
182,192,63785,128,0,63885:0:0:0:0:
329,192,63785,1,0,0:0:0:0:
475,192,63785,1,0,0:0:0:0:
36,192,63785,1,0,0:0:0:0:
256,192,63885,128,0,63985:0:0:0:0:
475,192,63985,1,0,0:0:0:0:
109,192,63985,1,0,0:0:0:0:
36,192,63985,1,0,0:0:0:0:
402,192,64035,1,0,0:0:0:0:
329,192,64085,128,0,64185:0:0:0:0:
109,192,64185,128,0,64285:0:0:0:0:
256,192,64185,1,0,0:0:0:0:
475,192,64185,1,0,0:0:0:0:
36,192,64185,1,0,0:0:0:0:
402,192,64285,128,0,64385:0:0:0:0:
182,192,64285,1,0,0:0:0:0:
329,192,64285,1,0,0:0:0:0:
36,192,64385,1,0,0:0:0:0:
109,192,64435,1,0,0:0:0:0:
182,192,64485,128,0,64585:0:0:0:0:
329,192,64485,1,0,0:0:0:0:
402,192,64485,1,0,0:0:0:0:
475,192,64585,128,0,64685:0:0:0:0:
256,192,64585,1,0,0:0:0:0:
109,192,64585,1,0,0:0:0:0:
36,192,64585,1,0,0:0:0:0:
329,192,64685,128,0,64785:0:0:0:0:
182,192,64785,128,0,65085:0:0:0:0:
256,192,64785,1,0,0:0:0:0:
402,192,64785,1,0,0:0:0:0:
329,192,64985,1,0,0:0:0:0:
402,192,64985,1,0,0:0:0:0:
475,192,64985,1,0,0:0:0:0:
36,192,65085,128,0,66185:0:0:0:0:
109,192,65185,1,0,0:0:0:0:
256,192,65185,1,0,0:0:0:0:
182,192,65285,1,0,0:0:0:0:
329,192,65285,1,0,0:0:0:0:
256,192,65385,1,0,0:0:0:0:
402,192,65385,1,0,0:0:0:0:
109,192,65385,1,0,0:0:0:0:
329,192,65585,1,0,0:0:0:0:
475,192,65585,1,0,0:0:0:0:
256,192,65685,1,0,0:0:0:0:
402,192,65685,1,0,0:0:0:0:
182,192,65785,1,0,0:0:0:0:
329,192,65785,1,0,0:0:0:0:
109,192,65785,1,0,0:0:0:0:
402,192,65885,1,0,0:0:0:0:
475,192,65885,1,0,0:0:0:0:
402,192,66085,1,0,0:0:0:0:
475,192,66085,1,0,0:0:0:0:
329,192,66185,1,0,0:0:0:0:
182,192,66185,1,0,0:0:0:0:
109,192,66185,1,0,0:0:0:0:
402,192,66235,1,0,0:0:0:0:
182,192,66285,1,0,0:0:0:0:
256,192,66335,1,0,0:0:0:0:
475,192,66385,1,0,0:0:0:0:
329,192,66385,128,0,66451:0:0:0:0:
36,192,66385,1,0,0:0:0:0:
109,192,66451,128,0,66518:0:0:0:0:
182,192,66518,128,0,66585:0:0:0:0:
402,192,66585,128,0,66651:0:0:0:0:
329,192,66585,1,0,0:0:0:0:
36,192,66585,1,0,0:0:0:0:
109,192,66585,1,0,0:0:0:0:
256,192,66651,128,0,66718:0:0:0:0:
329,192,66718,128,0,66785:0:0:0:0:
109,192,66785,1,0,0:0:0:0:
36,192,66785,1,0,0:0:0:0:
475,192,66785,128,0,66851:0:0:0:0:
402,192,66851,128,0,66918:0:0:0:0:
109,192,66885,1,0,0:0:0:0:
36,192,66885,1,0,0:0:0:0:
256,192,66918,128,0,66985:0:0:0:0:
329,192,66985,1,0,0:0:0:0:
402,192,66985,1,0,0:0:0:0:
475,192,66985,1,0,0:0:0:0:
182,192,66985,128,0,67051:0:0:0:0:
36,192,67051,128,0,67118:0:0:0:0:
329,192,67118,128,0,67185:0:0:0:0:
109,192,67185,128,0,67251:0:0:0:0:
256,192,67185,1,0,0:0:0:0:
475,192,67185,1,0,0:0:0:0:
402,192,67251,128,0,67318:0:0:0:0:
182,192,67318,128,0,67385:0:0:0:0:
36,192,67385,1,0,0:0:0:0:
109,192,67385,1,0,0:0:0:0:
329,192,67385,1,0,0:0:0:0:
475,192,67385,128,0,67451:0:0:0:0:
402,192,67451,128,0,67518:0:0:0:0:
182,192,67485,1,0,0:0:0:0:
36,192,67485,1,0,0:0:0:0:
329,192,67518,128,0,67585:0:0:0:0:
109,192,67585,128,0,67651:0:0:0:0:
182,192,67651,128,0,67718:0:0:0:0:
329,192,67685,1,0,0:0:0:0:
475,192,67685,1,0,0:0:0:0:
109,192,67718,128,0,67785:0:0:0:0:
402,192,67785,128,0,67851:0:0:0:0:
256,192,67785,1,0,0:0:0:0:
182,192,67785,1,0,0:0:0:0:
36,192,67785,1,0,0:0:0:0:
329,192,67851,128,0,67918:0:0:0:0:
402,192,67918,128,0,67985:0:0:0:0:
36,192,67985,128,0,68051:0:0:0:0:
256,192,67985,1,0,0:0:0:0:
475,192,67985,1,0,0:0:0:0:
109,192,68051,128,0,68118:0:0:0:0:
182,192,68118,128,0,68185:0:0:0:0:
475,192,68185,128,0,68251:0:0:0:0:
109,192,68185,1,0,0:0:0:0:
256,192,68185,1,0,0:0:0:0:
36,192,68185,1,0,0:0:0:0:
402,192,68251,128,0,68318:0:0:0:0:
329,192,68318,128,0,68385:0:0:0:0:
109,192,68385,128,0,68451:0:0:0:0:
402,192,68385,1,0,0:0:0:0:
475,192,68385,1,0,0:0:0:0:
256,192,68451,128,0,68518:0:0:0:0:
402,192,68485,1,0,0:0:0:0:
475,192,68485,1,0,0:0:0:0:
36,192,68518,128,0,68585:0:0:0:0:
329,192,68585,128,0,68651:0:0:0:0:
109,192,68585,1,0,0:0:0:0:
256,192,68585,1,0,0:0:0:0:
182,192,68585,1,0,0:0:0:0:
402,192,68651,128,0,68718:0:0:0:0:
182,192,68718,128,0,68785:0:0:0:0:
109,192,68785,1,0,0:0:0:0:
36,192,68785,1,0,0:0:0:0:
329,192,68785,1,0,0:0:0:0:
475,192,68785,128,0,69585:0:0:0:0:
256,192,68985,1,0,0:0:0:0:
402,192,68985,1,0,0:0:0:0:
329,192,69085,1,0,0:0:0:0:
182,192,69085,1,0,0:0:0:0:
36,192,69085,1,0,0:0:0:0:
109,192,69185,1,0,0:0:0:0:
256,192,69185,1,0,0:0:0:0:
329,192,69235,1,0,0:0:0:0:
402,192,69285,1,0,0:0:0:0:
36,192,69285,1,0,0:0:0:0:
109,192,69385,1,0,0:0:0:0:
256,192,69385,1,0,0:0:0:0:
329,192,69385,1,0,0:0:0:0:
182,192,69435,1,0,0:0:0:0:
36,192,69485,1,0,0:0:0:0:
329,192,69535,1,0,0:0:0:0:
36,192,69585,1,0,0:0:0:0:
256,192,69585,1,0,0:0:0:0:
402,192,69585,1,0,0:0:0:0:
109,192,69585,128,0,69685:0:0:0:0:
329,192,69685,128,0,69785:0:0:0:0:
182,192,69785,128,0,69985:0:0:0:0:
402,192,69785,1,0,0:0:0:0:
475,192,69785,1,0,0:0:0:0:
36,192,69785,1,0,0:0:0:0:
475,192,69985,128,0,70085:0:0:0:0:
109,192,69985,1,0,0:0:0:0:
256,192,69985,1,0,0:0:0:0:
329,192,70085,128,0,70285:0:0:0:0:
109,192,70085,1,0,0:0:0:0:
256,192,70085,1,0,0:0:0:0:
182,192,70185,1,0,0:0:0:0:
402,192,70185,1,0,0:0:0:0:
475,192,70185,1,0,0:0:0:0:
256,192,70285,1,0,0:0:0:0:
182,192,70385,128,0,70585:0:0:0:0:
329,192,70385,1,0,0:0:0:0:
402,192,70385,1,0,0:0:0:0:
109,192,70585,128,0,70685:0:0:0:0:
256,192,70585,1,0,0:0:0:0:
475,192,70585,1,0,0:0:0:0:
36,192,70585,1,0,0:0:0:0:
402,192,70685,128,0,70785:0:0:0:0:
182,192,70685,1,0,0:0:0:0:
329,192,70685,1,0,0:0:0:0:
36,192,70785,128,0,70851:0:0:0:0:
109,192,70851,128,0,70918:0:0:0:0:
402,192,70885,1,0,0:0:0:0:
329,192,70885,1,0,0:0:0:0:
182,192,70918,128,0,70985:0:0:0:0:
256,192,70985,128,0,71051:0:0:0:0:
475,192,70985,1,0,0:0:0:0:
109,192,70985,1,0,0:0:0:0:
36,192,70985,1,0,0:0:0:0:
329,192,71051,128,0,71118:0:0:0:0:
402,192,71118,128,0,71185:0:0:0:0:
475,192,71185,128,0,71385:0:0:0:0:
256,192,71185,1,0,0:0:0:0:
36,192,71185,1,0,0:0:0:0:
256,192,71385,128,0,71485:0:0:0:0:
109,192,71385,1,0,0:0:0:0:
182,192,71385,1,0,0:0:0:0:
402,192,71385,1,0,0:0:0:0:
36,192,71485,128,0,71785:0:0:0:0:
182,192,71585,1,0,0:0:0:0:
402,192,71585,1,0,0:0:0:0:
182,192,71685,1,0,0:0:0:0:
402,192,71685,1,0,0:0:0:0:
329,192,71785,128,0,71885:0:0:0:0:
256,192,71785,1,0,0:0:0:0:
475,192,71785,1,0,0:0:0:0:
109,192,71785,1,0,0:0:0:0:
182,192,71885,128,0,71985:0:0:0:0:
109,192,71985,128,0,72785:0:0:0:0:
329,192,71985,1,0,0:0:0:0:
402,192,71985,1,0,0:0:0:0:
36,192,72185,1,0,0:0:0:0:
256,192,72185,1,0,0:0:0:0:
475,192,72185,1,0,0:0:0:0:
182,192,72285,1,0,0:0:0:0:
329,192,72285,1,0,0:0:0:0:
182,192,72485,1,0,0:0:0:0:
329,192,72485,1,0,0:0:0:0:
36,192,72585,1,0,0:0:0:0:
402,192,72585,1,0,0:0:0:0:
475,192,72585,1,0,0:0:0:0:
182,192,72785,128,0,72851:0:0:0:0:
402,192,72785,1,0,0:0:0:0:
475,192,72785,1,0,0:0:0:0:
329,192,72851,128,0,72918:0:0:0:0:
475,192,72918,128,0,72985:0:0:0:0:
109,192,72985,128,0,73051:0:0:0:0:
182,192,72985,1,0,0:0:0:0:
402,192,72985,1,0,0:0:0:0:
36,192,72985,1,0,0:0:0:0:
256,192,73051,128,0,73118:0:0:0:0:
402,192,73118,128,0,73185:0:0:0:0:
36,192,73185,128,0,73251:0:0:0:0:
109,192,73185,1,0,0:0:0:0:
329,192,73185,1,0,0:0:0:0:
182,192,73251,128,0,73318:0:0:0:0:
402,192,73285,1,0,0:0:0:0:
475,192,73285,1,0,0:0:0:0:
329,192,73318,128,0,73385:0:0:0:0:
475,192,73385,128,0,73451:0:0:0:0:
109,192,73385,1,0,0:0:0:0:
36,192,73385,1,0,0:0:0:0:
182,192,73385,1,0,0:0:0:0:
256,192,73451,128,0,73518:0:0:0:0:
36,192,73518,128,0,73585:0:0:0:0:
329,192,73585,128,0,73651:0:0:0:0:
402,192,73585,1,0,0:0:0:0:
475,192,73585,1,0,0:0:0:0:
182,192,73651,128,0,73718:0:0:0:0:
109,192,73718,128,0,73785:0:0:0:0:
402,192,73785,128,0,73851:0:0:0:0:
475,192,73785,1,0,0:0:0:0:
329,192,73785,1,0,0:0:0:0:
36,192,73785,1,0,0:0:0:0:
256,192,73851,128,0,73918:0:0:0:0:
109,192,73885,1,0,0:0:0:0:
36,192,73885,1,0,0:0:0:0:
182,192,73918,128,0,73985:0:0:0:0:
475,192,73985,128,0,74051:0:0:0:0:
329,192,74051,128,0,74118:0:0:0:0:
109,192,74085,1,0,0:0:0:0:
182,192,74085,1,0,0:0:0:0:
256,192,74118,128,0,74185:0:0:0:0:
36,192,74185,128,0,74251:0:0:0:0:
402,192,74185,1,0,0:0:0:0:
329,192,74185,1,0,0:0:0:0:
475,192,74185,1,0,0:0:0:0:
109,192,74251,128,0,74318:0:0:0:0:
182,192,74318,128,0,74385:0:0:0:0:
36,192,74385,1,0,0:0:0:0:
256,192,74385,1,0,0:0:0:0:
402,192,74385,1,0,0:0:0:0:
475,192,74385,1,0,0:0:0:0:
182,192,74485,1,0,0:0:0:0:
329,192,74485,1,0,0:0:0:0:
36,192,74585,1,0,0:0:0:0:
256,192,74585,1,0,0:0:0:0:
402,192,74585,1,0,0:0:0:0:
475,192,74585,1,0,0:0:0:0:
182,192,74685,1,0,0:0:0:0:
329,192,74685,1,0,0:0:0:0:
256,192,74735,1,0,0:0:0:0:
36,192,74785,1,0,0:0:0:0:
109,192,74785,1,0,0:0:0:0:
402,192,74785,1,0,0:0:0:0:
475,192,74785,1,0,0:0:0:0:
182,192,74885,1,0,0:0:0:0:
329,192,74885,1,0,0:0:0:0:
36,192,74985,1,0,0:0:0:0:
109,192,74985,1,0,0:0:0:0:
402,192,74985,1,0,0:0:0:0:
475,192,74985,1,0,0:0:0:0:
182,192,75085,1,0,0:0:0:0:
329,192,75085,1,0,0:0:0:0:
402,192,75135,1,0,0:0:0:0:
475,192,75185,1,0,0:0:0:0:
256,192,75185,1,0,0:0:0:0:
109,192,75185,1,0,0:0:0:0:
36,192,75185,1,0,0:0:0:0:
182,192,75285,1,0,0:0:0:0:
329,192,75285,1,0,0:0:0:0:
256,192,75385,1,0,0:0:0:0:
402,192,75385,1,0,0:0:0:0:
109,192,75435,1,0,0:0:0:0:
329,192,75485,1,0,0:0:0:0:
36,192,75485,1,0,0:0:0:0:
182,192,75535,1,0,0:0:0:0:
109,192,75585,1,0,0:0:0:0:
402,192,75585,1,0,0:0:0:0:
329,192,75635,1,0,0:0:0:0:
182,192,75685,1,0,0:0:0:0:
256,192,75685,1,0,0:0:0:0:
329,192,75735,1,0,0:0:0:0:
402,192,75785,1,0,0:0:0:0:
109,192,75785,1,0,0:0:0:0:
36,192,75785,1,0,0:0:0:0:
475,192,75785,1,0,0:0:0:0:
329,192,75985,1,0,0:0:0:0:
36,192,75985,1,0,0:0:0:0:
475,192,75985,1,0,0:0:0:0:
256,192,75985,1,0,0:0:0:0:
182,192,75985,128,0,76285:0:0:0:0:
475,192,76285,128,0,76585:0:0:0:0:
109,192,76385,1,0,0:0:0:0:
256,192,76385,1,0,0:0:0:0:
182,192,76585,128,0,76785:0:0:0:0:
36,192,76785,128,0,77585:0:0:0:0:
329,192,76785,1,0,0:0:0:0:
402,192,76785,1,0,0:0:0:0:
475,192,76785,1,0,0:0:0:0:
182,192,77185,1,0,0:0:0:0:
329,192,77385,1,0,0:0:0:0:
109,192,77585,128,0,77885:0:0:0:0:
256,192,77585,1,0,0:0:0:0:
402,192,77585,1,0,0:0:0:0:
329,192,77785,1,0,0:0:0:0:
402,192,77885,128,0,78185:0:0:0:0:
256,192,77985,1,0,0:0:0:0:
36,192,77985,1,0,0:0:0:0:
109,192,78185,128,0,78385:0:0:0:0:
329,192,78185,1,0,0:0:0:0:
182,192,78235,1,0,0:0:0:0:
402,192,78285,1,0,0:0:0:0:
256,192,78335,1,0,0:0:0:0:
475,192,78385,128,0,78685:0:0:0:0:
182,192,78385,1,0,0:0:0:0:
329,192,78385,1,0,0:0:0:0:
36,192,78385,1,0,0:0:0:0:
329,192,78685,128,0,78985:0:0:0:0:
109,192,78785,1,0,0:0:0:0:
256,192,78785,1,0,0:0:0:0:
402,192,78785,1,0,0:0:0:0:
182,192,78985,128,0,79185:0:0:0:0:
475,192,78985,1,0,0:0:0:0:
36,192,79185,128,0,79485:0:0:0:0:
256,192,79185,1,0,0:0:0:0:
402,192,79185,1,0,0:0:0:0:
329,192,79485,128,0,79785:0:0:0:0:
109,192,79585,1,0,0:0:0:0:
256,192,79585,1,0,0:0:0:0:
36,192,79785,128,0,79985:0:0:0:0:
256,192,79985,128,0,80285:0:0:0:0:
182,192,79985,1,0,0:0:0:0:
402,192,79985,1,0,0:0:0:0:
475,192,79985,1,0,0:0:0:0:
109,192,80285,128,0,80585:0:0:0:0:
182,192,80385,1,0,0:0:0:0:
402,192,80585,128,0,80785:0:0:0:0:
329,192,80585,1,0,0:0:0:0:
36,192,80785,128,0,81585:0:0:0:0:
182,192,80785,1,0,0:0:0:0:
256,192,80785,1,0,0:0:0:0:
475,192,80785,1,0,0:0:0:0:
402,192,80985,1,0,0:0:0:0:
329,192,81185,1,0,0:0:0:0:
109,192,81185,1,0,0:0:0:0:
256,192,81385,1,0,0:0:0:0:
402,192,81385,1,0,0:0:0:0:
329,192,81485,1,0,0:0:0:0:
182,192,81485,1,0,0:0:0:0:
109,192,81585,1,0,0:0:0:0:
256,192,81585,1,0,0:0:0:0:
402,192,81585,1,0,0:0:0:0:
475,192,81585,1,0,0:0:0:0:
182,192,81718,1,0,0:0:0:0:
36,192,81851,128,0,81918:0:0:0:0:
329,192,81851,1,0,0:0:0:0:
109,192,81918,128,0,81985:0:0:0:0:
182,192,81985,128,0,82051:0:0:0:0:
402,192,81985,1,0,0:0:0:0:
475,192,81985,1,0,0:0:0:0:
256,192,82118,128,0,82185:0:0:0:0:
36,192,82118,1,0,0:0:0:0:
109,192,82118,1,0,0:0:0:0:
329,192,82251,128,0,82318:0:0:0:0:
109,192,82251,1,0,0:0:0:0:
182,192,82251,1,0,0:0:0:0:
402,192,82318,128,0,82385:0:0:0:0:
475,192,82385,128,0,82685:0:0:0:0:
182,192,82385,1,0,0:0:0:0:
256,192,82385,1,0,0:0:0:0:
256,192,82685,128,0,82985:0:0:0:0:
109,192,82785,1,0,0:0:0:0:
36,192,82785,1,0,0:0:0:0:
475,192,82985,128,0,83185:0:0:0:0:
109,192,83185,128,0,83485:0:0:0:0:
182,192,83185,1,0,0:0:0:0:
329,192,83185,1,0,0:0:0:0:
402,192,83185,1,0,0:0:0:0:
256,192,83485,128,0,83785:0:0:0:0:
402,192,83585,1,0,0:0:0:0:
475,192,83785,128,0,83985:0:0:0:0:
36,192,83785,1,0,0:0:0:0:
182,192,83985,128,0,84385:0:0:0:0:
329,192,83985,1,0,0:0:0:0:
402,192,83985,1,0,0:0:0:0:
256,192,84185,1,0,0:0:0:0:
36,192,84385,128,0,84518:0:0:0:0:
402,192,84385,1,0,0:0:0:0:
475,192,84385,1,0,0:0:0:0:
109,192,84518,128,0,84651:0:0:0:0:
402,192,84585,1,0,0:0:0:0:
329,192,84635,1,0,0:0:0:0:
36,192,84651,128,0,84785:0:0:0:0:
256,192,84685,1,0,0:0:0:0:
182,192,84735,1,0,0:0:0:0:
402,192,84785,128,0,84918:0:0:0:0:
109,192,84785,1,0,0:0:0:0:
329,192,84785,1,0,0:0:0:0:
475,192,84785,1,0,0:0:0:0:
256,192,84918,128,0,85051:0:0:0:0:
182,192,84918,1,0,0:0:0:0:
36,192,84918,1,0,0:0:0:0:
329,192,85051,128,0,85185:0:0:0:0:
402,192,85051,1,0,0:0:0:0:
475,192,85051,1,0,0:0:0:0:
182,192,85185,128,0,85585:0:0:0:0:
256,192,85185,1,0,0:0:0:0:
36,192,85185,1,0,0:0:0:0:
109,192,85185,1,0,0:0:0:0:
329,192,85318,1,0,0:0:0:0:
475,192,85318,1,0,0:0:0:0:
256,192,85451,1,0,0:0:0:0:
402,192,85451,1,0,0:0:0:0:
109,192,85585,128,0,86185:0:0:0:0:
36,192,85585,1,0,0:0:0:0:
329,192,85585,1,0,0:0:0:0:
475,192,85585,1,0,0:0:0:0:
256,192,85585,1,0,0:0:0:0:
182,192,85985,1,0,0:0:0:0:
329,192,85985,1,0,0:0:0:0:
475,192,86185,128,0,87185:0:0:0:0:
36,192,86385,1,0,0:0:0:0:
182,192,86385,1,0,0:0:0:0:
329,192,86385,1,0,0:0:0:0:
256,192,86785,1,0,0:0:0:0:
329,192,86985,1,0,0:0:0:0:
256,192,87185,128,0,87285:0:0:0:0:
109,192,87185,1,0,0:0:0:0:
36,192,87185,1,0,0:0:0:0:
402,192,87285,128,0,87385:0:0:0:0:
182,192,87385,128,0,87485:0:0:0:0:
36,192,87385,1,0,0:0:0:0:
475,192,87385,1,0,0:0:0:0:
329,192,87485,128,0,87585:0:0:0:0:
109,192,87585,128,0,87685:0:0:0:0:
402,192,87585,1,0,0:0:0:0:
475,192,87585,1,0,0:0:0:0:
256,192,87685,128,0,87785:0:0:0:0:
36,192,87785,128,0,87885:0:0:0:0:
475,192,87785,1,0,0:0:0:0:
402,192,87785,1,0,0:0:0:0:
329,192,87851,1,0,0:0:0:0:
182,192,87885,128,0,87985:0:0:0:0:
256,192,87918,1,0,0:0:0:0:
402,192,87985,128,0,88085:0:0:0:0:
109,192,87985,1,0,0:0:0:0:
36,192,87985,1,0,0:0:0:0:
475,192,87985,1,0,0:0:0:0:
256,192,88085,128,0,88185:0:0:0:0:
329,192,88085,1,0,0:0:0:0:
109,192,88185,128,0,88285:0:0:0:0:
36,192,88185,1,0,0:0:0:0:
475,192,88185,1,0,0:0:0:0:
329,192,88285,128,0,88385:0:0:0:0:
182,192,88285,1,0,0:0:0:0:
475,192,88385,128,0,88485:0:0:0:0:
109,192,88385,1,0,0:0:0:0:
36,192,88385,1,0,0:0:0:0:
256,192,88485,128,0,88585:0:0:0:0:
329,192,88485,1,0,0:0:0:0:
182,192,88485,1,0,0:0:0:0:
36,192,88585,128,0,88685:0:0:0:0:
475,192,88585,1,0,0:0:0:0:
109,192,88585,1,0,0:0:0:0:
402,192,88685,128,0,88785:0:0:0:0:
182,192,88685,1,0,0:0:0:0:
329,192,88685,1,0,0:0:0:0:
256,192,88785,1,0,0:0:0:0:
36,192,88785,1,0,0:0:0:0:
475,192,88785,1,0,0:0:0:0:
109,192,88785,128,0,89085:0:0:0:0:
182,192,88985,1,0,0:0:0:0:
475,192,89085,128,0,89385:0:0:0:0:
36,192,89185,1,0,0:0:0:0:
329,192,89185,1,0,0:0:0:0:
402,192,89185,1,0,0:0:0:0:
182,192,89385,128,0,89585:0:0:0:0:
256,192,89385,1,0,0:0:0:0:
36,192,89585,128,0,90385:0:0:0:0:
329,192,89585,1,0,0:0:0:0:
475,192,89585,1,0,0:0:0:0:
256,192,89685,1,0,0:0:0:0:
109,192,89785,1,0,0:0:0:0:
402,192,89785,1,0,0:0:0:0:
182,192,89985,1,0,0:0:0:0:
256,192,89985,1,0,0:0:0:0:
475,192,89985,1,0,0:0:0:0:
329,192,90185,1,0,0:0:0:0:
402,192,90185,1,0,0:0:0:0:
109,192,90385,128,0,90685:0:0:0:0:
256,192,90385,1,0,0:0:0:0:
182,192,90385,1,0,0:0:0:0:
329,192,90585,1,0,0:0:0:0:
402,192,90685,128,0,90985:0:0:0:0:
256,192,90785,1,0,0:0:0:0:
36,192,90785,1,0,0:0:0:0:
475,192,90785,1,0,0:0:0:0:
109,192,90985,128,0,91185:0:0:0:0:
329,192,90985,1,0,0:0:0:0:
182,192,90985,1,0,0:0:0:0:
475,192,91185,128,0,91485:0:0:0:0:
36,192,91185,1,0,0:0:0:0:
256,192,91185,1,0,0:0:0:0:
402,192,91285,1,0,0:0:0:0:
329,192,91285,1,0,0:0:0:0:
109,192,91385,1,0,0:0:0:0:
182,192,91385,1,0,0:0:0:0:
329,192,91485,128,0,91785:0:0:0:0:
256,192,91585,1,0,0:0:0:0:
402,192,91585,1,0,0:0:0:0:
36,192,91585,1,0,0:0:0:0:
182,192,91785,128,0,91985:0:0:0:0:
475,192,91785,1,0,0:0:0:0:
109,192,91785,1,0,0:0:0:0:
36,192,91985,128,0,92285:0:0:0:0:
256,192,91985,1,0,0:0:0:0:
402,192,91985,1,0,0:0:0:0:
182,192,92185,1,0,0:0:0:0:
329,192,92285,128,0,92585:0:0:0:0:
109,192,92385,1,0,0:0:0:0:
256,192,92385,1,0,0:0:0:0:
475,192,92385,1,0,0:0:0:0:
36,192,92585,128,0,92785:0:0:0:0:
402,192,92585,1,0,0:0:0:0:
329,192,92685,1,0,0:0:0:0:
256,192,92785,128,0,93085:0:0:0:0:
182,192,92785,1,0,0:0:0:0:
475,192,92785,1,0,0:0:0:0:
402,192,92985,1,0,0:0:0:0:
36,192,92985,1,0,0:0:0:0:
109,192,93085,128,0,93385:0:0:0:0:
329,192,93185,1,0,0:0:0:0:
182,192,93185,1,0,0:0:0:0:
475,192,93185,1,0,0:0:0:0:
402,192,93385,128,0,93585:0:0:0:0:
256,192,93385,1,0,0:0:0:0:
36,192,93385,1,0,0:0:0:0:
36,192,93585,128,0,94385:0:0:0:0:
182,192,93585,1,0,0:0:0:0:
475,192,93585,1,0,0:0:0:0:
402,192,93785,1,0,0:0:0:0:
256,192,93785,1,0,0:0:0:0:
329,192,93985,1,0,0:0:0:0:
109,192,93985,1,0,0:0:0:0:
475,192,93985,1,0,0:0:0:0:
256,192,94185,1,0,0:0:0:0:
182,192,94285,1,0,0:0:0:0:
109,192,94385,1,0,0:0:0:0:
329,192,94385,1,0,0:0:0:0:
36,192,94585,128,0,94685:0:0:0:0:
256,192,94585,1,0,0:0:0:0:
402,192,94585,1,0,0:0:0:0:
109,192,94685,128,0,94785:0:0:0:0:
182,192,94785,128,0,94885:0:0:0:0:
402,192,94785,1,0,0:0:0:0:
475,192,94785,1,0,0:0:0:0:
256,192,94785,1,0,0:0:0:0:
329,192,94885,128,0,94985:0:0:0:0:
36,192,94885,1,0,0:0:0:0:
402,192,94985,128,0,95085:0:0:0:0:
109,192,94985,1,0,0:0:0:0:
475,192,95085,128,0,95185:0:0:0:0:
182,192,95085,1,0,0:0:0:0:
36,192,95185,128,0,95985:0:0:0:0:
329,192,95185,1,0,0:0:0:0:
256,192,95185,1,0,0:0:0:0:
109,192,95185,1,0,0:0:0:0:
402,192,95385,1,0,0:0:0:0:
182,192,95585,1,0,0:0:0:0:
256,192,95585,1,0,0:0:0:0:
475,192,95585,1,0,0:0:0:0:
402,192,95785,1,0,0:0:0:0:
256,192,95885,1,0,0:0:0:0:
109,192,95985,1,0,0:0:0:0:
329,192,95985,1,0,0:0:0:0:
475,192,96185,128,0,96285:0:0:0:0:
36,192,96185,1,0,0:0:0:0:
182,192,96185,1,0,0:0:0:0:
402,192,96285,128,0,96385:0:0:0:0:
329,192,96385,128,0,96485:0:0:0:0:
109,192,96385,1,0,0:0:0:0:
256,192,96385,1,0,0:0:0:0:
36,192,96385,1,0,0:0:0:0:
182,192,96485,128,0,96585:0:0:0:0:
109,192,96585,128,0,96685:0:0:0:0:
329,192,96585,1,0,0:0:0:0:
475,192,96585,1,0,0:0:0:0:
36,192,96685,128,0,96785:0:0:0:0:
475,192,96785,128,0,97585:0:0:0:0:
182,192,96785,1,0,0:0:0:0:
329,192,96785,1,0,0:0:0:0:
109,192,96985,1,0,0:0:0:0:
256,192,96985,1,0,0:0:0:0:
36,192,97185,1,0,0:0:0:0:
182,192,97185,1,0,0:0:0:0:
402,192,97185,1,0,0:0:0:0:
256,192,97385,1,0,0:0:0:0:
329,192,97385,1,0,0:0:0:0:
109,192,97585,128,0,97885:0:0:0:0:
182,192,97585,1,0,0:0:0:0:
402,192,97585,1,0,0:0:0:0:
256,192,97685,1,0,0:0:0:0:
329,192,97785,1,0,0:0:0:0:
475,192,97785,1,0,0:0:0:0:
256,192,97885,128,0,98185:0:0:0:0:
109,192,97985,1,0,0:0:0:0:
36,192,97985,1,0,0:0:0:0:
182,192,97985,1,0,0:0:0:0:
402,192,98185,128,0,98385:0:0:0:0:
109,192,98185,1,0,0:0:0:0:
475,192,98185,1,0,0:0:0:0:
182,192,98385,128,0,99185:0:0:0:0:
329,192,98385,1,0,0:0:0:0:
256,192,98385,1,0,0:0:0:0:
36,192,98385,1,0,0:0:0:0:
402,192,98585,1,0,0:0:0:0:
475,192,98785,1,0,0:0:0:0:
256,192,98785,1,0,0:0:0:0:
36,192,98785,1,0,0:0:0:0:
109,192,98985,1,0,0:0:0:0:
256,192,99085,1,0,0:0:0:0:
36,192,99185,128,0,99485:0:0:0:0:
329,192,99185,1,0,0:0:0:0:
402,192,99185,1,0,0:0:0:0:
182,192,99385,1,0,0:0:0:0:
109,192,99385,1,0,0:0:0:0:
256,192,99485,128,0,99785:0:0:0:0:
36,192,99585,1,0,0:0:0:0:
402,192,99585,1,0,0:0:0:0:
475,192,99585,1,0,0:0:0:0:
109,192,99685,1,0,0:0:0:0:
475,192,99785,128,0,99985:0:0:0:0:
182,192,99785,1,0,0:0:0:0:
329,192,99785,1,0,0:0:0:0:
329,192,99985,128,0,100785:0:0:0:0:
109,192,99985,1,0,0:0:0:0:
256,192,99985,1,0,0:0:0:0:
36,192,100185,1,0,0:0:0:0:
182,192,100185,1,0,0:0:0:0:
109,192,100385,1,0,0:0:0:0:
402,192,100385,1,0,0:0:0:0:
475,192,100385,1,0,0:0:0:0:
182,192,100585,1,0,0:0:0:0:
109,192,100685,1,0,0:0:0:0:
256,192,100785,128,0,101085:0:0:0:0:
36,192,100785,1,0,0:0:0:0:
402,192,100785,1,0,0:0:0:0:
182,192,100985,1,0,0:0:0:0:
475,192,100985,1,0,0:0:0:0:
109,192,101085,128,0,101385:0:0:0:0:
256,192,101185,1,0,0:0:0:0:
402,192,101185,1,0,0:0:0:0:
36,192,101185,1,0,0:0:0:0:
329,192,101285,1,0,0:0:0:0:
402,192,101385,128,0,101585:0:0:0:0:
182,192,101385,1,0,0:0:0:0:
475,192,101385,1,0,0:0:0:0:
256,192,101485,1,0,0:0:0:0:
36,192,101585,128,0,102385:0:0:0:0:
329,192,101585,1,0,0:0:0:0:
109,192,101585,1,0,0:0:0:0:
475,192,101585,1,0,0:0:0:0:
256,192,101785,1,0,0:0:0:0:
182,192,101985,1,0,0:0:0:0:
402,192,101985,1,0,0:0:0:0:
475,192,101985,1,0,0:0:0:0:
109,192,102185,1,0,0:0:0:0:
256,192,102185,1,0,0:0:0:0:
182,192,102285,1,0,0:0:0:0:
329,192,102285,1,0,0:0:0:0:
402,192,102385,1,0,0:0:0:0:
475,192,102385,1,0,0:0:0:0:
256,192,102385,1,0,0:0:0:0:
109,192,102518,1,0,0:0:0:0:
182,192,102518,1,0,0:0:0:0:
329,192,102518,1,0,0:0:0:0:
36,192,102651,1,0,0:0:0:0:
329,192,102651,1,0,0:0:0:0:
402,192,102651,1,0,0:0:0:0:
182,192,102785,1,0,0:0:0:0:
256,192,102785,1,0,0:0:0:0:
402,192,102785,1,0,0:0:0:0:
36,192,102918,1,0,0:0:0:0:
109,192,102918,1,0,0:0:0:0:
475,192,102918,1,0,0:0:0:0:
329,192,103051,1,0,0:0:0:0:
109,192,103051,1,0,0:0:0:0:
182,192,103051,1,0,0:0:0:0:
182,192,103185,1,0,0:0:0:0:
36,192,103185,1,0,0:0:0:0:
402,192,103185,1,0,0:0:0:0:
475,192,103185,1,0,0:0:0:0:
329,192,103318,1,0,0:0:0:0:
475,192,103318,1,0,0:0:0:0:
182,192,103385,1,0,0:0:0:0:
109,192,103451,1,0,0:0:0:0:
256,192,103451,1,0,0:0:0:0:
402,192,103451,1,0,0:0:0:0:
36,192,103451,1,0,0:0:0:0:
182,192,103585,1,0,0:0:0:0:
36,192,103585,1,0,0:0:0:0:
256,192,103651,1,0,0:0:0:0:
329,192,103718,1,0,0:0:0:0:
475,192,103718,1,0,0:0:0:0:
109,192,103718,1,0,0:0:0:0:
402,192,103718,1,0,0:0:0:0:
182,192,103785,1,0,0:0:0:0:
256,192,103851,1,0,0:0:0:0:
402,192,103851,1,0,0:0:0:0:
182,192,103918,1,0,0:0:0:0:
36,192,103985,1,0,0:0:0:0:
109,192,103985,1,0,0:0:0:0:
475,192,103985,1,0,0:0:0:0:
329,192,103985,1,0,0:0:0:0:
182,192,104118,1,0,0:0:0:0:
256,192,104118,1,0,0:0:0:0:
329,192,104118,1,0,0:0:0:0:
36,192,104251,1,0,0:0:0:0:
182,192,104251,1,0,0:0:0:0:
475,192,104251,1,0,0:0:0:0:
402,192,104251,1,0,0:0:0:0:
109,192,104385,1,0,0:0:0:0:
36,192,104385,1,0,0:0:0:0:
329,192,104385,1,0,0:0:0:0:
109,192,104518,1,0,0:0:0:0:
256,192,104518,1,0,0:0:0:0:
402,192,104518,1,0,0:0:0:0:
475,192,104518,1,0,0:0:0:0:
182,192,104651,1,0,0:0:0:0:
329,192,104651,1,0,0:0:0:0:
475,192,104651,1,0,0:0:0:0:
329,192,104785,1,0,0:0:0:0:
36,192,104785,1,0,0:0:0:0:
256,192,104785,1,0,0:0:0:0:
402,192,104785,1,0,0:0:0:0:
182,192,104785,1,0,0:0:0:0:
475,192,104785,1,0,0:0:0:0:
109,192,104918,1,0,0:0:0:0:
329,192,104918,1,0,0:0:0:0:
182,192,104985,1,0,0:0:0:0:
402,192,104985,1,0,0:0:0:0:
109,192,105051,1,0,0:0:0:0:
256,192,105051,1,0,0:0:0:0:
329,192,105051,1,0,0:0:0:0:
475,192,105051,1,0,0:0:0:0:
36,192,105185,1,0,0:0:0:0:
182,192,105185,1,0,0:0:0:0:
402,192,105185,1,0,0:0:0:0:
109,192,105318,1,0,0:0:0:0:
256,192,105318,1,0,0:0:0:0:
475,192,105318,1,0,0:0:0:0:
182,192,105451,1,0,0:0:0:0:
36,192,105451,1,0,0:0:0:0:
329,192,105451,1,0,0:0:0:0:
402,192,105451,1,0,0:0:0:0:
109,192,105585,1,0,0:0:0:0:
256,192,105585,1,0,0:0:0:0:
475,192,105585,1,0,0:0:0:0:
182,192,105718,1,0,0:0:0:0:
329,192,105718,1,0,0:0:0:0:
402,192,105718,1,0,0:0:0:0:
109,192,105851,1,0,0:0:0:0:
36,192,105851,1,0,0:0:0:0:
475,192,105851,1,0,0:0:0:0:
329,192,105851,1,0,0:0:0:0:
109,192,105985,1,0,0:0:0:0:
182,192,105985,1,0,0:0:0:0:
402,192,105985,1,0,0:0:0:0:
256,192,106118,1,0,0:0:0:0:
36,192,106118,1,0,0:0:0:0:
475,192,106118,1,0,0:0:0:0:
109,192,106251,1,0,0:0:0:0:
182,192,106251,1,0,0:0:0:0:
329,192,106251,1,0,0:0:0:0:
402,192,106251,1,0,0:0:0:0:
36,192,106385,1,0,0:0:0:0:
182,192,106385,1,0,0:0:0:0:
329,192,106385,1,0,0:0:0:0:
402,192,106451,1,0,0:0:0:0:
475,192,106451,1,0,0:0:0:0:
109,192,106518,1,0,0:0:0:0:
36,192,106518,1,0,0:0:0:0:
329,192,106518,1,0,0:0:0:0:
182,192,106585,1,0,0:0:0:0:
256,192,106585,1,0,0:0:0:0:
329,192,106651,1,0,0:0:0:0:
402,192,106651,1,0,0:0:0:0:
475,192,106651,1,0,0:0:0:0:
182,192,106718,1,0,0:0:0:0:
109,192,106718,1,0,0:0:0:0:
36,192,106785,1,0,0:0:0:0:
256,192,106785,1,0,0:0:0:0:
475,192,106785,1,0,0:0:0:0:
182,192,106851,1,0,0:0:0:0:
402,192,106851,1,0,0:0:0:0:
109,192,106918,1,0,0:0:0:0:
329,192,106918,1,0,0:0:0:0:
36,192,106918,1,0,0:0:0:0:
182,192,106985,1,0,0:0:0:0:
475,192,106985,1,0,0:0:0:0:
256,192,107051,1,0,0:0:0:0:
402,192,107051,1,0,0:0:0:0:
329,192,107118,1,0,0:0:0:0:
109,192,107118,1,0,0:0:0:0:
36,192,107118,1,0,0:0:0:0:
182,192,107185,1,0,0:0:0:0:
256,192,107185,1,0,0:0:0:0:
402,192,107185,1,0,0:0:0:0:
475,192,107185,1,0,0:0:0:0:
109,192,107318,1,0,0:0:0:0:
182,192,107318,1,0,0:0:0:0:
329,192,107318,1,0,0:0:0:0:
402,192,107318,1,0,0:0:0:0:
36,192,107451,1,0,0:0:0:0:
256,192,107451,1,0,0:0:0:0:
182,192,107518,1,0,0:0:0:0:
402,192,107518,1,0,0:0:0:0:
109,192,107585,1,0,0:0:0:0:
36,192,107585,1,0,0:0:0:0:
182,192,107651,128,0,107985:0:0:0:0:
329,192,107651,128,0,107985:0:0:0:0:
402,192,107651,128,0,107985:0:0:0:0:
475,192,107651,128,0,107985:0:0:0:0:
109,192,108085,1,0,0:0:0:0:
182,192,108085,1,0,0:0:0:0:
256,192,108085,1,0,0:0:0:0:
402,192,108085,1,0,0:0:0:0:
475,192,108085,1,0,0:0:0:0:
36,192,108385,1,0,0:0:0:0:
109,192,108385,1,0,0:0:0:0:
182,192,108385,1,0,0:0:0:0:
329,192,108385,1,0,0:0:0:0:
402,192,108385,1,0,0:0:0:0:
475,192,108685,1,0,0:0:0:0:
329,192,108685,1,0,0:0:0:0:
256,192,108685,1,0,0:0:0:0:
182,192,108685,1,0,0:0:0:0:
36,192,108685,1,0,0:0:0:0:
36,192,108785,128,0,109285:0:0:0:0:
109,192,108785,128,0,109285:0:0:0:0:
256,192,108785,128,0,109285:0:0:0:0:
475,192,108785,128,0,109285:0:0:0:0:
402,192,108785,128,0,109285:0:0:0:0:
36,192,109385,1,0,0:0:0:0:
109,192,109385,1,0,0:0:0:0:
182,192,109385,1,0,0:0:0:0:
329,192,109385,1,0,0:0:0:0:
402,192,109385,1,0,0:0:0:0:
329,192,109485,128,0,109685:0:0:0:0:
182,192,109485,128,0,109685:0:0:0:0:
109,192,109485,128,0,109685:0:0:0:0:
402,192,109485,128,0,109685:0:0:0:0:
475,192,109485,128,0,109985:0:0:0:0:
36,192,109685,1,0,0:0:0:0:
109,192,109735,1,0,0:0:0:0:
182,192,109785,1,0,0:0:0:0:
256,192,109835,1,0,0:0:0:0:
329,192,109885,1,0,0:0:0:0:
402,192,109935,1,0,0:0:0:0:
36,192,109985,1,0,0:0:0:0:
109,192,109985,1,0,0:0:0:0:
182,192,109985,1,0,0:0:0:0:
256,192,109985,1,0,0:0:0:0:
182,192,110118,1,0,0:0:0:0:
329,192,110118,1,0,0:0:0:0:
402,192,110118,1,0,0:0:0:0:
109,192,110251,1,0,0:0:0:0:
36,192,110251,1,0,0:0:0:0:
256,192,110251,1,0,0:0:0:0:
36,192,110385,128,0,110685:0:0:0:0:
182,192,110385,128,0,110685:0:0:0:0:
256,192,110385,128,0,110685:0:0:0:0:
402,192,110385,128,0,110685:0:0:0:0:
329,192,110385,128,0,110685:0:0:0:0:
475,192,110685,1,0,0:0:0:0:
402,192,110785,1,0,0:0:0:0:
329,192,110851,1,0,0:0:0:0:
256,192,110918,1,0,0:0:0:0:
182,192,110985,1,0,0:0:0:0:
36,192,110985,1,0,0:0:0:0:
402,192,110985,1,0,0:0:0:0:
475,192,110985,1,0,0:0:0:0:
329,192,111051,1,0,0:0:0:0:
109,192,111118,1,0,0:0:0:0:
256,192,111185,1,0,0:0:0:0:
475,192,111185,1,0,0:0:0:0:
36,192,111185,1,0,0:0:0:0:
402,192,111251,1,0,0:0:0:0:
182,192,111318,1,0,0:0:0:0:
329,192,111385,1,0,0:0:0:0:
475,192,111385,1,0,0:0:0:0:
36,192,111385,1,0,0:0:0:0:
109,192,111451,1,0,0:0:0:0:
402,192,111485,1,0,0:0:0:0:
182,192,111485,1,0,0:0:0:0:
256,192,111518,1,0,0:0:0:0:
182,192,111585,1,0,0:0:0:0:
36,192,111585,1,0,0:0:0:0:
329,192,111585,1,0,0:0:0:0:
475,192,111585,1,0,0:0:0:0:
402,192,111651,1,0,0:0:0:0:
256,192,111718,1,0,0:0:0:0:
109,192,111785,1,0,0:0:0:0:
329,192,111785,1,0,0:0:0:0:
402,192,111785,1,0,0:0:0:0:
182,192,111851,1,0,0:0:0:0:
475,192,111918,1,0,0:0:0:0:
256,192,111985,1,0,0:0:0:0:
36,192,111985,1,0,0:0:0:0:
329,192,111985,1,0,0:0:0:0:
182,192,112051,1,0,0:0:0:0:
402,192,112085,1,0,0:0:0:0:
475,192,112085,1,0,0:0:0:0:
109,192,112118,1,0,0:0:0:0:
36,192,112185,1,0,0:0:0:0:
329,192,112185,1,0,0:0:0:0:
475,192,112185,1,0,0:0:0:0:
256,192,112185,1,0,0:0:0:0:
182,192,112251,1,0,0:0:0:0:
402,192,112318,1,0,0:0:0:0:
256,192,112385,1,0,0:0:0:0:
36,192,112385,1,0,0:0:0:0:
109,192,112385,1,0,0:0:0:0:
475,192,112451,1,0,0:0:0:0:
182,192,112485,1,0,0:0:0:0:
402,192,112485,1,0,0:0:0:0:
329,192,112518,1,0,0:0:0:0:
182,192,112585,1,0,0:0:0:0:
36,192,112585,1,0,0:0:0:0:
475,192,112585,1,0,0:0:0:0:
256,192,112651,1,0,0:0:0:0:
329,192,112685,1,0,0:0:0:0:
402,192,112685,1,0,0:0:0:0:
109,192,112718,1,0,0:0:0:0:
182,192,112785,1,0,0:0:0:0:
36,192,112785,1,0,0:0:0:0:
475,192,112785,128,0,112985:0:0:0:0:
329,192,112785,1,0,0:0:0:0:
109,192,112985,1,0,0:0:0:0:
182,192,112985,1,0,0:0:0:0:
256,192,113035,1,0,0:0:0:0:
329,192,113085,1,0,0:0:0:0:
475,192,113085,1,0,0:0:0:0:
182,192,113135,1,0,0:0:0:0:
36,192,113185,1,0,0:0:0:0:
109,192,113185,1,0,0:0:0:0:
402,192,113185,1,0,0:0:0:0:
475,192,113185,1,0,0:0:0:0:
182,192,113285,1,0,0:0:0:0:
329,192,113285,1,0,0:0:0:0:
109,192,113385,1,0,0:0:0:0:
256,192,113385,1,0,0:0:0:0:
182,192,113485,1,0,0:0:0:0:
402,192,113485,1,0,0:0:0:0:
256,192,113585,1,0,0:0:0:0:
329,192,113585,1,0,0:0:0:0:
475,192,113585,1,0,0:0:0:0:
36,192,113585,1,0,0:0:0:0:
109,192,113685,1,0,0:0:0:0:
182,192,113685,1,0,0:0:0:0:
402,192,113685,1,0,0:0:0:0:
256,192,113785,1,0,0:0:0:0:
329,192,113785,1,0,0:0:0:0:
36,192,113785,1,0,0:0:0:0:
182,192,113885,1,0,0:0:0:0:
402,192,113885,1,0,0:0:0:0:
109,192,113985,1,0,0:0:0:0:
36,192,113985,1,0,0:0:0:0:
256,192,113985,1,0,0:0:0:0:
475,192,113985,1,0,0:0:0:0:
182,192,114085,1,0,0:0:0:0:
329,192,114085,1,0,0:0:0:0:
402,192,114085,1,0,0:0:0:0:
109,192,114185,1,0,0:0:0:0:
475,192,114185,1,0,0:0:0:0:
36,192,114185,1,0,0:0:0:0:
256,192,114285,1,0,0:0:0:0:
329,192,114285,1,0,0:0:0:0:
182,192,114385,1,0,0:0:0:0:
36,192,114385,1,0,0:0:0:0:
402,192,114385,1,0,0:0:0:0:
475,192,114385,1,0,0:0:0:0:
182,192,114485,1,0,0:0:0:0:
329,192,114485,1,0,0:0:0:0:
402,192,114485,1,0,0:0:0:0:
36,192,114585,1,0,0:0:0:0:
256,192,114585,1,0,0:0:0:0:
475,192,114585,1,0,0:0:0:0:
109,192,114685,1,0,0:0:0:0:
329,192,114685,1,0,0:0:0:0:
256,192,114785,1,0,0:0:0:0:
182,192,114785,1,0,0:0:0:0:
36,192,114785,1,0,0:0:0:0:
475,192,114785,1,0,0:0:0:0:
109,192,114885,1,0,0:0:0:0:
329,192,114885,1,0,0:0:0:0:
402,192,114885,1,0,0:0:0:0:
182,192,114985,1,0,0:0:0:0:
256,192,114985,1,0,0:0:0:0:
475,192,114985,1,0,0:0:0:0:
329,192,115085,1,0,0:0:0:0:
36,192,115085,1,0,0:0:0:0:
109,192,115185,1,0,0:0:0:0:
182,192,115185,1,0,0:0:0:0:
256,192,115185,1,0,0:0:0:0:
402,192,115185,1,0,0:0:0:0:
329,192,115285,1,0,0:0:0:0:
475,192,115285,1,0,0:0:0:0:
36,192,115285,1,0,0:0:0:0:
256,192,115385,1,0,0:0:0:0:
182,192,115385,1,0,0:0:0:0:
402,192,115385,1,0,0:0:0:0:
329,192,115485,1,0,0:0:0:0:
109,192,115485,1,0,0:0:0:0:
36,192,115585,1,0,0:0:0:0:
256,192,115585,1,0,0:0:0:0:
402,192,115585,1,0,0:0:0:0:
475,192,115585,1,0,0:0:0:0:
109,192,115685,1,0,0:0:0:0:
182,192,115685,1,0,0:0:0:0:
329,192,115685,1,0,0:0:0:0:
256,192,115785,1,0,0:0:0:0:
402,192,115785,1,0,0:0:0:0:
36,192,115785,1,0,0:0:0:0:
182,192,115885,1,0,0:0:0:0:
475,192,115885,1,0,0:0:0:0:
329,192,115985,1,0,0:0:0:0:
402,192,115985,1,0,0:0:0:0:
36,192,115985,1,0,0:0:0:0:
109,192,115985,1,0,0:0:0:0:
109,192,116085,1,0,0:0:0:0:
182,192,116085,1,0,0:0:0:0:
402,192,116085,1,0,0:0:0:0:
256,192,116185,1,0,0:0:0:0:
475,192,116185,1,0,0:0:0:0:
36,192,116185,1,0,0:0:0:0:
109,192,116285,1,0,0:0:0:0:
329,192,116285,1,0,0:0:0:0:
182,192,116385,1,0,0:0:0:0:
256,192,116385,1,0,0:0:0:0:
36,192,116385,1,0,0:0:0:0:
475,192,116385,1,0,0:0:0:0:
109,192,116485,1,0,0:0:0:0:
329,192,116485,1,0,0:0:0:0:
402,192,116485,1,0,0:0:0:0:
256,192,116585,1,0,0:0:0:0:
475,192,116585,1,0,0:0:0:0:
182,192,116585,1,0,0:0:0:0:
329,192,116685,1,0,0:0:0:0:
36,192,116685,1,0,0:0:0:0:
109,192,116785,1,0,0:0:0:0:
182,192,116785,1,0,0:0:0:0:
475,192,116785,1,0,0:0:0:0:
402,192,116785,1,0,0:0:0:0:
256,192,116885,1,0,0:0:0:0:
329,192,116885,1,0,0:0:0:0:
36,192,116885,1,0,0:0:0:0:
109,192,116985,1,0,0:0:0:0:
182,192,116985,1,0,0:0:0:0:
475,192,116985,1,0,0:0:0:0:
256,192,117085,1,0,0:0:0:0:
402,192,117085,1,0,0:0:0:0:
329,192,117185,1,0,0:0:0:0:
182,192,117185,1,0,0:0:0:0:
36,192,117185,1,0,0:0:0:0:
109,192,117185,1,0,0:0:0:0:
256,192,117285,1,0,0:0:0:0:
402,192,117285,1,0,0:0:0:0:
475,192,117285,1,0,0:0:0:0:
36,192,117385,1,0,0:0:0:0:
182,192,117385,1,0,0:0:0:0:
329,192,117385,1,0,0:0:0:0:
109,192,117485,1,0,0:0:0:0:
256,192,117485,1,0,0:0:0:0:
182,192,117585,1,0,0:0:0:0:
36,192,117585,1,0,0:0:0:0:
329,192,117585,1,0,0:0:0:0:
402,192,117585,1,0,0:0:0:0:
402,192,117685,1,0,0:0:0:0:
182,192,117685,1,0,0:0:0:0:
475,192,117685,1,0,0:0:0:0:
109,192,117785,1,0,0:0:0:0:
329,192,117785,1,0,0:0:0:0:
256,192,117785,1,0,0:0:0:0:
402,192,117885,1,0,0:0:0:0:
36,192,117885,1,0,0:0:0:0:
109,192,117985,1,0,0:0:0:0:
182,192,117985,1,0,0:0:0:0:
329,192,117985,1,0,0:0:0:0:
475,192,117985,1,0,0:0:0:0:
256,192,118085,1,0,0:0:0:0:
402,192,118085,1,0,0:0:0:0:
36,192,118085,1,0,0:0:0:0:
182,192,118185,1,0,0:0:0:0:
329,192,118185,1,0,0:0:0:0:
475,192,118185,1,0,0:0:0:0:
256,192,118285,1,0,0:0:0:0:
36,192,118285,1,0,0:0:0:0:
109,192,118385,1,0,0:0:0:0:
182,192,118385,1,0,0:0:0:0:
475,192,118385,1,0,0:0:0:0:
402,192,118385,1,0,0:0:0:0:
329,192,118385,1,0,0:0:0:0:
36,192,118585,1,0,0:0:0:0:
329,192,118585,1,0,0:0:0:0:
109,192,118635,1,0,0:0:0:0:
256,192,118685,1,0,0:0:0:0:
475,192,118685,1,0,0:0:0:0:
402,192,118735,1,0,0:0:0:0:
329,192,118785,1,0,0:0:0:0:
36,192,118785,1,0,0:0:0:0:
182,192,118835,1,0,0:0:0:0:
256,192,118885,1,0,0:0:0:0:
402,192,118885,1,0,0:0:0:0:
475,192,118935,1,0,0:0:0:0:
329,192,118985,1,0,0:0:0:0:
36,192,118985,1,0,0:0:0:0:
182,192,118985,1,0,0:0:0:0:
109,192,118985,1,0,0:0:0:0:
329,192,119185,1,0,0:0:0:0:
109,192,119185,1,0,0:0:0:0:
402,192,119235,1,0,0:0:0:0:
36,192,119285,1,0,0:0:0:0:
475,192,119285,1,0,0:0:0:0:
109,192,119335,1,0,0:0:0:0:
182,192,119385,1,0,0:0:0:0:
402,192,119385,1,0,0:0:0:0:
329,192,119435,1,0,0:0:0:0:
256,192,119485,1,0,0:0:0:0:
109,192,119485,1,0,0:0:0:0:
36,192,119535,1,0,0:0:0:0:
182,192,119585,1,0,0:0:0:0:
475,192,119585,1,0,0:0:0:0:
402,192,119585,1,0,0:0:0:0:
329,192,119585,1,0,0:0:0:0:
109,192,119785,1,0,0:0:0:0:
256,192,119785,1,0,0:0:0:0:
402,192,119835,1,0,0:0:0:0:
329,192,119885,1,0,0:0:0:0:
182,192,119885,1,0,0:0:0:0:
109,192,119935,1,0,0:0:0:0:
36,192,119985,128,0,120085:0:0:0:0:
256,192,119985,128,0,120085:0:0:0:0:
402,192,119985,128,0,120185:0:0:0:0:
475,192,119985,128,0,120285:0:0:0:0:
182,192,120085,128,0,120185:0:0:0:0:
109,192,120185,128,0,120285:0:0:0:0:
329,192,120185,128,0,120285:0:0:0:0:
256,192,120185,128,0,120285:0:0:0:0:
36,192,120185,128,0,120485:0:0:0:0:
402,192,120285,128,0,120385:0:0:0:0:
475,192,120385,128,0,120485:0:0:0:0:
182,192,120385,128,0,120485:0:0:0:0:
256,192,120385,128,0,120485:0:0:0:0:
329,192,120485,128,0,120585:0:0:0:0:
109,192,120485,128,0,120585:0:0:0:0:
182,192,120585,128,0,120685:0:0:0:0:
402,192,120585,128,0,120685:0:0:0:0:
475,192,120585,128,0,120685:0:0:0:0:
36,192,120585,128,0,120685:0:0:0:0:
256,192,120685,128,0,120785:0:0:0:0:
36,192,120785,128,0,120885:0:0:0:0:
402,192,120785,128,0,120885:0:0:0:0:
109,192,120785,128,0,121085:0:0:0:0:
329,192,120885,128,0,120985:0:0:0:0:
182,192,120985,128,0,121085:0:0:0:0:
402,192,120985,128,0,121085:0:0:0:0:
36,192,120985,128,0,121085:0:0:0:0:
475,192,120985,128,0,121285:0:0:0:0:
256,192,121085,128,0,121185:0:0:0:0:
109,192,121185,128,0,121285:0:0:0:0:
329,192,121185,128,0,121285:0:0:0:0:
402,192,121185,128,0,121285:0:0:0:0:
256,192,121285,128,0,121385:0:0:0:0:
36,192,121285,128,0,121385:0:0:0:0:
182,192,121385,128,0,121485:0:0:0:0:
329,192,121385,128,0,121485:0:0:0:0:
475,192,121385,128,0,121485:0:0:0:0:
109,192,121385,128,0,121485:0:0:0:0:
402,192,121485,128,0,121585:0:0:0:0:
36,192,121585,128,0,121685:0:0:0:0:
256,192,121585,128,0,121685:0:0:0:0:
329,192,121585,128,0,121885:0:0:0:0:
475,192,121685,128,0,121785:0:0:0:0:
402,192,121785,128,0,121885:0:0:0:0:
256,192,121785,128,0,121885:0:0:0:0:
109,192,121785,128,0,121885:0:0:0:0:
36,192,121785,128,0,122085:0:0:0:0:
182,192,121885,128,0,121985:0:0:0:0:
109,192,121985,128,0,122085:0:0:0:0:
329,192,121985,128,0,122085:0:0:0:0:
475,192,121985,128,0,122085:0:0:0:0:
256,192,122085,128,0,122185:0:0:0:0:
402,192,122085,128,0,122185:0:0:0:0:
329,192,122185,128,0,122285:0:0:0:0:
182,192,122185,128,0,122285:0:0:0:0:
36,192,122185,128,0,122285:0:0:0:0:
475,192,122185,128,0,122285:0:0:0:0:
109,192,122285,128,0,122385:0:0:0:0:
402,192,122385,128,0,122685:0:0:0:0:
182,192,122385,128,0,122485:0:0:0:0:
256,192,122385,128,0,122485:0:0:0:0:
36,192,122485,128,0,122585:0:0:0:0:
182,192,122585,128,0,122885:0:0:0:0:
109,192,122585,128,0,122685:0:0:0:0:
329,192,122585,128,0,122685:0:0:0:0:
475,192,122585,128,0,122685:0:0:0:0:
256,192,122685,128,0,122785:0:0:0:0:
36,192,122785,128,0,122885:0:0:0:0:
329,192,122785,128,0,122885:0:0:0:0:
475,192,122785,128,0,122885:0:0:0:0:
109,192,122885,128,0,122985:0:0:0:0:
402,192,122885,128,0,122985:0:0:0:0:
182,192,122985,128,0,123085:0:0:0:0:
256,192,122985,128,0,123085:0:0:0:0:
475,192,122985,128,0,123085:0:0:0:0:
36,192,122985,128,0,123085:0:0:0:0:
329,192,123085,128,0,123185:0:0:0:0:
109,192,123185,128,0,123485:0:0:0:0:
182,192,123185,128,0,123285:0:0:0:0:
402,192,123185,128,0,123285:0:0:0:0:
475,192,123185,128,0,123285:0:0:0:0:
256,192,123285,128,0,123385:0:0:0:0:
475,192,123385,128,0,123685:0:0:0:0:
329,192,123385,128,0,123485:0:0:0:0:
36,192,123385,128,0,123485:0:0:0:0:
402,192,123385,128,0,123485:0:0:0:0:
182,192,123485,128,0,123585:0:0:0:0:
109,192,123585,128,0,123685:0:0:0:0:
329,192,123585,128,0,123685:0:0:0:0:
256,192,123585,128,0,123685:0:0:0:0:
36,192,123685,128,0,123785:0:0:0:0:
182,192,123685,128,0,123785:0:0:0:0:
109,192,123785,128,0,123885:0:0:0:0:
402,192,123785,128,0,123885:0:0:0:0:
329,192,123785,128,0,123885:0:0:0:0:
475,192,123785,128,0,123885:0:0:0:0:
256,192,123885,128,0,123985:0:0:0:0:
475,192,123985,128,0,124085:0:0:0:0:
36,192,123985,128,0,124085:0:0:0:0:
402,192,123985,128,0,124285:0:0:0:0:
182,192,124085,128,0,124185:0:0:0:0:
329,192,124185,128,0,124285:0:0:0:0:
109,192,124185,128,0,124285:0:0:0:0:
475,192,124185,128,0,124285:0:0:0:0:
36,192,124185,128,0,124485:0:0:0:0:
256,192,124285,128,0,124385:0:0:0:0:
402,192,124385,128,0,124485:0:0:0:0:
182,192,124385,128,0,124485:0:0:0:0:
109,192,124385,128,0,124485:0:0:0:0:
256,192,124485,128,0,124585:0:0:0:0:
475,192,124485,128,0,124585:0:0:0:0:
329,192,124585,128,0,124685:0:0:0:0:
182,192,124585,128,0,124685:0:0:0:0:
36,192,124585,128,0,124685:0:0:0:0:
402,192,124585,128,0,124685:0:0:0:0:
109,192,124685,128,0,124785:0:0:0:0:
475,192,124785,128,0,124885:0:0:0:0:
256,192,124785,128,0,124885:0:0:0:0:
182,192,124785,128,0,125085:0:0:0:0:
36,192,124885,128,0,124985:0:0:0:0:
109,192,124985,128,0,125085:0:0:0:0:
256,192,124985,128,0,125085:0:0:0:0:
402,192,124985,128,0,125085:0:0:0:0:
475,192,124985,128,0,125285:0:0:0:0:
329,192,125085,128,0,125185:0:0:0:0:
402,192,125185,128,0,125285:0:0:0:0:
182,192,125185,128,0,125285:0:0:0:0:
36,192,125185,128,0,125285:0:0:0:0:
256,192,125285,128,0,125385:0:0:0:0:
109,192,125285,128,0,125385:0:0:0:0:
182,192,125385,128,0,125485:0:0:0:0:
329,192,125385,128,0,125485:0:0:0:0:
475,192,125385,128,0,125485:0:0:0:0:
36,192,125385,128,0,125485:0:0:0:0:
402,192,125485,128,0,125585:0:0:0:0:
36,192,125585,128,0,125718:0:0:0:0:
256,192,125585,128,0,125718:0:0:0:0:
329,192,125585,128,0,125718:0:0:0:0:
475,192,125585,128,0,126051:0:0:0:0:
109,192,125651,128,0,125785:0:0:0:0:
182,192,125718,128,0,125851:0:0:0:0:
256,192,125785,128,0,125918:0:0:0:0:
329,192,125851,128,0,125985:0:0:0:0:
402,192,125918,128,0,126051:0:0:0:0:
109,192,125985,128,0,126118:0:0:0:0:
182,192,125985,128,0,126118:0:0:0:0:
36,192,125985,128,0,126118:0:0:0:0:
329,192,126051,128,0,126185:0:0:0:0:
256,192,126118,128,0,126251:0:0:0:0:
182,192,126185,128,0,126318:0:0:0:0:
402,192,126185,128,0,126318:0:0:0:0:
475,192,126185,128,0,126318:0:0:0:0:
109,192,126251,128,0,126385:0:0:0:0:
36,192,126318,128,0,126451:0:0:0:0:
329,192,126385,128,0,126485:0:0:0:0:
402,192,126385,128,0,126485:0:0:0:0:
475,192,126385,128,0,126485:0:0:0:0:
182,192,126385,128,0,126685:0:0:0:0:
256,192,126485,128,0,126585:0:0:0:0:
475,192,126585,128,0,126885:0:0:0:0:
109,192,126585,128,0,126685:0:0:0:0:
36,192,126585,128,0,126685:0:0:0:0:
329,192,126585,128,0,126685:0:0:0:0:
402,192,126685,128,0,126785:0:0:0:0:
36,192,126785,128,0,126885:0:0:0:0:
182,192,126785,128,0,126885:0:0:0:0:
256,192,126785,128,0,126885:0:0:0:0:
109,192,126885,128,0,126985:0:0:0:0:
329,192,126885,128,0,126985:0:0:0:0:
182,192,126985,128,0,127085:0:0:0:0:
256,192,126985,128,0,127085:0:0:0:0:
402,192,126985,128,0,127085:0:0:0:0:
475,192,126985,128,0,127085:0:0:0:0:
36,192,127085,128,0,127185:0:0:0:0:
402,192,127185,128,0,127485:0:0:0:0:
109,192,127185,128,0,127285:0:0:0:0:
256,192,127185,128,0,127285:0:0:0:0:
329,192,127285,128,0,127385:0:0:0:0:
109,192,127385,128,0,127685:0:0:0:0:
182,192,127385,128,0,127485:0:0:0:0:
475,192,127385,128,0,127485:0:0:0:0:
36,192,127385,128,0,127485:0:0:0:0:
256,192,127485,128,0,127585:0:0:0:0:
329,192,127585,128,0,127685:0:0:0:0:
402,192,127585,128,0,127685:0:0:0:0:
475,192,127585,128,0,127685:0:0:0:0:
182,192,127685,128,0,127785:0:0:0:0:
256,192,127685,128,0,127785:0:0:0:0:
36,192,127785,128,0,127885:0:0:0:0:
109,192,127785,128,0,127885:0:0:0:0:
475,192,127785,128,0,127885:0:0:0:0:
402,192,127785,128,0,127885:0:0:0:0:
329,192,127885,128,0,127985:0:0:0:0:
36,192,127985,128,0,128285:0:0:0:0:
182,192,127985,128,0,128085:0:0:0:0:
475,192,127985,128,0,128085:0:0:0:0:
402,192,128085,128,0,128185:0:0:0:0:
329,192,128185,128,0,128485:0:0:0:0:
109,192,128185,128,0,128285:0:0:0:0:
182,192,128185,128,0,128285:0:0:0:0:
475,192,128185,128,0,128285:0:0:0:0:
256,192,128285,128,0,128385:0:0:0:0:
402,192,128385,128,0,128485:0:0:0:0:
475,192,128385,128,0,128485:0:0:0:0:
36,192,128385,128,0,128485:0:0:0:0:
109,192,128485,128,0,128585:0:0:0:0:
256,192,128485,128,0,128585:0:0:0:0:
182,192,128585,128,0,128685:0:0:0:0:
36,192,128585,128,0,128685:0:0:0:0:
329,192,128585,128,0,128685:0:0:0:0:
475,192,128585,128,0,128685:0:0:0:0:
402,192,128685,128,0,128785:0:0:0:0:
109,192,128785,128,0,129085:0:0:0:0:
182,192,128785,128,0,128885:0:0:0:0:
329,192,128785,128,0,128885:0:0:0:0:
256,192,128885,128,0,128985:0:0:0:0:
36,192,128985,128,0,129085:0:0:0:0:
402,192,128985,128,0,129285:0:0:0:0:
329,192,128985,128,0,129085:0:0:0:0:
475,192,128985,128,0,129085:0:0:0:0:
182,192,129085,128,0,129185:0:0:0:0:
109,192,129185,128,0,129285:0:0:0:0:
256,192,129185,128,0,129285:0:0:0:0:
329,192,129185,128,0,129285:0:0:0:0:
182,192,129285,128,0,129385:0:0:0:0:
475,192,129285,128,0,129385:0:0:0:0:
36,192,129385,128,0,129485:0:0:0:0:
109,192,129385,128,0,129485:0:0:0:0:
329,192,129385,128,0,129485:0:0:0:0:
402,192,129385,128,0,129485:0:0:0:0:
256,192,129485,128,0,129585:0:0:0:0:
182,192,129585,128,0,129885:0:0:0:0:
36,192,129585,128,0,129685:0:0:0:0:
329,192,129585,128,0,129685:0:0:0:0:
475,192,129585,128,0,129685:0:0:0:0:
256,192,129685,128,0,129785:0:0:0:0:
402,192,129785,128,0,130085:0:0:0:0:
109,192,129785,128,0,129885:0:0:0:0:
36,192,129785,128,0,129885:0:0:0:0:
329,192,129785,128,0,129885:0:0:0:0:
475,192,129885,128,0,129985:0:0:0:0:
109,192,129985,128,0,130085:0:0:0:0:
256,192,129985,128,0,130085:0:0:0:0:
329,192,129985,128,0,130085:0:0:0:0:
182,192,130085,128,0,130185:0:0:0:0:
36,192,130085,128,0,130185:0:0:0:0:
256,192,130185,128,0,130285:0:0:0:0:
329,192,130185,128,0,130285:0:0:0:0:
475,192,130185,128,0,130285:0:0:0:0:
109,192,130185,128,0,130285:0:0:0:0:
402,192,130285,128,0,130385:0:0:0:0:
109,192,130385,128,0,130685:0:0:0:0:
182,192,130385,128,0,130485:0:0:0:0:
329,192,130385,128,0,130485:0:0:0:0:
475,192,130485,128,0,130585:0:0:0:0:
329,192,130585,128,0,130885:0:0:0:0:
402,192,130585,128,0,130685:0:0:0:0:
36,192,130585,128,0,130685:0:0:0:0:
182,192,130585,128,0,130685:0:0:0:0:
256,192,130685,128,0,130785:0:0:0:0:
109,192,130785,128,0,130885:0:0:0:0:
475,192,130785,128,0,130885:0:0:0:0:
36,192,130785,128,0,130885:0:0:0:0:
182,192,130885,128,0,130985:0:0:0:0:
402,192,130885,128,0,130985:0:0:0:0:
256,192,130985,128,0,131085:0:0:0:0:
329,192,130985,128,0,131085:0:0:0:0:
475,192,130985,128,0,131085:0:0:0:0:
109,192,130985,128,0,131085:0:0:0:0:
182,192,131085,128,0,131185:0:0:0:0:
36,192,131185,128,0,131485:0:0:0:0:
402,192,131185,128,0,131285:0:0:0:0:
329,192,131185,128,0,131285:0:0:0:0:
109,192,131285,128,0,131385:0:0:0:0:
256,192,131385,128,0,131685:0:0:0:0:
182,192,131385,128,0,131485:0:0:0:0:
402,192,131385,128,0,131485:0:0:0:0:
475,192,131385,128,0,131485:0:0:0:0:
329,192,131485,128,0,131585:0:0:0:0:
36,192,131585,128,0,131685:0:0:0:0:
109,192,131585,128,0,131685:0:0:0:0:
475,192,131585,128,0,131685:0:0:0:0:
182,192,131685,128,0,131785:0:0:0:0:
402,192,131685,128,0,131785:0:0:0:0:
329,192,131785,128,0,131885:0:0:0:0:
256,192,131785,128,0,131885:0:0:0:0:
36,192,131785,128,0,131885:0:0:0:0:
109,192,131785,128,0,131885:0:0:0:0:
402,192,131885,128,0,131985:0:0:0:0:
475,192,131985,128,0,132285:0:0:0:0:
182,192,131985,128,0,132085:0:0:0:0:
256,192,131985,128,0,132085:0:0:0:0:
329,192,132085,128,0,132185:0:0:0:0:
256,192,132185,128,0,132485:0:0:0:0:
109,192,132185,128,0,132285:0:0:0:0:
36,192,132185,128,0,132285:0:0:0:0:
402,192,132185,128,0,132285:0:0:0:0:
329,192,132285,128,0,132385:0:0:0:0:
109,192,132385,128,0,132485:0:0:0:0:
182,192,132385,128,0,132485:0:0:0:0:
475,192,132385,128,0,132485:0:0:0:0:
402,192,132385,128,0,132485:0:0:0:0:
36,192,132485,128,0,132585:0:0:0:0:
329,192,132485,128,0,132585:0:0:0:0:
182,192,132585,128,0,132685:0:0:0:0:
256,192,132585,128,0,132685:0:0:0:0:
475,192,132585,128,0,132685:0:0:0:0:
402,192,132685,128,0,132785:0:0:0:0:
109,192,132685,128,0,132785:0:0:0:0:
182,192,132785,1,0,0:0:0:0:
475,192,132785,1,0,0:0:0:0:
36,192,132785,128,0,133185:0:0:0:0:
256,192,132785,1,0,0:0:0:0:
329,192,132885,1,0,0:0:0:0:
402,192,132985,1,0,0:0:0:0:
109,192,132985,1,0,0:0:0:0:
329,192,133085,1,0,0:0:0:0:
402,192,133185,1,0,0:0:0:0:
182,192,133185,1,0,0:0:0:0:
109,192,133185,1,0,0:0:0:0:
475,192,133185,1,0,0:0:0:0:
329,192,133285,1,0,0:0:0:0:
36,192,133285,1,0,0:0:0:0:
402,192,133385,1,0,0:0:0:0:
182,192,133385,1,0,0:0:0:0:
109,192,133451,1,0,0:0:0:0:
329,192,133485,1,0,0:0:0:0:
36,192,133518,1,0,0:0:0:0:
109,192,133585,1,0,0:0:0:0:
402,192,133585,1,0,0:0:0:0:
475,192,133585,1,0,0:0:0:0:
182,192,133585,128,0,133785:0:0:0:0:
329,192,133685,1,0,0:0:0:0:
402,192,133785,1,0,0:0:0:0:
109,192,133885,128,0,134185:0:0:0:0:
329,192,133885,1,0,0:0:0:0:
402,192,133985,1,0,0:0:0:0:
36,192,133985,1,0,0:0:0:0:
182,192,133985,1,0,0:0:0:0:
256,192,133985,1,0,0:0:0:0:
329,192,134085,1,0,0:0:0:0:
36,192,134185,128,0,134285:0:0:0:0:
402,192,134185,1,0,0:0:0:0:
329,192,134285,1,0,0:0:0:0:
402,192,134385,1,0,0:0:0:0:
109,192,134385,1,0,0:0:0:0:
256,192,134385,1,0,0:0:0:0:
475,192,134385,128,0,135185:0:0:0:0:
182,192,134485,1,0,0:0:0:0:
109,192,134585,1,0,0:0:0:0:
182,192,134685,1,0,0:0:0:0:
109,192,134785,1,0,0:0:0:0:
256,192,134785,1,0,0:0:0:0:
329,192,134785,1,0,0:0:0:0:
402,192,134785,1,0,0:0:0:0:
182,192,134885,1,0,0:0:0:0:
109,192,134985,1,0,0:0:0:0:
36,192,134985,1,0,0:0:0:0:
402,192,134985,1,0,0:0:0:0:
329,192,134985,1,0,0:0:0:0:
182,192,135085,1,0,0:0:0:0:
109,192,135185,1,0,0:0:0:0:
36,192,135185,1,0,0:0:0:0:
402,192,135185,1,0,0:0:0:0:
329,192,135235,1,0,0:0:0:0:
256,192,135285,1,0,0:0:0:0:
475,192,135285,1,0,0:0:0:0:
182,192,135335,1,0,0:0:0:0:
109,192,135385,1,0,0:0:0:0:
329,192,135385,1,0,0:0:0:0:
256,192,135435,1,0,0:0:0:0:
182,192,135485,1,0,0:0:0:0:
36,192,135485,1,0,0:0:0:0:
402,192,135535,1,0,0:0:0:0:
109,192,135585,1,0,0:0:0:0:
36,192,135585,1,0,0:0:0:0:
329,192,135585,1,0,0:0:0:0:
475,192,135585,1,0,0:0:0:0:
182,192,135685,1,0,0:0:0:0:
256,192,135685,1,0,0:0:0:0:
329,192,135785,1,0,0:0:0:0:
475,192,135785,1,0,0:0:0:0:
109,192,135885,1,0,0:0:0:0:
256,192,135885,1,0,0:0:0:0:
36,192,135985,1,0,0:0:0:0:
182,192,135985,1,0,0:0:0:0:
402,192,135985,1,0,0:0:0:0:
475,192,135985,1,0,0:0:0:0:
329,192,135985,1,0,0:0:0:0:
182,192,136085,1,0,0:0:0:0:
182,192,136185,1,0,0:0:0:0:
182,192,136285,1,0,0:0:0:0:
182,192,136385,1,0,0:0:0:0:
182,192,136485,1,0,0:0:0:0:
182,192,136585,1,0,0:0:0:0:
182,192,136685,1,0,0:0:0:0:
182,192,136785,1,0,0:0:0:0:
36,192,136885,1,0,0:0:0:0:
256,192,136985,1,0,0:0:0:0:
109,192,137085,1,0,0:0:0:0:
329,192,137185,1,0,0:0:0:0:
182,192,137285,1,0,0:0:0:0:
402,192,137385,1,0,0:0:0:0:
256,192,137485,1,0,0:0:0:0:
475,192,137585,1,0,0:0:0:0:
329,192,137685,1,0,0:0:0:0:
182,192,137785,1,0,0:0:0:0:
182,192,137885,1,0,0:0:0:0:
182,192,137985,1,0,0:0:0:0:
182,192,138085,1,0,0:0:0:0:
182,192,138185,1,0,0:0:0:0:
475,192,138185,1,0,0:0:0:0:
402,192,138235,1,0,0:0:0:0:
182,192,138285,1,0,0:0:0:0:
329,192,138285,1,0,0:0:0:0:
36,192,138385,128,0,138585:0:0:0:0:
109,192,138385,128,0,138585:0:0:0:0:
256,192,138385,128,0,138585:0:0:0:0:
475,192,138385,128,0,138585:0:0:0:0:
182,192,138585,1,0,0:0:0:0:
402,192,138585,1,0,0:0:0:0:
329,192,138635,1,0,0:0:0:0:
256,192,138685,1,0,0:0:0:0:
109,192,138685,1,0,0:0:0:0:
475,192,138685,1,0,0:0:0:0:
36,192,138685,1,0,0:0:0:0:
329,192,138785,1,0,0:0:0:0:
402,192,138785,1,0,0:0:0:0:
256,192,138835,1,0,0:0:0:0:
182,192,138885,1,0,0:0:0:0:
36,192,138885,1,0,0:0:0:0:
475,192,138885,1,0,0:0:0:0:
329,192,138935,1,0,0:0:0:0:
256,192,138985,1,0,0:0:0:0:
402,192,138985,1,0,0:0:0:0:
109,192,138985,1,0,0:0:0:0:
36,192,138985,1,0,0:0:0:0:
182,192,139185,1,0,0:0:0:0:
329,192,139185,1,0,0:0:0:0:
402,192,139185,1,0,0:0:0:0:
475,192,139185,1,0,0:0:0:0:
182,192,139385,1,0,0:0:0:0:
182,192,139485,1,0,0:0:0:0:
182,192,139585,1,0,0:0:0:0:
475,192,139585,1,0,0:0:0:0:
182,192,139685,1,0,0:0:0:0:
182,192,139785,1,0,0:0:0:0:
182,192,139885,1,0,0:0:0:0:
182,192,139985,1,0,0:0:0:0:
475,192,139985,1,0,0:0:0:0:
36,192,140085,1,0,0:0:0:0:
256,192,140185,1,0,0:0:0:0:
109,192,140285,1,0,0:0:0:0:
329,192,140385,1,0,0:0:0:0:
475,192,140385,1,0,0:0:0:0:
182,192,140485,1,0,0:0:0:0:
109,192,140585,1,0,0:0:0:0:
329,192,140585,1,0,0:0:0:0:
402,192,140635,1,0,0:0:0:0:
475,192,140685,1,0,0:0:0:0:
182,192,140685,1,0,0:0:0:0:
256,192,140735,1,0,0:0:0:0:
36,192,140785,128,0,140985:0:0:0:0:
109,192,140785,128,0,140985:0:0:0:0:
329,192,140785,128,0,140985:0:0:0:0:
402,192,140785,128,0,140985:0:0:0:0:
256,192,140985,1,0,0:0:0:0:
182,192,141085,128,0,141285:0:0:0:0:
109,192,141085,128,0,141285:0:0:0:0:
402,192,141085,128,0,141285:0:0:0:0:
475,192,141085,128,0,141285:0:0:0:0:
256,192,141285,1,0,0:0:0:0:
182,192,141385,128,0,141585:0:0:0:0:
36,192,141385,128,0,141585:0:0:0:0:
329,192,141385,128,0,141585:0:0:0:0:
475,192,141385,128,0,141585:0:0:0:0:
256,192,141585,1,0,0:0:0:0:
109,192,141685,1,0,0:0:0:0:
182,192,141685,1,0,0:0:0:0:
329,192,141685,1,0,0:0:0:0:
402,192,141685,1,0,0:0:0:0:
36,192,141785,1,0,0:0:0:0:
256,192,141835,1,0,0:0:0:0:
402,192,141885,1,0,0:0:0:0:
475,192,141885,1,0,0:0:0:0:
36,192,141935,1,0,0:0:0:0:
329,192,141985,1,0,0:0:0:0:
182,192,141985,1,0,0:0:0:0:
109,192,141985,1,0,0:0:0:0:
256,192,142085,1,0,0:0:0:0:
402,192,142085,1,0,0:0:0:0:
109,192,142185,1,0,0:0:0:0:
475,192,142185,128,0,142385:0:0:0:0:
329,192,142185,128,0,142385:0:0:0:0:
182,192,142285,1,0,0:0:0:0:
36,192,142285,1,0,0:0:0:0:
109,192,142385,1,0,0:0:0:0:
36,192,142385,1,0,0:0:0:0:
256,192,142385,1,0,0:0:0:0:
402,192,142385,1,0,0:0:0:0:
182,192,142485,1,0,0:0:0:0:
329,192,142485,1,0,0:0:0:0:
475,192,142485,1,0,0:0:0:0:
402,192,142585,1,0,0:0:0:0:
36,192,142585,1,0,0:0:0:0:
109,192,142635,1,0,0:0:0:0:
329,192,142635,1,0,0:0:0:0:
182,192,142685,1,0,0:0:0:0:
256,192,142685,1,0,0:0:0:0:
475,192,142685,1,0,0:0:0:0:
36,192,142735,1,0,0:0:0:0:
109,192,142785,1,0,0:0:0:0:
329,192,142785,1,0,0:0:0:0:
182,192,142835,1,0,0:0:0:0:
402,192,142885,1,0,0:0:0:0:
475,192,142885,1,0,0:0:0:0:
329,192,142885,1,0,0:0:0:0:
256,192,142935,1,0,0:0:0:0:
182,192,142985,1,0,0:0:0:0:
36,192,142985,1,0,0:0:0:0:
475,192,143035,1,0,0:0:0:0:
109,192,143085,1,0,0:0:0:0:
329,192,143085,1,0,0:0:0:0:
402,192,143085,1,0,0:0:0:0:
256,192,143135,1,0,0:0:0:0:
182,192,143185,1,0,0:0:0:0:
475,192,143185,1,0,0:0:0:0:
109,192,143235,1,0,0:0:0:0:
402,192,143235,1,0,0:0:0:0:
36,192,143285,1,0,0:0:0:0:
329,192,143285,1,0,0:0:0:0:
256,192,143285,1,0,0:0:0:0:
182,192,143335,1,0,0:0:0:0:
402,192,143385,1,0,0:0:0:0:
109,192,143385,1,0,0:0:0:0:
329,192,143435,1,0,0:0:0:0:
256,192,143485,1,0,0:0:0:0:
475,192,143485,1,0,0:0:0:0:
36,192,143485,1,0,0:0:0:0:
109,192,143535,1,0,0:0:0:0:
402,192,143585,1,0,0:0:0:0:
182,192,143585,1,0,0:0:0:0:
256,192,143635,1,0,0:0:0:0:
475,192,143685,1,0,0:0:0:0:
329,192,143685,1,0,0:0:0:0:
36,192,143685,1,0,0:0:0:0:
182,192,143735,1,0,0:0:0:0:
109,192,143785,1,0,0:0:0:0:
402,192,143785,1,0,0:0:0:0:
329,192,143835,1,0,0:0:0:0:
256,192,143885,1,0,0:0:0:0:
36,192,143885,1,0,0:0:0:0:
182,192,143885,1,0,0:0:0:0:
475,192,143935,1,0,0:0:0:0:
402,192,143985,1,0,0:0:0:0:
109,192,143985,1,0,0:0:0:0:
329,192,144035,1,0,0:0:0:0:
182,192,144085,1,0,0:0:0:0:
475,192,144085,1,0,0:0:0:0:
256,192,144085,1,0,0:0:0:0:
109,192,144135,1,0,0:0:0:0:
36,192,144185,1,0,0:0:0:0:
329,192,144185,1,0,0:0:0:0:
402,192,144185,1,0,0:0:0:0:
256,192,144235,1,0,0:0:0:0:
182,192,144235,1,0,0:0:0:0:
109,192,144285,1,0,0:0:0:0:
36,192,144285,1,0,0:0:0:0:
475,192,144285,1,0,0:0:0:0:
329,192,144335,1,0,0:0:0:0:
182,192,144385,1,0,0:0:0:0:
402,192,144385,1,0,0:0:0:0:
256,192,144485,1,0,0:0:0:0:
329,192,144485,1,0,0:0:0:0:
475,192,144485,1,0,0:0:0:0:
36,192,144485,1,0,0:0:0:0:
109,192,144585,1,0,0:0:0:0:
402,192,144585,1,0,0:0:0:0:
182,192,144685,1,0,0:0:0:0:
256,192,144685,1,0,0:0:0:0:
475,192,144685,1,0,0:0:0:0:
36,192,144685,1,0,0:0:0:0:
109,192,144785,1,0,0:0:0:0:
329,192,144785,1,0,0:0:0:0:
182,192,144835,1,0,0:0:0:0:
402,192,144835,1,0,0:0:0:0:
256,192,144885,1,0,0:0:0:0:
475,192,144885,1,0,0:0:0:0:
36,192,144885,1,0,0:0:0:0:
329,192,144935,1,0,0:0:0:0:
402,192,144985,1,0,0:0:0:0:
109,192,144985,1,0,0:0:0:0:
256,192,145035,1,0,0:0:0:0:
182,192,145085,1,0,0:0:0:0:
36,192,145085,1,0,0:0:0:0:
475,192,145085,1,0,0:0:0:0:
329,192,145135,1,0,0:0:0:0:
402,192,145185,1,0,0:0:0:0:
109,192,145185,1,0,0:0:0:0:
182,192,145235,1,0,0:0:0:0:
256,192,145285,1,0,0:0:0:0:
475,192,145285,1,0,0:0:0:0:
36,192,145285,1,0,0:0:0:0:
402,192,145335,1,0,0:0:0:0:
329,192,145385,1,0,0:0:0:0:
182,192,145385,1,0,0:0:0:0:
109,192,145435,1,0,0:0:0:0:
36,192,145485,1,0,0:0:0:0:
256,192,145485,1,0,0:0:0:0:
475,192,145485,1,0,0:0:0:0:
402,192,145535,1,0,0:0:0:0:
329,192,145585,1,0,0:0:0:0:
109,192,145585,1,0,0:0:0:0:
182,192,145635,1,0,0:0:0:0:
256,192,145685,1,0,0:0:0:0:
402,192,145685,1,0,0:0:0:0:
36,192,145685,1,0,0:0:0:0:
475,192,145735,1,0,0:0:0:0:
329,192,145785,1,0,0:0:0:0:
182,192,145785,1,0,0:0:0:0:
109,192,145835,1,0,0:0:0:0:
402,192,145835,1,0,0:0:0:0:
36,192,145885,1,0,0:0:0:0:
475,192,145885,1,0,0:0:0:0:
256,192,145885,1,0,0:0:0:0:
182,192,145935,1,0,0:0:0:0:
109,192,145985,1,0,0:0:0:0:
402,192,145985,1,0,0:0:0:0:
329,192,146035,1,0,0:0:0:0:
256,192,146085,1,0,0:0:0:0:
36,192,146085,1,0,0:0:0:0:
475,192,146085,1,0,0:0:0:0:
109,192,146135,1,0,0:0:0:0:
182,192,146185,1,0,0:0:0:0:
329,192,146185,1,0,0:0:0:0:
402,192,146235,1,0,0:0:0:0:
475,192,146285,1,0,0:0:0:0:
256,192,146285,1,0,0:0:0:0:
109,192,146285,1,0,0:0:0:0:
36,192,146335,1,0,0:0:0:0:
182,192,146385,1,0,0:0:0:0:
402,192,146385,1,0,0:0:0:0:
329,192,146435,1,0,0:0:0:0:
109,192,146435,1,0,0:0:0:0:
256,192,146485,1,0,0:0:0:0:
36,192,146485,1,0,0:0:0:0:
475,192,146485,1,0,0:0:0:0:
402,192,146535,1,0,0:0:0:0:
109,192,146585,1,0,0:0:0:0:
329,192,146585,1,0,0:0:0:0:
182,192,146635,1,0,0:0:0:0:
256,192,146685,1,0,0:0:0:0:
475,192,146685,1,0,0:0:0:0:
36,192,146685,1,0,0:0:0:0:
329,192,146735,1,0,0:0:0:0:
402,192,146785,1,0,0:0:0:0:
182,192,146785,1,0,0:0:0:0:
109,192,146835,1,0,0:0:0:0:
36,192,146885,1,0,0:0:0:0:
256,192,146885,1,0,0:0:0:0:
475,192,146885,1,0,0:0:0:0:
329,192,146935,1,0,0:0:0:0:
402,192,146985,1,0,0:0:0:0:
109,192,146985,1,0,0:0:0:0:
475,192,147035,1,0,0:0:0:0:
182,192,147035,1,0,0:0:0:0:
256,192,147085,1,0,0:0:0:0:
36,192,147085,1,0,0:0:0:0:
329,192,147135,1,0,0:0:0:0:
109,192,147135,1,0,0:0:0:0:
182,192,147185,1,0,0:0:0:0:
402,192,147185,1,0,0:0:0:0:
475,192,147185,1,0,0:0:0:0:
182,192,147285,1,0,0:0:0:0:
475,192,147285,1,0,0:0:0:0:
402,192,147285,1,0,0:0:0:0:
36,192,147385,1,0,0:0:0:0:
109,192,147485,1,0,0:0:0:0:
329,192,147485,1,0,0:0:0:0:
402,192,147485,1,0,0:0:0:0:
109,192,147585,1,0,0:0:0:0:
329,192,147585,1,0,0:0:0:0:
402,192,147585,1,0,0:0:0:0:
475,192,147685,1,0,0:0:0:0:
36,192,147785,1,0,0:0:0:0:
329,192,147785,1,0,0:0:0:0:
256,192,147785,1,0,0:0:0:0:
36,192,147885,1,0,0:0:0:0:
256,192,147885,1,0,0:0:0:0:
329,192,147885,1,0,0:0:0:0:
475,192,147985,1,0,0:0:0:0:
36,192,148085,1,0,0:0:0:0:
182,192,148085,1,0,0:0:0:0:
329,192,148085,1,0,0:0:0:0:
402,192,148135,1,0,0:0:0:0:
475,192,148185,1,0,0:0:0:0:
256,192,148185,1,0,0:0:0:0:
182,192,148235,1,0,0:0:0:0:
109,192,148285,1,0,0:0:0:0:
402,192,148285,1,0,0:0:0:0:
329,192,148335,1,0,0:0:0:0:
256,192,148385,1,0,0:0:0:0:
36,192,148385,1,0,0:0:0:0:
475,192,148385,1,0,0:0:0:0:
182,192,148485,1,0,0:0:0:0:
329,192,148485,1,0,0:0:0:0:
109,192,148585,1,0,0:0:0:0:
256,192,148585,1,0,0:0:0:0:
402,192,148585,1,0,0:0:0:0:
36,192,148585,1,0,0:0:0:0:
182,192,148785,1,0,0:0:0:0:
36,192,148785,1,0,0:0:0:0:
329,192,148785,1,0,0:0:0:0:
402,192,148785,1,0,0:0:0:0:
475,192,148785,1,0,0:0:0:0:
109,192,148885,1,0,0:0:0:0:
256,192,148885,1,0,0:0:0:0:
182,192,148985,1,0,0:0:0:0:
329,192,148985,1,0,0:0:0:0:
36,192,148985,1,0,0:0:0:0:
402,192,148985,1,0,0:0:0:0:
256,192,149085,1,0,0:0:0:0:
475,192,149085,1,0,0:0:0:0:
109,192,149185,1,0,0:0:0:0:
402,192,149185,1,0,0:0:0:0:
182,192,149285,1,0,0:0:0:0:
36,192,149285,1,0,0:0:0:0:
256,192,149385,1,0,0:0:0:0:
475,192,149385,1,0,0:0:0:0:
109,192,149485,1,0,0:0:0:0:
36,192,149485,1,0,0:0:0:0:
182,192,149585,1,0,0:0:0:0:
329,192,149585,1,0,0:0:0:0:
329,192,149685,1,0,0:0:0:0:
109,192,149785,1,0,0:0:0:0:
36,192,149785,1,0,0:0:0:0:
402,192,149785,1,0,0:0:0:0:
475,192,149785,1,0,0:0:0:0:
329,192,149885,1,0,0:0:0:0:
182,192,149885,1,0,0:0:0:0:
109,192,149985,1,0,0:0:0:0:
256,192,149985,1,0,0:0:0:0:
109,192,150085,1,0,0:0:0:0:
256,192,150085,1,0,0:0:0:0:
36,192,150185,1,0,0:0:0:0:
182,192,150185,1,0,0:0:0:0:
475,192,150185,1,0,0:0:0:0:
402,192,150185,1,0,0:0:0:0:
256,192,150285,1,0,0:0:0:0:
329,192,150285,1,0,0:0:0:0:
36,192,150385,1,0,0:0:0:0:
182,192,150385,1,0,0:0:0:0:
402,192,150385,1,0,0:0:0:0:
182,192,150485,1,0,0:0:0:0:
329,192,150485,1,0,0:0:0:0:
36,192,150585,1,0,0:0:0:0:
109,192,150585,1,0,0:0:0:0:
402,192,150585,1,0,0:0:0:0:
475,192,150585,1,0,0:0:0:0:
256,192,150685,1,0,0:0:0:0:
182,192,150785,1,0,0:0:0:0:
329,192,150785,1,0,0:0:0:0:
109,192,150885,1,0,0:0:0:0:
402,192,150885,1,0,0:0:0:0:
182,192,150935,1,0,0:0:0:0:
256,192,150985,1,0,0:0:0:0:
475,192,150985,1,0,0:0:0:0:
36,192,150985,1,0,0:0:0:0:
329,192,150985,1,0,0:0:0:0:
182,192,151085,1,0,0:0:0:0:
109,192,151185,1,0,0:0:0:0:
36,192,151185,1,0,0:0:0:0:
402,192,151185,1,0,0:0:0:0:
402,192,151285,1,0,0:0:0:0:
256,192,151385,1,0,0:0:0:0:
475,192,151385,1,0,0:0:0:0:
182,192,151385,1,0,0:0:0:0:
36,192,151385,1,0,0:0:0:0:
109,192,151485,1,0,0:0:0:0:
329,192,151485,1,0,0:0:0:0:
256,192,151585,1,0,0:0:0:0:
402,192,151585,1,0,0:0:0:0:
256,192,151685,1,0,0:0:0:0:
402,192,151685,1,0,0:0:0:0:
109,192,151735,1,0,0:0:0:0:
36,192,151735,1,0,0:0:0:0:
182,192,151785,1,0,0:0:0:0:
329,192,151785,1,0,0:0:0:0:
475,192,151785,1,0,0:0:0:0:
256,192,151885,1,0,0:0:0:0:
109,192,151885,1,0,0:0:0:0:
402,192,151885,1,0,0:0:0:0:
182,192,151985,1,0,0:0:0:0:
36,192,151985,1,0,0:0:0:0:
329,192,151985,1,0,0:0:0:0:
475,192,151985,1,0,0:0:0:0:
256,192,152085,1,0,0:0:0:0:
109,192,152085,1,0,0:0:0:0:
329,192,152185,1,0,0:0:0:0:
475,192,152185,1,0,0:0:0:0:
182,192,152185,1,0,0:0:0:0:
402,192,152185,1,0,0:0:0:0:
256,192,152285,1,0,0:0:0:0:
109,192,152285,1,0,0:0:0:0:
36,192,152385,1,0,0:0:0:0:
182,192,152385,1,0,0:0:0:0:
182,192,152485,1,0,0:0:0:0:
36,192,152485,1,0,0:0:0:0:
109,192,152585,1,0,0:0:0:0:
329,192,152585,1,0,0:0:0:0:
475,192,152585,1,0,0:0:0:0:
402,192,152585,1,0,0:0:0:0:
256,192,152685,1,0,0:0:0:0:
182,192,152685,1,0,0:0:0:0:
109,192,152785,1,0,0:0:0:0:
329,192,152785,1,0,0:0:0:0:
36,192,152785,1,0,0:0:0:0:
329,192,152885,1,0,0:0:0:0:
182,192,152985,1,0,0:0:0:0:
36,192,152985,1,0,0:0:0:0:
402,192,152985,1,0,0:0:0:0:
475,192,152985,1,0,0:0:0:0:
109,192,153085,1,0,0:0:0:0:
256,192,153085,1,0,0:0:0:0:
182,192,153185,1,0,0:0:0:0:
329,192,153185,1,0,0:0:0:0:
182,192,153285,1,0,0:0:0:0:
329,192,153285,1,0,0:0:0:0:
109,192,153385,1,0,0:0:0:0:
36,192,153385,1,0,0:0:0:0:
402,192,153385,1,0,0:0:0:0:
475,192,153385,1,0,0:0:0:0:
182,192,153485,1,0,0:0:0:0:
256,192,153485,1,0,0:0:0:0:
329,192,153485,1,0,0:0:0:0:
109,192,153585,1,0,0:0:0:0:
36,192,153585,1,0,0:0:0:0:
402,192,153585,1,0,0:0:0:0:
475,192,153585,1,0,0:0:0:0:
402,192,153685,1,0,0:0:0:0:
256,192,153685,1,0,0:0:0:0:
36,192,153785,1,0,0:0:0:0:
109,192,153785,1,0,0:0:0:0:
329,192,153785,1,0,0:0:0:0:
475,192,153785,1,0,0:0:0:0:
182,192,153885,1,0,0:0:0:0:
329,192,153885,1,0,0:0:0:0:
109,192,153985,1,0,0:0:0:0:
36,192,153985,1,0,0:0:0:0:
402,192,153985,1,0,0:0:0:0:
475,192,153985,1,0,0:0:0:0:
182,192,154085,1,0,0:0:0:0:
256,192,154085,1,0,0:0:0:0:
329,192,154135,1,0,0:0:0:0:
109,192,154185,1,0,0:0:0:0:
36,192,154185,1,0,0:0:0:0:
402,192,154185,1,0,0:0:0:0:
475,192,154185,1,0,0:0:0:0:
329,192,154285,1,0,0:0:0:0:
109,192,154285,1,0,0:0:0:0:
256,192,154385,1,0,0:0:0:0:
182,192,154385,1,0,0:0:0:0:
402,192,154385,1,0,0:0:0:0:
475,192,154385,1,0,0:0:0:0:
402,192,154485,1,0,0:0:0:0:
475,192,154485,1,0,0:0:0:0:
109,192,154585,1,0,0:0:0:0:
182,192,154585,1,0,0:0:0:0:
182,192,154685,1,0,0:0:0:0:
109,192,154685,1,0,0:0:0:0:
329,192,154785,1,0,0:0:0:0:
402,192,154785,1,0,0:0:0:0:
329,192,154885,1,0,0:0:0:0:
402,192,154885,1,0,0:0:0:0:
109,192,154985,1,0,0:0:0:0:
36,192,154985,1,0,0:0:0:0:
36,192,155085,1,0,0:0:0:0:
109,192,155085,1,0,0:0:0:0:
182,192,155185,1,0,0:0:0:0:
329,192,155185,1,0,0:0:0:0:
475,192,155185,1,0,0:0:0:0:
402,192,155185,1,0,0:0:0:0:
109,192,155285,1,0,0:0:0:0:
182,192,155385,1,0,0:0:0:0:
402,192,155385,1,0,0:0:0:0:
475,192,155385,1,0,0:0:0:0:
36,192,155485,1,0,0:0:0:0:
402,192,155485,1,0,0:0:0:0:
109,192,155585,1,0,0:0:0:0:
329,192,155585,1,0,0:0:0:0:
36,192,155685,1,0,0:0:0:0:
329,192,155685,1,0,0:0:0:0:
182,192,155785,1,0,0:0:0:0:
402,192,155785,1,0,0:0:0:0:
475,192,155785,1,0,0:0:0:0:
109,192,155885,1,0,0:0:0:0:
402,192,155885,1,0,0:0:0:0:
182,192,155985,1,0,0:0:0:0:
329,192,155985,1,0,0:0:0:0:
36,192,156085,1,0,0:0:0:0:
329,192,156085,1,0,0:0:0:0:
109,192,156185,1,0,0:0:0:0:
402,192,156185,1,0,0:0:0:0:
182,192,156185,1,0,0:0:0:0:
36,192,156285,1,0,0:0:0:0:
402,192,156285,1,0,0:0:0:0:
256,192,156385,1,0,0:0:0:0:
475,192,156385,1,0,0:0:0:0:
182,192,156485,1,0,0:0:0:0:
402,192,156485,1,0,0:0:0:0:
109,192,156585,1,0,0:0:0:0:
329,192,156585,1,0,0:0:0:0:
475,192,156585,1,0,0:0:0:0:
36,192,156685,1,0,0:0:0:0:
256,192,156685,1,0,0:0:0:0:
182,192,156785,1,0,0:0:0:0:
109,192,156785,1,0,0:0:0:0:
475,192,156785,1,0,0:0:0:0:
182,192,156885,1,0,0:0:0:0:
402,192,156885,1,0,0:0:0:0:
475,192,156985,1,0,0:0:0:0:
36,192,156985,1,0,0:0:0:0:
109,192,156985,1,0,0:0:0:0:
329,192,157085,1,0,0:0:0:0:
109,192,157085,1,0,0:0:0:0:
402,192,157185,1,0,0:0:0:0:
182,192,157185,1,0,0:0:0:0:
329,192,157285,1,0,0:0:0:0:
182,192,157285,1,0,0:0:0:0:
475,192,157385,1,0,0:0:0:0:
109,192,157385,1,0,0:0:0:0:
36,192,157385,1,0,0:0:0:0:
402,192,157485,1,0,0:0:0:0:
109,192,157485,1,0,0:0:0:0:
475,192,157585,1,0,0:0:0:0:
182,192,157585,1,0,0:0:0:0:
329,192,157685,1,0,0:0:0:0:
182,192,157685,1,0,0:0:0:0:
402,192,157785,1,0,0:0:0:0:
109,192,157785,1,0,0:0:0:0:
36,192,157785,1,0,0:0:0:0:
329,192,157885,1,0,0:0:0:0:
109,192,157885,1,0,0:0:0:0:
36,192,157885,1,0,0:0:0:0:
256,192,157985,1,0,0:0:0:0:
475,192,157985,1,0,0:0:0:0:
402,192,157985,1,0,0:0:0:0:
182,192,158085,1,0,0:0:0:0:
329,192,158085,1,0,0:0:0:0:
256,192,158185,1,0,0:0:0:0:
109,192,158185,1,0,0:0:0:0:
36,192,158185,1,0,0:0:0:0:
182,192,158285,1,0,0:0:0:0:
329,192,158285,1,0,0:0:0:0:
256,192,158385,1,0,0:0:0:0:
402,192,158385,1,0,0:0:0:0:
475,192,158385,1,0,0:0:0:0:
36,192,158385,1,0,0:0:0:0:
109,192,158485,1,0,0:0:0:0:
475,192,158485,1,0,0:0:0:0:
36,192,158585,1,0,0:0:0:0:
329,192,158585,1,0,0:0:0:0:
402,192,158585,1,0,0:0:0:0:
109,192,158685,1,0,0:0:0:0:
329,192,158685,1,0,0:0:0:0:
182,192,158785,1,0,0:0:0:0:
475,192,158785,1,0,0:0:0:0:
109,192,158885,1,0,0:0:0:0:
475,192,158885,1,0,0:0:0:0:
36,192,158985,1,0,0:0:0:0:
329,192,158985,1,0,0:0:0:0:
402,192,158985,1,0,0:0:0:0:
109,192,159085,1,0,0:0:0:0:
329,192,159085,1,0,0:0:0:0:
36,192,159185,1,0,0:0:0:0:
475,192,159185,1,0,0:0:0:0:
109,192,159285,1,0,0:0:0:0:
475,192,159285,1,0,0:0:0:0:
182,192,159385,1,0,0:0:0:0:
329,192,159385,1,0,0:0:0:0:
402,192,159385,1,0,0:0:0:0:
109,192,159485,1,0,0:0:0:0:
329,192,159485,1,0,0:0:0:0:
475,192,159585,1,0,0:0:0:0:
182,192,159585,1,0,0:0:0:0:
109,192,159685,1,0,0:0:0:0:
402,192,159685,1,0,0:0:0:0:
329,192,159785,1,0,0:0:0:0:
36,192,159785,1,0,0:0:0:0:
256,192,159785,1,0,0:0:0:0:
182,192,159885,1,0,0:0:0:0:
109,192,159885,1,0,0:0:0:0:
256,192,159985,1,0,0:0:0:0:
329,192,159985,1,0,0:0:0:0:
36,192,159985,1,0,0:0:0:0:
475,192,159985,1,0,0:0:0:0:
402,192,160085,1,0,0:0:0:0:
182,192,160085,1,0,0:0:0:0:
475,192,160185,1,0,0:0:0:0:
182,192,160185,1,0,0:0:0:0:
402,192,160285,1,0,0:0:0:0:
109,192,160285,1,0,0:0:0:0:
36,192,160285,1,0,0:0:0:0:
329,192,160385,1,0,0:0:0:0:
182,192,160385,1,0,0:0:0:0:
402,192,160485,1,0,0:0:0:0:
182,192,160485,1,0,0:0:0:0:
475,192,160585,1,0,0:0:0:0:
36,192,160585,1,0,0:0:0:0:
109,192,160585,1,0,0:0:0:0:
402,192,160685,1,0,0:0:0:0:
182,192,160685,1,0,0:0:0:0:
109,192,160735,1,0,0:0:0:0:
475,192,160785,1,0,0:0:0:0:
36,192,160785,1,0,0:0:0:0:
402,192,160885,1,0,0:0:0:0:
109,192,160885,1,0,0:0:0:0:
182,192,160885,1,0,0:0:0:0:
329,192,160985,1,0,0:0:0:0:
36,192,160985,1,0,0:0:0:0:
402,192,161085,1,0,0:0:0:0:
36,192,161085,1,0,0:0:0:0:
329,192,161185,1,0,0:0:0:0:
109,192,161185,1,0,0:0:0:0:
182,192,161185,1,0,0:0:0:0:
402,192,161285,1,0,0:0:0:0:
36,192,161285,1,0,0:0:0:0:
256,192,161285,1,0,0:0:0:0:
475,192,161385,1,0,0:0:0:0:
109,192,161385,1,0,0:0:0:0:
402,192,161485,1,0,0:0:0:0:
182,192,161485,1,0,0:0:0:0:
256,192,161585,1,0,0:0:0:0:
329,192,161585,1,0,0:0:0:0:
36,192,161585,1,0,0:0:0:0:
475,192,161585,1,0,0:0:0:0:
182,192,161685,1,0,0:0:0:0:
402,192,161685,1,0,0:0:0:0:
182,192,161785,1,0,0:0:0:0:
402,192,161785,1,0,0:0:0:0:
109,192,161785,1,0,0:0:0:0:
36,192,161885,1,0,0:0:0:0:
256,192,161885,1,0,0:0:0:0:
109,192,161985,1,0,0:0:0:0:
329,192,161985,1,0,0:0:0:0:
109,192,162085,1,0,0:0:0:0:
329,192,162085,1,0,0:0:0:0:
256,192,162185,1,0,0:0:0:0:
475,192,162185,1,0,0:0:0:0:
36,192,162185,1,0,0:0:0:0:
402,192,162285,1,0,0:0:0:0:
182,192,162285,1,0,0:0:0:0:
182,192,162385,1,0,0:0:0:0:
402,192,162385,1,0,0:0:0:0:
36,192,162485,1,0,0:0:0:0:
256,192,162485,1,0,0:0:0:0:
109,192,162585,1,0,0:0:0:0:
329,192,162585,1,0,0:0:0:0:
475,192,162585,1,0,0:0:0:0:
109,192,162685,1,0,0:0:0:0:
329,192,162685,1,0,0:0:0:0:
182,192,162785,1,0,0:0:0:0:
402,192,162785,1,0,0:0:0:0:
36,192,162885,1,0,0:0:0:0:
256,192,162885,1,0,0:0:0:0:
109,192,162985,1,0,0:0:0:0:
402,192,162985,1,0,0:0:0:0:
329,192,162985,1,0,0:0:0:0:
256,192,163085,1,0,0:0:0:0:
475,192,163085,1,0,0:0:0:0:
402,192,163185,1,0,0:0:0:0:
182,192,163185,1,0,0:0:0:0:
329,192,163185,1,0,0:0:0:0:
36,192,163185,1,0,0:0:0:0:
256,192,163285,1,0,0:0:0:0:
109,192,163285,1,0,0:0:0:0:
256,192,163385,1,0,0:0:0:0:
109,192,163385,1,0,0:0:0:0:
329,192,163385,1,0,0:0:0:0:
475,192,163485,1,0,0:0:0:0:
182,192,163485,1,0,0:0:0:0:
402,192,163585,1,0,0:0:0:0:
256,192,163585,1,0,0:0:0:0:
402,192,163685,1,0,0:0:0:0:
256,192,163685,1,0,0:0:0:0:
182,192,163785,1,0,0:0:0:0:
36,192,163785,1,0,0:0:0:0:
475,192,163785,1,0,0:0:0:0:
109,192,163885,1,0,0:0:0:0:
256,192,163885,1,0,0:0:0:0:
256,192,163985,1,0,0:0:0:0:
109,192,163985,1,0,0:0:0:0:
36,192,163985,1,0,0:0:0:0:
475,192,164085,1,0,0:0:0:0:
329,192,164085,1,0,0:0:0:0:
402,192,164185,1,0,0:0:0:0:
256,192,164185,1,0,0:0:0:0:
36,192,164185,1,0,0:0:0:0:
402,192,164285,1,0,0:0:0:0:
256,192,164285,1,0,0:0:0:0:
329,192,164385,1,0,0:0:0:0:
109,192,164385,1,0,0:0:0:0:
256,192,164485,1,0,0:0:0:0:
36,192,164485,1,0,0:0:0:0:
402,192,164585,1,0,0:0:0:0:
109,192,164585,1,0,0:0:0:0:
182,192,164585,1,0,0:0:0:0:
256,192,164685,1,0,0:0:0:0:
329,192,164685,1,0,0:0:0:0:
109,192,164785,1,0,0:0:0:0:
36,192,164785,1,0,0:0:0:0:
402,192,164785,1,0,0:0:0:0:
475,192,164785,1,0,0:0:0:0:
329,192,164885,1,0,0:0:0:0:
402,192,164985,1,0,0:0:0:0:
475,192,164985,1,0,0:0:0:0:
182,192,164985,1,0,0:0:0:0:
36,192,164985,1,0,0:0:0:0:
256,192,165085,1,0,0:0:0:0:
109,192,165185,1,0,0:0:0:0:
36,192,165185,1,0,0:0:0:0:
329,192,165185,1,0,0:0:0:0:
475,192,165185,1,0,0:0:0:0:
182,192,165235,1,0,0:0:0:0:
256,192,165285,1,0,0:0:0:0:
36,192,165335,1,0,0:0:0:0:
109,192,165385,1,0,0:0:0:0:
475,192,165385,1,0,0:0:0:0:
402,192,165385,1,0,0:0:0:0:
182,192,165435,1,0,0:0:0:0:
329,192,165485,1,0,0:0:0:0:
402,192,165535,1,0,0:0:0:0:
182,192,165585,1,0,0:0:0:0:
36,192,165585,1,0,0:0:0:0:
256,192,165585,1,0,0:0:0:0:
475,192,165651,1,0,0:0:0:0:
329,192,165685,1,0,0:0:0:0:
109,192,165685,1,0,0:0:0:0:
182,192,165718,1,0,0:0:0:0:
36,192,165785,1,0,0:0:0:0:
256,192,165785,1,0,0:0:0:0:
402,192,165785,1,0,0:0:0:0:
329,192,165851,1,0,0:0:0:0:
182,192,165918,1,0,0:0:0:0:
475,192,165985,1,0,0:0:0:0:
109,192,165985,1,0,0:0:0:0:
36,192,165985,1,0,0:0:0:0:
402,192,166051,1,0,0:0:0:0:
256,192,166085,1,0,0:0:0:0:
329,192,166085,1,0,0:0:0:0:
182,192,166118,1,0,0:0:0:0:
109,192,166185,1,0,0:0:0:0:
475,192,166185,1,0,0:0:0:0:
36,192,166185,1,0,0:0:0:0:
329,192,166251,1,0,0:0:0:0:
402,192,166285,1,0,0:0:0:0:
475,192,166285,1,0,0:0:0:0:
182,192,166318,1,0,0:0:0:0:
109,192,166385,1,0,0:0:0:0:
36,192,166385,1,0,0:0:0:0:
256,192,166385,1,0,0:0:0:0:
475,192,166385,1,0,0:0:0:0:
402,192,166435,1,0,0:0:0:0:
329,192,166485,1,0,0:0:0:0:
182,192,166485,1,0,0:0:0:0:
256,192,166535,1,0,0:0:0:0:
36,192,166585,1,0,0:0:0:0:
475,192,166585,1,0,0:0:0:0:
109,192,166585,1,0,0:0:0:0:
329,192,166635,1,0,0:0:0:0:
182,192,166685,1,0,0:0:0:0:
256,192,166735,1,0,0:0:0:0:
36,192,166785,1,0,0:0:0:0:
402,192,166785,1,0,0:0:0:0:
475,192,166785,1,0,0:0:0:0:
109,192,166835,1,0,0:0:0:0:
182,192,166885,1,0,0:0:0:0:
256,192,166935,1,0,0:0:0:0:
329,192,166985,1,0,0:0:0:0:
475,192,166985,1,0,0:0:0:0:
36,192,166985,1,0,0:0:0:0:
182,192,167035,1,0,0:0:0:0:
402,192,167085,1,0,0:0:0:0:
256,192,167135,1,0,0:0:0:0:
109,192,167185,1,0,0:0:0:0:
36,192,167185,1,0,0:0:0:0:
329,192,167235,1,0,0:0:0:0:
182,192,167285,1,0,0:0:0:0:
475,192,167285,1,0,0:0:0:0:
36,192,167335,1,0,0:0:0:0:
256,192,167385,1,0,0:0:0:0:
402,192,167385,1,0,0:0:0:0:
109,192,167435,1,0,0:0:0:0:
182,192,167485,1,0,0:0:0:0:
329,192,167485,1,0,0:0:0:0:
402,192,167535,1,0,0:0:0:0:
475,192,167585,1,0,0:0:0:0:
36,192,167585,1,0,0:0:0:0:
182,192,167635,1,0,0:0:0:0:
109,192,167685,1,0,0:0:0:0:
402,192,167685,1,0,0:0:0:0:
329,192,167735,1,0,0:0:0:0:
256,192,167785,1,0,0:0:0:0:
36,192,167785,1,0,0:0:0:0:
475,192,167785,1,0,0:0:0:0:
182,192,167885,1,0,0:0:0:0:
329,192,167885,1,0,0:0:0:0:
475,192,167985,1,0,0:0:0:0:
256,192,167985,1,0,0:0:0:0:
109,192,167985,1,0,0:0:0:0:
36,192,167985,1,0,0:0:0:0:
402,192,167985,1,0,0:0:0:0:
182,192,168185,1,0,0:0:0:0:
329,192,168185,1,0,0:0:0:0:
475,192,168185,1,0,0:0:0:0:
109,192,168385,1,0,0:0:0:0:
256,192,168385,1,0,0:0:0:0:
109,192,168485,1,0,0:0:0:0:
256,192,168485,1,0,0:0:0:0:
182,192,168585,1,0,0:0:0:0:
329,192,168585,1,0,0:0:0:0:
475,192,168585,1,0,0:0:0:0:
256,192,168785,1,0,0:0:0:0:
402,192,168785,1,0,0:0:0:0:
36,192,168985,1,0,0:0:0:0:
475,192,168985,1,0,0:0:0:0:
329,192,168985,1,0,0:0:0:0:
109,192,169085,1,0,0:0:0:0:
256,192,169085,1,0,0:0:0:0:
109,192,169285,1,0,0:0:0:0:
256,192,169285,1,0,0:0:0:0:
329,192,169285,128,0,169385:0:0:0:0:
402,192,169385,128,0,169485:0:0:0:0:
182,192,169385,1,0,0:0:0:0:
36,192,169385,1,0,0:0:0:0:
475,192,169385,1,0,0:0:0:0:
256,192,169485,128,0,169585:0:0:0:0:
109,192,169585,128,0,169685:0:0:0:0:
329,192,169585,1,0,0:0:0:0:
182,192,169585,1,0,0:0:0:0:
475,192,169685,128,0,169785:0:0:0:0:
182,192,169785,1,0,0:0:0:0:
36,192,169785,1,0,0:0:0:0:
109,192,169785,1,0,0:0:0:0:
329,192,169835,1,0,0:0:0:0:
402,192,169885,128,0,169985:0:0:0:0:
109,192,169985,1,0,0:0:0:0:
36,192,169985,1,0,0:0:0:0:
256,192,169985,128,0,170085:0:0:0:0:
36,192,170085,1,0,0:0:0:0:
109,192,170085,1,0,0:0:0:0:
182,192,170085,128,0,170185:0:0:0:0:
329,192,170185,1,0,0:0:0:0:
402,192,170185,1,0,0:0:0:0:
475,192,170185,1,0,0:0:0:0:
256,192,170185,128,0,170285:0:0:0:0:
109,192,170285,128,0,170385:0:0:0:0:
329,192,170385,128,0,170485:0:0:0:0:
36,192,170385,1,0,0:0:0:0:
182,192,170385,1,0,0:0:0:0:
402,192,170485,128,0,170585:0:0:0:0:
329,192,170585,128,0,170685:0:0:0:0:
109,192,170585,1,0,0:0:0:0:
36,192,170585,1,0,0:0:0:0:
475,192,170585,1,0,0:0:0:0:
182,192,170685,128,0,170785:0:0:0:0:
256,192,170685,1,0,0:0:0:0:
402,192,170685,1,0,0:0:0:0:
36,192,170785,128,0,170885:0:0:0:0:
256,192,170885,1,0,0:0:0:0:
402,192,170885,1,0,0:0:0:0:
109,192,170885,128,0,170985:0:0:0:0:
475,192,170985,1,0,0:0:0:0:
182,192,170985,1,0,0:0:0:0:
329,192,170985,1,0,0:0:0:0:
36,192,170985,128,0,171085:0:0:0:0:
256,192,171085,128,0,171185:0:0:0:0:
329,192,171185,128,0,171285:0:0:0:0:
109,192,171185,1,0,0:0:0:0:
402,192,171185,1,0,0:0:0:0:
182,192,171285,128,0,171385:0:0:0:0:
36,192,171385,128,0,171485:0:0:0:0:
256,192,171385,1,0,0:0:0:0:
329,192,171385,1,0,0:0:0:0:
475,192,171385,1,0,0:0:0:0:
182,192,171485,128,0,171585:0:0:0:0:
475,192,171585,128,0,171685:0:0:0:0:
109,192,171585,1,0,0:0:0:0:
36,192,171585,1,0,0:0:0:0:
329,192,171685,128,0,171785:0:0:0:0:
36,192,171685,1,0,0:0:0:0:
109,192,171685,1,0,0:0:0:0:
182,192,171785,128,0,171885:0:0:0:0:
402,192,171785,1,0,0:0:0:0:
475,192,171785,1,0,0:0:0:0:
256,192,171785,1,0,0:0:0:0:
329,192,171885,128,0,171985:0:0:0:0:
109,192,171985,1,0,0:0:0:0:
256,192,171985,1,0,0:0:0:0:
36,192,171985,128,0,172085:0:0:0:0:
402,192,172085,128,0,172185:0:0:0:0:
109,192,172185,128,0,172285:0:0:0:0:
256,192,172185,1,0,0:0:0:0:
329,192,172185,1,0,0:0:0:0:
182,192,172185,1,0,0:0:0:0:
475,192,172285,128,0,172385:0:0:0:0:
36,192,172285,1,0,0:0:0:0:
402,192,172285,1,0,0:0:0:0:
329,192,172385,128,0,172485:0:0:0:0:
182,192,172485,128,0,172585:0:0:0:0:
36,192,172485,1,0,0:0:0:0:
109,192,172485,1,0,0:0:0:0:
256,192,172585,128,0,172685:0:0:0:0:
329,192,172585,1,0,0:0:0:0:
402,192,172585,1,0,0:0:0:0:
475,192,172585,1,0,0:0:0:0:
109,192,172685,128,0,172785:0:0:0:0:
36,192,172785,1,0,0:0:0:0:
329,192,172785,1,0,0:0:0:0:
256,192,172851,1,0,0:0:0:0:
182,192,172918,1,0,0:0:0:0:
109,192,172985,1,0,0:0:0:0:
329,192,172985,1,0,0:0:0:0:
402,192,172985,1,0,0:0:0:0:
182,192,173051,1,0,0:0:0:0:
475,192,173118,1,0,0:0:0:0:
329,192,173185,1,0,0:0:0:0:
36,192,173185,1,0,0:0:0:0:
256,192,173251,1,0,0:0:0:0:
402,192,173285,1,0,0:0:0:0:
109,192,173285,1,0,0:0:0:0:
182,192,173385,1,0,0:0:0:0:
329,192,173385,1,0,0:0:0:0:
475,192,173385,1,0,0:0:0:0:
109,192,173451,1,0,0:0:0:0:
402,192,173518,1,0,0:0:0:0:
182,192,173585,1,0,0:0:0:0:
36,192,173585,1,0,0:0:0:0:
329,192,173651,1,0,0:0:0:0:
109,192,173718,1,0,0:0:0:0:
256,192,173785,1,0,0:0:0:0:
402,192,173785,1,0,0:0:0:0:
475,192,173785,1,0,0:0:0:0:
182,192,173851,1,0,0:0:0:0:
36,192,173885,1,0,0:0:0:0:
109,192,173885,1,0,0:0:0:0:
329,192,173918,1,0,0:0:0:0:
182,192,173985,1,0,0:0:0:0:
256,192,174051,1,0,0:0:0:0:
402,192,174085,1,0,0:0:0:0:
475,192,174085,1,0,0:0:0:0:
182,192,174118,1,0,0:0:0:0:
109,192,174185,1,0,0:0:0:0:
36,192,174185,1,0,0:0:0:0:
329,192,174185,1,0,0:0:0:0:
256,192,174251,1,0,0:0:0:0:
402,192,174285,1,0,0:0:0:0:
475,192,174285,1,0,0:0:0:0:
182,192,174318,1,0,0:0:0:0:
109,192,174385,128,0,174685:0:0:0:0:
329,192,174385,1,0,0:0:0:0:
402,192,174385,1,0,0:0:0:0:
475,192,174385,1,0,0:0:0:0:
182,192,174585,1,0,0:0:0:0:
329,192,174585,1,0,0:0:0:0:
402,192,174585,1,0,0:0:0:0:
36,192,174585,128,0,174685:0:0:0:0:
475,192,174685,128,0,174885:0:0:0:0:
109,192,174785,1,0,0:0:0:0:
256,192,174785,1,0,0:0:0:0:
329,192,174885,128,0,174985:0:0:0:0:
182,192,174885,1,0,0:0:0:0:
36,192,174885,1,0,0:0:0:0:
475,192,174985,128,0,175185:0:0:0:0:
36,192,174985,1,0,0:0:0:0:
256,192,174985,1,0,0:0:0:0:
402,192,174985,1,0,0:0:0:0:
36,192,175185,128,0,175285:0:0:0:0:
182,192,175185,1,0,0:0:0:0:
329,192,175185,1,0,0:0:0:0:
109,192,175285,128,0,175485:0:0:0:0:
256,192,175385,1,0,0:0:0:0:
402,192,175385,1,0,0:0:0:0:
475,192,175385,1,0,0:0:0:0:
182,192,175485,1,0,0:0:0:0:
329,192,175485,1,0,0:0:0:0:
36,192,175485,128,0,175585:0:0:0:0:
475,192,175585,128,0,175685:0:0:0:0:
402,192,175685,128,0,175785:0:0:0:0:
109,192,175685,1,0,0:0:0:0:
256,192,175685,1,0,0:0:0:0:
329,192,175785,128,0,175885:0:0:0:0:
109,192,175785,1,0,0:0:0:0:
36,192,175785,1,0,0:0:0:0:
475,192,175785,1,0,0:0:0:0:
256,192,175885,128,0,175985:0:0:0:0:
109,192,175985,1,0,0:0:0:0:
402,192,175985,1,0,0:0:0:0:
182,192,176051,1,0,0:0:0:0:
329,192,176118,1,0,0:0:0:0:
36,192,176185,1,0,0:0:0:0:
402,192,176185,1,0,0:0:0:0:
256,192,176185,1,0,0:0:0:0:
182,192,176251,1,0,0:0:0:0:
109,192,176318,1,0,0:0:0:0:
36,192,176385,1,0,0:0:0:0:
475,192,176385,1,0,0:0:0:0:
329,192,176451,1,0,0:0:0:0:
256,192,176485,1,0,0:0:0:0:
402,192,176485,1,0,0:0:0:0:
182,192,176518,1,0,0:0:0:0:
109,192,176585,1,0,0:0:0:0:
475,192,176585,1,0,0:0:0:0:
36,192,176585,1,0,0:0:0:0:
256,192,176651,1,0,0:0:0:0:
329,192,176718,1,0,0:0:0:0:
182,192,176785,1,0,0:0:0:0:
402,192,176785,1,0,0:0:0:0:
256,192,176851,1,0,0:0:0:0:
109,192,176918,1,0,0:0:0:0:
182,192,176985,1,0,0:0:0:0:
329,192,176985,1,0,0:0:0:0:
36,192,176985,1,0,0:0:0:0:
402,192,177051,1,0,0:0:0:0:
109,192,177085,1,0,0:0:0:0:
475,192,177085,1,0,0:0:0:0:
256,192,177118,1,0,0:0:0:0:
182,192,177185,1,0,0:0:0:0:
256,192,177251,1,0,0:0:0:0:
109,192,177285,1,0,0:0:0:0:
402,192,177285,1,0,0:0:0:0:
329,192,177318,1,0,0:0:0:0:
475,192,177385,1,0,0:0:0:0:
36,192,177385,1,0,0:0:0:0:
182,192,177385,1,0,0:0:0:0:
256,192,177451,1,0,0:0:0:0:
109,192,177518,1,0,0:0:0:0:
182,192,177585,1,0,0:0:0:0:
36,192,177585,1,0,0:0:0:0:
329,192,177585,128,0,177685:0:0:0:0:
475,192,177685,128,0,177785:0:0:0:0:
109,192,177785,128,0,177885:0:0:0:0:
36,192,177785,1,0,0:0:0:0:
402,192,177785,1,0,0:0:0:0:
329,192,177785,1,0,0:0:0:0:
256,192,177885,128,0,178085:0:0:0:0:
402,192,177985,1,0,0:0:0:0:
475,192,177985,1,0,0:0:0:0:
329,192,178085,1,0,0:0:0:0:
475,192,178085,1,0,0:0:0:0:
182,192,178135,1,0,0:0:0:0:
36,192,178185,128,0,178285:0:0:0:0:
109,192,178185,1,0,0:0:0:0:
256,192,178185,1,0,0:0:0:0:
402,192,178185,1,0,0:0:0:0:
256,192,178285,128,0,178385:0:0:0:0:
475,192,178385,128,0,178485:0:0:0:0:
36,192,178385,1,0,0:0:0:0:
109,192,178385,1,0,0:0:0:0:
182,192,178485,128,0,178585:0:0:0:0:
329,192,178585,128,0,178685:0:0:0:0:
402,192,178585,1,0,0:0:0:0:
475,192,178585,1,0,0:0:0:0:
109,192,178585,1,0,0:0:0:0:
36,192,178685,128,0,178785:0:0:0:0:
182,192,178685,1,0,0:0:0:0:
256,192,178685,1,0,0:0:0:0:
109,192,178785,128,0,178885:0:0:0:0:
402,192,178885,128,0,178985:0:0:0:0:
256,192,178885,1,0,0:0:0:0:
329,192,178885,1,0,0:0:0:0:
182,192,178985,128,0,179085:0:0:0:0:
109,192,178985,1,0,0:0:0:0:
36,192,178985,1,0,0:0:0:0:
475,192,178985,1,0,0:0:0:0:
329,192,179085,128,0,179185:0:0:0:0:
36,192,179185,128,0,179685:0:0:0:0:
256,192,179185,1,0,0:0:0:0:
402,192,179185,1,0,0:0:0:0:
182,192,179385,1,0,0:0:0:0:
475,192,179385,1,0,0:0:0:0:
256,192,179385,1,0,0:0:0:0:
329,192,179485,1,0,0:0:0:0:
475,192,179585,1,0,0:0:0:0:
109,192,179585,1,0,0:0:0:0:
256,192,179685,128,0,179785:0:0:0:0:
329,192,179685,1,0,0:0:0:0:
182,192,179685,1,0,0:0:0:0:
402,192,179785,128,0,179885:0:0:0:0:
109,192,179785,1,0,0:0:0:0:
36,192,179785,1,0,0:0:0:0:
475,192,179785,1,0,0:0:0:0:
182,192,179885,128,0,179985:0:0:0:0:
329,192,179885,1,0,0:0:0:0:
475,192,179985,128,0,180085:0:0:0:0:
109,192,179985,1,0,0:0:0:0:
36,192,179985,1,0,0:0:0:0:
329,192,180085,128,0,180185:0:0:0:0:
36,192,180185,128,0,180285:0:0:0:0:
256,192,180185,1,0,0:0:0:0:
402,192,180185,1,0,0:0:0:0:
475,192,180185,1,0,0:0:0:0:
182,192,180285,128,0,180385:0:0:0:0:
329,192,180285,1,0,0:0:0:0:
109,192,180285,1,0,0:0:0:0:
402,192,180385,128,0,180485:0:0:0:0:
329,192,180485,128,0,180585:0:0:0:0:
256,192,180485,1,0,0:0:0:0:
182,192,180485,1,0,0:0:0:0:
109,192,180585,128,0,180685:0:0:0:0:
36,192,180585,1,0,0:0:0:0:
402,192,180585,1,0,0:0:0:0:
475,192,180585,1,0,0:0:0:0:
182,192,180685,128,0,180785:0:0:0:0:
329,192,180685,1,0,0:0:0:0:
109,192,180785,1,0,0:0:0:0:
36,192,180785,1,0,0:0:0:0:
402,192,180785,1,0,0:0:0:0:
475,192,180785,1,0,0:0:0:0:
256,192,180785,128,0,181085:0:0:0:0:
109,192,180985,1,0,0:0:0:0:
182,192,180985,1,0,0:0:0:0:
402,192,180985,1,0,0:0:0:0:
329,192,180985,128,0,181085:0:0:0:0:
475,192,181085,128,0,181285:0:0:0:0:
109,192,181185,1,0,0:0:0:0:
36,192,181185,1,0,0:0:0:0:
402,192,181185,128,0,181285:0:0:0:0:
329,192,181285,128,0,181585:0:0:0:0:
36,192,181285,1,0,0:0:0:0:
109,192,181285,1,0,0:0:0:0:
182,192,181385,128,0,181585:0:0:0:0:
402,192,181385,1,0,0:0:0:0:
256,192,181385,1,0,0:0:0:0:
475,192,181385,1,0,0:0:0:0:
402,192,181585,128,0,182185:0:0:0:0:
109,192,181585,1,0,0:0:0:0:
36,192,181585,1,0,0:0:0:0:
182,192,181785,1,0,0:0:0:0:
475,192,181785,1,0,0:0:0:0:
256,192,181785,1,0,0:0:0:0:
36,192,181885,128,0,182185:0:0:0:0:
109,192,181885,1,0,0:0:0:0:
329,192,181885,1,0,0:0:0:0:
182,192,182085,1,0,0:0:0:0:
329,192,182085,1,0,0:0:0:0:
256,192,182185,128,0,183185:0:0:0:0:
109,192,182185,1,0,0:0:0:0:
475,192,182185,1,0,0:0:0:0:
182,192,182385,128,0,183185:0:0:0:0:
329,192,182385,1,0,0:0:0:0:
402,192,182385,1,0,0:0:0:0:
109,192,182585,1,0,0:0:0:0:
36,192,182585,1,0,0:0:0:0:
475,192,182585,1,0,0:0:0:0:
109,192,182785,1,0,0:0:0:0:
329,192,182785,1,0,0:0:0:0:
109,192,182885,1,0,0:0:0:0:
329,192,182885,1,0,0:0:0:0:
402,192,182985,1,0,0:0:0:0:
475,192,182985,1,0,0:0:0:0:
36,192,182985,1,0,0:0:0:0:
109,192,183185,128,0,183285:0:0:0:0:
329,192,183185,1,0,0:0:0:0:
402,192,183185,1,0,0:0:0:0:
182,192,183285,128,0,183385:0:0:0:0:
402,192,183385,128,0,183485:0:0:0:0:
329,192,183385,1,0,0:0:0:0:
36,192,183385,1,0,0:0:0:0:
475,192,183385,1,0,0:0:0:0:
256,192,183485,128,0,183585:0:0:0:0:
182,192,183485,1,0,0:0:0:0:
109,192,183485,1,0,0:0:0:0:
36,192,183585,128,0,183685:0:0:0:0:
182,192,183685,128,0,183785:0:0:0:0:
475,192,183685,1,0,0:0:0:0:
256,192,183685,1,0,0:0:0:0:
329,192,183785,128,0,183885:0:0:0:0:
109,192,183785,1,0,0:0:0:0:
36,192,183785,1,0,0:0:0:0:
402,192,183785,1,0,0:0:0:0:
256,192,183885,128,0,183985:0:0:0:0:
182,192,183985,1,0,0:0:0:0:
36,192,183985,1,0,0:0:0:0:
475,192,183985,1,0,0:0:0:0:
402,192,184051,1,0,0:0:0:0:
329,192,184118,1,0,0:0:0:0:
256,192,184185,1,0,0:0:0:0:
475,192,184185,1,0,0:0:0:0:
36,192,184185,1,0,0:0:0:0:
109,192,184251,1,0,0:0:0:0:
182,192,184318,1,0,0:0:0:0:
256,192,184385,1,0,0:0:0:0:
402,192,184385,1,0,0:0:0:0:
109,192,184451,1,0,0:0:0:0:
329,192,184485,1,0,0:0:0:0:
182,192,184485,1,0,0:0:0:0:
402,192,184518,1,0,0:0:0:0:
36,192,184585,1,0,0:0:0:0:
475,192,184585,1,0,0:0:0:0:
109,192,184585,1,0,0:0:0:0:
402,192,184651,1,0,0:0:0:0:
256,192,184718,1,0,0:0:0:0:
109,192,184785,1,0,0:0:0:0:
329,192,184785,1,0,0:0:0:0:
182,192,184851,1,0,0:0:0:0:
256,192,184918,1,0,0:0:0:0:
329,192,184985,1,0,0:0:0:0:
475,192,184985,1,0,0:0:0:0:
36,192,184985,1,0,0:0:0:0:
182,192,185051,1,0,0:0:0:0:
256,192,185085,1,0,0:0:0:0:
402,192,185085,1,0,0:0:0:0:
109,192,185118,1,0,0:0:0:0:
36,192,185185,1,0,0:0:0:0:
182,192,185251,1,0,0:0:0:0:
109,192,185285,1,0,0:0:0:0:
402,192,185285,1,0,0:0:0:0:
329,192,185318,1,0,0:0:0:0:
475,192,185385,1,0,0:0:0:0:
36,192,185385,1,0,0:0:0:0:
182,192,185385,1,0,0:0:0:0:
256,192,185451,1,0,0:0:0:0:
402,192,185518,1,0,0:0:0:0:
329,192,185585,1,0,0:0:0:0:
182,192,185585,1,0,0:0:0:0:
109,192,185585,128,0,185785:0:0:0:0:
256,192,185785,1,0,0:0:0:0:
402,192,185785,1,0,0:0:0:0:
36,192,185785,1,0,0:0:0:0:
475,192,185785,128,0,185885:0:0:0:0:
182,192,185885,1,0,0:0:0:0:
329,192,185885,128,0,185985:0:0:0:0:
109,192,185985,1,0,0:0:0:0:
36,192,185985,1,0,0:0:0:0:
256,192,186035,1,0,0:0:0:0:
182,192,186085,1,0,0:0:0:0:
402,192,186085,1,0,0:0:0:0:
256,192,186185,1,0,0:0:0:0:
475,192,186185,1,0,0:0:0:0:
36,192,186185,1,0,0:0:0:0:
402,192,186235,1,0,0:0:0:0:
182,192,186285,1,0,0:0:0:0:
329,192,186285,1,0,0:0:0:0:
109,192,186335,1,0,0:0:0:0:
36,192,186385,1,0,0:0:0:0:
402,192,186385,1,0,0:0:0:0:
256,192,186385,128,0,186485:0:0:0:0:
329,192,186485,128,0,186585:0:0:0:0:
402,192,186585,128,0,186685:0:0:0:0:
256,192,186585,1,0,0:0:0:0:
36,192,186585,1,0,0:0:0:0:
182,192,186585,1,0,0:0:0:0:
475,192,186685,1,0,0:0:0:0:
109,192,186685,128,0,186785:0:0:0:0:
329,192,186685,1,0,0:0:0:0:
256,192,186785,128,0,186885:0:0:0:0:
182,192,186885,128,0,186985:0:0:0:0:
36,192,186885,1,0,0:0:0:0:
402,192,186885,1,0,0:0:0:0:
109,192,186985,128,0,187085:0:0:0:0:
329,192,186985,1,0,0:0:0:0:
475,192,186985,1,0,0:0:0:0:
256,192,186985,1,0,0:0:0:0:
36,192,187085,128,0,187185:0:0:0:0:
182,192,187085,1,0,0:0:0:0:
402,192,187085,1,0,0:0:0:0:
109,192,187185,1,0,0:0:0:0:
256,192,187185,1,0,0:0:0:0:
329,192,187185,1,0,0:0:0:0:
475,192,187185,1,0,0:0:0:0:
182,192,187251,1,0,0:0:0:0:
402,192,187251,1,0,0:0:0:0:
109,192,187318,1,0,0:0:0:0:
329,192,187318,1,0,0:0:0:0:
36,192,187385,1,0,0:0:0:0:
256,192,187385,1,0,0:0:0:0:
475,192,187385,1,0,0:0:0:0:
109,192,187451,1,0,0:0:0:0:
329,192,187451,1,0,0:0:0:0:
182,192,187518,1,0,0:0:0:0:
402,192,187518,1,0,0:0:0:0:
256,192,187585,1,0,0:0:0:0:
475,192,187585,1,0,0:0:0:0:
182,192,187651,1,0,0:0:0:0:
402,192,187651,1,0,0:0:0:0:
329,192,187718,1,0,0:0:0:0:
109,192,187718,1,0,0:0:0:0:
36,192,187785,1,0,0:0:0:0:
256,192,187785,1,0,0:0:0:0:
475,192,187785,1,0,0:0:0:0:
109,192,187851,1,0,0:0:0:0:
329,192,187851,1,0,0:0:0:0:
402,192,187918,1,0,0:0:0:0:
182,192,187918,1,0,0:0:0:0:
256,192,187985,1,0,0:0:0:0:
475,192,187985,1,0,0:0:0:0:
182,192,188051,1,0,0:0:0:0:
402,192,188051,1,0,0:0:0:0:
109,192,188118,1,0,0:0:0:0:
329,192,188118,1,0,0:0:0:0:
36,192,188185,1,0,0:0:0:0:
256,192,188185,1,0,0:0:0:0:
182,192,188185,1,0,0:0:0:0:
109,192,188251,1,0,0:0:0:0:
329,192,188251,1,0,0:0:0:0:
182,192,188318,1,0,0:0:0:0:
402,192,188318,1,0,0:0:0:0:
256,192,188385,1,0,0:0:0:0:
475,192,188385,1,0,0:0:0:0:
109,192,188451,1,0,0:0:0:0:
36,192,188451,1,0,0:0:0:0:
329,192,188518,1,0,0:0:0:0:
475,192,188518,1,0,0:0:0:0:
402,192,188585,1,0,0:0:0:0:
256,192,188585,1,0,0:0:0:0:
36,192,188585,1,0,0:0:0:0:
182,192,188651,1,0,0:0:0:0:
329,192,188651,1,0,0:0:0:0:
256,192,188718,1,0,0:0:0:0:
109,192,188718,1,0,0:0:0:0:
36,192,188785,1,0,0:0:0:0:
182,192,188785,1,0,0:0:0:0:
402,192,188785,1,0,0:0:0:0:
329,192,188885,1,0,0:0:0:0:
109,192,188985,1,0,0:0:0:0:
256,192,188985,1,0,0:0:0:0:
475,192,188985,1,0,0:0:0:0:
182,192,189085,1,0,0:0:0:0:
329,192,189085,1,0,0:0:0:0:
36,192,189185,1,0,0:0:0:0:
402,192,189185,1,0,0:0:0:0:
475,192,189185,1,0,0:0:0:0:
402,192,189285,1,0,0:0:0:0:
475,192,189285,1,0,0:0:0:0:
182,192,189285,1,0,0:0:0:0:
109,192,189385,1,0,0:0:0:0:
36,192,189385,1,0,0:0:0:0:
329,192,189385,1,0,0:0:0:0:
256,192,189485,1,0,0:0:0:0:
402,192,189485,1,0,0:0:0:0:
182,192,189585,1,0,0:0:0:0:
329,192,189585,1,0,0:0:0:0:
36,192,189585,1,0,0:0:0:0:
109,192,189685,1,0,0:0:0:0:
475,192,189685,1,0,0:0:0:0:
256,192,189785,1,0,0:0:0:0:
402,192,189785,1,0,0:0:0:0:
36,192,189785,1,0,0:0:0:0:
109,192,189885,1,0,0:0:0:0:
182,192,189885,1,0,0:0:0:0:
329,192,189885,1,0,0:0:0:0:
36,192,189985,1,0,0:0:0:0:
475,192,189985,1,0,0:0:0:0:
182,192,190085,1,0,0:0:0:0:
329,192,190085,1,0,0:0:0:0:
109,192,190085,1,0,0:0:0:0:
256,192,190185,1,0,0:0:0:0:
475,192,190185,1,0,0:0:0:0:
36,192,190185,1,0,0:0:0:0:
109,192,190285,1,0,0:0:0:0:
329,192,190285,1,0,0:0:0:0:
402,192,190385,1,0,0:0:0:0:
475,192,190385,1,0,0:0:0:0:
182,192,190385,128,0,190685:0:0:0:0:
329,192,190585,1,0,0:0:0:0:
402,192,190585,1,0,0:0:0:0:
475,192,190585,1,0,0:0:0:0:
256,192,190685,1,0,0:0:0:0:
109,192,190735,1,0,0:0:0:0:
36,192,190785,128,0,191085:0:0:0:0:
329,192,190785,1,0,0:0:0:0:
402,192,190785,1,0,0:0:0:0:
182,192,190885,1,0,0:0:0:0:
256,192,190885,1,0,0:0:0:0:
109,192,190985,1,0,0:0:0:0:
329,192,190985,1,0,0:0:0:0:
402,192,190985,1,0,0:0:0:0:
475,192,190985,1,0,0:0:0:0:
256,192,191085,1,0,0:0:0:0:
402,192,191135,1,0,0:0:0:0:
36,192,191185,1,0,0:0:0:0:
182,192,191185,1,0,0:0:0:0:
256,192,191285,1,0,0:0:0:0:
329,192,191385,1,0,0:0:0:0:
475,192,191385,1,0,0:0:0:0:
36,192,191385,1,0,0:0:0:0:
109,192,191485,1,0,0:0:0:0:
256,192,191485,1,0,0:0:0:0:
402,192,191485,1,0,0:0:0:0:
182,192,191585,1,0,0:0:0:0:
329,192,191585,1,0,0:0:0:0:
109,192,191685,1,0,0:0:0:0:
36,192,191685,1,0,0:0:0:0:
402,192,191685,1,0,0:0:0:0:
182,192,191785,1,0,0:0:0:0:
329,192,191785,1,0,0:0:0:0:
475,192,191785,1,0,0:0:0:0:
109,192,191885,1,0,0:0:0:0:
402,192,191885,1,0,0:0:0:0:
475,192,191985,1,0,0:0:0:0:
36,192,191985,1,0,0:0:0:0:
256,192,191985,128,0,192085:0:0:0:0:
109,192,192085,1,0,0:0:0:0:
329,192,192085,128,0,192185:0:0:0:0:
182,192,192185,1,0,0:0:0:0:
475,192,192185,1,0,0:0:0:0:
36,192,192185,1,0,0:0:0:0:
402,192,192185,128,0,192285:0:0:0:0:
329,192,192285,1,0,0:0:0:0:
256,192,192285,128,0,192385:0:0:0:0:
182,192,192385,1,0,0:0:0:0:
402,192,192385,1,0,0:0:0:0:
109,192,192385,128,0,192485:0:0:0:0:
329,192,192485,1,0,0:0:0:0:
475,192,192485,1,0,0:0:0:0:
36,192,192485,128,0,192585:0:0:0:0:
109,192,192585,1,0,0:0:0:0:
256,192,192585,1,0,0:0:0:0:
182,192,192585,1,0,0:0:0:0:
402,192,192585,128,0,192685:0:0:0:0:
182,192,192685,1,0,0:0:0:0:
109,192,192685,1,0,0:0:0:0:
329,192,192685,128,0,192785:0:0:0:0:
256,192,192785,1,0,0:0:0:0:
402,192,192785,1,0,0:0:0:0:
475,192,192785,1,0,0:0:0:0:
36,192,192785,128,0,192985:0:0:0:0:
182,192,192985,1,0,0:0:0:0:
329,192,192985,1,0,0:0:0:0:
109,192,193085,1,0,0:0:0:0:
36,192,193085,1,0,0:0:0:0:
256,192,193085,1,0,0:0:0:0:
475,192,193085,128,0,193285:0:0:0:0:
402,192,193135,1,0,0:0:0:0:
329,192,193185,1,0,0:0:0:0:
182,192,193185,1,0,0:0:0:0:
109,192,193235,1,0,0:0:0:0:
36,192,193285,1,0,0:0:0:0:
256,192,193285,1,0,0:0:0:0:
402,192,193285,1,0,0:0:0:0:
182,192,193385,1,0,0:0:0:0:
329,192,193385,1,0,0:0:0:0:
109,192,193385,128,0,193585:0:0:0:0:
256,192,193485,1,0,0:0:0:0:
402,192,193485,1,0,0:0:0:0:
182,192,193585,1,0,0:0:0:0:
329,192,193585,1,0,0:0:0:0:
36,192,193585,1,0,0:0:0:0:
475,192,193585,128,0,193685:0:0:0:0:
402,192,193685,128,0,193785:0:0:0:0:
329,192,193785,128,0,193885:0:0:0:0:
402,192,193885,128,0,193985:0:0:0:0:
182,192,193885,1,0,0:0:0:0:
109,192,193885,1,0,0:0:0:0:
36,192,193885,1,0,0:0:0:0:
329,192,193985,128,0,194085:0:0:0:0:
256,192,194085,128,0,194185:0:0:0:0:
329,192,194185,128,0,194585:0:0:0:0:
109,192,194185,1,0,0:0:0:0:
36,192,194185,1,0,0:0:0:0:
182,192,194185,1,0,0:0:0:0:
475,192,194185,1,0,0:0:0:0:
182,192,194585,1,0,0:0:0:0:
402,192,194585,1,0,0:0:0:0:
475,192,194585,1,0,0:0:0:0:
36,192,194685,1,0,0:0:0:0:
256,192,194685,1,0,0:0:0:0:
109,192,194785,1,0,0:0:0:0:
182,192,194785,1,0,0:0:0:0:
329,192,194785,1,0,0:0:0:0:
475,192,194785,1,0,0:0:0:0:
36,192,194885,1,0,0:0:0:0:
402,192,194885,1,0,0:0:0:0:
109,192,194985,1,0,0:0:0:0:
256,192,194985,1,0,0:0:0:0:
329,192,195035,1,0,0:0:0:0:
402,192,195085,1,0,0:0:0:0:
182,192,195085,1,0,0:0:0:0:
36,192,195185,1,0,0:0:0:0:
256,192,195185,1,0,0:0:0:0:
329,192,195185,1,0,0:0:0:0:
475,192,195185,1,0,0:0:0:0:
109,192,195185,128,0,195285:0:0:0:0:
182,192,195285,128,0,195385:0:0:0:0:
256,192,195385,128,0,195485:0:0:0:0:
182,192,195485,128,0,195585:0:0:0:0:
402,192,195485,1,0,0:0:0:0:
475,192,195485,1,0,0:0:0:0:
109,192,195485,1,0,0:0:0:0:
256,192,195585,128,0,195685:0:0:0:0:
329,192,195685,128,0,195785:0:0:0:0:
109,192,195785,1,0,0:0:0:0:
36,192,195785,1,0,0:0:0:0:
256,192,195785,128,0,196185:0:0:0:0:
475,192,195785,1,0,0:0:0:0:
182,192,195885,1,0,0:0:0:0:
402,192,195885,1,0,0:0:0:0:
182,192,195985,1,0,0:0:0:0:
402,192,195985,1,0,0:0:0:0:
109,192,196085,1,0,0:0:0:0:
329,192,196085,1,0,0:0:0:0:
36,192,196185,1,0,0:0:0:0:
475,192,196185,1,0,0:0:0:0:
402,192,196185,1,0,0:0:0:0:
109,192,196235,1,0,0:0:0:0:
182,192,196285,1,0,0:0:0:0:
329,192,196285,1,0,0:0:0:0:
402,192,196335,1,0,0:0:0:0:
256,192,196385,1,0,0:0:0:0:
475,192,196385,1,0,0:0:0:0:
36,192,196435,1,0,0:0:0:0:
329,192,196485,1,0,0:0:0:0:
109,192,196485,1,0,0:0:0:0:
402,192,196535,1,0,0:0:0:0:
182,192,196585,1,0,0:0:0:0:
256,192,196585,1,0,0:0:0:0:
475,192,196585,1,0,0:0:0:0:
36,192,196585,1,0,0:0:0:0:
329,192,196685,1,0,0:0:0:0:
402,192,196685,1,0,0:0:0:0:
109,192,196785,1,0,0:0:0:0:
36,192,196785,1,0,0:0:0:0:
475,192,196785,1,0,0:0:0:0:
182,192,196785,128,0,196985:0:0:0:0:
402,192,196985,128,0,197085:0:0:0:0:
329,192,196985,1,0,0:0:0:0:
109,192,197085,128,0,197285:0:0:0:0:
182,192,197085,1,0,0:0:0:0:
256,192,197085,1,0,0:0:0:0:
475,192,197085,1,0,0:0:0:0:
402,192,197135,1,0,0:0:0:0:
329,192,197185,1,0,0:0:0:0:
182,192,197235,1,0,0:0:0:0:
329,192,197285,128,0,197385:0:0:0:0:
475,192,197285,1,0,0:0:0:0:
256,192,197285,1,0,0:0:0:0:
36,192,197385,128,0,197585:0:0:0:0:
109,192,197385,1,0,0:0:0:0:
182,192,197385,1,0,0:0:0:0:
402,192,197385,1,0,0:0:0:0:
256,192,197485,1,0,0:0:0:0:
329,192,197535,1,0,0:0:0:0:
402,192,197585,1,0,0:0:0:0:
475,192,197585,1,0,0:0:0:0:
182,192,197585,1,0,0:0:0:0:
256,192,197635,1,0,0:0:0:0:
329,192,197685,1,0,0:0:0:0:
109,192,197685,1,0,0:0:0:0:
36,192,197685,1,0,0:0:0:0:
182,192,197735,1,0,0:0:0:0:
402,192,197785,1,0,0:0:0:0:
256,192,197835,1,0,0:0:0:0:
36,192,197835,1,0,0:0:0:0:
109,192,197885,1,0,0:0:0:0:
329,192,197885,1,0,0:0:0:0:
475,192,197885,1,0,0:0:0:0:
182,192,197985,1,0,0:0:0:0:
36,192,197985,1,0,0:0:0:0:
402,192,197985,1,0,0:0:0:0:
256,192,198085,1,0,0:0:0:0:
329,192,198085,1,0,0:0:0:0:
182,192,198185,1,0,0:0:0:0:
402,192,198185,1,0,0:0:0:0:
36,192,198185,1,0,0:0:0:0:
475,192,198235,1,0,0:0:0:0:
109,192,198285,1,0,0:0:0:0:
329,192,198285,1,0,0:0:0:0:
256,192,198335,1,0,0:0:0:0:
182,192,198385,1,0,0:0:0:0:
402,192,198385,1,0,0:0:0:0:
475,192,198385,1,0,0:0:0:0:
109,192,198435,1,0,0:0:0:0:
36,192,198485,1,0,0:0:0:0:
329,192,198485,1,0,0:0:0:0:
182,192,198535,1,0,0:0:0:0:
109,192,198585,1,0,0:0:0:0:
475,192,198585,1,0,0:0:0:0:
402,192,198585,1,0,0:0:0:0:
256,192,198685,1,0,0:0:0:0:
182,192,198785,1,0,0:0:0:0:
36,192,198785,1,0,0:0:0:0:
329,192,198785,1,0,0:0:0:0:
256,192,198885,1,0,0:0:0:0:
402,192,198885,1,0,0:0:0:0:
182,192,198935,1,0,0:0:0:0:
109,192,198985,1,0,0:0:0:0:
36,192,198985,1,0,0:0:0:0:
475,192,198985,1,0,0:0:0:0:
329,192,199035,1,0,0:0:0:0:
182,192,199085,1,0,0:0:0:0:
402,192,199085,1,0,0:0:0:0:
109,192,199135,1,0,0:0:0:0:
36,192,199185,1,0,0:0:0:0:
256,192,199185,1,0,0:0:0:0:
475,192,199185,1,0,0:0:0:0:
402,192,199235,1,0,0:0:0:0:
329,192,199285,1,0,0:0:0:0:
109,192,199285,1,0,0:0:0:0:
182,192,199335,1,0,0:0:0:0:
256,192,199385,1,0,0:0:0:0:
402,192,199435,1,0,0:0:0:0:
182,192,199485,1,0,0:0:0:0:
329,192,199535,1,0,0:0:0:0:
109,192,199585,1,0,0:0:0:0:
36,192,199585,1,0,0:0:0:0:
182,192,199635,1,0,0:0:0:0:
329,192,199685,1,0,0:0:0:0:
402,192,199735,1,0,0:0:0:0:
475,192,199785,1,0,0:0:0:0:
256,192,199785,1,0,0:0:0:0:
36,192,199785,1,0,0:0:0:0:
182,192,199885,1,0,0:0:0:0:
329,192,199885,1,0,0:0:0:0:
402,192,199885,1,0,0:0:0:0:
36,192,199985,128,0,200085:0:0:0:0:
109,192,199985,128,0,200085:0:0:0:0:
329,192,199985,128,0,200085:0:0:0:0:
475,192,199985,128,0,200085:0:0:0:0:
256,192,200085,128,0,200185:0:0:0:0:
402,192,200185,128,0,200285:0:0:0:0:
475,192,200185,128,0,200285:0:0:0:0:
182,192,200185,128,0,200285:0:0:0:0:
109,192,200185,128,0,200285:0:0:0:0:
256,192,200285,128,0,200385:0:0:0:0:
36,192,200285,128,0,200385:0:0:0:0:
329,192,200285,128,0,200385:0:0:0:0:
109,192,200385,128,0,200485:0:0:0:0:
329,192,200485,128,0,200585:0:0:0:0:
182,192,200485,128,0,200585:0:0:0:0:
402,192,200485,128,0,200585:0:0:0:0:
256,192,200585,128,0,200785:0:0:0:0:
36,192,200585,128,0,200785:0:0:0:0:
109,192,200585,128,0,200785:0:0:0:0:
475,192,200585,128,0,200785:0:0:0:0:
182,192,200785,1,0,0:0:0:0:
329,192,200785,1,0,0:0:0:0:
109,192,200985,1,0,0:0:0:0:
36,192,200985,1,0,0:0:0:0:
256,192,200985,1,0,0:0:0:0:
402,192,200985,1,0,0:0:0:0:
475,192,200985,1,0,0:0:0:0:
329,192,201085,1,0,0:0:0:0:
182,192,201085,1,0,0:0:0:0:
109,192,201285,1,0,0:0:0:0:
256,192,201285,1,0,0:0:0:0:
36,192,201385,1,0,0:0:0:0:
182,192,201385,1,0,0:0:0:0:
402,192,201385,1,0,0:0:0:0:
329,192,201385,1,0,0:0:0:0:
475,192,201385,1,0,0:0:0:0:
475,192,201585,128,0,201685:0:0:0:0:
402,192,201585,128,0,201685:0:0:0:0:
256,192,201585,128,0,201685:0:0:0:0:
36,192,201585,128,0,201685:0:0:0:0:
182,192,201685,128,0,201785:0:0:0:0:
109,192,201785,128,0,201885:0:0:0:0:
36,192,201785,128,0,201885:0:0:0:0:
329,192,201785,128,0,201885:0:0:0:0:
475,192,201785,128,0,201885:0:0:0:0:
256,192,201885,128,0,201985:0:0:0:0:
182,192,201885,128,0,201985:0:0:0:0:
402,192,201885,128,0,201985:0:0:0:0:
36,192,201985,128,0,202085:0:0:0:0:
182,192,202085,128,0,202185:0:0:0:0:
329,192,202085,128,0,202185:0:0:0:0:
109,192,202085,128,0,202185:0:0:0:0:
256,192,202185,128,0,202385:0:0:0:0:
475,192,202185,128,0,202385:0:0:0:0:
402,192,202185,128,0,202385:0:0:0:0:
36,192,202185,128,0,202385:0:0:0:0:
329,192,202385,1,0,0:0:0:0:
182,192,202385,1,0,0:0:0:0:
182,192,202485,1,0,0:0:0:0:
329,192,202485,1,0,0:0:0:0:
256,192,202585,1,0,0:0:0:0:
402,192,202585,1,0,0:0:0:0:
475,192,202585,1,0,0:0:0:0:
36,192,202585,1,0,0:0:0:0:
109,192,202585,1,0,0:0:0:0:
182,192,202685,1,0,0:0:0:0:
329,192,202685,1,0,0:0:0:0:
402,192,202885,1,0,0:0:0:0:
109,192,202885,1,0,0:0:0:0:
182,192,202985,1,0,0:0:0:0:
36,192,202985,1,0,0:0:0:0:
329,192,202985,1,0,0:0:0:0:
475,192,202985,1,0,0:0:0:0:
256,192,202985,1,0,0:0:0:0:
36,192,203185,128,0,203285:0:0:0:0:
109,192,203185,128,0,203285:0:0:0:0:
182,192,203185,128,0,203285:0:0:0:0:
329,192,203185,128,0,203585:0:0:0:0:
402,192,203185,128,0,203285:0:0:0:0:
475,192,203185,128,0,203285:0:0:0:0:
109,192,203385,1,0,0:0:0:0:
182,192,203385,1,0,0:0:0:0:
402,192,203385,1,0,0:0:0:0:
36,192,203485,128,0,203885:0:0:0:0:
182,192,203485,128,0,203585:0:0:0:0:
256,192,203485,128,0,203585:0:0:0:0:
402,192,203485,128,0,203585:0:0:0:0:
475,192,203485,128,0,203585:0:0:0:0:
109,192,203685,1,0,0:0:0:0:
329,192,203685,1,0,0:0:0:0:
402,192,203685,1,0,0:0:0:0:
109,192,203785,128,0,203885:0:0:0:0:
182,192,203785,128,0,203885:0:0:0:0:
329,192,203785,128,0,203885:0:0:0:0:
402,192,203785,128,0,203885:0:0:0:0:
475,192,203785,128,0,204185:0:0:0:0:
109,192,203985,1,0,0:0:0:0:
329,192,203985,1,0,0:0:0:0:
109,192,204085,1,0,0:0:0:0:
329,192,204085,1,0,0:0:0:0:
256,192,204185,1,0,0:0:0:0:
182,192,204185,1,0,0:0:0:0:
36,192,204185,1,0,0:0:0:0:
402,192,204185,1,0,0:0:0:0:
329,192,204285,1,0,0:0:0:0:
475,192,204285,1,0,0:0:0:0:
109,192,204385,1,0,0:0:0:0:
36,192,204385,1,0,0:0:0:0:
256,192,204385,1,0,0:0:0:0:
402,192,204385,1,0,0:0:0:0:
182,192,204485,1,0,0:0:0:0:
329,192,204485,1,0,0:0:0:0:
109,192,204585,1,0,0:0:0:0:
256,192,204585,1,0,0:0:0:0:
182,192,204685,1,0,0:0:0:0:
402,192,204685,1,0,0:0:0:0:
109,192,204785,1,0,0:0:0:0:
36,192,204785,1,0,0:0:0:0:
329,192,204785,1,0,0:0:0:0:
475,192,204785,1,0,0:0:0:0:
256,192,204785,128,0,205085:0:0:0:0:
182,192,204885,1,0,0:0:0:0:
402,192,204985,1,0,0:0:0:0:
329,192,205085,128,0,205385:0:0:0:0:
109,192,205085,1,0,0:0:0:0:
182,192,205185,1,0,0:0:0:0:
402,192,205185,1,0,0:0:0:0:
475,192,205185,1,0,0:0:0:0:
36,192,205185,1,0,0:0:0:0:
256,192,205285,1,0,0:0:0:0:
402,192,205385,128,0,205585:0:0:0:0:
36,192,205385,1,0,0:0:0:0:
182,192,205485,1,0,0:0:0:0:
256,192,205485,1,0,0:0:0:0:
109,192,205585,128,0,205985:0:0:0:0:
329,192,205585,1,0,0:0:0:0:
475,192,205585,1,0,0:0:0:0:
36,192,205585,1,0,0:0:0:0:
256,192,205685,1,0,0:0:0:0:
182,192,205785,1,0,0:0:0:0:
402,192,205785,1,0,0:0:0:0:
475,192,205885,1,0,0:0:0:0:
36,192,205985,128,0,206385:0:0:0:0:
256,192,205985,1,0,0:0:0:0:
329,192,205985,1,0,0:0:0:0:
402,192,205985,1,0,0:0:0:0:
182,192,206085,1,0,0:0:0:0:
109,192,206185,1,0,0:0:0:0:
402,192,206285,1,0,0:0:0:0:
256,192,206385,128,0,206685:0:0:0:0:
475,192,206385,1,0,0:0:0:0:
329,192,206385,1,0,0:0:0:0:
182,192,206385,1,0,0:0:0:0:
109,192,206385,1,0,0:0:0:0:
36,192,206485,1,0,0:0:0:0:
402,192,206585,1,0,0:0:0:0:
182,192,206685,128,0,206985:0:0:0:0:
329,192,206685,1,0,0:0:0:0:
109,192,206785,1,0,0:0:0:0:
36,192,206785,1,0,0:0:0:0:
402,192,206785,1,0,0:0:0:0:
475,192,206785,1,0,0:0:0:0:
256,192,206885,1,0,0:0:0:0:
109,192,206985,128,0,207185:0:0:0:0:
329,192,206985,1,0,0:0:0:0:
182,192,207085,1,0,0:0:0:0:
402,192,207085,1,0,0:0:0:0:
475,192,207185,128,0,207585:0:0:0:0:
256,192,207185,1,0,0:0:0:0:
329,192,207185,1,0,0:0:0:0:
36,192,207185,1,0,0:0:0:0:
182,192,207285,1,0,0:0:0:0:
109,192,207285,1,0,0:0:0:0:
402,192,207385,1,0,0:0:0:0:
329,192,207385,1,0,0:0:0:0:
182,192,207485,1,0,0:0:0:0:
402,192,207585,128,0,207985:0:0:0:0:
256,192,207585,1,0,0:0:0:0:
109,192,207585,1,0,0:0:0:0:
36,192,207585,1,0,0:0:0:0:
182,192,207685,1,0,0:0:0:0:
329,192,207685,1,0,0:0:0:0:
109,192,207735,1,0,0:0:0:0:
36,192,207785,1,0,0:0:0:0:
475,192,207785,1,0,0:0:0:0:
256,192,207885,1,0,0:0:0:0:
182,192,207935,1,0,0:0:0:0:
109,192,207985,1,0,0:0:0:0:
36,192,207985,1,0,0:0:0:0:
329,192,207985,1,0,0:0:0:0:
475,192,207985,1,0,0:0:0:0:
182,192,208085,1,0,0:0:0:0:
256,192,208085,1,0,0:0:0:0:
109,192,208135,1,0,0:0:0:0:
329,192,208135,1,0,0:0:0:0:
36,192,208185,1,0,0:0:0:0:
402,192,208185,1,0,0:0:0:0:
475,192,208185,1,0,0:0:0:0:
256,192,208285,1,0,0:0:0:0:
329,192,208285,1,0,0:0:0:0:
182,192,208335,1,0,0:0:0:0:
36,192,208335,1,0,0:0:0:0:
329,192,208385,1,0,0:0:0:0:
475,192,208385,1,0,0:0:0:0:
109,192,208485,1,0,0:0:0:0:
36,192,208485,1,0,0:0:0:0:
256,192,208485,1,0,0:0:0:0:
402,192,208485,1,0,0:0:0:0:
182,192,208585,1,0,0:0:0:0:
329,192,208585,1,0,0:0:0:0:
109,192,208685,1,0,0:0:0:0:
402,192,208685,1,0,0:0:0:0:
182,192,208735,1,0,0:0:0:0:
329,192,208735,1,0,0:0:0:0:
256,192,208785,1,0,0:0:0:0:
36,192,208785,1,0,0:0:0:0:
475,192,208785,1,0,0:0:0:0:
182,192,208885,1,0,0:0:0:0:
109,192,208885,1,0,0:0:0:0:
329,192,208935,1,0,0:0:0:0:
402,192,208935,1,0,0:0:0:0:
256,192,208985,1,0,0:0:0:0:
36,192,208985,1,0,0:0:0:0:
475,192,208985,1,0,0:0:0:0:
329,192,209185,1,0,0:0:0:0:
109,192,209185,1,0,0:0:0:0:
109,192,209285,1,0,0:0:0:0:
329,192,209285,1,0,0:0:0:0:
182,192,209385,1,0,0:0:0:0:
36,192,209385,1,0,0:0:0:0:
402,192,209385,1,0,0:0:0:0:
475,192,209385,1,0,0:0:0:0:
256,192,209485,1,0,0:0:0:0:
329,192,209485,1,0,0:0:0:0:
182,192,209585,1,0,0:0:0:0:
109,192,209585,1,0,0:0:0:0:
256,192,209635,1,0,0:0:0:0:
329,192,209685,1,0,0:0:0:0:
402,192,209685,1,0,0:0:0:0:
182,192,209735,1,0,0:0:0:0:
109,192,209785,1,0,0:0:0:0:
475,192,209785,1,0,0:0:0:0:
329,192,209835,1,0,0:0:0:0:
256,192,209885,1,0,0:0:0:0:
36,192,209885,1,0,0:0:0:0:
182,192,209935,1,0,0:0:0:0:
109,192,209985,1,0,0:0:0:0:
402,192,209985,1,0,0:0:0:0:
329,192,210035,1,0,0:0:0:0:
256,192,210085,1,0,0:0:0:0:
36,192,210085,1,0,0:0:0:0:
182,192,210135,1,0,0:0:0:0:
109,192,210185,1,0,0:0:0:0:
475,192,210185,1,0,0:0:0:0:
402,192,210235,1,0,0:0:0:0:
329,192,210285,1,0,0:0:0:0:
36,192,210285,1,0,0:0:0:0:
256,192,210335,1,0,0:0:0:0:
182,192,210385,1,0,0:0:0:0:
109,192,210385,1,0,0:0:0:0:
402,192,210385,1,0,0:0:0:0:
475,192,210385,1,0,0:0:0:0:
182,192,210785,128,0,210985:0:0:0:0:
329,192,210985,128,0,211185:0:0:0:0:
475,192,211185,128,0,211485:0:0:0:0:
36,192,211185,1,0,0:0:0:0:
109,192,211185,1,0,0:0:0:0:
256,192,211185,1,0,0:0:0:0:
256,192,211285,1,0,0:0:0:0:
109,192,211285,1,0,0:0:0:0:
329,192,211385,1,0,0:0:0:0:
402,192,211385,1,0,0:0:0:0:
182,192,211385,1,0,0:0:0:0:
256,192,211485,128,0,211785:0:0:0:0:
36,192,211485,1,0,0:0:0:0:
182,192,211585,1,0,0:0:0:0:
475,192,211585,1,0,0:0:0:0:
182,192,211685,1,0,0:0:0:0:
475,192,211685,1,0,0:0:0:0:
36,192,211785,128,0,211985:0:0:0:0:
109,192,211785,1,0,0:0:0:0:
329,192,211785,1,0,0:0:0:0:
402,192,211785,1,0,0:0:0:0:
256,192,211885,1,0,0:0:0:0:
402,192,211985,128,0,212385:0:0:0:0:
182,192,211985,1,0,0:0:0:0:
329,192,211985,1,0,0:0:0:0:
182,192,212085,1,0,0:0:0:0:
329,192,212085,1,0,0:0:0:0:
36,192,212185,1,0,0:0:0:0:
256,192,212185,1,0,0:0:0:0:
475,192,212185,1,0,0:0:0:0:
182,192,212285,1,0,0:0:0:0:
109,192,212385,128,0,212585:0:0:0:0:
475,192,212385,1,0,0:0:0:0:
329,192,212385,1,0,0:0:0:0:
329,192,212485,1,0,0:0:0:0:
475,192,212485,1,0,0:0:0:0:
256,192,212585,128,0,212785:0:0:0:0:
36,192,212585,1,0,0:0:0:0:
402,192,212585,1,0,0:0:0:0:
182,192,212585,1,0,0:0:0:0:
329,192,212685,1,0,0:0:0:0:
402,192,212785,128,0,213085:0:0:0:0:
109,192,212785,1,0,0:0:0:0:
36,192,212785,1,0,0:0:0:0:
109,192,212885,1,0,0:0:0:0:
36,192,212885,1,0,0:0:0:0:
329,192,212985,1,0,0:0:0:0:
475,192,212985,1,0,0:0:0:0:
256,192,212985,1,0,0:0:0:0:
182,192,213085,128,0,213385:0:0:0:0:
109,192,213085,1,0,0:0:0:0:
256,192,213185,1,0,0:0:0:0:
402,192,213185,1,0,0:0:0:0:
256,192,213285,1,0,0:0:0:0:
402,192,213285,1,0,0:0:0:0:
36,192,213385,128,0,213585:0:0:0:0:
475,192,213385,1,0,0:0:0:0:
109,192,213385,1,0,0:0:0:0:
329,192,213385,1,0,0:0:0:0:
182,192,213485,1,0,0:0:0:0:
256,192,213585,128,0,213985:0:0:0:0:
329,192,213585,1,0,0:0:0:0:
402,192,213585,1,0,0:0:0:0:
329,192,213685,1,0,0:0:0:0:
402,192,213685,1,0,0:0:0:0:
36,192,213785,1,0,0:0:0:0:
475,192,213785,1,0,0:0:0:0:
109,192,213785,1,0,0:0:0:0:
329,192,213885,1,0,0:0:0:0:
182,192,213935,1,0,0:0:0:0:
36,192,213985,128,0,214185:0:0:0:0:
109,192,213985,1,0,0:0:0:0:
402,192,213985,1,0,0:0:0:0:
109,192,214085,1,0,0:0:0:0:
402,192,214085,1,0,0:0:0:0:
182,192,214185,128,0,214385:0:0:0:0:
256,192,214185,1,0,0:0:0:0:
475,192,214185,1,0,0:0:0:0:
329,192,214185,1,0,0:0:0:0:
36,192,214285,1,0,0:0:0:0:
329,192,214385,128,0,214685:0:0:0:0:
109,192,214385,1,0,0:0:0:0:
256,192,214385,1,0,0:0:0:0:
109,192,214485,1,0,0:0:0:0:
256,192,214485,1,0,0:0:0:0:
402,192,214585,1,0,0:0:0:0:
182,192,214585,1,0,0:0:0:0:
475,192,214585,1,0,0:0:0:0:
256,192,214685,128,0,214985:0:0:0:0:
36,192,214685,1,0,0:0:0:0:
402,192,214785,1,0,0:0:0:0:
329,192,214785,1,0,0:0:0:0:
402,192,214885,1,0,0:0:0:0:
329,192,214885,1,0,0:0:0:0:
182,192,214985,128,0,215185:0:0:0:0:
475,192,214985,1,0,0:0:0:0:
36,192,214985,1,0,0:0:0:0:
109,192,214985,1,0,0:0:0:0:
329,192,215085,1,0,0:0:0:0:
36,192,215185,128,0,215385:0:0:0:0:
256,192,215185,1,0,0:0:0:0:
109,192,215185,1,0,0:0:0:0:
256,192,215285,1,0,0:0:0:0:
109,192,215285,1,0,0:0:0:0:
402,192,215385,128,0,215585:0:0:0:0:
329,192,215385,1,0,0:0:0:0:
475,192,215385,1,0,0:0:0:0:
182,192,215385,1,0,0:0:0:0:
36,192,215485,1,0,0:0:0:0:
109,192,215585,128,0,215785:0:0:0:0:
182,192,215585,1,0,0:0:0:0:
256,192,215585,1,0,0:0:0:0:
182,192,215685,1,0,0:0:0:0:
256,192,215685,1,0,0:0:0:0:
329,192,215785,128,0,215985:0:0:0:0:
402,192,215785,1,0,0:0:0:0:
36,192,215785,1,0,0:0:0:0:
475,192,215785,1,0,0:0:0:0:
109,192,215885,1,0,0:0:0:0:
475,192,215985,128,0,216285:0:0:0:0:
182,192,215985,1,0,0:0:0:0:
402,192,215985,1,0,0:0:0:0:
182,192,216085,1,0,0:0:0:0:
402,192,216085,1,0,0:0:0:0:
256,192,216185,1,0,0:0:0:0:
109,192,216185,1,0,0:0:0:0:
329,192,216185,1,0,0:0:0:0:
36,192,216285,128,0,216585:0:0:0:0:
182,192,216285,1,0,0:0:0:0:
109,192,216385,1,0,0:0:0:0:
402,192,216385,1,0,0:0:0:0:
109,192,216485,1,0,0:0:0:0:
402,192,216485,1,0,0:0:0:0:
475,192,216585,128,0,216785:0:0:0:0:
256,192,216585,1,0,0:0:0:0:
182,192,216585,1,0,0:0:0:0:
329,192,216585,1,0,0:0:0:0:
36,192,216685,1,0,0:0:0:0:
329,192,216785,128,0,217185:0:0:0:0:
182,192,216785,1,0,0:0:0:0:
109,192,216785,1,0,0:0:0:0:
109,192,216885,1,0,0:0:0:0:
182,192,216885,1,0,0:0:0:0:
36,192,216985,1,0,0:0:0:0:
475,192,216985,1,0,0:0:0:0:
256,192,216985,1,0,0:0:0:0:
402,192,217085,1,0,0:0:0:0:
182,192,217185,128,0,217585:0:0:0:0:
36,192,217185,1,0,0:0:0:0:
109,192,217185,1,0,0:0:0:0:
475,192,217235,1,0,0:0:0:0:
402,192,217285,1,0,0:0:0:0:
329,192,217335,1,0,0:0:0:0:
256,192,217385,1,0,0:0:0:0:
36,192,217385,1,0,0:0:0:0:
109,192,217385,1,0,0:0:0:0:
402,192,217485,1,0,0:0:0:0:
329,192,217585,128,0,217885:0:0:0:0:
36,192,217585,1,0,0:0:0:0:
109,192,217585,1,0,0:0:0:0:
475,192,217585,1,0,0:0:0:0:
109,192,217685,1,0,0:0:0:0:
36,192,217685,1,0,0:0:0:0:
256,192,217785,1,0,0:0:0:0:
402,192,217785,1,0,0:0:0:0:
475,192,217785,1,0,0:0:0:0:
109,192,217885,128,0,218185:0:0:0:0:
182,192,217885,1,0,0:0:0:0:
256,192,217985,1,0,0:0:0:0:
402,192,217985,1,0,0:0:0:0:
256,192,218085,1,0,0:0:0:0:
402,192,218085,1,0,0:0:0:0:
475,192,218185,128,0,218385:0:0:0:0:
182,192,218185,1,0,0:0:0:0:
329,192,218185,1,0,0:0:0:0:
36,192,218185,1,0,0:0:0:0:
256,192,218285,1,0,0:0:0:0:
182,192,218385,128,0,218785:0:0:0:0:
109,192,218385,1,0,0:0:0:0:
329,192,218385,1,0,0:0:0:0:
109,192,218485,1,0,0:0:0:0:
329,192,218485,1,0,0:0:0:0:
475,192,218585,1,0,0:0:0:0:
36,192,218585,1,0,0:0:0:0:
402,192,218585,1,0,0:0:0:0:
256,192,218685,1,0,0:0:0:0:
36,192,218785,128,0,218985:0:0:0:0:
329,192,218785,1,0,0:0:0:0:
402,192,218785,1,0,0:0:0:0:
329,192,218885,1,0,0:0:0:0:
402,192,218885,1,0,0:0:0:0:
256,192,218985,128,0,219185:0:0:0:0:
109,192,218985,1,0,0:0:0:0:
475,192,218985,1,0,0:0:0:0:
182,192,218985,1,0,0:0:0:0:
329,192,219085,1,0,0:0:0:0:
475,192,219185,128,0,219485:0:0:0:0:
182,192,219185,1,0,0:0:0:0:
36,192,219185,1,0,0:0:0:0:
182,192,219285,1,0,0:0:0:0:
36,192,219285,1,0,0:0:0:0:
329,192,219385,1,0,0:0:0:0:
402,192,219385,1,0,0:0:0:0:
256,192,219385,1,0,0:0:0:0:
109,192,219485,128,0,219785:0:0:0:0:
36,192,219485,1,0,0:0:0:0:
182,192,219585,1,0,0:0:0:0:
329,192,219585,1,0,0:0:0:0:
329,192,219685,1,0,0:0:0:0:
182,192,219685,1,0,0:0:0:0:
402,192,219785,128,0,219985:0:0:0:0:
256,192,219785,1,0,0:0:0:0:
36,192,219785,1,0,0:0:0:0:
475,192,219785,1,0,0:0:0:0:
109,192,219885,1,0,0:0:0:0:
256,192,219985,1,0,0:0:0:0:
36,192,219985,128,0,220285:0:0:0:0:
182,192,219985,1,0,0:0:0:0:
182,192,220085,1,0,0:0:0:0:
256,192,220085,1,0,0:0:0:0:
402,192,220185,1,0,0:0:0:0:
475,192,220185,1,0,0:0:0:0:
109,192,220185,1,0,0:0:0:0:
182,192,220285,128,0,220585:0:0:0:0:
329,192,220285,1,0,0:0:0:0:
256,192,220335,1,0,0:0:0:0:
109,192,220385,1,0,0:0:0:0:
402,192,220385,1,0,0:0:0:0:
402,192,220485,1,0,0:0:0:0:
109,192,220485,1,0,0:0:0:0:
36,192,220585,1,0,0:0:0:0:
475,192,220585,1,0,0:0:0:0:
329,192,220585,128,0,220785:0:0:0:0:
256,192,220585,1,0,0:0:0:0:
182,192,220685,1,0,0:0:0:0:
109,192,220685,1,0,0:0:0:0:
402,192,220785,1,0,0:0:0:0:
475,192,220785,128,0,221085:0:0:0:0:
36,192,220785,1,0,0:0:0:0:
256,192,220785,1,0,0:0:0:0:
256,192,220885,1,0,0:0:0:0:
402,192,220885,1,0,0:0:0:0:
109,192,220985,1,0,0:0:0:0:
329,192,220985,1,0,0:0:0:0:
36,192,220985,1,0,0:0:0:0:
256,192,221085,128,0,221385:0:0:0:0:
182,192,221085,1,0,0:0:0:0:
402,192,221185,1,0,0:0:0:0:
475,192,221185,1,0,0:0:0:0:
402,192,221285,1,0,0:0:0:0:
475,192,221285,1,0,0:0:0:0:
36,192,221385,128,0,221585:0:0:0:0:
182,192,221385,1,0,0:0:0:0:
109,192,221385,1,0,0:0:0:0:
329,192,221385,1,0,0:0:0:0:
256,192,221485,1,0,0:0:0:0:
402,192,221485,1,0,0:0:0:0:
182,192,221585,1,0,0:0:0:0:
475,192,221585,1,0,0:0:0:0:
329,192,221585,128,0,221885:0:0:0:0:
109,192,221585,1,0,0:0:0:0:
36,192,221685,1,0,0:0:0:0:
256,192,221785,1,0,0:0:0:0:
402,192,221785,1,0,0:0:0:0:
109,192,221885,128,0,222185:0:0:0:0:
182,192,221885,1,0,0:0:0:0:
36,192,221885,1,0,0:0:0:0:
475,192,221885,1,0,0:0:0:0:
402,192,221985,1,0,0:0:0:0:
329,192,222035,1,0,0:0:0:0:
256,192,222085,1,0,0:0:0:0:
36,192,222085,1,0,0:0:0:0:
402,192,222185,128,0,222385:0:0:0:0:
182,192,222185,1,0,0:0:0:0:
329,192,222185,1,0,0:0:0:0:
109,192,222285,1,0,0:0:0:0:
256,192,222285,1,0,0:0:0:0:
182,192,222385,1,0,0:0:0:0:
475,192,222385,1,0,0:0:0:0:
36,192,222385,1,0,0:0:0:0:
329,192,222385,1,0,0:0:0:0:
109,192,222485,1,0,0:0:0:0:
256,192,222485,1,0,0:0:0:0:
402,192,222535,1,0,0:0:0:0:
182,192,222585,1,0,0:0:0:0:
329,192,222585,1,0,0:0:0:0:
475,192,222585,1,0,0:0:0:0:
36,192,222635,1,0,0:0:0:0:
256,192,222685,1,0,0:0:0:0:
402,192,222685,1,0,0:0:0:0:
109,192,222735,1,0,0:0:0:0:
329,192,222785,1,0,0:0:0:0:
475,192,222785,1,0,0:0:0:0:
36,192,222785,1,0,0:0:0:0:
182,192,222835,1,0,0:0:0:0:
256,192,222885,1,0,0:0:0:0:
329,192,222935,1,0,0:0:0:0:
402,192,222985,1,0,0:0:0:0:
475,192,222985,1,0,0:0:0:0:
109,192,222985,1,0,0:0:0:0:
256,192,223035,1,0,0:0:0:0:
182,192,223085,1,0,0:0:0:0:
109,192,223135,1,0,0:0:0:0:
36,192,223185,1,0,0:0:0:0:
256,192,223185,1,0,0:0:0:0:
329,192,223185,1,0,0:0:0:0:
475,192,223185,1,0,0:0:0:0:
182,192,223235,1,0,0:0:0:0:
109,192,223285,1,0,0:0:0:0:
402,192,223285,1,0,0:0:0:0:
329,192,223335,1,0,0:0:0:0:
36,192,223385,1,0,0:0:0:0:
182,192,223385,1,0,0:0:0:0:
256,192,223435,1,0,0:0:0:0:
329,192,223485,1,0,0:0:0:0:
475,192,223485,1,0,0:0:0:0:
109,192,223535,1,0,0:0:0:0:
182,192,223585,1,0,0:0:0:0:
402,192,223585,1,0,0:0:0:0:
329,192,223635,1,0,0:0:0:0:
109,192,223685,1,0,0:0:0:0:
36,192,223685,1,0,0:0:0:0:
182,192,223735,1,0,0:0:0:0:
402,192,223785,1,0,0:0:0:0:
475,192,223785,1,0,0:0:0:0:
256,192,223785,1,0,0:0:0:0:
182,192,223985,128,0,224685:0:0:0:0:
36,192,223985,128,0,224685:0:0:0:0:
329,192,223985,128,0,224685:0:0:0:0:
475,192,223985,128,0,224685:0:0:0:0:
109,192,224685,1,0,0:0:0:0:
402,192,224685,1,0,0:0:0:0:
256,192,224735,1,0,0:0:0:0:
329,192,224785,1,0,0:0:0:0:
182,192,224785,1,0,0:0:0:0:
256,192,224885,1,0,0:0:0:0:
329,192,224985,1,0,0:0:0:0:
402,192,224985,1,0,0:0:0:0:
256,192,225035,1,0,0:0:0:0:
182,192,225085,1,0,0:0:0:0:
109,192,225085,1,0,0:0:0:0:
329,192,225185,1,0,0:0:0:0:
109,192,225285,1,0,0:0:0:0:
256,192,225285,1,0,0:0:0:0:
402,192,225285,1,0,0:0:0:0:
182,192,225385,1,0,0:0:0:0:
329,192,225385,1,0,0:0:0:0:
36,192,225385,1,0,0:0:0:0:
256,192,225485,1,0,0:0:0:0:
402,192,225485,1,0,0:0:0:0:
182,192,225585,1,0,0:0:0:0:
329,192,225585,1,0,0:0:0:0:
475,192,225585,1,0,0:0:0:0:
109,192,225585,1,0,0:0:0:0:
256,192,225685,1,0,0:0:0:0:
402,192,225685,1,0,0:0:0:0:
36,192,225685,1,0,0:0:0:0:
182,192,225735,1,0,0:0:0:0:
109,192,225785,1,0,0:0:0:0:
329,192,225785,1,0,0:0:0:0:
36,192,225885,1,0,0:0:0:0:
182,192,225885,1,0,0:0:0:0:
402,192,225885,1,0,0:0:0:0:
256,192,225935,1,0,0:0:0:0:
329,192,225985,1,0,0:0:0:0:
475,192,225985,1,0,0:0:0:0:
109,192,226085,1,0,0:0:0:0:
182,192,226085,1,0,0:0:0:0:
402,192,226085,1,0,0:0:0:0:
329,192,226135,1,0,0:0:0:0:
256,192,226185,1,0,0:0:0:0:
36,192,226185,1,0,0:0:0:0:
182,192,226285,1,0,0:0:0:0:
109,192,226285,1,0,0:0:0:0:
329,192,226285,1,0,0:0:0:0:
402,192,226335,1,0,0:0:0:0:
256,192,226385,1,0,0:0:0:0:
475,192,226385,1,0,0:0:0:0:
36,192,226435,1,0,0:0:0:0:
329,192,226485,1,0,0:0:0:0:
402,192,226485,1,0,0:0:0:0:
109,192,226485,1,0,0:0:0:0:
475,192,226535,1,0,0:0:0:0:
182,192,226585,1,0,0:0:0:0:
36,192,226585,1,0,0:0:0:0:
329,192,226635,1,0,0:0:0:0:
256,192,226685,1,0,0:0:0:0:
475,192,226685,1,0,0:0:0:0:
109,192,226685,1,0,0:0:0:0:
182,192,226735,1,0,0:0:0:0:
36,192,226785,1,0,0:0:0:0:
402,192,226785,1,0,0:0:0:0:
109,192,226885,1,0,0:0:0:0:
182,192,226885,1,0,0:0:0:0:
475,192,226885,1,0,0:0:0:0:
256,192,226935,1,0,0:0:0:0:
329,192,226985,1,0,0:0:0:0:
36,192,226985,1,0,0:0:0:0:
182,192,227035,1,0,0:0:0:0:
402,192,227085,1,0,0:0:0:0:
475,192,227085,1,0,0:0:0:0:
109,192,227085,1,0,0:0:0:0:
256,192,227135,1,0,0:0:0:0:
182,192,227185,1,0,0:0:0:0:
329,192,227185,1,0,0:0:0:0:
109,192,227235,1,0,0:0:0:0:
36,192,227285,1,0,0:0:0:0:
256,192,227285,1,0,0:0:0:0:
402,192,227285,1,0,0:0:0:0:
182,192,227385,1,0,0:0:0:0:
475,192,227385,1,0,0:0:0:0:
329,192,227435,1,0,0:0:0:0:
402,192,227485,1,0,0:0:0:0:
109,192,227485,1,0,0:0:0:0:
36,192,227485,1,0,0:0:0:0:
182,192,227535,1,0,0:0:0:0:
256,192,227585,1,0,0:0:0:0:
475,192,227585,1,0,0:0:0:0:
182,192,227685,1,0,0:0:0:0:
36,192,227685,1,0,0:0:0:0:
402,192,227685,1,0,0:0:0:0:
329,192,227735,1,0,0:0:0:0:
256,192,227785,1,0,0:0:0:0:
109,192,227785,1,0,0:0:0:0:
182,192,227885,1,0,0:0:0:0:
329,192,227885,1,0,0:0:0:0:
36,192,227885,1,0,0:0:0:0:
402,192,227935,1,0,0:0:0:0:
475,192,227985,1,0,0:0:0:0:
256,192,227985,1,0,0:0:0:0:
182,192,228035,1,0,0:0:0:0:
109,192,228085,1,0,0:0:0:0:
329,192,228085,1,0,0:0:0:0:
402,192,228085,1,0,0:0:0:0:
256,192,228135,1,0,0:0:0:0:
36,192,228185,1,0,0:0:0:0:
475,192,228185,1,0,0:0:0:0:
109,192,228235,1,0,0:0:0:0:
182,192,228235,1,0,0:0:0:0:
402,192,228285,1,0,0:0:0:0:
329,192,228285,1,0,0:0:0:0:
256,192,228285,1,0,0:0:0:0:
36,192,228335,1,0,0:0:0:0:
109,192,228335,1,0,0:0:0:0:
182,192,228385,1,0,0:0:0:0:
475,192,228385,1,0,0:0:0:0:
329,192,228435,1,0,0:0:0:0:
256,192,228435,1,0,0:0:0:0:
109,192,228485,1,0,0:0:0:0:
36,192,228485,1,0,0:0:0:0:
402,192,228485,1,0,0:0:0:0:
182,192,228535,1,0,0:0:0:0:
256,192,228585,1,0,0:0:0:0:
475,192,228585,1,0,0:0:0:0:
402,192,228635,1,0,0:0:0:0:
329,192,228685,1,0,0:0:0:0:
109,192,228685,1,0,0:0:0:0:
36,192,228685,1,0,0:0:0:0:
182,192,228735,1,0,0:0:0:0:
256,192,228785,1,0,0:0:0:0:
475,192,228785,1,0,0:0:0:0:
109,192,228885,1,0,0:0:0:0:
36,192,228885,1,0,0:0:0:0:
329,192,228885,1,0,0:0:0:0:
256,192,228985,1,0,0:0:0:0:
475,192,228985,1,0,0:0:0:0:
182,192,229085,1,0,0:0:0:0:
329,192,229085,1,0,0:0:0:0:
402,192,229085,1,0,0:0:0:0:
109,192,229185,1,0,0:0:0:0:
256,192,229185,1,0,0:0:0:0:
182,192,229285,1,0,0:0:0:0:
329,192,229285,1,0,0:0:0:0:
475,192,229285,1,0,0:0:0:0:
256,192,229385,1,0,0:0:0:0:
402,192,229385,1,0,0:0:0:0:
329,192,229485,1,0,0:0:0:0:
109,192,229485,1,0,0:0:0:0:
36,192,229485,1,0,0:0:0:0:
182,192,229585,1,0,0:0:0:0:
256,192,229585,1,0,0:0:0:0:
109,192,229685,1,0,0:0:0:0:
402,192,229685,1,0,0:0:0:0:
475,192,229685,1,0,0:0:0:0:
256,192,229785,1,0,0:0:0:0:
329,192,229785,1,0,0:0:0:0:
182,192,229835,1,0,0:0:0:0:
475,192,229835,1,0,0:0:0:0:
109,192,229885,1,0,0:0:0:0:
36,192,229885,1,0,0:0:0:0:
402,192,229885,1,0,0:0:0:0:
182,192,229985,1,0,0:0:0:0:
329,192,229985,1,0,0:0:0:0:
109,192,230085,1,0,0:0:0:0:
256,192,230085,1,0,0:0:0:0:
402,192,230085,1,0,0:0:0:0:
182,192,230185,1,0,0:0:0:0:
36,192,230185,1,0,0:0:0:0:
256,192,230235,1,0,0:0:0:0:
109,192,230285,1,0,0:0:0:0:
329,192,230285,1,0,0:0:0:0:
402,192,230285,1,0,0:0:0:0:
475,192,230335,1,0,0:0:0:0:
182,192,230385,1,0,0:0:0:0:
256,192,230385,1,0,0:0:0:0:
329,192,230435,1,0,0:0:0:0:
402,192,230485,1,0,0:0:0:0:
109,192,230485,1,0,0:0:0:0:
36,192,230485,1,0,0:0:0:0:
256,192,230585,1,0,0:0:0:0:
475,192,230585,1,0,0:0:0:0:
182,192,230635,1,0,0:0:0:0:
109,192,230685,1,0,0:0:0:0:
36,192,230685,1,0,0:0:0:0:
329,192,230685,1,0,0:0:0:0:
256,192,230785,1,0,0:0:0:0:
402,192,230785,1,0,0:0:0:0:
36,192,230835,1,0,0:0:0:0:
182,192,230885,1,0,0:0:0:0:
109,192,230885,1,0,0:0:0:0:
475,192,230885,1,0,0:0:0:0:
329,192,230935,1,0,0:0:0:0:
402,192,230985,1,0,0:0:0:0:
36,192,230985,1,0,0:0:0:0:
256,192,231035,1,0,0:0:0:0:
182,192,231085,1,0,0:0:0:0:
109,192,231085,1,0,0:0:0:0:
475,192,231085,1,0,0:0:0:0:
329,192,231135,1,0,0:0:0:0:
36,192,231185,1,0,0:0:0:0:
256,192,231185,1,0,0:0:0:0:
182,192,231235,1,0,0:0:0:0:
475,192,231235,1,0,0:0:0:0:
109,192,231285,1,0,0:0:0:0:
329,192,231285,1,0,0:0:0:0:
402,192,231285,1,0,0:0:0:0:
256,192,231335,1,0,0:0:0:0:
182,192,231385,1,0,0:0:0:0:
36,192,231385,1,0,0:0:0:0:
329,192,231435,1,0,0:0:0:0:
402,192,231485,1,0,0:0:0:0:
475,192,231485,1,0,0:0:0:0:
109,192,231485,1,0,0:0:0:0:
182,192,231535,1,0,0:0:0:0:
256,192,231585,1,0,0:0:0:0:
329,192,231585,1,0,0:0:0:0:
36,192,231635,1,0,0:0:0:0:
109,192,231635,1,0,0:0:0:0:
182,192,231685,1,0,0:0:0:0:
402,192,231685,1,0,0:0:0:0:
475,192,231685,1,0,0:0:0:0:
256,192,231735,1,0,0:0:0:0:
329,192,231785,1,0,0:0:0:0:
36,192,231785,1,0,0:0:0:0:
182,192,231835,1,0,0:0:0:0:
109,192,231885,1,0,0:0:0:0:
256,192,231885,1,0,0:0:0:0:
475,192,231885,1,0,0:0:0:0:
402,192,231935,1,0,0:0:0:0:
329,192,231985,1,0,0:0:0:0:
182,192,231985,1,0,0:0:0:0:
36,192,231985,1,0,0:0:0:0:
256,192,232035,1,0,0:0:0:0:
109,192,232085,1,0,0:0:0:0:
475,192,232085,1,0,0:0:0:0:
402,192,232085,1,0,0:0:0:0:
182,192,232135,1,0,0:0:0:0:
329,192,232185,1,0,0:0:0:0:
36,192,232185,1,0,0:0:0:0:
256,192,232235,1,0,0:0:0:0:
182,192,232285,1,0,0:0:0:0:
109,192,232285,1,0,0:0:0:0:
475,192,232285,1,0,0:0:0:0:
329,192,232335,1,0,0:0:0:0:
402,192,232385,1,0,0:0:0:0:
36,192,232385,1,0,0:0:0:0:
182,192,232435,1,0,0:0:0:0:
329,192,232485,1,0,0:0:0:0:
475,192,232485,1,0,0:0:0:0:
256,192,232485,1,0,0:0:0:0:
109,192,232535,1,0,0:0:0:0:
36,192,232585,1,0,0:0:0:0:
402,192,232585,1,0,0:0:0:0:
256,192,232635,1,0,0:0:0:0:
109,192,232685,1,0,0:0:0:0:
182,192,232685,1,0,0:0:0:0:
475,192,232685,1,0,0:0:0:0:
329,192,232735,1,0,0:0:0:0:
402,192,232785,1,0,0:0:0:0:
36,192,232785,1,0,0:0:0:0:
182,192,232835,1,0,0:0:0:0:
109,192,232885,1,0,0:0:0:0:
329,192,232885,1,0,0:0:0:0:
475,192,232885,1,0,0:0:0:0:
256,192,232935,1,0,0:0:0:0:
182,192,232985,1,0,0:0:0:0:
36,192,232985,1,0,0:0:0:0:
475,192,233035,1,0,0:0:0:0:
402,192,233035,1,0,0:0:0:0:
109,192,233085,1,0,0:0:0:0:
36,192,233085,1,0,0:0:0:0:
329,192,233085,1,0,0:0:0:0:
256,192,233135,1,0,0:0:0:0:
182,192,233185,1,0,0:0:0:0:
475,192,233185,1,0,0:0:0:0:
36,192,233235,1,0,0:0:0:0:
109,192,233285,1,0,0:0:0:0:
329,192,233285,1,0,0:0:0:0:
256,192,233285,1,0,0:0:0:0:
402,192,233335,1,0,0:0:0:0:
475,192,233385,1,0,0:0:0:0:
182,192,233385,1,0,0:0:0:0:
256,192,233435,1,0,0:0:0:0:
329,192,233485,1,0,0:0:0:0:
109,192,233485,1,0,0:0:0:0:
36,192,233485,1,0,0:0:0:0:
402,192,233535,1,0,0:0:0:0:
182,192,233585,1,0,0:0:0:0:
475,192,233585,1,0,0:0:0:0:
329,192,233635,1,0,0:0:0:0:
256,192,233685,1,0,0:0:0:0:
36,192,233685,1,0,0:0:0:0:
109,192,233685,1,0,0:0:0:0:
182,192,233735,1,0,0:0:0:0:
402,192,233785,1,0,0:0:0:0:
475,192,233785,1,0,0:0:0:0:
329,192,233835,1,0,0:0:0:0:
109,192,233885,1,0,0:0:0:0:
36,192,233885,1,0,0:0:0:0:
182,192,233885,1,0,0:0:0:0:
256,192,233935,1,0,0:0:0:0:
329,192,233985,1,0,0:0:0:0:
475,192,233985,1,0,0:0:0:0:
182,192,234035,1,0,0:0:0:0:
109,192,234085,1,0,0:0:0:0:
36,192,234085,1,0,0:0:0:0:
402,192,234085,1,0,0:0:0:0:
329,192,234135,1,0,0:0:0:0:
256,192,234185,1,0,0:0:0:0:
182,192,234185,1,0,0:0:0:0:
36,192,234235,1,0,0:0:0:0:
109,192,234285,1,0,0:0:0:0:
402,192,234285,1,0,0:0:0:0:
475,192,234285,1,0,0:0:0:0:
182,192,234335,1,0,0:0:0:0:
329,192,234385,1,0,0:0:0:0:
36,192,234385,1,0,0:0:0:0:
182,192,234485,1,0,0:0:0:0:
109,192,234485,1,0,0:0:0:0:
475,192,234485,1,0,0:0:0:0:
402,192,234535,1,0,0:0:0:0:
256,192,234585,1,0,0:0:0:0:
36,192,234585,1,0,0:0:0:0:
109,192,234635,1,0,0:0:0:0:
182,192,234635,1,0,0:0:0:0:
329,192,234685,1,0,0:0:0:0:
402,192,234685,1,0,0:0:0:0:
475,192,234685,1,0,0:0:0:0:
36,192,234735,1,0,0:0:0:0:
109,192,234735,1,0,0:0:0:0:
256,192,234785,1,0,0:0:0:0:
182,192,234785,1,0,0:0:0:0:
329,192,234835,1,0,0:0:0:0:
402,192,234835,1,0,0:0:0:0:
109,192,234885,1,0,0:0:0:0:
36,192,234885,1,0,0:0:0:0:
475,192,234885,1,0,0:0:0:0:
182,192,234935,1,0,0:0:0:0:
402,192,234985,1,0,0:0:0:0:
329,192,234985,1,0,0:0:0:0:
256,192,235035,1,0,0:0:0:0:
182,192,235085,1,0,0:0:0:0:
402,192,235085,1,0,0:0:0:0:
475,192,235085,1,0,0:0:0:0:
109,192,235135,1,0,0:0:0:0:
36,192,235185,1,0,0:0:0:0:
329,192,235185,1,0,0:0:0:0:
109,192,235285,1,0,0:0:0:0:
256,192,235285,1,0,0:0:0:0:
475,192,235285,1,0,0:0:0:0:
182,192,235385,1,0,0:0:0:0:
329,192,235385,1,0,0:0:0:0:
109,192,235485,1,0,0:0:0:0:
36,192,235485,1,0,0:0:0:0:
475,192,235485,1,0,0:0:0:0:
256,192,235585,1,0,0:0:0:0:
402,192,235585,1,0,0:0:0:0:
109,192,235685,1,0,0:0:0:0:
182,192,235685,1,0,0:0:0:0:
329,192,235685,1,0,0:0:0:0:
36,192,235785,1,0,0:0:0:0:
475,192,235785,1,0,0:0:0:0:
182,192,235885,1,0,0:0:0:0:
256,192,235885,1,0,0:0:0:0:
329,192,235885,1,0,0:0:0:0:
109,192,235985,1,0,0:0:0:0:
402,192,235985,1,0,0:0:0:0:
256,192,236085,1,0,0:0:0:0:
329,192,236085,1,0,0:0:0:0:
475,192,236085,1,0,0:0:0:0:
182,192,236185,1,0,0:0:0:0:
36,192,236185,1,0,0:0:0:0:
402,192,236235,1,0,0:0:0:0:
475,192,236235,1,0,0:0:0:0:
109,192,236285,1,0,0:0:0:0:
329,192,236285,1,0,0:0:0:0:
256,192,236285,1,0,0:0:0:0:
182,192,236385,1,0,0:0:0:0:
402,192,236385,1,0,0:0:0:0:
109,192,236485,1,0,0:0:0:0:
36,192,236485,1,0,0:0:0:0:
475,192,236485,1,0,0:0:0:0:
256,192,236585,1,0,0:0:0:0:
329,192,236585,1,0,0:0:0:0:
109,192,236685,1,0,0:0:0:0:
402,192,236685,1,0,0:0:0:0:
475,192,236685,1,0,0:0:0:0:
256,192,236735,1,0,0:0:0:0:
36,192,236785,1,0,0:0:0:0:
329,192,236785,1,0,0:0:0:0:
109,192,236835,1,0,0:0:0:0:
182,192,236885,1,0,0:0:0:0:
475,192,236885,1,0,0:0:0:0:
256,192,236885,1,0,0:0:0:0:
329,192,236935,1,0,0:0:0:0:
402,192,236985,1,0,0:0:0:0:
109,192,236985,1,0,0:0:0:0:
182,192,237035,1,0,0:0:0:0:
256,192,237085,1,0,0:0:0:0:
475,192,237085,1,0,0:0:0:0:
329,192,237085,1,0,0:0:0:0:
109,192,237135,1,0,0:0:0:0:
36,192,237185,1,0,0:0:0:0:
402,192,237185,1,0,0:0:0:0:
256,192,237235,1,0,0:0:0:0:
182,192,237285,1,0,0:0:0:0:
329,192,237285,1,0,0:0:0:0:
475,192,237285,1,0,0:0:0:0:
36,192,237335,1,0,0:0:0:0:
109,192,237385,1,0,0:0:0:0:
256,192,237385,1,0,0:0:0:0:
329,192,237435,1,0,0:0:0:0:
182,192,237485,1,0,0:0:0:0:
402,192,237485,1,0,0:0:0:0:
475,192,237485,1,0,0:0:0:0:
109,192,237535,1,0,0:0:0:0:
36,192,237585,1,0,0:0:0:0:
329,192,237585,1,0,0:0:0:0:
256,192,237635,1,0,0:0:0:0:
182,192,237685,1,0,0:0:0:0:
475,192,237685,1,0,0:0:0:0:
402,192,237685,1,0,0:0:0:0:
36,192,237735,1,0,0:0:0:0:
109,192,237785,1,0,0:0:0:0:
329,192,237785,1,0,0:0:0:0:
402,192,237835,1,0,0:0:0:0:
475,192,237885,1,0,0:0:0:0:
182,192,237885,1,0,0:0:0:0:
36,192,237885,1,0,0:0:0:0:
256,192,237935,1,0,0:0:0:0:
329,192,237985,1,0,0:0:0:0:
402,192,237985,1,0,0:0:0:0:
182,192,238035,1,0,0:0:0:0:
109,192,238085,1,0,0:0:0:0:
256,192,238085,1,0,0:0:0:0:
475,192,238085,1,0,0:0:0:0:
402,192,238135,1,0,0:0:0:0:
329,192,238185,1,0,0:0:0:0:
36,192,238185,1,0,0:0:0:0:
109,192,238235,1,0,0:0:0:0:
256,192,238285,1,0,0:0:0:0:
329,192,238335,1,0,0:0:0:0:
402,192,238385,1,0,0:0:0:0:
475,192,238385,1,0,0:0:0:0:
109,192,238385,1,0,0:0:0:0:
36,192,238385,1,0,0:0:0:0:
182,192,238385,128,0,238685:0:0:0:0:
402,192,238485,1,0,0:0:0:0:
475,192,238485,1,0,0:0:0:0:
475,192,238685,128,0,238985:0:0:0:0:
109,192,238685,1,0,0:0:0:0:
36,192,238685,1,0,0:0:0:0:
329,192,238685,1,0,0:0:0:0:
256,192,238885,1,0,0:0:0:0:
329,192,238935,1,0,0:0:0:0:
109,192,238985,128,0,239285:0:0:0:0:
182,192,238985,1,0,0:0:0:0:
402,192,238985,1,0,0:0:0:0:
36,192,238985,1,0,0:0:0:0:
256,192,239185,1,0,0:0:0:0:
402,192,239185,1,0,0:0:0:0:
182,192,239285,128,0,239585:0:0:0:0:
329,192,239285,1,0,0:0:0:0:
475,192,239285,1,0,0:0:0:0:
36,192,239285,1,0,0:0:0:0:
256,192,239485,1,0,0:0:0:0:
402,192,239485,1,0,0:0:0:0:
329,192,239585,1,0,0:0:0:0:
109,192,239585,1,0,0:0:0:0:
36,192,239585,1,0,0:0:0:0:
109,192,239785,1,0,0:0:0:0:
182,192,239785,1,0,0:0:0:0:
475,192,239785,1,0,0:0:0:0:
402,192,239785,1,0,0:0:0:0:
109,192,239985,1,0,0:0:0:0:
182,192,239985,1,0,0:0:0:0:
402,192,239985,1,0,0:0:0:0:
475,192,239985,1,0,0:0:0:0:
109,192,240185,1,0,0:0:0:0:
182,192,240185,1,0,0:0:0:0:
402,192,240185,1,0,0:0:0:0:
475,192,240185,1,0,0:0:0:0:
329,192,240235,1,0,0:0:0:0:
256,192,240285,1,0,0:0:0:0:
36,192,240285,128,0,240685:0:0:0:0:
475,192,240285,128,0,240685:0:0:0:0:
109,192,240685,1,0,0:0:0:0:
182,192,240685,1,0,0:0:0:0:
402,192,240685,1,0,0:0:0:0:
329,192,240685,1,0,0:0:0:0:
182,192,240785,1,0,0:0:0:0:
109,192,240785,1,0,0:0:0:0:
329,192,240785,1,0,0:0:0:0:
402,192,240785,1,0,0:0:0:0:
36,192,240985,1,0,0:0:0:0:
256,192,240985,1,0,0:0:0:0:
402,192,240985,1,0,0:0:0:0:
475,192,240985,1,0,0:0:0:0:
402,192,241085,1,0,0:0:0:0:
475,192,241085,1,0,0:0:0:0:
182,192,241135,1,0,0:0:0:0:
109,192,241185,1,0,0:0:0:0:
36,192,241185,1,0,0:0:0:0:
256,192,241235,1,0,0:0:0:0:
329,192,241235,1,0,0:0:0:0:
182,192,241285,1,0,0:0:0:0:
402,192,241285,1,0,0:0:0:0:
475,192,241285,1,0,0:0:0:0:
109,192,241385,1,0,0:0:0:0:
256,192,241385,1,0,0:0:0:0:
329,192,241435,1,0,0:0:0:0:
182,192,241485,1,0,0:0:0:0:
402,192,241485,1,0,0:0:0:0:
36,192,241485,1,0,0:0:0:0:
256,192,241585,1,0,0:0:0:0:
475,192,241585,1,0,0:0:0:0:
182,192,241635,1,0,0:0:0:0:
109,192,241685,1,0,0:0:0:0:
402,192,241685,1,0,0:0:0:0:
329,192,241735,1,0,0:0:0:0:
256,192,241785,1,0,0:0:0:0:
36,192,241785,1,0,0:0:0:0:
109,192,241835,1,0,0:0:0:0:
182,192,241885,1,0,0:0:0:0:
329,192,241885,1,0,0:0:0:0:
402,192,241935,1,0,0:0:0:0:
475,192,241985,1,0,0:0:0:0:
36,192,241985,1,0,0:0:0:0:
109,192,242035,1,0,0:0:0:0:
182,192,242085,1,0,0:0:0:0:
402,192,242085,1,0,0:0:0:0:
329,192,242135,1,0,0:0:0:0:
256,192,242185,1,0,0:0:0:0:
182,192,242185,1,0,0:0:0:0:
109,192,242235,1,0,0:0:0:0:
36,192,242285,1,0,0:0:0:0:
329,192,242285,1,0,0:0:0:0:
475,192,242285,1,0,0:0:0:0:
402,192,242285,1,0,0:0:0:0:
36,192,242485,1,0,0:0:0:0:
182,192,242485,1,0,0:0:0:0:
329,192,242485,1,0,0:0:0:0:
402,192,242485,1,0,0:0:0:0:
109,192,242585,1,0,0:0:0:0:
256,192,242585,1,0,0:0:0:0:
475,192,242585,1,0,0:0:0:0:
36,192,242635,1,0,0:0:0:0:
182,192,242685,1,0,0:0:0:0:
329,192,242685,1,0,0:0:0:0:
402,192,242735,1,0,0:0:0:0:
475,192,242785,1,0,0:0:0:0:
256,192,242785,1,0,0:0:0:0:
36,192,242785,1,0,0:0:0:0:
109,192,242835,1,0,0:0:0:0:
182,192,242885,1,0,0:0:0:0:
329,192,242885,1,0,0:0:0:0:
402,192,242935,1,0,0:0:0:0:
475,192,242985,1,0,0:0:0:0:
256,192,242985,1,0,0:0:0:0:
36,192,242985,1,0,0:0:0:0:
182,192,243035,1,0,0:0:0:0:
109,192,243085,1,0,0:0:0:0:
402,192,243085,1,0,0:0:0:0:
329,192,243135,1,0,0:0:0:0:
256,192,243185,1,0,0:0:0:0:
36,192,243185,1,0,0:0:0:0:
475,192,243185,1,0,0:0:0:0:
109,192,243235,1,0,0:0:0:0:
182,192,243285,1,0,0:0:0:0:
402,192,243285,1,0,0:0:0:0:
329,192,243335,1,0,0:0:0:0:
256,192,243385,1,0,0:0:0:0:
109,192,243385,1,0,0:0:0:0:
36,192,243385,1,0,0:0:0:0:
475,192,243435,1,0,0:0:0:0:
182,192,243485,1,0,0:0:0:0:
329,192,243485,1,0,0:0:0:0:
402,192,243535,1,0,0:0:0:0:
475,192,243585,1,0,0:0:0:0:
256,192,243585,1,0,0:0:0:0:
36,192,243585,1,0,0:0:0:0:
109,192,243635,1,0,0:0:0:0:
182,192,243685,1,0,0:0:0:0:
402,192,243685,1,0,0:0:0:0:
256,192,243735,1,0,0:0:0:0:
329,192,243785,1,0,0:0:0:0:
475,192,243785,1,0,0:0:0:0:
36,192,243785,1,0,0:0:0:0:
182,192,243835,1,0,0:0:0:0:
109,192,243885,1,0,0:0:0:0:
402,192,243885,1,0,0:0:0:0:
256,192,243935,1,0,0:0:0:0:
182,192,243985,1,0,0:0:0:0:
329,192,243985,1,0,0:0:0:0:
475,192,243985,1,0,0:0:0:0:
36,192,244035,1,0,0:0:0:0:
109,192,244085,1,0,0:0:0:0:
402,192,244085,1,0,0:0:0:0:
182,192,244185,1,0,0:0:0:0:
329,192,244185,1,0,0:0:0:0:
475,192,244185,1,0,0:0:0:0:
36,192,244235,1,0,0:0:0:0:
109,192,244285,1,0,0:0:0:0:
256,192,244285,1,0,0:0:0:0:
182,192,244385,1,0,0:0:0:0:
475,192,244385,1,0,0:0:0:0:
402,192,244385,1,0,0:0:0:0:
329,192,244435,1,0,0:0:0:0:
256,192,244485,1,0,0:0:0:0:
36,192,244485,1,0,0:0:0:0:
182,192,244535,1,0,0:0:0:0:
109,192,244585,1,0,0:0:0:0:
402,192,244585,1,0,0:0:0:0:
475,192,244585,1,0,0:0:0:0:
36,192,244635,1,0,0:0:0:0:
182,192,244685,1,0,0:0:0:0:
329,192,244685,1,0,0:0:0:0:
402,192,244735,1,0,0:0:0:0:
256,192,244785,1,0,0:0:0:0:
36,192,244785,1,0,0:0:0:0:
475,192,244785,1,0,0:0:0:0:
109,192,244835,1,0,0:0:0:0:
182,192,244885,1,0,0:0:0:0:
402,192,244885,1,0,0:0:0:0:
256,192,244935,1,0,0:0:0:0:
329,192,244985,1,0,0:0:0:0:
109,192,244985,1,0,0:0:0:0:
36,192,244985,1,0,0:0:0:0:
402,192,245035,1,0,0:0:0:0:
475,192,245085,1,0,0:0:0:0:
256,192,245085,1,0,0:0:0:0:
182,192,245135,1,0,0:0:0:0:
109,192,245135,1,0,0:0:0:0:
36,192,245185,1,0,0:0:0:0:
402,192,245185,1,0,0:0:0:0:
329,192,245185,1,0,0:0:0:0:
256,192,245235,1,0,0:0:0:0:
182,192,245285,1,0,0:0:0:0:
109,192,245285,1,0,0:0:0:0:
475,192,245335,1,0,0:0:0:0:
402,192,245335,1,0,0:0:0:0:
36,192,245385,1,0,0:0:0:0:
329,192,245385,1,0,0:0:0:0:
256,192,245385,1,0,0:0:0:0:
182,192,245435,1,0,0:0:0:0:
475,192,245485,1,0,0:0:0:0:
109,192,245485,1,0,0:0:0:0:
402,192,245535,1,0,0:0:0:0:
182,192,245585,1,0,0:0:0:0:
329,192,245585,1,0,0:0:0:0:
256,192,245585,1,0,0:0:0:0:
36,192,245635,1,0,0:0:0:0:
182,192,245685,1,0,0:0:0:0:
109,192,245685,1,0,0:0:0:0:
475,192,245735,1,0,0:0:0:0:
329,192,245785,1,0,0:0:0:0:
402,192,245785,1,0,0:0:0:0:
36,192,245785,1,0,0:0:0:0:
182,192,245885,1,0,0:0:0:0:
256,192,245885,1,0,0:0:0:0:
109,192,245985,1,0,0:0:0:0:
329,192,245985,1,0,0:0:0:0:
475,192,245985,1,0,0:0:0:0:
256,192,246085,1,0,0:0:0:0:
402,192,246085,1,0,0:0:0:0:
36,192,246185,1,0,0:0:0:0:
182,192,246185,1,0,0:0:0:0:
475,192,246185,1,0,0:0:0:0:
109,192,246285,1,0,0:0:0:0:
402,192,246285,1,0,0:0:0:0:
256,192,246335,1,0,0:0:0:0:
182,192,246385,1,0,0:0:0:0:
329,192,246385,1,0,0:0:0:0:
475,192,246385,1,0,0:0:0:0:
36,192,246485,1,0,0:0:0:0:
109,192,246485,1,0,0:0:0:0:
256,192,246585,1,0,0:0:0:0:
329,192,246585,1,0,0:0:0:0:
475,192,246585,1,0,0:0:0:0:
182,192,246685,1,0,0:0:0:0:
402,192,246685,1,0,0:0:0:0:
329,192,246735,1,0,0:0:0:0:
109,192,246735,1,0,0:0:0:0:
36,192,246785,1,0,0:0:0:0:
256,192,246785,1,0,0:0:0:0:
475,192,246785,1,0,0:0:0:0:
182,192,246885,1,0,0:0:0:0:
329,192,246885,1,0,0:0:0:0:
109,192,246985,1,0,0:0:0:0:
36,192,246985,1,0,0:0:0:0:
402,192,246985,1,0,0:0:0:0:
256,192,247035,1,0,0:0:0:0:
329,192,247085,1,0,0:0:0:0:
475,192,247085,1,0,0:0:0:0:
402,192,247185,1,0,0:0:0:0:
36,192,247185,1,0,0:0:0:0:
182,192,247185,1,0,0:0:0:0:
256,192,247235,1,0,0:0:0:0:
109,192,247285,1,0,0:0:0:0:
475,192,247285,1,0,0:0:0:0:
36,192,247385,1,0,0:0:0:0:
329,192,247385,1,0,0:0:0:0:
402,192,247385,1,0,0:0:0:0:
475,192,247435,1,0,0:0:0:0:
109,192,247485,1,0,0:0:0:0:
182,192,247485,1,0,0:0:0:0:
256,192,247535,1,0,0:0:0:0:
329,192,247585,1,0,0:0:0:0:
402,192,247585,1,0,0:0:0:0:
475,192,247585,1,0,0:0:0:0:
36,192,247635,1,0,0:0:0:0:
109,192,247685,1,0,0:0:0:0:
182,192,247685,1,0,0:0:0:0:
256,192,247735,1,0,0:0:0:0:
402,192,247785,1,0,0:0:0:0:
475,192,247785,1,0,0:0:0:0:
36,192,247785,1,0,0:0:0:0:
329,192,247835,1,0,0:0:0:0:
256,192,247885,1,0,0:0:0:0:
182,192,247885,1,0,0:0:0:0:
109,192,247935,1,0,0:0:0:0:
36,192,247985,1,0,0:0:0:0:
402,192,247985,1,0,0:0:0:0:
475,192,247985,1,0,0:0:0:0:
329,192,248035,1,0,0:0:0:0:
256,192,248085,1,0,0:0:0:0:
109,192,248085,1,0,0:0:0:0:
36,192,248135,1,0,0:0:0:0:
182,192,248185,1,0,0:0:0:0:
402,192,248185,1,0,0:0:0:0:
329,192,248185,1,0,0:0:0:0:
475,192,248235,1,0,0:0:0:0:
36,192,248285,1,0,0:0:0:0:
109,192,248285,1,0,0:0:0:0:
182,192,248335,1,0,0:0:0:0:
256,192,248385,1,0,0:0:0:0:
329,192,248385,1,0,0:0:0:0:
475,192,248385,1,0,0:0:0:0:
36,192,248435,1,0,0:0:0:0:
109,192,248485,1,0,0:0:0:0:
402,192,248485,1,0,0:0:0:0:
329,192,248535,1,0,0:0:0:0:
36,192,248585,1,0,0:0:0:0:
475,192,248585,1,0,0:0:0:0:
182,192,248635,1,0,0:0:0:0:
109,192,248685,1,0,0:0:0:0:
402,192,248685,1,0,0:0:0:0:
329,192,248735,1,0,0:0:0:0:
36,192,248785,1,0,0:0:0:0:
475,192,248785,1,0,0:0:0:0:
182,192,248835,1,0,0:0:0:0:
109,192,248885,1,0,0:0:0:0:
402,192,248885,1,0,0:0:0:0:
329,192,248885,1,0,0:0:0:0:
256,192,248935,1,0,0:0:0:0:
36,192,248985,1,0,0:0:0:0:
182,192,248985,1,0,0:0:0:0:
475,192,248985,1,0,0:0:0:0:
402,192,249035,1,0,0:0:0:0:
329,192,249085,1,0,0:0:0:0:
109,192,249085,1,0,0:0:0:0:
256,192,249085,1,0,0:0:0:0:
36,192,249135,1,0,0:0:0:0:
182,192,249185,1,0,0:0:0:0:
402,192,249185,1,0,0:0:0:0:
475,192,249185,1,0,0:0:0:0:
256,192,249235,1,0,0:0:0:0:
329,192,249285,1,0,0:0:0:0:
109,192,249285,1,0,0:0:0:0:
36,192,249285,1,0,0:0:0:0:
182,192,249335,1,0,0:0:0:0:
256,192,249385,1,0,0:0:0:0:
402,192,249385,1,0,0:0:0:0:
475,192,249385,1,0,0:0:0:0:
36,192,249435,1,0,0:0:0:0:
109,192,249485,1,0,0:0:0:0:
329,192,249485,1,0,0:0:0:0:
182,192,249485,1,0,0:0:0:0:
402,192,249535,1,0,0:0:0:0:
475,192,249585,1,0,0:0:0:0:
256,192,249585,1,0,0:0:0:0:
36,192,249585,1,0,0:0:0:0:
109,192,249635,1,0,0:0:0:0:
182,192,249685,1,0,0:0:0:0:
329,192,249685,1,0,0:0:0:0:
402,192,249685,1,0,0:0:0:0:
475,192,249735,1,0,0:0:0:0:
256,192,249785,1,0,0:0:0:0:
109,192,249785,1,0,0:0:0:0:
36,192,249785,1,0,0:0:0:0:
329,192,249835,1,0,0:0:0:0:
402,192,249885,1,0,0:0:0:0:
475,192,249885,1,0,0:0:0:0:
182,192,249885,1,0,0:0:0:0:
109,192,249935,1,0,0:0:0:0:
36,192,249985,1,0,0:0:0:0:
329,192,249985,1,0,0:0:0:0:
256,192,249985,1,0,0:0:0:0:
402,192,250035,1,0,0:0:0:0:
475,192,250085,1,0,0:0:0:0:
182,192,250085,1,0,0:0:0:0:
109,192,250085,1,0,0:0:0:0:
256,192,250135,1,0,0:0:0:0:
329,192,250185,1,0,0:0:0:0:
402,192,250185,1,0,0:0:0:0:
36,192,250185,1,0,0:0:0:0:
182,192,250235,1,0,0:0:0:0:
109,192,250285,1,0,0:0:0:0:
475,192,250285,1,0,0:0:0:0:
256,192,250285,1,0,0:0:0:0:
402,192,250335,1,0,0:0:0:0:
329,192,250385,1,0,0:0:0:0:
182,192,250385,1,0,0:0:0:0:
36,192,250385,1,0,0:0:0:0:
256,192,250435,1,0,0:0:0:0:
109,192,250485,1,0,0:0:0:0:
402,192,250485,1,0,0:0:0:0:
475,192,250485,1,0,0:0:0:0:
182,192,250535,1,0,0:0:0:0:
329,192,250585,1,0,0:0:0:0:
256,192,250585,1,0,0:0:0:0:
36,192,250585,1,0,0:0:0:0:
402,192,250635,1,0,0:0:0:0:
475,192,250685,1,0,0:0:0:0:
182,192,250685,1,0,0:0:0:0:
109,192,250685,1,0,0:0:0:0:
329,192,250735,1,0,0:0:0:0:
256,192,250785,1,0,0:0:0:0:
402,192,250785,1,0,0:0:0:0:
36,192,250785,1,0,0:0:0:0:
182,192,250835,1,0,0:0:0:0:
109,192,250885,1,0,0:0:0:0:
329,192,250885,1,0,0:0:0:0:
475,192,250885,1,0,0:0:0:0:
36,192,250935,1,0,0:0:0:0:
182,192,250985,1,0,0:0:0:0:
256,192,250985,1,0,0:0:0:0:
402,192,250985,1,0,0:0:0:0:
475,192,251035,1,0,0:0:0:0:
329,192,251085,1,0,0:0:0:0:
109,192,251085,1,0,0:0:0:0:
36,192,251085,1,0,0:0:0:0:
182,192,251135,1,0,0:0:0:0:
256,192,251185,1,0,0:0:0:0:
402,192,251185,1,0,0:0:0:0:
475,192,251185,1,0,0:0:0:0:
109,192,251235,1,0,0:0:0:0:
36,192,251285,1,0,0:0:0:0:
329,192,251285,1,0,0:0:0:0:
402,192,251335,1,0,0:0:0:0:
182,192,251385,1,0,0:0:0:0:
109,192,251385,1,0,0:0:0:0:
475,192,251435,1,0,0:0:0:0:
256,192,251485,1,0,0:0:0:0:
402,192,251485,1,0,0:0:0:0:
36,192,251535,1,0,0:0:0:0:
329,192,251585,1,0,0:0:0:0:
182,192,251585,1,0,0:0:0:0:
109,192,251635,1,0,0:0:0:0:
402,192,251685,1,0,0:0:0:0:
256,192,251685,1,0,0:0:0:0:
182,192,251735,1,0,0:0:0:0:
475,192,251785,1,0,0:0:0:0:
109,192,251785,1,0,0:0:0:0:
256,192,251835,1,0,0:0:0:0:
36,192,251885,1,0,0:0:0:0:
402,192,251885,1,0,0:0:0:0:
182,192,251885,1,0,0:0:0:0:
329,192,251885,1,0,0:0:0:0:
182,192,251985,1,0,0:0:0:0:
329,192,251985,1,0,0:0:0:0:
402,192,251985,1,0,0:0:0:0:
256,192,252085,1,0,0:0:0:0:
475,192,252085,1,0,0:0:0:0:
36,192,252085,1,0,0:0:0:0:
109,192,252085,1,0,0:0:0:0:
109,192,252185,1,0,0:0:0:0:
36,192,252185,1,0,0:0:0:0:
256,192,252185,1,0,0:0:0:0:
475,192,252185,1,0,0:0:0:0:
329,192,252285,1,0,0:0:0:0:
402,192,252285,1,0,0:0:0:0:
109,192,252385,1,0,0:0:0:0:
182,192,252385,1,0,0:0:0:0:
256,192,252385,1,0,0:0:0:0:
475,192,252385,1,0,0:0:0:0:
329,192,252485,1,0,0:0:0:0:
36,192,252485,1,0,0:0:0:0:
182,192,252585,1,0,0:0:0:0:
256,192,252585,1,0,0:0:0:0:
402,192,252585,1,0,0:0:0:0:
475,192,252585,1,0,0:0:0:0:
109,192,252685,1,0,0:0:0:0:
36,192,252685,1,0,0:0:0:0:
256,192,252785,1,0,0:0:0:0:
329,192,252785,1,0,0:0:0:0:
402,192,252785,1,0,0:0:0:0:
475,192,252785,1,0,0:0:0:0:
109,192,252885,1,0,0:0:0:0:
182,192,252885,1,0,0:0:0:0:
36,192,252985,1,0,0:0:0:0:
329,192,252985,1,0,0:0:0:0:
256,192,252985,1,0,0:0:0:0:
402,192,252985,1,0,0:0:0:0:
182,192,253085,1,0,0:0:0:0:
475,192,253085,1,0,0:0:0:0:
402,192,253135,1,0,0:0:0:0:
109,192,253185,1,0,0:0:0:0:
36,192,253185,1,0,0:0:0:0:
256,192,253185,1,0,0:0:0:0:
329,192,253185,1,0,0:0:0:0:
402,192,253285,1,0,0:0:0:0:
475,192,253285,1,0,0:0:0:0:
182,192,253385,1,0,0:0:0:0:
109,192,253385,1,0,0:0:0:0:
36,192,253385,1,0,0:0:0:0:
256,192,253385,1,0,0:0:0:0:
329,192,253485,1,0,0:0:0:0:
402,192,253485,1,0,0:0:0:0:
256,192,253585,1,0,0:0:0:0:
182,192,253585,1,0,0:0:0:0:
109,192,253585,1,0,0:0:0:0:
475,192,253585,1,0,0:0:0:0:
329,192,253635,1,0,0:0:0:0:
402,192,253685,1,0,0:0:0:0:
36,192,253685,1,0,0:0:0:0:
475,192,253735,1,0,0:0:0:0:
182,192,253735,1,0,0:0:0:0:
109,192,253785,1,0,0:0:0:0:
329,192,253785,1,0,0:0:0:0:
256,192,253835,1,0,0:0:0:0:
36,192,253885,1,0,0:0:0:0:
475,192,253885,1,0,0:0:0:0:
109,192,253935,1,0,0:0:0:0:
402,192,253935,1,0,0:0:0:0:
182,192,253985,1,0,0:0:0:0:
329,192,253985,1,0,0:0:0:0:
256,192,254035,1,0,0:0:0:0:
36,192,254085,1,0,0:0:0:0:
402,192,254085,1,0,0:0:0:0:
109,192,254135,1,0,0:0:0:0:
475,192,254135,1,0,0:0:0:0:
182,192,254185,1,0,0:0:0:0:
329,192,254185,1,0,0:0:0:0:
256,192,254235,1,0,0:0:0:0:
36,192,254285,1,0,0:0:0:0:
402,192,254285,1,0,0:0:0:0:
109,192,254335,1,0,0:0:0:0:
475,192,254335,1,0,0:0:0:0:
182,192,254385,1,0,0:0:0:0:
329,192,254385,1,0,0:0:0:0:
402,192,254435,1,0,0:0:0:0:
475,192,254485,1,0,0:0:0:0:
256,192,254485,1,0,0:0:0:0:
182,192,254535,1,0,0:0:0:0:
329,192,254535,1,0,0:0:0:0:
36,192,254585,1,0,0:0:0:0:
402,192,254585,1,0,0:0:0:0:
109,192,254585,1,0,0:0:0:0:
256,192,254635,1,0,0:0:0:0:
475,192,254685,1,0,0:0:0:0:
182,192,254685,1,0,0:0:0:0:
402,192,254735,1,0,0:0:0:0:
109,192,254735,1,0,0:0:0:0:
329,192,254785,1,0,0:0:0:0:
36,192,254785,1,0,0:0:0:0:
256,192,254785,1,0,0:0:0:0:
182,192,254835,1,0,0:0:0:0:
475,192,254885,1,0,0:0:0:0:
109,192,254885,1,0,0:0:0:0:
402,192,254935,1,0,0:0:0:0:
256,192,254935,1,0,0:0:0:0:
329,192,254985,1,0,0:0:0:0:
36,192,254985,1,0,0:0:0:0:
182,192,254985,1,0,0:0:0:0:
475,192,255035,1,0,0:0:0:0:
256,192,255085,1,0,0:0:0:0:
109,192,255085,1,0,0:0:0:0:
329,192,255135,1,0,0:0:0:0:
36,192,255135,1,0,0:0:0:0:
402,192,255185,1,0,0:0:0:0:
182,192,255185,1,0,0:0:0:0:
256,192,255235,1,0,0:0:0:0:
109,192,255285,1,0,0:0:0:0:
329,192,255285,1,0,0:0:0:0:
475,192,255285,1,0,0:0:0:0:
36,192,255285,1,0,0:0:0:0:
109,192,255485,1,0,0:0:0:0:
402,192,255485,1,0,0:0:0:0:
36,192,255585,1,0,0:0:0:0:
256,192,255585,1,0,0:0:0:0:
182,192,255585,1,0,0:0:0:0:
329,192,255585,1,0,0:0:0:0:
475,192,255585,1,0,0:0:0:0:
109,192,255785,1,0,0:0:0:0:
182,192,255785,1,0,0:0:0:0:
256,192,255835,1,0,0:0:0:0:
329,192,255885,1,0,0:0:0:0:
402,192,255885,1,0,0:0:0:0:
475,192,255885,1,0,0:0:0:0:
36,192,255885,1,0,0:0:0:0:
182,192,256085,1,0,0:0:0:0:
329,192,256085,1,0,0:0:0:0:
256,192,256185,1,0,0:0:0:0:
109,192,256185,1,0,0:0:0:0:
402,192,256185,1,0,0:0:0:0:
475,192,256185,1,0,0:0:0:0:
36,192,256185,1,0,0:0:0:0:
182,192,256385,1,0,0:0:0:0:
256,192,256385,1,0,0:0:0:0:
329,192,256385,1,0,0:0:0:0:
402,192,256385,1,0,0:0:0:0:
475,192,256385,1,0,0:0:0:0:
109,192,256485,1,0,0:0:0:0:
36,192,256485,1,0,0:0:0:0:
329,192,256485,1,0,0:0:0:0:
402,192,256485,1,0,0:0:0:0:
109,192,256685,1,0,0:0:0:0:
182,192,256685,1,0,0:0:0:0:
329,192,256685,1,0,0:0:0:0:
475,192,256685,1,0,0:0:0:0:
109,192,256885,1,0,0:0:0:0:
182,192,256885,1,0,0:0:0:0:
329,192,256885,1,0,0:0:0:0:
475,192,256885,1,0,0:0:0:0:
36,192,257085,1,0,0:0:0:0:
475,192,257085,1,0,0:0:0:0:
182,192,257135,1,0,0:0:0:0:
329,192,257135,1,0,0:0:0:0:
109,192,257185,1,0,0:0:0:0:
36,192,257185,1,0,0:0:0:0:
402,192,257185,1,0,0:0:0:0:
475,192,257185,1,0,0:0:0:0:
256,192,257185,128,0,257585:0:0:0:0:
109,192,257585,1,0,0:0:0:0:
182,192,257585,1,0,0:0:0:0:
329,192,257585,1,0,0:0:0:0:
402,192,257585,1,0,0:0:0:0:
182,192,257685,1,0,0:0:0:0:
109,192,257685,1,0,0:0:0:0:
329,192,257685,1,0,0:0:0:0:
402,192,257685,1,0,0:0:0:0:
36,192,257885,1,0,0:0:0:0:
109,192,257885,1,0,0:0:0:0:
256,192,257885,1,0,0:0:0:0:
402,192,257885,1,0,0:0:0:0:
475,192,257885,1,0,0:0:0:0:
329,192,258085,1,0,0:0:0:0:
402,192,258085,1,0,0:0:0:0:
256,192,258135,1,0,0:0:0:0:
182,192,258185,1,0,0:0:0:0:
109,192,258185,1,0,0:0:0:0:
475,192,258185,1,0,0:0:0:0:
36,192,258185,1,0,0:0:0:0:
182,192,258385,1,0,0:0:0:0:
256,192,258385,1,0,0:0:0:0:
329,192,258485,1,0,0:0:0:0:
402,192,258485,1,0,0:0:0:0:
475,192,258485,1,0,0:0:0:0:
109,192,258485,1,0,0:0:0:0:
36,192,258485,1,0,0:0:0:0:
182,192,258685,1,0,0:0:0:0:
329,192,258685,1,0,0:0:0:0:
475,192,258685,1,0,0:0:0:0:
109,192,258785,1,0,0:0:0:0:
256,192,258785,1,0,0:0:0:0:
402,192,258785,1,0,0:0:0:0:
36,192,258885,1,0,0:0:0:0:
182,192,258885,1,0,0:0:0:0:
329,192,258885,1,0,0:0:0:0:
109,192,258985,1,0,0:0:0:0:
256,192,258985,1,0,0:0:0:0:
475,192,258985,1,0,0:0:0:0:
36,192,259085,1,0,0:0:0:0:
329,192,259085,1,0,0:0:0:0:
402,192,259085,1,0,0:0:0:0:
109,192,259185,1,0,0:0:0:0:
182,192,259185,1,0,0:0:0:0:
475,192,259185,1,0,0:0:0:0:
256,192,259285,1,0,0:0:0:0:
402,192,259285,1,0,0:0:0:0:
329,192,259285,1,0,0:0:0:0:
182,192,259351,1,0,0:0:0:0:
109,192,259351,1,0,0:0:0:0:
402,192,259418,1,0,0:0:0:0:
475,192,259418,1,0,0:0:0:0:
329,192,259485,1,0,0:0:0:0:
256,192,259485,1,0,0:0:0:0:
182,192,259551,1,0,0:0:0:0:
109,192,259551,1,0,0:0:0:0:
36,192,259618,1,0,0:0:0:0:
475,192,259618,1,0,0:0:0:0:
329,192,259685,1,0,0:0:0:0:
402,192,259685,1,0,0:0:0:0:
256,192,259751,1,0,0:0:0:0:
182,192,259751,1,0,0:0:0:0:
109,192,259818,1,0,0:0:0:0:
36,192,259818,1,0,0:0:0:0:
329,192,259885,1,0,0:0:0:0:
402,192,259885,1,0,0:0:0:0:
475,192,259885,1,0,0:0:0:0:
182,192,259885,1,0,0:0:0:0:
109,192,260085,1,0,0:0:0:0:
36,192,260085,1,0,0:0:0:0:
256,192,260085,1,0,0:0:0:0:
402,192,260085,1,0,0:0:0:0:
182,192,260185,1,0,0:0:0:0:
329,192,260185,1,0,0:0:0:0:
475,192,260185,1,0,0:0:0:0:
109,192,260285,1,0,0:0:0:0:
36,192,260285,1,0,0:0:0:0:
256,192,260385,1,0,0:0:0:0:
329,192,260385,1,0,0:0:0:0:
402,192,260385,1,0,0:0:0:0:
475,192,260385,1,0,0:0:0:0:
402,192,260585,1,0,0:0:0:0:
256,192,260585,1,0,0:0:0:0:
475,192,260585,1,0,0:0:0:0:
109,192,260585,1,0,0:0:0:0:
182,192,260685,1,0,0:0:0:0:
36,192,260685,1,0,0:0:0:0:
329,192,260685,1,0,0:0:0:0:
402,192,260785,1,0,0:0:0:0:
475,192,260785,1,0,0:0:0:0:
109,192,260885,1,0,0:0:0:0:
256,192,260885,1,0,0:0:0:0:
36,192,260885,1,0,0:0:0:0:
182,192,260885,1,0,0:0:0:0:
329,192,261085,1,0,0:0:0:0:
475,192,261085,1,0,0:0:0:0:
36,192,261085,1,0,0:0:0:0:
109,192,261151,1,0,0:0:0:0:
256,192,261151,1,0,0:0:0:0:
182,192,261218,1,0,0:0:0:0:
402,192,261218,1,0,0:0:0:0:
329,192,261285,1,0,0:0:0:0:
475,192,261285,1,0,0:0:0:0:
109,192,261285,1,0,0:0:0:0:
36,192,261285,1,0,0:0:0:0:
36,192,261485,1,0,0:0:0:0:
182,192,261485,1,0,0:0:0:0:
402,192,261485,1,0,0:0:0:0:
329,192,261485,1,0,0:0:0:0:
402,192,261685,1,0,0:0:0:0:
475,192,261685,1,0,0:0:0:0:
256,192,261685,1,0,0:0:0:0:
109,192,261685,1,0,0:0:0:0:
36,192,261785,1,0,0:0:0:0:
182,192,261785,1,0,0:0:0:0:
329,192,261785,1,0,0:0:0:0:
402,192,261785,1,0,0:0:0:0:
109,192,261918,1,0,0:0:0:0:
256,192,261918,1,0,0:0:0:0:
402,192,261918,1,0,0:0:0:0:
36,192,261918,1,0,0:0:0:0:
109,192,262051,1,0,0:0:0:0:
182,192,262051,1,0,0:0:0:0:
329,192,262051,1,0,0:0:0:0:
475,192,262051,1,0,0:0:0:0:
36,192,262185,128,0,262785:0:0:0:0:
109,192,262185,128,0,262785:0:0:0:0:
256,192,262185,128,0,262785:0:0:0:0:
402,192,262185,128,0,262785:0:0:0:0:
475,192,262185,128,0,262785:0:0:0:0:
182,192,262785,1,0,0:0:0:0:
329,192,262785,1,0,0:0:0:0:
256,192,262851,1,0,0:0:0:0:
402,192,262918,1,0,0:0:0:0:
109,192,262918,1,0,0:0:0:0:
182,192,262985,1,0,0:0:0:0:
36,192,262985,1,0,0:0:0:0:
329,192,262985,1,0,0:0:0:0:
475,192,262985,1,0,0:0:0:0:
109,192,263118,1,0,0:0:0:0:
256,192,263118,1,0,0:0:0:0:
402,192,263118,1,0,0:0:0:0:
475,192,263251,1,0,0:0:0:0:
182,192,263251,1,0,0:0:0:0:
109,192,263251,1,0,0:0:0:0:
36,192,263251,1,0,0:0:0:0:
402,192,263251,1,0,0:0:0:0:
182,192,263385,1,0,0:0:0:0:
256,192,263385,1,0,0:0:0:0:
329,192,263385,1,0,0:0:0:0:
109,192,263518,1,0,0:0:0:0:
402,192,263518,1,0,0:0:0:0:
329,192,263518,1,0,0:0:0:0:
475,192,263518,1,0,0:0:0:0:
182,192,263651,1,0,0:0:0:0:
36,192,263651,1,0,0:0:0:0:
256,192,263651,1,0,0:0:0:0:
402,192,263651,1,0,0:0:0:0:
109,192,263785,1,0,0:0:0:0:
36,192,263785,1,0,0:0:0:0:
256,192,263785,1,0,0:0:0:0:
329,192,263785,1,0,0:0:0:0:
475,192,263785,1,0,0:0:0:0:
182,192,263918,1,0,0:0:0:0:
402,192,263918,1,0,0:0:0:0:
329,192,263918,1,0,0:0:0:0:
109,192,264051,1,0,0:0:0:0:
36,192,264051,1,0,0:0:0:0:
256,192,264051,1,0,0:0:0:0:
329,192,264185,1,0,0:0:0:0:
36,192,264185,1,0,0:0:0:0:
256,192,264185,1,0,0:0:0:0:
475,192,264185,1,0,0:0:0:0:
182,192,264585,1,0,0:0:0:0:
109,192,264585,1,0,0:0:0:0:
36,192,264585,1,0,0:0:0:0:
329,192,264585,1,0,0:0:0:0:
402,192,264585,1,0,0:0:0:0:
256,192,264585,1,0,0:0:0:0:
475,192,264585,128,0,264885:0:0:0:0:
329,192,264885,128,0,265185:0:0:0:0:
36,192,264985,1,0,0:0:0:0:
182,192,265185,128,0,265385:0:0:0:0:
402,192,265385,128,0,265785:0:0:0:0:
36,192,265785,128,0,265985:0:0:0:0:
475,192,265785,1,0,0:0:0:0:
182,192,265985,128,0,266185:0:0:0:0:
329,192,266185,128,0,266485:0:0:0:0:
109,192,266185,1,0,0:0:0:0:
36,192,266185,1,0,0:0:0:0:
475,192,266185,1,0,0:0:0:0:
256,192,266485,128,0,266785:0:0:0:0:
475,192,266585,1,0,0:0:0:0:
182,192,266785,128,0,266985:0:0:0:0:
475,192,266985,128,0,267385:0:0:0:0:
36,192,266985,1,0,0:0:0:0:
109,192,266985,1,0,0:0:0:0:
329,192,266985,1,0,0:0:0:0:
109,192,267385,128,0,267585:0:0:0:0:
329,192,267385,1,0,0:0:0:0:
402,192,267385,1,0,0:0:0:0:
182,192,267385,1,0,0:0:0:0:
256,192,267585,128,0,267785:0:0:0:0:
402,192,267785,128,0,268085:0:0:0:0:
256,192,268085,128,0,268385:0:0:0:0:
182,192,268185,1,0,0:0:0:0:
109,192,268185,1,0,0:0:0:0:
36,192,268185,1,0,0:0:0:0:
329,192,268185,1,0,0:0:0:0:
402,192,268185,1,0,0:0:0:0:
475,192,268185,1,0,0:0:0:0:
109,192,268385,128,0,268585:0:0:0:0:
329,192,268585,128,0,268785:0:0:0:0:
182,192,268785,128,0,268985:0:0:0:0:
329,192,268985,128,0,269185:0:0:0:0:
109,192,268985,1,0,0:0:0:0:
36,192,268985,1,0,0:0:0:0:
256,192,268985,1,0,0:0:0:0:
402,192,268985,1,0,0:0:0:0:
475,192,268985,1,0,0:0:0:0:
402,192,269185,128,0,269385:0:0:0:0:
475,192,269385,128,0,269685:0:0:0:0:
36,192,269685,128,0,269985:0:0:0:0:
109,192,269785,1,0,0:0:0:0:
182,192,269785,1,0,0:0:0:0:
329,192,269785,1,0,0:0:0:0:
256,192,269785,1,0,0:0:0:0:
402,192,269785,1,0,0:0:0:0:
475,192,269785,1,0,0:0:0:0:
475,192,269985,128,0,270185:0:0:0:0:
329,192,270185,128,0,270585:0:0:0:0:
256,192,270185,1,0,0:0:0:0:
182,192,270185,1,0,0:0:0:0:
109,192,270185,1,0,0:0:0:0:
402,192,270185,1,0,0:0:0:0:
36,192,270185,1,0,0:0:0:0:
182,192,270585,128,0,270985:0:0:0:0:
109,192,270585,1,0,0:0:0:0:
36,192,270585,1,0,0:0:0:0:
256,192,270585,1,0,0:0:0:0:
402,192,270585,1,0,0:0:0:0:
475,192,270585,1,0,0:0:0:0:
475,192,270985,128,0,271585:0:0:0:0:
109,192,270985,1,0,0:0:0:0:
36,192,270985,1,0,0:0:0:0:
329,192,270985,1,0,0:0:0:0:
182,192,271051,1,0,0:0:0:0:
256,192,271051,1,0,0:0:0:0:
402,192,271051,1,0,0:0:0:0:
109,192,271118,1,0,0:0:0:0:
329,192,271185,1,0,0:0:0:0:
36,192,271185,1,0,0:0:0:0:
256,192,271185,1,0,0:0:0:0:
402,192,271285,128,0,271585:0:0:0:0:
182,192,271285,1,0,0:0:0:0:
36,192,271385,1,0,0:0:0:0:
256,192,271385,1,0,0:0:0:0:
329,192,271385,1,0,0:0:0:0:
109,192,271485,1,0,0:0:0:0:
36,192,271585,128,0,272185:0:0:0:0:
182,192,271585,1,0,0:0:0:0:
256,192,271585,1,0,0:0:0:0:
329,192,271585,1,0,0:0:0:0:
402,192,271685,1,0,0:0:0:0:
109,192,271785,128,0,272185:0:0:0:0:
475,192,271785,1,0,0:0:0:0:
256,192,271785,1,0,0:0:0:0:
182,192,271785,1,0,0:0:0:0:
329,192,271985,1,0,0:0:0:0:
402,192,271985,1,0,0:0:0:0:
475,192,271985,1,0,0:0:0:0:
256,192,272085,1,0,0:0:0:0:
182,192,272085,1,0,0:0:0:0:
329,192,272185,128,0,272385:0:0:0:0:
402,192,272185,1,0,0:0:0:0:
109,192,272285,1,0,0:0:0:0:
36,192,272285,1,0,0:0:0:0:
182,192,272385,128,0,272585:0:0:0:0:
256,192,272385,1,0,0:0:0:0:
402,192,272385,1,0,0:0:0:0:
475,192,272385,1,0,0:0:0:0:
109,192,272485,1,0,0:0:0:0:
36,192,272585,128,0,273185:0:0:0:0:
329,192,272585,1,0,0:0:0:0:
402,192,272585,1,0,0:0:0:0:
475,192,272585,1,0,0:0:0:0:
256,192,272685,1,0,0:0:0:0:
182,192,272785,128,0,273185:0:0:0:0:
109,192,272785,1,0,0:0:0:0:
402,192,272785,1,0,0:0:0:0:
475,192,272785,1,0,0:0:0:0:
329,192,272885,1,0,0:0:0:0:
256,192,272985,1,0,0:0:0:0:
109,192,272985,1,0,0:0:0:0:
475,192,272985,1,0,0:0:0:0:
402,192,273085,1,0,0:0:0:0:
475,192,273185,128,0,273785:0:0:0:0:
256,192,273185,1,0,0:0:0:0:
109,192,273185,1,0,0:0:0:0:
329,192,273185,1,0,0:0:0:0:
182,192,273285,1,0,0:0:0:0:
329,192,273385,128,0,273785:0:0:0:0:
109,192,273385,1,0,0:0:0:0:
36,192,273385,1,0,0:0:0:0:
402,192,273385,1,0,0:0:0:0:
256,192,273485,1,0,0:0:0:0:
182,192,273585,1,0,0:0:0:0:
109,192,273585,1,0,0:0:0:0:
36,192,273585,1,0,0:0:0:0:
402,192,273685,1,0,0:0:0:0:
256,192,273685,1,0,0:0:0:0:
109,192,273785,128,0,273985:0:0:0:0:
182,192,273785,1,0,0:0:0:0:
329,192,273885,1,0,0:0:0:0:
475,192,273885,1,0,0:0:0:0:
256,192,273985,128,0,274185:0:0:0:0:
402,192,273985,1,0,0:0:0:0:
182,192,273985,1,0,0:0:0:0:
36,192,273985,1,0,0:0:0:0:
109,192,274085,1,0,0:0:0:0:
402,192,274185,128,0,274485:0:0:0:0:
182,192,274185,1,0,0:0:0:0:
329,192,274185,1,0,0:0:0:0:
475,192,274185,1,0,0:0:0:0:
109,192,274285,1,0,0:0:0:0:
36,192,274385,1,0,0:0:0:0:
182,192,274385,1,0,0:0:0:0:
256,192,274385,1,0,0:0:0:0:
109,192,274485,128,0,274985:0:0:0:0:
329,192,274485,1,0,0:0:0:0:
256,192,274585,1,0,0:0:0:0:
402,192,274585,1,0,0:0:0:0:
475,192,274585,1,0,0:0:0:0:
329,192,274685,1,0,0:0:0:0:
36,192,274685,1,0,0:0:0:0:
182,192,274785,128,0,274985:0:0:0:0:
256,192,274785,1,0,0:0:0:0:
475,192,274785,1,0,0:0:0:0:
402,192,274785,1,0,0:0:0:0:
36,192,274885,1,0,0:0:0:0:
329,192,274985,1,0,0:0:0:0:
402,192,274985,1,0,0:0:0:0:
475,192,274985,128,0,275385:0:0:0:0:
182,192,275085,1,0,0:0:0:0:
256,192,275185,128,0,275385:0:0:0:0:
109,192,275185,1,0,0:0:0:0:
36,192,275185,1,0,0:0:0:0:
329,192,275185,1,0,0:0:0:0:
402,192,275285,1,0,0:0:0:0:
182,192,275285,1,0,0:0:0:0:
36,192,275385,128,0,275685:0:0:0:0:
329,192,275385,1,0,0:0:0:0:
256,192,275485,1,0,0:0:0:0:
182,192,275485,1,0,0:0:0:0:
475,192,275585,128,0,275685:0:0:0:0:
329,192,275585,1,0,0:0:0:0:
402,192,275585,1,0,0:0:0:0:
109,192,275585,1,0,0:0:0:0:
256,192,275685,1,0,0:0:0:0:
182,192,275685,1,0,0:0:0:0:
329,192,275785,128,0,276085:0:0:0:0:
36,192,275785,1,0,0:0:0:0:
109,192,275785,1,0,0:0:0:0:
402,192,275785,1,0,0:0:0:0:
475,192,275785,1,0,0:0:0:0:
182,192,275785,1,0,0:0:0:0:
109,192,275885,1,0,0:0:0:0:
36,192,275985,1,0,0:0:0:0:
402,192,275985,1,0,0:0:0:0:
475,192,275985,1,0,0:0:0:0:
256,192,275985,1,0,0:0:0:0:
182,192,275985,1,0,0:0:0:0:
402,192,276085,128,0,276585:0:0:0:0:
182,192,276085,1,0,0:0:0:0:
256,192,276185,1,0,0:0:0:0:
109,192,276185,1,0,0:0:0:0:
36,192,276185,1,0,0:0:0:0:
475,192,276185,1,0,0:0:0:0:
329,192,276185,1,0,0:0:0:0:
109,192,276285,1,0,0:0:0:0:
36,192,276385,128,0,276585:0:0:0:0:
256,192,276385,1,0,0:0:0:0:
182,192,276385,1,0,0:0:0:0:
329,192,276385,1,0,0:0:0:0:
475,192,276385,1,0,0:0:0:0:
182,192,276485,1,0,0:0:0:0:
329,192,276585,1,0,0:0:0:0:
475,192,276585,1,0,0:0:0:0:
182,192,276651,1,0,0:0:0:0:
256,192,276651,1,0,0:0:0:0:
36,192,276718,1,0,0:0:0:0:
109,192,276718,1,0,0:0:0:0:
402,192,276785,1,0,0:0:0:0:
475,192,276785,1,0,0:0:0:0:
256,192,276851,1,0,0:0:0:0:
329,192,276851,1,0,0:0:0:0:
182,192,276918,1,0,0:0:0:0:
109,192,276918,1,0,0:0:0:0:
36,192,276985,1,0,0:0:0:0:
475,192,276985,1,0,0:0:0:0:
182,192,277051,1,0,0:0:0:0:
256,192,277051,1,0,0:0:0:0:
329,192,277118,1,0,0:0:0:0:
402,192,277118,1,0,0:0:0:0:
109,192,277185,1,0,0:0:0:0:
36,192,277185,1,0,0:0:0:0:
475,192,277185,1,0,0:0:0:0:
329,192,277285,1,0,0:0:0:0:
182,192,277285,1,0,0:0:0:0:
256,192,277285,1,0,0:0:0:0:
256,192,277385,1,0,0:0:0:0:
109,192,277385,1,0,0:0:0:0:
402,192,277385,1,0,0:0:0:0:
475,192,277385,128,0,278185:0:0:0:0:
36,192,277385,128,0,277685:0:0:0:0:
402,192,277485,1,0,0:0:0:0:
182,192,277485,1,0,0:0:0:0:
329,192,277585,1,0,0:0:0:0:
109,192,277585,1,0,0:0:0:0:
256,192,277585,1,0,0:0:0:0:
402,192,277685,128,0,277885:0:0:0:0:
182,192,277685,1,0,0:0:0:0:
109,192,277785,1,0,0:0:0:0:
36,192,277785,1,0,0:0:0:0:
256,192,277785,1,0,0:0:0:0:
256,192,277885,1,0,0:0:0:0:
329,192,277885,1,0,0:0:0:0:
182,192,277985,128,0,278185:0:0:0:0:
402,192,277985,1,0,0:0:0:0:
109,192,277985,1,0,0:0:0:0:
36,192,277985,1,0,0:0:0:0:
256,192,278085,1,0,0:0:0:0:
109,192,278185,1,0,0:0:0:0:
329,192,278185,1,0,0:0:0:0:
402,192,278185,1,0,0:0:0:0:
36,192,278185,128,0,278285:0:0:0:0:
256,192,278235,1,0,0:0:0:0:
182,192,278285,1,0,0:0:0:0:
475,192,278285,1,0,0:0:0:0:
402,192,278335,1,0,0:0:0:0:
109,192,278385,1,0,0:0:0:0:
36,192,278385,1,0,0:0:0:0:
256,192,278385,1,0,0:0:0:0:
329,192,278385,1,0,0:0:0:0:
182,192,278435,1,0,0:0:0:0:
475,192,278485,1,0,0:0:0:0:
402,192,278485,1,0,0:0:0:0:
256,192,278535,1,0,0:0:0:0:
182,192,278585,1,0,0:0:0:0:
109,192,278585,128,0,278685:0:0:0:0:
329,192,278635,1,0,0:0:0:0:
402,192,278685,1,0,0:0:0:0:
36,192,278685,1,0,0:0:0:0:
182,192,278735,1,0,0:0:0:0:
109,192,278785,1,0,0:0:0:0:
256,192,278785,1,0,0:0:0:0:
475,192,278785,1,0,0:0:0:0:
329,192,278785,128,0,278885:0:0:0:0:
36,192,278835,1,0,0:0:0:0:
402,192,278885,1,0,0:0:0:0:
182,192,278885,1,0,0:0:0:0:
329,192,278935,1,0,0:0:0:0:
475,192,278985,128,0,279285:0:0:0:0:
109,192,278985,1,0,0:0:0:0:
256,192,278985,1,0,0:0:0:0:
36,192,278985,1,0,0:0:0:0:
256,192,279085,1,0,0:0:0:0:
329,192,279085,1,0,0:0:0:0:
182,192,279185,1,0,0:0:0:0:
402,192,279185,1,0,0:0:0:0:
36,192,279185,1,0,0:0:0:0:
109,192,279185,1,0,0:0:0:0:
329,192,279285,128,0,279485:0:0:0:0:
256,192,279285,1,0,0:0:0:0:
475,192,279385,1,0,0:0:0:0:
182,192,279385,1,0,0:0:0:0:
36,192,279385,1,0,0:0:0:0:
182,192,279485,1,0,0:0:0:0:
256,192,279485,1,0,0:0:0:0:
402,192,279585,1,0,0:0:0:0:
475,192,279585,1,0,0:0:0:0:
36,192,279585,128,0,279785:0:0:0:0:
109,192,279585,1,0,0:0:0:0:
329,192,279585,1,0,0:0:0:0:
256,192,279685,1,0,0:0:0:0:
182,192,279785,1,0,0:0:0:0:
109,192,279785,1,0,0:0:0:0:
402,192,279785,1,0,0:0:0:0:
475,192,279785,128,0,279885:0:0:0:0:
329,192,279835,1,0,0:0:0:0:
256,192,279885,1,0,0:0:0:0:
36,192,279885,1,0,0:0:0:0:
109,192,279935,1,0,0:0:0:0:
182,192,279985,1,0,0:0:0:0:
329,192,279985,1,0,0:0:0:0:
402,192,279985,1,0,0:0:0:0:
475,192,279985,1,0,0:0:0:0:
256,192,280035,1,0,0:0:0:0:
109,192,280085,1,0,0:0:0:0:
36,192,280085,1,0,0:0:0:0:
329,192,280135,1,0,0:0:0:0:
475,192,280185,1,0,0:0:0:0:
182,192,280185,128,0,280285:0:0:0:0:
402,192,280235,1,0,0:0:0:0:
329,192,280285,1,0,0:0:0:0:
256,192,280285,1,0,0:0:0:0:
182,192,280335,1,0,0:0:0:0:
109,192,280385,1,0,0:0:0:0:
475,192,280385,1,0,0:0:0:0:
36,192,280385,1,0,0:0:0:0:
402,192,280385,128,0,280485:0:0:0:0:
329,192,280435,1,0,0:0:0:0:
256,192,280485,1,0,0:0:0:0:
182,192,280485,1,0,0:0:0:0:
109,192,280535,1,0,0:0:0:0:
402,192,280585,1,0,0:0:0:0:
475,192,280585,1,0,0:0:0:0:
36,192,280585,128,0,280885:0:0:0:0:
329,192,280585,1,0,0:0:0:0:
329,192,280685,1,0,0:0:0:0:
256,192,280685,1,0,0:0:0:0:
109,192,280785,1,0,0:0:0:0:
182,192,280785,1,0,0:0:0:0:
475,192,280785,1,0,0:0:0:0:
402,192,280785,1,0,0:0:0:0:
256,192,280885,128,0,281085:0:0:0:0:
329,192,280885,1,0,0:0:0:0:
36,192,280985,1,0,0:0:0:0:
475,192,280985,1,0,0:0:0:0:
182,192,280985,1,0,0:0:0:0:
182,192,281085,1,0,0:0:0:0:
402,192,281085,1,0,0:0:0:0:
475,192,281185,128,0,281385:0:0:0:0:
36,192,281185,1,0,0:0:0:0:
109,192,281185,1,0,0:0:0:0:
329,192,281185,1,0,0:0:0:0:
256,192,281185,1,0,0:0:0:0:
402,192,281285,1,0,0:0:0:0:
256,192,281335,1,0,0:0:0:0:
109,192,281385,1,0,0:0:0:0:
182,192,281385,1,0,0:0:0:0:
36,192,281385,128,0,281585:0:0:0:0:
329,192,281385,1,0,0:0:0:0:
329,192,281485,1,0,0:0:0:0:
402,192,281485,1,0,0:0:0:0:
256,192,281585,128,0,281785:0:0:0:0:
109,192,281585,1,0,0:0:0:0:
475,192,281585,1,0,0:0:0:0:
402,192,281585,1,0,0:0:0:0:
182,192,281585,1,0,0:0:0:0:
36,192,281685,1,0,0:0:0:0:
109,192,281785,128,0,281985:0:0:0:0:
329,192,281785,1,0,0:0:0:0:
475,192,281785,1,0,0:0:0:0:
182,192,281785,1,0,0:0:0:0:
329,192,281885,1,0,0:0:0:0:
256,192,281885,1,0,0:0:0:0:
475,192,281985,128,0,282185:0:0:0:0:
36,192,281985,1,0,0:0:0:0:
182,192,281985,1,0,0:0:0:0:
402,192,281985,1,0,0:0:0:0:
329,192,282035,1,0,0:0:0:0:
256,192,282085,1,0,0:0:0:0:
182,192,282135,1,0,0:0:0:0:
329,192,282185,128,0,282485:0:0:0:0:
109,192,282185,1,0,0:0:0:0:
36,192,282185,1,0,0:0:0:0:
402,192,282185,1,0,0:0:0:0:
36,192,282285,1,0,0:0:0:0:
475,192,282285,1,0,0:0:0:0:
256,192,282385,1,0,0:0:0:0:
109,192,282385,1,0,0:0:0:0:
402,192,282385,1,0,0:0:0:0:
182,192,282385,1,0,0:0:0:0:
36,192,282485,128,0,282785:0:0:0:0:
475,192,282485,1,0,0:0:0:0:
329,192,282585,1,0,0:0:0:0:
109,192,282585,1,0,0:0:0:0:
256,192,282585,1,0,0:0:0:0:
256,192,282685,1,0,0:0:0:0:
402,192,282685,1,0,0:0:0:0:
329,192,282785,128,0,282985:0:0:0:0:
402,192,282785,1,0,0:0:0:0:
182,192,282785,1,0,0:0:0:0:
109,192,282785,1,0,0:0:0:0:
475,192,282785,1,0,0:0:0:0:
109,192,282885,1,0,0:0:0:0:
182,192,282985,128,0,283385:0:0:0:0:
402,192,282985,1,0,0:0:0:0:
36,192,282985,1,0,0:0:0:0:
475,192,282985,1,0,0:0:0:0:
475,192,283085,1,0,0:0:0:0:
256,192,283085,1,0,0:0:0:0:
36,192,283185,1,0,0:0:0:0:
402,192,283185,1,0,0:0:0:0:
109,192,283185,1,0,0:0:0:0:
329,192,283185,1,0,0:0:0:0:
256,192,283285,1,0,0:0:0:0:
475,192,283385,128,0,283785:0:0:0:0:
36,192,283385,1,0,0:0:0:0:
402,192,283385,1,0,0:0:0:0:
109,192,283435,1,0,0:0:0:0:
256,192,283485,1,0,0:0:0:0:
329,192,283535,1,0,0:0:0:0:
36,192,283585,1,0,0:0:0:0:
182,192,283585,1,0,0:0:0:0:
109,192,283585,1,0,0:0:0:0:
402,192,283585,1,0,0:0:0:0:
256,192,283685,1,0,0:0:0:0:
36,192,283785,128,0,284085:0:0:0:0:
182,192,283785,1,0,0:0:0:0:
109,192,283785,1,0,0:0:0:0:
329,192,283785,1,0,0:0:0:0:
329,192,283885,1,0,0:0:0:0:
256,192,283885,1,0,0:0:0:0:
109,192,283985,1,0,0:0:0:0:
182,192,283985,1,0,0:0:0:0:
402,192,283985,1,0,0:0:0:0:
475,192,283985,1,0,0:0:0:0:
256,192,284085,128,0,284285:0:0:0:0:
329,192,284085,1,0,0:0:0:0:
109,192,284185,1,0,0:0:0:0:
36,192,284185,1,0,0:0:0:0:
475,192,284185,1,0,0:0:0:0:
329,192,284285,1,0,0:0:0:0:
109,192,284285,1,0,0:0:0:0:
475,192,284385,128,0,284585:0:0:0:0:
182,192,284385,1,0,0:0:0:0:
256,192,284385,1,0,0:0:0:0:
402,192,284385,1,0,0:0:0:0:
36,192,284385,1,0,0:0:0:0:
329,192,284485,1,0,0:0:0:0:
256,192,284585,128,0,284985:0:0:0:0:
36,192,284585,1,0,0:0:0:0:
109,192,284585,1,0,0:0:0:0:
402,192,284585,1,0,0:0:0:0:
402,192,284685,1,0,0:0:0:0:
182,192,284685,1,0,0:0:0:0:
329,192,284785,1,0,0:0:0:0:
475,192,284785,1,0,0:0:0:0:
36,192,284785,1,0,0:0:0:0:
109,192,284785,1,0,0:0:0:0:
182,192,284885,1,0,0:0:0:0:
36,192,284985,128,0,285185:0:0:0:0:
329,192,284985,1,0,0:0:0:0:
475,192,284985,1,0,0:0:0:0:
109,192,284985,1,0,0:0:0:0:
329,192,285085,1,0,0:0:0:0:
182,192,285085,1,0,0:0:0:0:
256,192,285185,1,0,0:0:0:0:
109,192,285185,1,0,0:0:0:0:
402,192,285185,1,0,0:0:0:0:
475,192,285185,128,0,285385:0:0:0:0:
36,192,285285,1,0,0:0:0:0:
182,192,285385,1,0,0:0:0:0:
329,192,285385,128,0,285485:0:0:0:0:
402,192,285385,1,0,0:0:0:0:
109,192,285435,1,0,0:0:0:0:
36,192,285485,1,0,0:0:0:0:
475,192,285535,1,0,0:0:0:0:
256,192,285585,1,0,0:0:0:0:
109,192,285585,1,0,0:0:0:0:
402,192,285585,1,0,0:0:0:0:
329,192,285585,1,0,0:0:0:0:
182,192,285635,1,0,0:0:0:0:
475,192,285685,1,0,0:0:0:0:
36,192,285685,128,0,285785:0:0:0:0:
256,192,285735,1,0,0:0:0:0:
109,192,285785,1,0,0:0:0:0:
329,192,285785,1,0,0:0:0:0:
402,192,285835,1,0,0:0:0:0:
475,192,285885,1,0,0:0:0:0:
182,192,285885,1,0,0:0:0:0:
256,192,285935,1,0,0:0:0:0:
329,192,285985,1,0,0:0:0:0:
402,192,285985,1,0,0:0:0:0:
109,192,285985,128,0,286085:0:0:0:0:
36,192,285985,1,0,0:0:0:0:
182,192,286035,1,0,0:0:0:0:
256,192,286085,1,0,0:0:0:0:
475,192,286085,1,0,0:0:0:0:
329,192,286135,1,0,0:0:0:0:
109,192,286185,1,0,0:0:0:0:
36,192,286185,1,0,0:0:0:0:
402,192,286185,128,0,286285:0:0:0:0:
182,192,286235,1,0,0:0:0:0:
256,192,286285,1,0,0:0:0:0:
475,192,286285,1,0,0:0:0:0:
329,192,286335,1,0,0:0:0:0:
402,192,286385,1,0,0:0:0:0:
182,192,286385,1,0,0:0:0:0:
109,192,286385,1,0,0:0:0:0:
36,192,286385,1,0,0:0:0:0:
475,192,286435,1,0,0:0:0:0:
329,192,286485,1,0,0:0:0:0:
256,192,286485,1,0,0:0:0:0:
182,192,286535,1,0,0:0:0:0:
109,192,286585,128,0,286685:0:0:0:0:
402,192,286585,1,0,0:0:0:0:
329,192,286635,1,0,0:0:0:0:
256,192,286685,1,0,0:0:0:0:
182,192,286685,1,0,0:0:0:0:
36,192,286735,1,0,0:0:0:0:
475,192,286785,128,0,286885:0:0:0:0:
329,192,286785,1,0,0:0:0:0:
402,192,286785,1,0,0:0:0:0:
109,192,286785,1,0,0:0:0:0:
182,192,286835,1,0,0:0:0:0:
256,192,286885,1,0,0:0:0:0:
36,192,286885,1,0,0:0:0:0:
329,192,286935,1,0,0:0:0:0:
402,192,286985,1,0,0:0:0:0:
109,192,286985,128,0,287085:0:0:0:0:
475,192,286985,1,0,0:0:0:0:
182,192,287085,1,0,0:0:0:0:
329,192,287085,1,0,0:0:0:0:
109,192,287185,1,0,0:0:0:0:
36,192,287185,1,0,0:0:0:0:
402,192,287185,1,0,0:0:0:0:
475,192,287185,1,0,0:0:0:0:
329,192,287235,1,0,0:0:0:0:
256,192,287285,128,0,287385:0:0:0:0:
182,192,287285,1,0,0:0:0:0:
109,192,287335,1,0,0:0:0:0:
36,192,287385,1,0,0:0:0:0:
402,192,287385,1,0,0:0:0:0:
329,192,287435,1,0,0:0:0:0:
109,192,287485,1,0,0:0:0:0:
182,192,287485,1,0,0:0:0:0:
256,192,287535,1,0,0:0:0:0:
475,192,287585,128,0,287685:0:0:0:0:
329,192,287585,1,0,0:0:0:0:
402,192,287585,1,0,0:0:0:0:
36,192,287585,1,0,0:0:0:0:
109,192,287635,1,0,0:0:0:0:
182,192,287685,1,0,0:0:0:0:
256,192,287685,1,0,0:0:0:0:
329,192,287735,1,0,0:0:0:0:
36,192,287785,128,0,287985:0:0:0:0:
402,192,287785,1,0,0:0:0:0:
475,192,287785,1,0,0:0:0:0:
109,192,287785,1,0,0:0:0:0:
182,192,287835,1,0,0:0:0:0:
256,192,287885,1,0,0:0:0:0:
329,192,287885,1,0,0:0:0:0:
402,192,287935,1,0,0:0:0:0:
475,192,287985,1,0,0:0:0:0:
109,192,287985,1,0,0:0:0:0:
182,192,288035,1,0,0:0:0:0:
256,192,288085,1,0,0:0:0:0:
402,192,288085,1,0,0:0:0:0:
36,192,288085,1,0,0:0:0:0:
475,192,288085,128,0,288285:0:0:0:0:
109,192,288135,1,0,0:0:0:0:
329,192,288185,1,0,0:0:0:0:
182,192,288185,1,0,0:0:0:0:
402,192,288235,1,0,0:0:0:0:
36,192,288285,1,0,0:0:0:0:
256,192,288285,1,0,0:0:0:0:
182,192,288335,1,0,0:0:0:0:
36,192,288385,128,0,288585:0:0:0:0:
329,192,288385,1,0,0:0:0:0:
402,192,288385,1,0,0:0:0:0:
475,192,288385,1,0,0:0:0:0:
256,192,288435,1,0,0:0:0:0:
109,192,288485,1,0,0:0:0:0:
182,192,288485,1,0,0:0:0:0:
475,192,288535,1,0,0:0:0:0:
329,192,288585,1,0,0:0:0:0:
402,192,288585,1,0,0:0:0:0:
109,192,288585,1,0,0:0:0:0:
256,192,288635,1,0,0:0:0:0:
182,192,288685,1,0,0:0:0:0:
109,192,288735,1,0,0:0:0:0:
36,192,288735,1,0,0:0:0:0:
329,192,288785,1,0,0:0:0:0:
402,192,288785,1,0,0:0:0:0:
475,192,288785,1,0,0:0:0:0:
256,192,288835,1,0,0:0:0:0:
182,192,288885,1,0,0:0:0:0:
109,192,288935,1,0,0:0:0:0:
36,192,288935,1,0,0:0:0:0:
256,192,288985,1,0,0:0:0:0:
329,192,288985,1,0,0:0:0:0:
402,192,288985,1,0,0:0:0:0:
475,192,289035,1,0,0:0:0:0:
36,192,289085,1,0,0:0:0:0:
182,192,289135,1,0,0:0:0:0:
109,192,289135,1,0,0:0:0:0:
329,192,289185,1,0,0:0:0:0:
256,192,289185,1,0,0:0:0:0:
402,192,289185,1,0,0:0:0:0:
475,192,289235,1,0,0:0:0:0:
36,192,289285,1,0,0:0:0:0:
109,192,289335,1,0,0:0:0:0:
182,192,289335,1,0,0:0:0:0:
329,192,289385,1,0,0:0:0:0:
402,192,289385,1,0,0:0:0:0:
475,192,289385,1,0,0:0:0:0:
256,192,289435,1,0,0:0:0:0:
36,192,289485,1,0,0:0:0:0:
109,192,289535,1,0,0:0:0:0:
182,192,289535,1,0,0:0:0:0:
329,192,289585,1,0,0:0:0:0:
402,192,289585,1,0,0:0:0:0:
475,192,289585,1,0,0:0:0:0:
256,192,289635,1,0,0:0:0:0:
36,192,289685,1,0,0:0:0:0:
109,192,289735,1,0,0:0:0:0:
182,192,289735,1,0,0:0:0:0:
402,192,289785,1,0,0:0:0:0:
475,192,289785,1,0,0:0:0:0:
256,192,289785,1,0,0:0:0:0:
36,192,289835,1,0,0:0:0:0:
182,192,289885,1,0,0:0:0:0:
329,192,289935,1,0,0:0:0:0:
109,192,289935,1,0,0:0:0:0:
256,192,289985,1,0,0:0:0:0:
402,192,289985,1,0,0:0:0:0:
475,192,289985,1,0,0:0:0:0:
36,192,290035,1,0,0:0:0:0:
182,192,290085,1,0,0:0:0:0:
109,192,290135,1,0,0:0:0:0:
329,192,290135,1,0,0:0:0:0:
402,192,290185,1,0,0:0:0:0:
36,192,290185,1,0,0:0:0:0:
256,192,290185,1,0,0:0:0:0:
475,192,290185,128,0,290885:0:0:0:0:
36,192,290585,1,0,0:0:0:0:
36,192,290885,1,0,0:0:0:0:
109,192,290885,1,0,0:0:0:0:
182,192,290935,1,0,0:0:0:0:
256,192,290985,1,0,0:0:0:0:
329,192,290985,1,0,0:0:0:0:
402,192,290985,128,0,291785:0:0:0:0:
475,192,290985,1,0,0:0:0:0:
109,192,291118,1,0,0:0:0:0:
36,192,291118,1,0,0:0:0:0:
182,192,291118,1,0,0:0:0:0:
109,192,291251,1,0,0:0:0:0:
256,192,291251,1,0,0:0:0:0:
329,192,291251,1,0,0:0:0:0:
329,192,291385,1,0,0:0:0:0:
36,192,291385,1,0,0:0:0:0:
475,192,291385,1,0,0:0:0:0:
109,192,291518,1,0,0:0:0:0:
256,192,291518,1,0,0:0:0:0:
36,192,291518,1,0,0:0:0:0:
109,192,291651,1,0,0:0:0:0:
182,192,291651,1,0,0:0:0:0:
329,192,291651,1,0,0:0:0:0:
182,192,291785,1,0,0:0:0:0:
256,192,291785,1,0,0:0:0:0:
475,192,291785,1,0,0:0:0:0:
36,192,291785,1,0,0:0:0:0:
329,192,291785,1,0,0:0:0:0:
109,192,291985,1,0,0:0:0:0:
36,192,291985,1,0,0:0:0:0:
256,192,291985,1,0,0:0:0:0:
402,192,291985,1,0,0:0:0:0:
475,192,291985,1,0,0:0:0:0:
109,192,292185,1,0,0:0:0:0:
36,192,292185,1,0,0:0:0:0:
329,192,292185,1,0,0:0:0:0:
256,192,292185,1,0,0:0:0:0:
109,192,292285,1,0,0:0:0:0:
182,192,292285,1,0,0:0:0:0:
329,192,292285,1,0,0:0:0:0:
402,192,292285,1,0,0:0:0:0:
182,192,292451,1,0,0:0:0:0:
36,192,292451,1,0,0:0:0:0:
402,192,292451,1,0,0:0:0:0:
256,192,292518,1,0,0:0:0:0:
475,192,292518,1,0,0:0:0:0:
109,192,292518,1,0,0:0:0:0:
329,192,292685,1,0,0:0:0:0:
182,192,292685,1,0,0:0:0:0:
109,192,292785,1,0,0:0:0:0:
402,192,292785,1,0,0:0:0:0:
256,192,292785,1,0,0:0:0:0:
36,192,292785,128,0,293185:0:0:0:0:
475,192,292785,128,0,293185:0:0:0:0:
256,192,293185,1,0,0:0:0:0:
182,192,293385,1,0,0:0:0:0:
36,192,293385,1,0,0:0:0:0:
329,192,293451,1,0,0:0:0:0:
402,192,293518,1,0,0:0:0:0:
475,192,293518,1,0,0:0:0:0:
182,192,293585,1,0,0:0:0:0:
109,192,293585,1,0,0:0:0:0:
256,192,293651,1,0,0:0:0:0:
402,192,293718,1,0,0:0:0:0:
329,192,293718,1,0,0:0:0:0:
475,192,293785,1,0,0:0:0:0:
36,192,293785,1,0,0:0:0:0:
329,192,293851,1,0,0:0:0:0:
182,192,293918,1,0,0:0:0:0:
109,192,293918,1,0,0:0:0:0:
402,192,293985,1,0,0:0:0:0:
475,192,293985,1,0,0:0:0:0:
256,192,294051,1,0,0:0:0:0:
109,192,294118,1,0,0:0:0:0:
36,192,294118,1,0,0:0:0:0:
182,192,294185,1,0,0:0:0:0:
329,192,294185,1,0,0:0:0:0:
475,192,294185,1,0,0:0:0:0:
109,192,294251,1,0,0:0:0:0:
256,192,294251,1,0,0:0:0:0:
402,192,294251,1,0,0:0:0:0:
36,192,294318,1,0,0:0:0:0:
182,192,294318,1,0,0:0:0:0:
329,192,294318,1,0,0:0:0:0:
109,192,294385,1,0,0:0:0:0:
256,192,294385,1,0,0:0:0:0:
402,192,294385,1,0,0:0:0:0:
475,192,294385,1,0,0:0:0:0:
109,192,294485,128,0,295985:0:0:0:0:
256,192,294485,128,0,295985:0:0:0:0:
402,192,294485,128,0,295985:0:0:0:0:
475,192,294485,128,0,295985:0:0:0:0:
36,192,295785,1,0,0:0:0:0:
182,192,295851,1,0,0:0:0:0:
329,192,295918,1,0,0:0:0:0:
182,192,295985,1,0,0:0:0:0:
36,192,295985,1,0,0:0:0:0:
182,192,296085,1,0,0:0:0:0:
182,192,296185,1,0,0:0:0:0:
182,192,296285,1,0,0:0:0:0:
182,192,296385,1,0,0:0:0:0:
182,192,296485,1,0,0:0:0:0:
182,192,296585,1,0,0:0:0:0:
182,192,296685,1,0,0:0:0:0:
182,192,296785,1,0,0:0:0:0:
182,192,296885,1,0,0:0:0:0:
329,192,296985,1,0,0:0:0:0:
109,192,297085,1,0,0:0:0:0:
402,192,297185,1,0,0:0:0:0:
182,192,297285,1,0,0:0:0:0:
475,192,297385,1,0,0:0:0:0:
256,192,297485,1,0,0:0:0:0:
109,192,297585,1,0,0:0:0:0:
402,192,297685,1,0,0:0:0:0:
182,192,297785,1,0,0:0:0:0:
182,192,297885,1,0,0:0:0:0:
182,192,297985,1,0,0:0:0:0:
182,192,298085,1,0,0:0:0:0:
182,192,298185,1,0,0:0:0:0:
182,192,298285,1,0,0:0:0:0:
402,192,298385,128,0,298585:0:0:0:0:
256,192,298685,128,0,298885:0:0:0:0:
109,192,298985,128,0,299185:0:0:0:0:
329,192,299185,1,0,0:0:0:0:
182,192,299285,1,0,0:0:0:0:
182,192,299385,1,0,0:0:0:0:
182,192,299485,1,0,0:0:0:0:
182,192,299585,1,0,0:0:0:0:
182,192,299685,1,0,0:0:0:0:
182,192,299785,1,0,0:0:0:0:
182,192,299885,1,0,0:0:0:0:
182,192,299985,1,0,0:0:0:0:
182,192,300085,1,0,0:0:0:0:
329,192,300185,1,0,0:0:0:0:
36,192,300285,1,0,0:0:0:0:
402,192,300385,1,0,0:0:0:0:
109,192,300485,1,0,0:0:0:0:
475,192,300585,1,0,0:0:0:0:
182,192,300685,1,0,0:0:0:0:
329,192,300785,1,0,0:0:0:0:
402,192,300785,1,0,0:0:0:0:
36,192,300785,1,0,0:0:0:0:
109,192,300785,1,0,0:0:0:0:
256,192,300885,1,0,0:0:0:0:
475,192,300885,1,0,0:0:0:0:
182,192,300935,1,0,0:0:0:0:
109,192,300985,1,0,0:0:0:0:
329,192,300985,1,0,0:0:0:0:
36,192,301085,1,0,0:0:0:0:
256,192,301085,1,0,0:0:0:0:
402,192,301085,1,0,0:0:0:0:
475,192,301085,1,0,0:0:0:0:
109,192,301185,1,0,0:0:0:0:
329,192,301185,1,0,0:0:0:0:
182,192,301235,1,0,0:0:0:0:
256,192,301285,1,0,0:0:0:0:
402,192,301285,1,0,0:0:0:0:
36,192,301385,1,0,0:0:0:0:
109,192,301385,1,0,0:0:0:0:
329,192,301385,1,0,0:0:0:0:
475,192,301385,1,0,0:0:0:0:
182,192,301485,1,0,0:0:0:0:
402,192,301485,1,0,0:0:0:0:
329,192,301535,1,0,0:0:0:0:
256,192,301585,1,0,0:0:0:0:
109,192,301585,1,0,0:0:0:0:
182,192,301685,1,0,0:0:0:0:
36,192,301685,1,0,0:0:0:0:
329,192,301685,1,0,0:0:0:0:
402,192,301685,1,0,0:0:0:0:
256,192,301785,1,0,0:0:0:0:
475,192,301785,1,0,0:0:0:0:
329,192,301835,1,0,0:0:0:0:
402,192,301885,1,0,0:0:0:0:
109,192,301885,1,0,0:0:0:0:
182,192,301985,1,0,0:0:0:0:
36,192,301985,1,0,0:0:0:0:
329,192,302035,1,0,0:0:0:0:
256,192,302085,1,0,0:0:0:0:
109,192,302085,1,0,0:0:0:0:
36,192,302135,1,0,0:0:0:0:
402,192,302185,1,0,0:0:0:0:
475,192,302185,128,0,302385:0:0:0:0:
256,192,302285,1,0,0:0:0:0:
109,192,302385,1,0,0:0:0:0:
36,192,302385,1,0,0:0:0:0:
182,192,302435,1,0,0:0:0:0:
256,192,302435,1,0,0:0:0:0:
402,192,302485,1,0,0:0:0:0:
475,192,302485,1,0,0:0:0:0:
329,192,302535,1,0,0:0:0:0:
36,192,302535,1,0,0:0:0:0:
109,192,302585,1,0,0:0:0:0:
182,192,302585,1,0,0:0:0:0:
475,192,302635,1,0,0:0:0:0:
402,192,302635,1,0,0:0:0:0:
256,192,302685,1,0,0:0:0:0:
329,192,302685,1,0,0:0:0:0:
109,192,302735,1,0,0:0:0:0:
182,192,302735,1,0,0:0:0:0:
36,192,302785,1,0,0:0:0:0:
475,192,302785,1,0,0:0:0:0:
329,192,302835,1,0,0:0:0:0:
256,192,302835,1,0,0:0:0:0:
182,192,302885,1,0,0:0:0:0:
109,192,302885,1,0,0:0:0:0:
402,192,302935,1,0,0:0:0:0:
475,192,302935,1,0,0:0:0:0:
256,192,302985,1,0,0:0:0:0:
329,192,302985,1,0,0:0:0:0:
109,192,303035,1,0,0:0:0:0:
36,192,303035,1,0,0:0:0:0:
182,192,303085,1,0,0:0:0:0:
475,192,303085,1,0,0:0:0:0:
402,192,303135,1,0,0:0:0:0:
329,192,303135,1,0,0:0:0:0:
36,192,303185,1,0,0:0:0:0:
109,192,303185,1,0,0:0:0:0:
256,192,303235,1,0,0:0:0:0:
182,192,303235,1,0,0:0:0:0:
402,192,303285,1,0,0:0:0:0:
475,192,303285,1,0,0:0:0:0:
182,192,303335,1,0,0:0:0:0:
109,192,303335,1,0,0:0:0:0:
256,192,303385,1,0,0:0:0:0:
329,192,303385,1,0,0:0:0:0:
475,192,303435,1,0,0:0:0:0:
402,192,303435,1,0,0:0:0:0:
182,192,303485,1,0,0:0:0:0:
109,192,303485,1,0,0:0:0:0:
256,192,303535,1,0,0:0:0:0:
329,192,303535,1,0,0:0:0:0:
36,192,303585,1,0,0:0:0:0:
109,192,303585,1,0,0:0:0:0:
475,192,303635,1,0,0:0:0:0:
402,192,303635,1,0,0:0:0:0:
256,192,303685,1,0,0:0:0:0:
329,192,303685,1,0,0:0:0:0:
182,192,303735,1,0,0:0:0:0:
109,192,303735,1,0,0:0:0:0:
36,192,303785,1,0,0:0:0:0:
475,192,303785,1,0,0:0:0:0:
329,192,303835,1,0,0:0:0:0:
402,192,303835,1,0,0:0:0:0:
256,192,303885,1,0,0:0:0:0:
182,192,303885,1,0,0:0:0:0:
109,192,303935,1,0,0:0:0:0:
36,192,303935,1,0,0:0:0:0:
256,192,303985,1,0,0:0:0:0:
329,192,303985,1,0,0:0:0:0:
402,192,304035,1,0,0:0:0:0:
475,192,304035,1,0,0:0:0:0:
36,192,304085,1,0,0:0:0:0:
109,192,304085,1,0,0:0:0:0:
182,192,304135,1,0,0:0:0:0:
256,192,304135,1,0,0:0:0:0:
329,192,304185,1,0,0:0:0:0:
402,192,304185,1,0,0:0:0:0:
109,192,304235,1,0,0:0:0:0:
36,192,304235,1,0,0:0:0:0:
182,192,304285,1,0,0:0:0:0:
256,192,304285,1,0,0:0:0:0:
402,192,304335,1,0,0:0:0:0:
475,192,304335,1,0,0:0:0:0:
36,192,304385,1,0,0:0:0:0:
109,192,304385,1,0,0:0:0:0:
329,192,304435,1,0,0:0:0:0:
402,192,304435,1,0,0:0:0:0:
256,192,304485,1,0,0:0:0:0:
182,192,304485,1,0,0:0:0:0:
109,192,304535,1,0,0:0:0:0:
36,192,304535,1,0,0:0:0:0:
475,192,304585,1,0,0:0:0:0:
402,192,304585,1,0,0:0:0:0:
329,192,304635,1,0,0:0:0:0:
256,192,304635,1,0,0:0:0:0:
36,192,304685,1,0,0:0:0:0:
109,192,304685,1,0,0:0:0:0:
182,192,304735,1,0,0:0:0:0:
256,192,304735,1,0,0:0:0:0:
402,192,304785,1,0,0:0:0:0:
475,192,304785,1,0,0:0:0:0:
329,192,304785,1,0,0:0:0:0:
36,192,304835,1,0,0:0:0:0:
109,192,304835,1,0,0:0:0:0:
182,192,304885,1,0,0:0:0:0:
329,192,304935,1,0,0:0:0:0:
36,192,304985,1,0,0:0:0:0:
256,192,305085,1,0,0:0:0:0:
402,192,305085,1,0,0:0:0:0:
182,192,305135,1,0,0:0:0:0:
109,192,305185,1,0,0:0:0:0:
329,192,305185,1,0,0:0:0:0:
256,192,305235,1,0,0:0:0:0:
182,192,305285,1,0,0:0:0:0:
329,192,305335,1,0,0:0:0:0:
402,192,305385,1,0,0:0:0:0:
475,192,305385,1,0,0:0:0:0:
109,192,305385,1,0,0:0:0:0:
36,192,305385,1,0,0:0:0:0:
182,192,305485,1,0,0:0:0:0:
329,192,305485,1,0,0:0:0:0:
402,192,305585,1,0,0:0:0:0:
475,192,305585,1,0,0:0:0:0:
256,192,305635,1,0,0:0:0:0:
329,192,305635,1,0,0:0:0:0:
36,192,305685,1,0,0:0:0:0:
109,192,305685,1,0,0:0:0:0:
475,192,305735,1,0,0:0:0:0:
182,192,305735,1,0,0:0:0:0:
329,192,305785,1,0,0:0:0:0:
402,192,305785,1,0,0:0:0:0:
109,192,305835,1,0,0:0:0:0:
36,192,305835,1,0,0:0:0:0:
182,192,305885,1,0,0:0:0:0:
256,192,305885,1,0,0:0:0:0:
329,192,305935,1,0,0:0:0:0:
402,192,305935,1,0,0:0:0:0:
36,192,305985,1,0,0:0:0:0:
475,192,305985,1,0,0:0:0:0:
256,192,306035,1,0,0:0:0:0:
182,192,306035,1,0,0:0:0:0:
329,192,306085,1,0,0:0:0:0:
402,192,306085,1,0,0:0:0:0:
36,192,306135,1,0,0:0:0:0:
109,192,306135,1,0,0:0:0:0:
182,192,306185,1,0,0:0:0:0:
256,192,306185,1,0,0:0:0:0:
475,192,306235,1,0,0:0:0:0:
402,192,306235,1,0,0:0:0:0:
329,192,306285,1,0,0:0:0:0:
36,192,306285,1,0,0:0:0:0:
109,192,306335,1,0,0:0:0:0:
182,192,306335,1,0,0:0:0:0:
475,192,306385,1,0,0:0:0:0:
402,192,306385,1,0,0:0:0:0:
329,192,306435,1,0,0:0:0:0:
256,192,306435,1,0,0:0:0:0:
36,192,306485,1,0,0:0:0:0:
109,192,306485,1,0,0:0:0:0:
402,192,306535,1,0,0:0:0:0:
329,192,306535,1,0,0:0:0:0:
182,192,306585,1,0,0:0:0:0:
256,192,306585,1,0,0:0:0:0:
109,192,306635,1,0,0:0:0:0:
36,192,306635,1,0,0:0:0:0:
402,192,306685,1,0,0:0:0:0:
329,192,306685,1,0,0:0:0:0:
182,192,306735,1,0,0:0:0:0:
256,192,306735,1,0,0:0:0:0:
402,192,306785,1,0,0:0:0:0:
475,192,306785,1,0,0:0:0:0:
109,192,306835,1,0,0:0:0:0:
36,192,306835,1,0,0:0:0:0:
182,192,306885,1,0,0:0:0:0:
256,192,306885,1,0,0:0:0:0:
402,192,306935,1,0,0:0:0:0:
329,192,306935,1,0,0:0:0:0:
36,192,306985,1,0,0:0:0:0:
109,192,306985,1,0,0:0:0:0:
402,192,307035,1,0,0:0:0:0:
475,192,307035,1,0,0:0:0:0:
329,192,307085,1,0,0:0:0:0:
182,192,307085,1,0,0:0:0:0:
36,192,307135,1,0,0:0:0:0:
109,192,307135,1,0,0:0:0:0:
475,192,307185,1,0,0:0:0:0:
402,192,307185,1,0,0:0:0:0:
329,192,307185,1,0,0:0:0:0:
256,192,307185,1,0,0:0:0:0:
182,192,307285,1,0,0:0:0:0:
329,192,307335,1,0,0:0:0:0:
109,192,307385,1,0,0:0:0:0:
256,192,307435,1,0,0:0:0:0:
329,192,307485,1,0,0:0:0:0:
402,192,307485,1,0,0:0:0:0:
475,192,307485,1,0,0:0:0:0:
36,192,307485,1,0,0:0:0:0:
182,192,307535,1,0,0:0:0:0:
256,192,307585,1,0,0:0:0:0:
402,192,307635,1,0,0:0:0:0:
475,192,307685,1,0,0:0:0:0:
182,192,307735,1,0,0:0:0:0:
109,192,307785,1,0,0:0:0:0:
36,192,307785,1,0,0:0:0:0:
329,192,307785,1,0,0:0:0:0:
402,192,307785,1,0,0:0:0:0:
256,192,307835,1,0,0:0:0:0:
182,192,307885,1,0,0:0:0:0:
402,192,307935,1,0,0:0:0:0:
329,192,307985,1,0,0:0:0:0:
256,192,308035,1,0,0:0:0:0:
182,192,308085,1,0,0:0:0:0:
36,192,308085,1,0,0:0:0:0:
475,192,308085,1,0,0:0:0:0:
402,192,308085,1,0,0:0:0:0:
329,192,308135,1,0,0:0:0:0:
109,192,308185,1,0,0:0:0:0:
182,192,308235,1,0,0:0:0:0:
256,192,308285,1,0,0:0:0:0:
329,192,308335,1,0,0:0:0:0:
402,192,308385,1,0,0:0:0:0:
475,192,308385,1,0,0:0:0:0:
109,192,308385,1,0,0:0:0:0:
36,192,308385,1,0,0:0:0:0:
36,192,308485,1,0,0:0:0:0:
109,192,308485,1,0,0:0:0:0:
402,192,308485,1,0,0:0:0:0:
475,192,308485,1,0,0:0:0:0:
182,192,308585,1,0,0:0:0:0:
329,192,308585,1,0,0:0:0:0:
256,192,308635,1,0,0:0:0:0:
182,192,308685,1,0,0:0:0:0:
329,192,308685,1,0,0:0:0:0:
36,192,308785,128,0,308935:0:0:0:0:
109,192,308785,128,0,308935:0:0:0:0:
256,192,308785,128,0,308935:0:0:0:0:
475,192,308785,128,0,308935:0:0:0:0:
402,192,308785,128,0,308935:0:0:0:0:
182,192,308935,1,0,0:0:0:0:
329,192,308985,1,0,0:0:0:0:
182,192,309035,1,0,0:0:0:0:
256,192,309085,128,0,309235:0:0:0:0:
109,192,309085,128,0,309235:0:0:0:0:
36,192,309085,128,0,309235:0:0:0:0:
402,192,309085,128,0,309235:0:0:0:0:
475,192,309085,128,0,309235:0:0:0:0:
329,192,309235,1,0,0:0:0:0:
182,192,309285,1,0,0:0:0:0:
329,192,309335,1,0,0:0:0:0:
109,192,309385,1,0,0:0:0:0:
36,192,309385,1,0,0:0:0:0:
256,192,309385,1,0,0:0:0:0:
402,192,309385,1,0,0:0:0:0:
475,192,309385,1,0,0:0:0:0:
36,192,309485,128,0,309985:0:0:0:0:
109,192,309485,128,0,309985:0:0:0:0:
256,192,309485,128,0,309985:0:0:0:0:
402,192,309485,128,0,309985:0:0:0:0:
475,192,309485,128,0,309985:0:0:0:0:
