osu file format v14

[General]
AudioFilename: audio.ogg
AudioLeadIn: 0
PreviewTime: 210750
Countdown: 0
SampleSet: Drum
StackLeniency: 0.2
Mode: 3
LetterboxInBreaks: 0
SpecialStyle: 0
WidescreenStoryboard: 1

[Editor]
Bookmarks: 13650,15250,21650,28050,33650,39250,44050,56850,63250,69650,76050,88850,102450,104850,108150,110450,113650,120050,132850,136050,142450,148850,158450,168050,193650,211250,224050,225650,238450,255350,262250,264650,271050,277450,290250,294550,300850,302450,310150
DistanceSpacing: 1.3
BeatDivisor: 4
GridSize: 32
TimelineZoom: 2.420003

[Metadata]
Title:Deadly force - Put an end
TitleUnicode:Deadly force - Put an end
Artist:Noah
ArtistUnicode:Noah
Creator:Noch Einen
Version:Apocalyptic Entity
Source:SOUND VOLTEX IV HEAVENLY HAVEN
Tags:metal video game sdvx 4 3 ExistRuth instrumental Revolt from the abyss gravity wars コナステ konasute konaste Ω omega dimension
BeatmapID:3518465
BeatmapSetID:1639985

[Difficulty]
HPDrainRate:8.5
CircleSize:7
OverallDifficulty:8
ApproachRate:10
SliderMultiplier:1.74
SliderTickRate:1

[Events]
//Background and Video events
0,0,"benny.jpg",0,0
//Break Periods
//Storyboard Layer 0 (Background)
//Storyboard Layer 1 (Fail)
//Storyboard Layer 2 (Pass)
//Storyboard Layer 3 (Foreground)
//Storyboard Layer 4 (Overlay)
//Storyboard Sound Samples

[TimingPoints]
5636,200,4,3,5,50,1,0
7236,-100,4,3,5,60,0,0
13636,-100,4,3,5,30,0,0
15236,-100,4,3,5,60,0,0
20836,-100,4,3,5,40,0,0
21636,-100,4,3,5,60,0,0
28036,-100,4,3,5,70,0,0
32436,-100,4,3,5,50,0,0
36836,200,3,3,5,50,1,0
39236,200,4,3,5,50,1,0
44036,-100,4,3,5,60,0,1
56036,-100,4,3,5,50,0,1
56836,-100,4,3,5,50,0,0
61636,-100,4,3,5,70,0,0
62436,-100,4,3,5,50,0,0
76036,-100,4,3,5,70,0,0
76436,-100,4,3,5,60,0,0
88836,-100,4,3,5,70,0,0
89236,-100,4,3,5,60,0,0
102436,-100,4,3,5,50,0,0
103236,-100,4,3,5,60,0,0
104036,-100,4,3,5,70,0,0
104836,-100,4,3,5,50,0,0
105102,-100,4,3,5,70,0,0
110436,200,3,3,5,70,1,0
111036,-100,3,3,5,50,0,0
112836,200,4,3,5,70,1,0
113636,-100,4,3,5,60,0,0
120036,-100,4,3,5,70,0,1
125636,-100,4,3,5,50,0,1
126436,-100,4,3,5,70,0,1
132836,-100,4,3,5,50,0,0
136048,-100,4,3,5,40,0,0
140836,-100,4,3,5,50,0,0
142436,-100,4,3,5,60,0,0
147236,-100,4,3,5,50,0,0
148836,-100,4,3,5,60,0,0
154436,-100,4,3,5,40,0,0
155236,-100,4,3,5,60,0,0
158036,-100,4,3,5,70,0,0
158436,-100,4,3,5,60,0,0
167236,-100,4,3,5,50,0,0
193636,-100,4,3,5,70,0,0
194636,-100,4,3,5,40,0,0
195236,-100,4,3,5,70,0,0
196036,-100,4,3,5,40,0,0
196836,-100,4,3,5,70,0,0
197636,-100,4,3,5,40,0,0
198036,-100,4,3,5,50,0,0
200036,-100,4,3,5,60,0,0
204836,-100,4,3,5,50,0,0
211236,-100,4,3,5,60,0,1
223236,-100,4,3,5,50,0,1
224036,-100,4,3,5,40,0,0
238436,200,3,3,5,70,1,0
239536,200,3,3,5,70,1,0
240736,200,4,3,5,70,1,0
240736,-100,4,3,5,40,0,0
242536,200,4,3,5,50,1,0
248936,-100,4,3,5,70,0,0
252136,-100,4,3,5,50,0,0
255336,200,3,3,5,70,1,0
256436,200,3,3,5,70,1,0
257636,200,4,3,5,50,1,0
257636,-100,3,3,5,50,0,0
258736,200,6,3,5,40,1,0
259936,-100,6,3,5,60,0,0
260136,200,4,3,5,60,1,0
260736,200,4,3,5,60,1,0
261136,200,4,3,5,60,1,0
261336,200,4,3,5,60,1,0
261836,200,4,3,5,60,1,0
262236,200,4,3,5,70,1,0
262836,-100,4,3,5,40,0,0
264636,-100,4,3,5,70,0,1
264736,-100,4,3,5,40,0,0
268236,-100,4,3,5,70,0,1
268336,-100,4,3,5,40,0,0
269036,-100,4,3,5,70,0,1
269136,-100,4,3,5,40,0,0
269836,-100,4,3,5,70,0,1
269936,-100,4,3,5,40,0,0
270236,-100,4,3,5,70,0,1
270336,-100,4,3,5,40,0,0
270636,-100,4,3,5,60,0,1
277336,-100,4,3,5,60,0,0
277436,-100,4,3,5,70,0,1
288636,-100,4,3,5,40,0,1
290236,-100,4,3,5,40,0,0
291836,200,5,3,5,70,1,0
292836,200,4,3,5,50,1,0
294436,-100,4,3,5,70,0,0
295836,-100,4,3,5,30,0,8
300836,-100,4,3,5,40,0,0
302436,-100,4,3,5,50,0,0
308836,-100,4,3,5,70,0,0

[Colours]
Combo1 : 238,203,81
Combo2 : 236,89,89
Combo3 : 245,182,112

[HitObjects]
36,192,5636,5,0,3:0:0:0:
109,192,5636,1,0,3:0:0:0:
402,192,5636,1,0,3:0:0:0:
475,192,5636,1,0,3:0:0:0:
182,192,5736,1,0,3:0:0:0:
329,192,5786,1,0,3:0:0:0:
475,192,5836,1,0,3:0:0:0:
109,192,5936,1,0,3:0:0:0:
182,192,5936,1,0,3:0:0:0:
36,192,5936,1,0,3:0:0:0:
329,192,5936,1,0,3:0:0:0:
402,192,6036,1,0,3:0:0:0:
256,192,6086,1,0,3:0:0:0:
109,192,6136,1,0,3:0:0:0:
36,192,6236,1,0,3:0:0:0:
182,192,6236,1,0,3:0:0:0:
402,192,6236,1,0,3:0:0:0:
329,192,6236,1,0,3:0:0:0:
475,192,6336,1,0,3:0:0:0:
329,192,6386,1,0,3:0:0:0:
182,192,6436,1,0,3:0:0:0:
109,192,6536,1,0,3:0:0:0:
402,192,6536,1,0,3:0:0:0:
475,192,6536,1,0,3:0:0:0:
256,192,6536,1,0,3:0:0:0:
36,192,6636,1,0,3:0:0:0:
182,192,6686,1,0,3:0:0:0:
329,192,6736,1,0,3:0:0:0:
402,192,6836,1,0,3:0:0:0:
475,192,6836,1,0,3:0:0:0:
109,192,6836,1,0,3:0:0:0:
36,192,6836,1,0,3:0:0:0:
182,192,6886,1,0,3:0:0:0:
256,192,6936,1,0,3:0:0:0:
329,192,6986,1,0,3:0:0:0:
36,192,7036,1,0,3:0:0:0:
109,192,7086,1,0,3:0:0:0:
182,192,7136,1,0,3:0:0:0:
256,192,7186,1,0,3:0:0:0:
36,192,7236,5,0,3:0:0:0:
402,192,7236,1,0,3:0:0:0:
475,192,7236,1,0,3:0:0:0:
109,192,7236,1,0,3:0:0:0:
109,192,7436,1,0,3:0:0:0:
402,192,7436,1,0,3:0:0:0:
256,192,7436,1,0,0:0:0:0:
109,192,7636,1,0,3:0:0:0:
402,192,7636,1,0,3:0:0:0:
256,192,7636,1,0,0:0:0:0:
109,192,7836,1,0,3:0:0:0:
402,192,7836,1,0,3:0:0:0:
256,192,7836,1,0,0:0:0:0:
109,192,8036,1,0,3:0:0:0:
402,192,8036,1,0,3:0:0:0:
256,192,8036,1,0,0:0:0:0:
402,192,8236,1,0,3:0:0:0:
109,192,8236,1,0,0:0:0:0:
256,192,8236,1,0,0:0:0:0:
402,192,8436,1,0,3:0:0:0:
109,192,8436,1,0,0:0:0:0:
256,192,8436,1,0,0:0:0:0:
109,192,8636,1,0,3:0:0:0:
402,192,8636,1,0,3:0:0:0:
256,192,8636,1,0,0:0:0:0:
109,192,8836,1,0,3:0:0:0:
402,192,8836,1,0,3:0:0:0:
256,192,8836,1,0,0:0:0:0:
182,192,9036,1,0,0:0:0:0:
329,192,9036,1,0,0:0:0:0:
36,192,9036,1,0,0:0:0:0:
329,192,9236,1,0,3:0:0:0:
182,192,9236,1,0,3:0:0:0:
36,192,9236,1,0,0:0:0:0:
182,192,9436,1,0,3:0:0:0:
329,192,9436,1,0,3:0:0:0:
36,192,9436,1,0,0:0:0:0:
329,192,9636,1,0,3:0:0:0:
182,192,9636,1,0,3:0:0:0:
36,192,9636,1,0,0:0:0:0:
182,192,9736,1,0,3:0:0:0:
329,192,9786,1,0,3:0:0:0:
36,192,9836,1,0,3:0:0:0:
475,192,9836,1,0,0:0:0:0:
329,192,9936,1,0,3:0:0:0:
182,192,9936,1,0,3:0:0:0:
329,192,10036,1,0,3:0:0:0:
182,192,10086,1,0,3:0:0:0:
36,192,10136,1,0,3:0:0:0:
475,192,10186,1,0,3:0:0:0:
182,192,10236,1,0,3:0:0:0:
329,192,10236,1,0,3:0:0:0:
182,192,10336,1,0,3:0:0:0:
329,192,10386,1,0,3:0:0:0:
36,192,10436,1,0,3:0:0:0:
475,192,10436,1,0,0:0:0:0:
182,192,10536,1,0,3:0:0:0:
329,192,10536,1,0,0:0:0:0:
475,192,10636,1,0,0:0:0:0:
36,192,10636,1,0,0:0:0:0:
182,192,10836,1,0,3:0:0:0:
36,192,10836,1,0,0:0:0:0:
329,192,10836,1,0,0:0:0:0:
475,192,11036,1,0,0:0:0:0:
182,192,11036,1,0,0:0:0:0:
329,192,11036,1,0,0:0:0:0:
182,192,11236,1,0,0:0:0:0:
329,192,11236,1,0,0:0:0:0:
36,192,11236,1,0,0:0:0:0:
329,192,11436,1,0,0:0:0:0:
109,192,11436,1,0,0:0:0:0:
402,192,11536,1,0,3:0:0:0:
182,192,11536,1,0,3:0:0:0:
475,192,11636,1,0,3:0:0:0:
256,192,11636,1,0,3:0:0:0:
329,192,11736,1,0,3:0:0:0:
109,192,11736,1,0,0:0:0:0:
182,192,11836,1,0,3:0:0:0:
402,192,11836,1,0,3:0:0:0:
256,192,11936,1,0,3:0:0:0:
36,192,11936,1,0,3:0:0:0:
109,192,12036,1,0,3:0:0:0:
329,192,12036,1,0,0:0:0:0:
475,192,12136,1,0,3:0:0:0:
329,192,12186,1,0,3:0:0:0:
182,192,12236,1,0,3:0:0:0:
36,192,12236,1,0,0:0:0:0:
329,192,12336,1,0,3:0:0:0:
475,192,12336,1,0,3:0:0:0:
36,192,12436,1,0,3:0:0:0:
182,192,12486,1,0,3:0:0:0:
329,192,12536,1,0,0:0:0:0:
475,192,12536,1,0,0:0:0:0:
182,192,12636,1,0,3:0:0:0:
36,192,12636,1,0,3:0:0:0:
402,192,12736,1,0,3:0:0:0:
256,192,12786,1,0,3:0:0:0:
109,192,12836,1,0,3:0:0:0:
36,192,12836,1,0,0:0:0:0:
402,192,12936,1,0,3:0:0:0:
475,192,12936,1,0,3:0:0:0:
109,192,13036,1,0,3:0:0:0:
256,192,13086,1,0,3:0:0:0:
402,192,13136,1,0,3:0:0:0:
475,192,13136,1,0,0:0:0:0:
36,192,13236,1,0,3:0:0:0:
256,192,13286,1,0,3:0:0:0:
109,192,13336,1,0,3:0:0:0:
329,192,13386,1,0,3:0:0:0:
182,192,13436,1,0,3:0:0:0:
402,192,13486,1,0,3:0:0:0:
256,192,13536,1,0,3:0:0:0:
475,192,13586,1,0,3:0:0:0:
36,192,13636,1,0,3:0:0:0:
329,192,13636,1,0,3:0:0:0:
109,192,13636,1,0,3:0:0:0:
182,192,13736,1,0,3:0:0:0:
109,192,13836,1,0,3:0:0:0:
182,192,13936,1,0,3:0:0:0:
109,192,14036,1,0,3:0:0:0:
182,192,14136,1,0,3:0:0:0:
109,192,14236,1,0,3:0:0:0:
329,192,14336,128,0,14536:3:0:0:0:
182,192,14436,128,0,14636:3:0:0:0:
402,192,14536,128,0,14736:3:0:0:0:
256,192,14636,128,0,14736:3:0:0:0:
36,192,14736,1,0,3:0:0:0:
109,192,14786,1,0,3:0:0:0:
182,192,14836,1,0,3:0:0:0:
329,192,14836,1,0,3:0:0:0:
475,192,14836,1,0,3:0:0:0:
36,192,14936,1,0,3:0:0:0:
256,192,15036,1,0,3:0:0:0:
475,192,15136,1,0,3:0:0:0:
36,192,15236,1,0,3:0:0:0:
329,192,15236,1,0,3:0:0:0:
402,192,15236,1,0,3:0:0:0:
109,192,15236,128,0,15336:3:0:0:0:
182,192,15336,128,0,15436:3:0:0:0:
402,192,15436,1,0,3:0:0:0:
475,192,15436,1,0,3:0:0:0:
109,192,15436,128,0,15536:3:0:0:0:
182,192,15536,128,0,15636:3:0:0:0:
256,192,15636,128,0,15736:3:0:0:0:
329,192,15736,128,0,15836:3:0:0:0:
182,192,15836,1,0,3:0:0:0:
36,192,15836,1,0,3:0:0:0:
475,192,15836,128,0,15936:3:0:0:0:
402,192,15936,128,0,16036:3:0:0:0:
329,192,16036,128,0,16536:3:0:0:0:
36,192,16036,1,0,3:0:0:0:
109,192,16136,1,0,3:0:0:0:
182,192,16236,1,0,3:0:0:0:
475,192,16236,1,0,3:0:0:0:
36,192,16336,1,0,3:0:0:0:
182,192,16436,1,0,3:0:0:0:
402,192,16536,128,0,16636:3:0:0:0:
329,192,16636,128,0,16736:3:0:0:0:
36,192,16636,1,0,3:0:0:0:
182,192,16636,1,0,3:0:0:0:
256,192,16736,128,0,16836:3:0:0:0:
182,192,16836,128,0,17236:3:0:0:0:
402,192,16836,1,0,3:0:0:0:
329,192,16936,1,0,3:0:0:0:
475,192,17036,1,0,3:0:0:0:
36,192,17036,1,0,3:0:0:0:
256,192,17136,1,0,3:0:0:0:
109,192,17236,128,0,17436:3:0:0:0:
329,192,17336,1,0,3:0:0:0:
402,192,17436,128,0,17561:3:0:0:0:
36,192,17436,1,0,3:0:0:0:
182,192,17436,1,0,3:0:0:0:
256,192,17561,128,0,17636:3:0:0:0:
36,192,17636,128,0,18036:3:0:0:0:
329,192,17636,1,0,3:0:0:0:
182,192,17736,1,0,3:0:0:0:
329,192,17836,1,0,3:0:0:0:
475,192,17836,1,0,3:0:0:0:
256,192,17936,1,0,3:0:0:0:
109,192,18036,128,0,18236:3:0:0:0:
402,192,18136,1,0,3:0:0:0:
256,192,18236,128,0,18336:3:0:0:0:
475,192,18236,1,0,3:0:0:0:
36,192,18236,1,0,3:0:0:0:
329,192,18336,128,0,18436:3:0:0:0:
109,192,18336,1,0,3:0:0:0:
402,192,18436,128,0,18569:3:0:0:0:
475,192,18436,1,0,3:0:0:0:
36,192,18436,1,0,3:0:0:0:
256,192,18569,128,0,18636:3:0:0:0:
109,192,18636,128,0,18736:3:0:0:0:
475,192,18636,1,0,3:0:0:0:
182,192,18636,1,0,3:0:0:0:
36,192,18736,128,0,18836:3:0:0:0:
182,192,18836,128,0,18936:3:0:0:0:
329,192,18936,128,0,19036:3:0:0:0:
36,192,19036,1,0,3:0:0:0:
475,192,19036,1,0,3:0:0:0:
256,192,19036,128,0,19136:3:0:0:0:
109,192,19136,128,0,19236:3:0:0:0:
402,192,19236,128,0,19536:3:0:0:0:
182,192,19236,1,0,3:0:0:0:
36,192,19336,1,0,3:0:0:0:
109,192,19436,1,0,3:0:0:0:
256,192,19436,1,0,3:0:0:0:
36,192,19536,128,0,19936:3:0:0:0:
329,192,19536,1,0,3:0:0:0:
475,192,19636,1,0,3:0:0:0:
329,192,19736,1,0,3:0:0:0:
182,192,19836,1,0,3:0:0:0:
402,192,19836,1,0,3:0:0:0:
475,192,19936,1,0,3:0:0:0:
256,192,19936,1,0,3:0:0:0:
36,192,20036,1,0,3:0:0:0:
109,192,20036,1,0,3:0:0:0:
182,192,20036,1,0,3:0:0:0:
402,192,20036,128,0,20136:3:0:0:0:
329,192,20136,128,0,20236:3:0:0:0:
36,192,20236,1,0,3:0:0:0:
109,192,20236,1,0,3:0:0:0:
256,192,20236,128,0,20336:3:0:0:0:
402,192,20336,128,0,20436:3:0:0:0:
36,192,20436,1,0,3:0:0:0:
109,192,20436,1,0,3:0:0:0:
329,192,20436,128,0,20536:3:0:0:0:
182,192,20536,1,0,3:0:0:0:
256,192,20586,1,0,3:0:0:0:
475,192,20636,1,0,3:0:0:0:
36,192,20636,128,0,20736:3:0:0:0:
329,192,20636,1,0,0:0:0:0:
109,192,20736,128,0,20836:3:0:0:0:
256,192,20836,1,0,3:0:0:0:
36,192,20836,1,0,3:0:0:0:
402,192,20836,1,0,3:0:0:0:
475,192,20836,128,0,21236:3:0:0:0:
182,192,20936,1,0,3:0:0:0:
36,192,21036,1,0,3:0:0:0:
109,192,21136,1,0,3:0:0:0:
256,192,21236,128,0,21636:3:0:0:0:
329,192,21336,1,0,3:0:0:0:
402,192,21436,1,0,3:0:0:0:
475,192,21536,1,0,3:0:0:0:
109,192,21636,1,0,3:0:0:0:
36,192,21636,1,0,3:0:0:0:
182,192,21636,1,0,3:0:0:0:
402,192,21636,128,0,21686:3:0:0:0:
256,192,21736,1,0,3:0:0:0:
36,192,21836,1,0,3:0:0:0:
182,192,21836,1,0,3:0:0:0:
475,192,21836,1,0,3:0:0:0:
329,192,21936,128,0,21986:3:0:0:0:
256,192,22036,1,0,3:0:0:0:
182,192,22136,1,0,3:0:0:0:
475,192,22236,128,0,22286:3:0:0:0:
109,192,22236,1,0,3:0:0:0:
329,192,22236,1,0,3:0:0:0:
256,192,22336,1,0,3:0:0:0:
402,192,22436,1,0,3:0:0:0:
329,192,22536,128,0,22586:3:0:0:0:
182,192,22636,1,0,3:0:0:0:
36,192,22636,1,0,3:0:0:0:
475,192,22636,1,0,3:0:0:0:
256,192,22736,1,0,3:0:0:0:
329,192,22836,128,0,22886:3:0:0:0:
402,192,22936,128,0,22986:3:0:0:0:
109,192,23036,128,0,23086:3:0:0:0:
256,192,23036,1,0,3:0:0:0:
475,192,23036,1,0,3:0:0:0:
182,192,23136,128,0,23186:3:0:0:0:
329,192,23236,128,0,23286:3:0:0:0:
109,192,23336,1,0,3:0:0:0:
256,192,23436,1,0,3:0:0:0:
402,192,23436,1,0,3:0:0:0:
36,192,23436,1,0,3:0:0:0:
475,192,23536,128,0,23586:3:0:0:0:
182,192,23636,1,0,3:0:0:0:
256,192,23736,1,0,3:0:0:0:
402,192,23836,128,0,23886:3:0:0:0:
36,192,23836,1,0,3:0:0:0:
182,192,23836,1,0,3:0:0:0:
329,192,23936,1,0,3:0:0:0:
256,192,24036,1,0,3:0:0:0:
329,192,24136,128,0,24186:3:0:0:0:
475,192,24236,1,0,3:0:0:0:
256,192,24236,1,0,3:0:0:0:
36,192,24236,1,0,3:0:0:0:
402,192,24336,1,0,0:0:0:0:
182,192,24336,1,0,0:0:0:0:
256,192,24436,1,0,3:0:0:0:
329,192,24436,1,0,3:0:0:0:
36,192,24436,128,0,24486:3:0:0:0:
475,192,24536,128,0,24586:3:0:0:0:
402,192,24636,1,0,3:0:0:0:
109,192,24636,1,0,3:0:0:0:
329,192,24636,128,0,24686:3:0:0:0:
36,192,24736,128,0,24786:3:0:0:0:
256,192,24836,1,0,3:0:0:0:
402,192,24836,1,0,3:0:0:0:
475,192,24836,1,0,3:0:0:0:
182,192,24836,128,0,24886:3:0:0:0:
109,192,24936,1,0,3:0:0:0:
182,192,25036,1,0,3:0:0:0:
475,192,25036,1,0,3:0:0:0:
402,192,25036,1,0,3:0:0:0:
329,192,25036,128,0,25086:3:0:0:0:
36,192,25136,128,0,25186:3:0:0:0:
256,192,25236,1,0,3:0:0:0:
402,192,25336,128,0,25386:3:0:0:0:
109,192,25436,128,0,25486:3:0:0:0:
329,192,25436,1,0,3:0:0:0:
36,192,25436,1,0,3:0:0:0:
475,192,25536,1,0,3:0:0:0:
256,192,25636,128,0,25686:3:0:0:0:
182,192,25736,128,0,25786:3:0:0:0:
109,192,25836,1,0,3:0:0:0:
329,192,25836,1,0,3:0:0:0:
475,192,25836,1,0,3:0:0:0:
256,192,25936,1,0,3:0:0:0:
36,192,26036,128,0,26086:3:0:0:0:
475,192,26136,128,0,26186:3:0:0:0:
182,192,26236,1,0,0:0:0:0:
36,192,26236,1,0,0:0:0:0:
329,192,26236,128,0,26286:0:0:0:0:
182,192,26336,128,0,26386:3:0:0:0:
329,192,26336,1,0,3:0:0:0:
36,192,26436,1,0,3:0:0:0:
109,192,26436,128,0,26486:3:0:0:0:
402,192,26436,1,0,3:0:0:0:
475,192,26536,1,0,3:0:0:0:
256,192,26536,128,0,26586:3:0:0:0:
182,192,26536,1,0,3:0:0:0:
402,192,26636,128,0,26686:3:0:0:0:
36,192,26736,1,0,3:0:0:0:
475,192,26736,1,0,3:0:0:0:
182,192,26736,128,0,26786:3:0:0:0:
256,192,26836,128,0,26886:3:0:0:0:
329,192,26936,128,0,26986:3:0:0:0:
36,192,27036,1,0,3:0:0:0:
475,192,27036,1,0,3:0:0:0:
109,192,27036,1,0,3:0:0:0:
182,192,27136,1,0,3:0:0:0:
329,192,27186,1,0,3:0:0:0:
475,192,27236,1,0,3:0:0:0:
109,192,27236,1,0,3:0:0:0:
182,192,27336,1,0,3:0:0:0:
36,192,27336,1,0,3:0:0:0:
402,192,27336,1,0,3:0:0:0:
329,192,27436,1,0,3:0:0:0:
256,192,27486,1,0,3:0:0:0:
182,192,27536,1,0,3:0:0:0:
109,192,27586,1,0,3:0:0:0:
36,192,27636,1,0,3:0:0:0:
329,192,27636,1,0,3:0:0:0:
475,192,27636,128,0,27686:3:0:0:0:
256,192,27736,1,0,3:0:0:0:
402,192,27736,128,0,27786:3:0:0:0:
182,192,27836,1,0,3:0:0:0:
329,192,27836,128,0,27886:3:0:0:0:
109,192,27936,1,0,3:0:0:0:
256,192,27936,128,0,27986:3:0:0:0:
109,192,28036,1,0,3:0:0:0:
402,192,28036,1,0,3:0:0:0:
475,192,28036,1,0,3:0:0:0:
36,192,28036,1,0,3:0:0:0:
182,192,28236,1,0,3:0:0:0:
402,192,28236,1,0,3:0:0:0:
329,192,28236,1,0,3:0:0:0:
182,192,28336,1,0,3:0:0:0:
329,192,28336,1,0,3:0:0:0:
402,192,28336,1,0,3:0:0:0:
109,192,28536,1,0,3:0:0:0:
182,192,28536,1,0,3:0:0:0:
402,192,28536,1,0,3:0:0:0:
109,192,28736,1,0,3:0:0:0:
36,192,28736,1,0,3:0:0:0:
329,192,28736,1,0,3:0:0:0:
182,192,28936,1,0,3:0:0:0:
109,192,29036,1,0,3:0:0:0:
36,192,29036,1,0,3:0:0:0:
329,192,29036,1,0,3:0:0:0:
329,192,29236,1,0,3:0:0:0:
36,192,29336,1,0,3:0:0:0:
475,192,29336,1,0,3:0:0:0:
256,192,29336,1,0,3:0:0:0:
109,192,29336,1,0,0:0:0:0:
36,192,29636,1,0,3:0:0:0:
182,192,29736,1,0,3:0:0:0:
329,192,29736,1,0,3:0:0:0:
402,192,29836,1,0,3:0:0:0:
329,192,29836,1,0,3:0:0:0:
182,192,29836,1,0,3:0:0:0:
475,192,29836,1,0,3:0:0:0:
36,192,30036,1,0,0:0:0:0:
109,192,30136,1,0,3:0:0:0:
256,192,30136,1,0,3:0:0:0:
402,192,30136,1,0,3:0:0:0:
109,192,30336,1,0,3:0:0:0:
256,192,30336,1,0,3:0:0:0:
402,192,30336,1,0,3:0:0:0:
329,192,30536,1,0,3:0:0:0:
109,192,30636,1,0,3:0:0:0:
256,192,30636,1,0,3:0:0:0:
402,192,30636,1,0,3:0:0:0:
329,192,30836,1,0,3:0:0:0:
182,192,30836,1,0,3:0:0:0:
109,192,30886,1,0,3:0:0:0:
256,192,30936,1,0,3:0:0:0:
475,192,30936,1,0,3:0:0:0:
36,192,30936,1,0,3:0:0:0:
402,192,30936,1,0,0:0:0:0:
182,192,31036,1,0,3:0:0:0:
109,192,31136,1,0,3:0:0:0:
36,192,31236,1,0,3:0:0:0:
475,192,31236,1,0,3:0:0:0:
182,192,31236,1,0,3:0:0:0:
256,192,31236,1,0,0:0:0:0:
329,192,31336,1,0,3:0:0:0:
402,192,31436,1,0,3:0:0:0:
182,192,31536,1,0,3:0:0:0:
475,192,31536,1,0,3:0:0:0:
36,192,31536,1,0,3:0:0:0:
109,192,31536,1,0,0:0:0:0:
402,192,31636,1,0,3:0:0:0:
256,192,31686,1,0,3:0:0:0:
109,192,31736,1,0,3:0:0:0:
329,192,31836,1,0,3:0:0:0:
36,192,31836,1,0,3:0:0:0:
475,192,31836,1,0,3:0:0:0:
402,192,31836,1,0,0:0:0:0:
109,192,32036,1,0,3:0:0:0:
36,192,32036,1,0,3:0:0:0:
256,192,32036,1,0,3:0:0:0:
402,192,32036,1,0,3:0:0:0:
475,192,32036,1,0,3:0:0:0:
182,192,32436,1,0,3:0:0:0:
329,192,32502,1,0,3:0:0:0:
109,192,32569,1,0,3:0:0:0:
256,192,32636,1,0,3:0:0:0:
36,192,32702,1,0,3:0:0:0:
182,192,32769,1,0,3:0:0:0:
256,192,32836,1,0,3:0:0:0:
402,192,32902,1,0,3:0:0:0:
475,192,32969,1,0,3:0:0:0:
36,192,33036,1,0,3:0:0:0:
109,192,33036,1,0,3:0:0:0:
329,192,33036,1,0,3:0:0:0:
182,192,33036,1,0,0:0:0:0:
402,192,33102,1,0,3:0:0:0:
256,192,33169,1,0,3:0:0:0:
329,192,33236,1,0,3:0:0:0:
475,192,33236,1,0,3:0:0:0:
36,192,33236,1,0,0:0:0:0:
109,192,33236,1,0,0:0:0:0:
182,192,33302,1,0,3:0:0:0:
256,192,33369,1,0,3:0:0:0:
109,192,33436,1,0,3:0:0:0:
402,192,33436,1,0,3:0:0:0:
329,192,33436,1,0,3:0:0:0:
475,192,33436,1,0,0:0:0:0:
182,192,33502,1,0,3:0:0:0:
36,192,33569,1,0,3:0:0:0:
402,192,33636,1,0,3:0:0:0:
109,192,33636,1,0,3:0:0:0:
256,192,33636,1,0,3:0:0:0:
475,192,33636,1,0,3:0:0:0:
329,192,33836,1,0,3:0:0:0:
256,192,33936,1,0,3:0:0:0:
109,192,33936,1,0,3:0:0:0:
109,192,34136,1,0,3:0:0:0:
256,192,34236,1,0,3:0:0:0:
475,192,34236,1,0,3:0:0:0:
36,192,34236,1,0,3:0:0:0:
182,192,34436,1,0,3:0:0:0:
256,192,34536,1,0,3:0:0:0:
402,192,34536,1,0,3:0:0:0:
256,192,34736,1,0,3:0:0:0:
402,192,34736,1,0,3:0:0:0:
182,192,34836,1,0,3:0:0:0:
36,192,34836,1,0,3:0:0:0:
475,192,34836,1,0,3:0:0:0:
402,192,34969,1,0,3:0:0:0:
256,192,35036,1,0,0:0:0:0:
329,192,35102,1,0,3:0:0:0:
182,192,35169,1,0,3:0:0:0:
256,192,35236,1,0,3:0:0:0:
402,192,35236,1,0,3:0:0:0:
402,192,35336,1,0,3:0:0:0:
256,192,35336,1,0,3:0:0:0:
109,192,35336,1,0,0:0:0:0:
36,192,35336,1,0,0:0:0:0:
475,192,35436,1,0,3:0:0:0:
329,192,35436,1,0,3:0:0:0:
182,192,35436,1,0,3:0:0:0:
109,192,35636,1,0,3:0:0:0:
182,192,35736,1,0,3:0:0:0:
329,192,35736,1,0,3:0:0:0:
329,192,35936,1,0,3:0:0:0:
256,192,36036,1,0,3:0:0:0:
109,192,36036,1,0,3:0:0:0:
109,192,36236,1,0,3:0:0:0:
182,192,36336,1,0,3:0:0:0:
402,192,36336,1,0,3:0:0:0:
109,192,36436,1,0,3:0:0:0:
36,192,36436,1,0,3:0:0:0:
329,192,36436,1,0,3:0:0:0:
256,192,36536,1,0,3:0:0:0:
475,192,36536,1,0,3:0:0:0:
109,192,36636,1,0,3:0:0:0:
329,192,36636,1,0,3:0:0:0:
109,192,36736,1,0,3:0:0:0:
329,192,36736,1,0,3:0:0:0:
475,192,36836,1,0,3:0:0:0:
36,192,36836,1,0,3:0:0:0:
256,192,36836,1,0,3:0:0:0:
402,192,36836,1,0,3:0:0:0:
182,192,36936,1,0,3:0:0:0:
109,192,37036,1,0,3:0:0:0:
402,192,37036,1,0,3:0:0:0:
256,192,37136,1,0,3:0:0:0:
36,192,37236,1,0,3:0:0:0:
329,192,37236,1,0,3:0:0:0:
182,192,37236,1,0,3:0:0:0:
475,192,37336,1,0,3:0:0:0:
109,192,37436,1,0,3:0:0:0:
329,192,37436,1,0,3:0:0:0:
182,192,37536,1,0,3:0:0:0:
402,192,37536,1,0,3:0:0:0:
36,192,37636,1,0,3:0:0:0:
109,192,37636,1,0,3:0:0:0:
256,192,37736,1,0,3:0:0:0:
109,192,37836,1,0,3:0:0:0:
402,192,37836,1,0,3:0:0:0:
329,192,37836,1,0,3:0:0:0:
36,192,37936,1,0,3:0:0:0:
182,192,38036,1,0,3:0:0:0:
475,192,38036,1,0,3:0:0:0:
329,192,38136,1,0,3:0:0:0:
36,192,38236,1,0,3:0:0:0:
402,192,38236,1,0,3:0:0:0:
182,192,38336,1,0,3:0:0:0:
109,192,38436,1,0,3:0:0:0:
402,192,38436,1,0,3:0:0:0:
475,192,38436,1,0,0:0:0:0:
182,192,38536,1,0,3:0:0:0:
329,192,38536,1,0,3:0:0:0:
109,192,38636,1,0,3:0:0:0:
36,192,38636,1,0,3:0:0:0:
402,192,38636,1,0,3:0:0:0:
256,192,38636,1,0,3:0:0:0:
329,192,38736,1,0,3:0:0:0:
475,192,38736,1,0,3:0:0:0:
182,192,38836,1,0,3:0:0:0:
36,192,38836,1,0,0:0:0:0:
36,192,38936,1,0,3:0:0:0:
182,192,38936,1,0,0:0:0:0:
402,192,39036,1,0,3:0:0:0:
256,192,39036,1,0,3:0:0:0:
402,192,39136,1,0,0:0:0:0:
256,192,39136,1,0,0:0:0:0:
475,192,39236,1,0,3:0:0:0:
109,192,39236,1,0,3:0:0:0:
329,192,39236,1,0,0:0:0:0:
36,192,39286,1,0,0:0:0:0:
256,192,39336,1,0,0:0:0:0:
182,192,39386,1,0,0:0:0:0:
475,192,39436,1,0,3:0:0:0:
36,192,39436,1,0,3:0:0:0:
109,192,39436,1,0,0:0:0:0:
402,192,39502,1,0,0:0:0:0:
329,192,39569,1,0,0:0:0:0:
256,192,39602,1,0,0:0:0:0:
475,192,39636,1,0,3:0:0:0:
36,192,39636,1,0,3:0:0:0:
182,192,39636,1,0,0:0:0:0:
402,192,39702,1,0,0:0:0:0:
329,192,39769,1,0,0:0:0:0:
256,192,39802,1,0,0:0:0:0:
475,192,39836,1,0,3:0:0:0:
36,192,39836,1,0,3:0:0:0:
182,192,39836,1,0,0:0:0:0:
402,192,39902,1,0,0:0:0:0:
329,192,39969,1,0,0:0:0:0:
256,192,40002,1,0,0:0:0:0:
182,192,40036,1,0,3:0:0:0:
36,192,40036,1,0,0:0:0:0:
475,192,40036,1,0,0:0:0:0:
402,192,40086,1,0,0:0:0:0:
109,192,40136,1,0,0:0:0:0:
182,192,40186,1,0,0:0:0:0:
256,192,40236,1,0,0:0:0:0:
329,192,40286,1,0,0:0:0:0:
475,192,40336,1,0,3:0:0:0:
182,192,40336,1,0,3:0:0:0:
402,192,40336,1,0,3:0:0:0:
109,192,40436,1,0,0:0:0:0:
329,192,40436,1,0,0:0:0:0:
256,192,40486,1,0,0:0:0:0:
182,192,40536,1,0,3:0:0:0:
402,192,40536,1,0,0:0:0:0:
329,192,40586,1,0,0:0:0:0:
256,192,40636,1,0,3:0:0:0:
475,192,40636,1,0,3:0:0:0:
36,192,40636,1,0,3:0:0:0:
182,192,40736,1,0,0:0:0:0:
402,192,40736,1,0,0:0:0:0:
36,192,40836,1,0,3:0:0:0:
475,192,40836,1,0,3:0:0:0:
109,192,40836,1,0,3:0:0:0:
329,192,40836,1,0,3:0:0:0:
182,192,40936,1,0,3:0:0:0:
329,192,40986,1,0,3:0:0:0:
36,192,41036,1,0,3:0:0:0:
475,192,41036,1,0,3:0:0:0:
256,192,41036,1,0,3:0:0:0:
402,192,41136,1,0,3:0:0:0:
109,192,41186,1,0,0:0:0:0:
256,192,41236,1,0,3:0:0:0:
475,192,41336,1,0,3:0:0:0:
329,192,41336,1,0,0:0:0:0:
36,192,41336,1,0,0:0:0:0:
109,192,41436,1,0,3:0:0:0:
256,192,41536,1,0,3:0:0:0:
182,192,41586,1,0,3:0:0:0:
109,192,41636,1,0,3:0:0:0:
475,192,41636,1,0,3:0:0:0:
329,192,41636,1,0,3:0:0:0:
402,192,41636,1,0,3:0:0:0:
256,192,41736,1,0,3:0:0:0:
109,192,41836,1,0,3:0:0:0:
36,192,41836,1,0,3:0:0:0:
402,192,41836,1,0,0:0:0:0:
329,192,41936,1,0,3:0:0:0:
182,192,42036,1,0,3:0:0:0:
256,192,42136,1,0,3:0:0:0:
329,192,42236,1,0,3:0:0:0:
475,192,42236,1,0,3:0:0:0:
36,192,42236,1,0,3:0:0:0:
329,192,42336,1,0,0:0:0:0:
36,192,42336,1,0,0:0:0:0:
475,192,42436,1,0,3:0:0:0:
256,192,42436,1,0,0:0:0:0:
182,192,42486,1,0,3:0:0:0:
109,192,42536,1,0,3:0:0:0:
36,192,42586,1,0,3:0:0:0:
475,192,42636,1,0,3:0:0:0:
402,192,42686,1,0,3:0:0:0:
329,192,42736,1,0,3:0:0:0:
36,192,42786,1,0,3:0:0:0:
475,192,42836,1,0,3:0:0:0:
109,192,42886,1,0,3:0:0:0:
402,192,42936,1,0,3:0:0:0:
182,192,42986,1,0,3:0:0:0:
329,192,43036,1,0,3:0:0:0:
256,192,43086,1,0,3:0:0:0:
182,192,43136,1,0,3:0:0:0:
109,192,43186,1,0,3:0:0:0:
36,192,43236,1,0,3:0:0:0:
402,192,43236,1,0,3:0:0:0:
475,192,43236,1,0,3:0:0:0:
329,192,43236,1,0,3:0:0:0:
329,192,43636,128,0,43836:3:0:0:0:
256,192,43836,128,0,44036:3:0:0:0:
109,192,44036,1,0,3:0:0:0:
36,192,44036,1,0,3:0:0:0:
475,192,44036,1,0,3:0:0:0:
182,192,44036,128,0,44236:3:0:0:0:
475,192,44136,1,0,3:0:0:0:
256,192,44236,1,0,3:0:0:0:
36,192,44236,1,0,3:0:0:0:
402,192,44236,1,0,3:0:0:0:
109,192,44336,128,0,44536:3:0:0:0:
329,192,44436,1,0,3:0:0:0:
329,192,44536,1,0,3:0:0:0:
36,192,44636,128,0,44836:3:0:0:0:
182,192,44636,1,0,3:0:0:0:
402,192,44636,1,0,3:0:0:0:
256,192,44736,1,0,3:0:0:0:
475,192,44836,128,0,45136:3:0:0:0:
109,192,44836,1,0,3:0:0:0:
109,192,44936,1,0,3:0:0:0:
36,192,45036,1,0,3:0:0:0:
256,192,45036,1,0,3:0:0:0:
182,192,45136,1,0,3:0:0:0:
402,192,45236,128,0,45436:3:0:0:0:
329,192,45236,1,0,3:0:0:0:
109,192,45336,1,0,3:0:0:0:
36,192,45436,1,0,3:0:0:0:
475,192,45436,1,0,3:0:0:0:
256,192,45436,128,0,45636:3:0:0:0:
109,192,45536,1,0,3:0:0:0:
182,192,45636,128,0,45836:3:0:0:0:
402,192,45636,1,0,3:0:0:0:
402,192,45736,1,0,3:0:0:0:
36,192,45836,1,0,3:0:0:0:
256,192,45836,1,0,3:0:0:0:
475,192,45836,1,0,3:0:0:0:
109,192,45936,128,0,46136:3:0:0:0:
329,192,46036,1,0,3:0:0:0:
329,192,46136,1,0,3:0:0:0:
475,192,46236,1,0,3:0:0:0:
36,192,46236,128,0,46436:3:0:0:0:
182,192,46236,1,0,3:0:0:0:
329,192,46336,1,0,3:0:0:0:
402,192,46436,128,0,46736:3:0:0:0:
182,192,46436,1,0,3:0:0:0:
182,192,46536,1,0,3:0:0:0:
256,192,46636,1,0,3:0:0:0:
36,192,46636,1,0,3:0:0:0:
109,192,46736,1,0,3:0:0:0:
182,192,46786,1,0,3:0:0:0:
256,192,46836,128,0,47036:3:0:0:0:
475,192,46836,1,0,3:0:0:0:
402,192,46936,1,0,3:0:0:0:
182,192,47036,1,0,3:0:0:0:
36,192,47036,128,0,47236:3:0:0:0:
475,192,47036,1,0,3:0:0:0:
329,192,47136,1,0,3:0:0:0:
256,192,47236,128,0,47436:3:0:0:0:
109,192,47236,1,0,3:0:0:0:
109,192,47336,1,0,3:0:0:0:
36,192,47436,1,0,3:0:0:0:
329,192,47436,1,0,3:0:0:0:
475,192,47436,1,0,3:0:0:0:
402,192,47536,128,0,47736:3:0:0:0:
182,192,47636,1,0,3:0:0:0:
182,192,47736,1,0,3:0:0:0:
36,192,47836,1,0,3:0:0:0:
475,192,47836,1,0,3:0:0:0:
256,192,47836,128,0,48036:3:0:0:0:
402,192,47936,1,0,3:0:0:0:
329,192,48036,128,0,48236:3:0:0:0:
109,192,48036,1,0,3:0:0:0:
182,192,48136,1,0,3:0:0:0:
36,192,48236,1,0,3:0:0:0:
475,192,48236,1,0,3:0:0:0:
256,192,48236,128,0,48436:3:0:0:0:
402,192,48336,1,0,0:0:0:0:
109,192,48436,128,0,48636:3:0:0:0:
475,192,48436,1,0,3:0:0:0:
329,192,48536,1,0,3:0:0:0:
182,192,48636,128,0,48836:3:0:0:0:
36,192,48636,1,0,3:0:0:0:
402,192,48636,1,0,3:0:0:0:
329,192,48736,1,0,3:0:0:0:
475,192,48836,128,0,49036:3:0:0:0:
256,192,48836,1,0,3:0:0:0:
256,192,48936,1,0,3:0:0:0:
182,192,49036,1,0,3:0:0:0:
36,192,49036,1,0,3:0:0:0:
329,192,49036,1,0,3:0:0:0:
402,192,49136,128,0,49336:3:0:0:0:
109,192,49236,1,0,3:0:0:0:
109,192,49336,1,0,3:0:0:0:
329,192,49436,128,0,49636:3:0:0:0:
182,192,49436,1,0,3:0:0:0:
475,192,49436,1,0,3:0:0:0:
36,192,49536,1,0,3:0:0:0:
109,192,49636,128,0,49836:3:0:0:0:
402,192,49636,1,0,3:0:0:0:
402,192,49736,1,0,3:0:0:0:
36,192,49836,1,0,3:0:0:0:
182,192,49836,1,0,3:0:0:0:
256,192,49836,1,0,3:0:0:0:
475,192,49836,1,0,3:0:0:0:
329,192,49936,128,0,50436:3:0:0:0:
475,192,50036,1,0,3:0:0:0:
109,192,50086,1,0,3:0:0:0:
182,192,50136,1,0,3:0:0:0:
256,192,50186,1,0,3:0:0:0:
109,192,50236,1,0,3:0:0:0:
36,192,50236,1,0,3:0:0:0:
475,192,50236,1,0,3:0:0:0:
182,192,50336,1,0,3:0:0:0:
256,192,50436,1,0,3:0:0:0:
475,192,50436,1,0,3:0:0:0:
36,192,50436,1,0,3:0:0:0:
402,192,50436,128,0,50636:3:0:0:0:
256,192,50536,1,0,3:0:0:0:
329,192,50636,1,0,3:0:0:0:
36,192,50636,1,0,3:0:0:0:
182,192,50636,1,0,3:0:0:0:
475,192,50736,128,0,50936:3:0:0:0:
109,192,50836,1,0,3:0:0:0:
109,192,50936,1,0,3:0:0:0:
36,192,51036,1,0,3:0:0:0:
256,192,51036,1,0,3:0:0:0:
402,192,51036,128,0,51236:3:0:0:0:
109,192,51136,1,0,3:0:0:0:
329,192,51236,1,0,3:0:0:0:
182,192,51236,128,0,51536:3:0:0:0:
329,192,51336,1,0,3:0:0:0:
475,192,51436,1,0,3:0:0:0:
36,192,51436,1,0,3:0:0:0:
256,192,51536,1,0,3:0:0:0:
109,192,51636,128,0,51836:3:0:0:0:
329,192,51636,1,0,3:0:0:0:
475,192,51736,1,0,3:0:0:0:
182,192,51836,128,0,52036:3:0:0:0:
36,192,51836,1,0,3:0:0:0:
402,192,51836,1,0,3:0:0:0:
329,192,51936,1,0,3:0:0:0:
402,192,52036,1,0,3:0:0:0:
256,192,52036,128,0,52236:3:0:0:0:
402,192,52136,1,0,3:0:0:0:
36,192,52236,1,0,3:0:0:0:
475,192,52236,1,0,3:0:0:0:
182,192,52236,1,0,3:0:0:0:
329,192,52336,128,0,52536:3:0:0:0:
109,192,52436,1,0,3:0:0:0:
109,192,52536,1,0,3:0:0:0:
475,192,52636,1,0,3:0:0:0:
36,192,52636,1,0,3:0:0:0:
256,192,52636,128,0,52836:3:0:0:0:
402,192,52736,1,0,3:0:0:0:
475,192,52836,128,0,53036:3:0:0:0:
182,192,52836,1,0,3:0:0:0:
182,192,52936,1,0,3:0:0:0:
109,192,53036,1,0,3:0:0:0:
329,192,53036,1,0,3:0:0:0:
36,192,53036,1,0,3:0:0:0:
402,192,53136,128,0,53336:3:0:0:0:
109,192,53186,1,0,3:0:0:0:
182,192,53236,1,0,0:0:0:0:
256,192,53286,1,0,0:0:0:0:
109,192,53336,1,0,3:0:0:0:
36,192,53436,1,0,3:0:0:0:
475,192,53436,1,0,3:0:0:0:
256,192,53436,128,0,53636:3:0:0:0:
36,192,53536,1,0,3:0:0:0:
475,192,53536,1,0,3:0:0:0:
182,192,53636,1,0,3:0:0:0:
402,192,53636,1,0,3:0:0:0:
329,192,53636,1,0,3:0:0:0:
109,192,53636,128,0,53836:3:0:0:0:
329,192,53736,1,0,3:0:0:0:
256,192,53836,1,0,3:0:0:0:
475,192,53836,1,0,3:0:0:0:
36,192,53836,1,0,3:0:0:0:
402,192,53936,128,0,54136:3:0:0:0:
109,192,53936,1,0,3:0:0:0:
182,192,54036,1,0,3:0:0:0:
182,192,54136,1,0,3:0:0:0:
109,192,54236,1,0,3:0:0:0:
256,192,54236,128,0,54436:3:0:0:0:
402,192,54236,1,0,3:0:0:0:
402,192,54336,1,0,3:0:0:0:
109,192,54336,1,0,3:0:0:0:
182,192,54436,1,0,3:0:0:0:
329,192,54436,1,0,3:0:0:0:
475,192,54436,1,0,3:0:0:0:
36,192,54436,128,0,54636:3:0:0:0:
256,192,54636,1,0,3:0:0:0:
402,192,54636,1,0,3:0:0:0:
182,192,54736,1,0,3:0:0:0:
475,192,54736,1,0,3:0:0:0:
109,192,54736,128,0,54936:3:0:0:0:
329,192,54836,1,0,3:0:0:0:
402,192,54886,1,0,3:0:0:0:
475,192,54936,1,0,3:0:0:0:
36,192,55036,1,0,3:0:0:0:
182,192,55036,1,0,0:0:0:0:
329,192,55036,1,0,0:0:0:0:
36,192,55136,1,0,3:0:0:0:
182,192,55136,1,0,0:0:0:0:
475,192,55236,1,0,3:0:0:0:
402,192,55236,1,0,3:0:0:0:
256,192,55236,1,0,0:0:0:0:
109,192,55336,1,0,3:0:0:0:
256,192,55386,1,0,3:0:0:0:
402,192,55436,1,0,3:0:0:0:
475,192,55436,1,0,3:0:0:0:
36,192,55436,1,0,3:0:0:0:
182,192,55486,1,0,3:0:0:0:
329,192,55536,1,0,3:0:0:0:
402,192,55586,1,0,0:0:0:0:
256,192,55636,1,0,3:0:0:0:
36,192,55636,1,0,3:0:0:0:
475,192,55636,1,0,3:0:0:0:
109,192,55686,1,0,3:0:0:0:
182,192,55736,1,0,3:0:0:0:
256,192,55786,1,0,0:0:0:0:
475,192,55836,1,0,3:0:0:0:
329,192,55836,1,0,3:0:0:0:
109,192,55836,1,0,3:0:0:0:
402,192,55836,1,0,3:0:0:0:
182,192,55936,1,0,3:0:0:0:
329,192,55986,1,0,3:0:0:0:
109,192,56036,1,0,3:0:0:0:
36,192,56036,1,0,3:0:0:0:
475,192,56036,1,0,0:0:0:0:
402,192,56086,1,0,3:0:0:0:
256,192,56136,1,0,3:0:0:0:
182,192,56186,1,0,3:0:0:0:
402,192,56236,1,0,3:0:0:0:
329,192,56286,1,0,3:0:0:0:
182,192,56336,1,0,3:0:0:0:
109,192,56386,1,0,3:0:0:0:
329,192,56436,1,0,3:0:0:0:
256,192,56486,1,0,3:0:0:0:
109,192,56536,1,0,3:0:0:0:
36,192,56586,1,0,3:0:0:0:
475,192,56636,128,0,56736:3:0:0:0:
182,192,56636,1,0,0:0:0:0:
329,192,56736,128,0,56836:3:0:0:0:
109,192,56836,1,0,3:0:0:0:
256,192,56836,1,0,3:0:0:0:
475,192,56836,1,0,3:0:0:0:
36,192,56836,128,0,57636:3:0:0:0:
182,192,57036,1,0,3:0:0:0:
402,192,57036,1,0,3:0:0:0:
329,192,57236,1,0,3:0:0:0:
329,192,57336,1,0,3:0:0:0:
256,192,57436,1,0,3:0:0:0:
475,192,57436,1,0,3:0:0:0:
182,192,57636,128,0,57736:3:0:0:0:
475,192,57836,1,0,3:0:0:0:
329,192,57836,1,0,3:0:0:0:
109,192,57836,1,0,3:0:0:0:
182,192,57936,128,0,58036:3:0:0:0:
256,192,58036,1,0,3:0:0:0:
182,192,58136,1,0,3:0:0:0:
475,192,58236,1,0,3:0:0:0:
109,192,58236,1,0,3:0:0:0:
329,192,58236,128,0,58336:3:0:0:0:
182,192,58436,1,0,3:0:0:0:
36,192,58536,1,0,3:0:0:0:
109,192,58636,1,0,3:0:0:0:
475,192,58636,1,0,3:0:0:0:
256,192,58636,1,0,3:0:0:0:
329,192,58836,1,0,3:0:0:0:
329,192,58936,1,0,3:0:0:0:
475,192,59036,1,0,3:0:0:0:
109,192,59036,1,0,3:0:0:0:
256,192,59036,1,0,3:0:0:0:
402,192,59136,1,0,3:0:0:0:
329,192,59236,128,0,59336:3:0:0:0:
182,192,59436,1,0,3:0:0:0:
36,192,59436,1,0,3:0:0:0:
475,192,59436,1,0,3:0:0:0:
329,192,59536,128,0,59636:3:0:0:0:
256,192,59636,1,0,3:0:0:0:
36,192,59736,1,0,3:0:0:0:
109,192,59786,1,0,3:0:0:0:
402,192,59836,1,0,3:0:0:0:
475,192,59836,1,0,3:0:0:0:
182,192,59836,128,0,59936:3:0:0:0:
109,192,60036,1,0,3:0:0:0:
182,192,60136,1,0,3:0:0:0:
256,192,60236,1,0,3:0:0:0:
475,192,60236,1,0,3:0:0:0:
402,192,60236,1,0,3:0:0:0:
182,192,60436,1,0,3:0:0:0:
182,192,60536,1,0,3:0:0:0:
36,192,60636,1,0,3:0:0:0:
329,192,60636,1,0,3:0:0:0:
475,192,60636,1,0,3:0:0:0:
256,192,60736,1,0,3:0:0:0:
182,192,60836,128,0,60936:3:0:0:0:
402,192,60936,1,0,3:0:0:0:
109,192,61036,1,0,3:0:0:0:
256,192,61036,1,0,3:0:0:0:
475,192,61036,1,0,3:0:0:0:
182,192,61136,128,0,61236:3:0:0:0:
402,192,61236,1,0,3:0:0:0:
256,192,61336,1,0,3:0:0:0:
109,192,61436,1,0,3:0:0:0:
36,192,61436,1,0,3:0:0:0:
329,192,61436,128,0,61536:3:0:0:0:
256,192,61536,1,0,3:0:0:0:
402,192,61636,1,0,3:0:0:0:
475,192,61636,1,0,3:0:0:0:
182,192,61636,1,0,3:0:0:0:
36,192,61636,1,0,3:0:0:0:
256,192,61736,1,0,3:0:0:0:
329,192,61836,1,0,3:0:0:0:
475,192,61836,1,0,3:0:0:0:
109,192,61836,1,0,3:0:0:0:
182,192,61936,1,0,3:0:0:0:
256,192,62036,1,0,3:0:0:0:
36,192,62036,1,0,3:0:0:0:
402,192,62036,1,0,3:0:0:0:
182,192,62136,1,0,3:0:0:0:
329,192,62186,1,0,3:0:0:0:
256,192,62236,1,0,3:0:0:0:
109,192,62236,1,0,3:0:0:0:
475,192,62236,1,0,3:0:0:0:
475,192,62336,1,0,3:0:0:0:
329,192,62436,1,0,3:0:0:0:
182,192,62436,1,0,3:0:0:0:
402,192,62436,1,0,0:0:0:0:
109,192,62486,1,0,3:0:0:0:
36,192,62536,1,0,3:0:0:0:
256,192,62586,1,0,3:0:0:0:
109,192,62636,1,0,3:0:0:0:
182,192,62686,1,0,3:0:0:0:
329,192,62736,1,0,3:0:0:0:
402,192,62786,1,0,3:0:0:0:
256,192,62836,1,0,3:0:0:0:
475,192,62886,1,0,3:0:0:0:
182,192,62936,1,0,3:0:0:0:
402,192,62986,1,0,3:0:0:0:
329,192,63036,1,0,3:0:0:0:
109,192,63036,1,0,3:0:0:0:
36,192,63036,1,0,0:0:0:0:
256,192,63236,1,0,3:0:0:0:
36,192,63236,1,0,3:0:0:0:
182,192,63236,1,0,3:0:0:0:
475,192,63236,1,0,3:0:0:0:
329,192,63336,128,0,63436:3:0:0:0:
402,192,63436,1,0,3:0:0:0:
36,192,63436,1,0,3:0:0:0:
109,192,63436,128,0,63536:3:0:0:0:
182,192,63536,128,0,63636:3:0:0:0:
402,192,63636,128,0,63736:3:0:0:0:
256,192,63736,128,0,63836:3:0:0:0:
329,192,63836,1,0,3:0:0:0:
475,192,63836,1,0,3:0:0:0:
36,192,63836,128,0,63936:3:0:0:0:
182,192,63936,128,0,64036:3:0:0:0:
256,192,64036,128,0,64136:3:0:0:0:
109,192,64036,1,0,3:0:0:0:
402,192,64136,128,0,64236:3:0:0:0:
182,192,64236,128,0,64336:3:0:0:0:
36,192,64236,1,0,3:0:0:0:
475,192,64236,1,0,3:0:0:0:
329,192,64336,128,0,64436:3:0:0:0:
475,192,64436,128,0,64486:3:0:0:0:
402,192,64486,128,0,64536:3:0:0:0:
329,192,64536,128,0,64636:3:0:0:0:
256,192,64636,128,0,64736:3:0:0:0:
36,192,64636,1,0,3:0:0:0:
475,192,64636,1,0,3:0:0:0:
182,192,64736,128,0,64836:3:0:0:0:
402,192,64836,1,0,3:0:0:0:
36,192,64836,128,0,66136:3:0:0:0:
256,192,65036,1,0,3:0:0:0:
475,192,65036,1,0,3:0:0:0:
109,192,65136,128,0,66036:3:0:0:0:
329,192,65236,1,0,3:0:0:0:
329,192,65336,1,0,3:0:0:0:
475,192,65436,1,0,3:0:0:0:
256,192,65436,1,0,3:0:0:0:
402,192,65636,1,0,3:0:0:0:
402,192,65736,1,0,3:0:0:0:
256,192,65836,1,0,3:0:0:0:
475,192,65836,1,0,3:0:0:0:
329,192,65936,1,0,3:0:0:0:
329,192,66136,1,0,3:0:0:0:
36,192,66236,1,0,3:0:0:0:
475,192,66236,1,0,3:0:0:0:
182,192,66236,128,0,66336:3:0:0:0:
256,192,66336,128,0,66436:3:0:0:0:
475,192,66436,1,0,3:0:0:0:
36,192,66436,1,0,0:0:0:0:
182,192,66502,1,0,0:0:0:0:
329,192,66547,128,0,66636:0:0:0:0:
109,192,66636,1,0,3:0:0:0:
36,192,66636,1,0,3:0:0:0:
256,192,66636,128,0,66702:0:0:0:0:
475,192,66702,128,0,66769:0:0:0:0:
402,192,66769,128,0,66836:0:0:0:0:
256,192,66836,128,0,66902:0:0:0:0:
109,192,66902,128,0,66969:0:0:0:0:
36,192,66969,128,0,67036:0:0:0:0:
475,192,67036,1,0,3:0:0:0:
329,192,67036,128,0,67102:3:0:0:0:
402,192,67036,1,0,3:0:0:0:
182,192,67102,128,0,67169:3:0:0:0:
36,192,67169,128,0,67236:3:0:0:0:
402,192,67236,128,0,67302:3:0:0:0:
182,192,67236,1,0,3:0:0:0:
256,192,67302,128,0,67369:3:0:0:0:
109,192,67369,128,0,67436:3:0:0:0:
329,192,67436,128,0,67498:3:0:0:0:
475,192,67436,1,0,3:0:0:0:
36,192,67436,1,0,3:0:0:0:
182,192,67498,128,0,67561:3:0:0:0:
256,192,67561,128,0,67623:3:0:0:0:
329,192,67623,128,0,67686:3:0:0:0:
402,192,67686,128,0,67748:3:0:0:0:
475,192,67748,128,0,67836:3:0:0:0:
36,192,67836,128,0,67902:3:0:0:0:
256,192,67836,1,0,3:0:0:0:
329,192,67836,1,0,3:0:0:0:
109,192,67902,128,0,67969:3:0:0:0:
182,192,67969,128,0,68036:3:0:0:0:
256,192,68036,128,0,68102:3:0:0:0:
475,192,68036,1,0,3:0:0:0:
36,192,68102,128,0,68169:3:0:0:0:
402,192,68169,128,0,68236:3:0:0:0:
109,192,68236,128,0,68302:3:0:0:0:
256,192,68236,1,0,3:0:0:0:
475,192,68236,1,0,3:0:0:0:
329,192,68302,128,0,68369:3:0:0:0:
182,192,68369,128,0,68436:3:0:0:0:
256,192,68436,128,0,68502:3:0:0:0:
402,192,68502,128,0,68569:3:0:0:0:
182,192,68569,128,0,68636:3:0:0:0:
329,192,68636,128,0,68702:3:0:0:0:
475,192,68636,1,0,3:0:0:0:
36,192,68636,1,0,3:0:0:0:
109,192,68702,128,0,68769:3:0:0:0:
256,192,68769,128,0,68836:3:0:0:0:
36,192,68836,1,0,3:0:0:0:
182,192,68836,1,0,3:0:0:0:
475,192,68836,128,0,69436:3:0:0:0:
402,192,68836,1,0,3:0:0:0:
256,192,69036,1,0,3:0:0:0:
109,192,69136,1,0,3:0:0:0:
329,192,69136,1,0,3:0:0:0:
182,192,69236,1,0,3:0:0:0:
256,192,69286,1,0,3:0:0:0:
329,192,69336,1,0,3:0:0:0:
402,192,69436,1,0,3:0:0:0:
182,192,69436,1,0,3:0:0:0:
36,192,69436,1,0,3:0:0:0:
329,192,69636,1,0,3:0:0:0:
256,192,69636,1,0,3:0:0:0:
475,192,69636,1,0,3:0:0:0:
109,192,69636,128,0,69836:3:0:0:0:
36,192,69836,128,0,69936:3:0:0:0:
182,192,69836,1,0,3:0:0:0:
402,192,69836,1,0,3:0:0:0:
36,192,70036,128,0,70136:3:0:0:0:
256,192,70036,1,0,3:0:0:0:
109,192,70136,128,0,70236:3:0:0:0:
182,192,70236,1,0,3:0:0:0:
329,192,70236,1,0,3:0:0:0:
475,192,70236,1,0,3:0:0:0:
256,192,70336,1,0,3:0:0:0:
36,192,70436,128,0,70636:3:0:0:0:
402,192,70436,1,0,3:0:0:0:
329,192,70636,1,0,3:0:0:0:
475,192,70636,1,0,3:0:0:0:
182,192,70636,1,0,3:0:0:0:
256,192,70736,128,0,70836:0:0:0:0:
36,192,70836,128,0,70886:3:0:0:0:
109,192,70886,128,0,70936:3:0:0:0:
182,192,70936,128,0,71036:3:0:0:0:
475,192,71036,1,0,3:0:0:0:
36,192,71036,1,0,3:0:0:0:
402,192,71036,128,0,71086:3:0:0:0:
329,192,71086,128,0,71136:3:0:0:0:
256,192,71136,128,0,71236:3:0:0:0:
182,192,71236,1,0,3:0:0:0:
109,192,71236,1,0,3:0:0:0:
329,192,71286,128,0,71436:3:0:0:0:
36,192,71436,1,0,3:0:0:0:
182,192,71436,1,0,3:0:0:0:
475,192,71436,1,0,3:0:0:0:
402,192,71536,128,0,71636:3:0:0:0:
329,192,71636,128,0,71736:3:0:0:0:
109,192,71636,1,0,3:0:0:0:
256,192,71736,128,0,71836:3:0:0:0:
36,192,71836,1,0,3:0:0:0:
475,192,71836,1,0,3:0:0:0:
182,192,71836,128,0,71902:3:0:0:0:
329,192,71902,128,0,71969:3:0:0:0:
109,192,71969,128,0,72036:3:0:0:0:
36,192,72036,128,0,72636:3:0:0:0:
256,192,72036,1,0,3:0:0:0:
329,192,72236,1,0,3:0:0:0:
475,192,72236,1,0,3:0:0:0:
256,192,72336,1,0,3:0:0:0:
256,192,72536,1,0,3:0:0:0:
109,192,72636,1,0,3:0:0:0:
329,192,72636,1,0,3:0:0:0:
475,192,72636,1,0,3:0:0:0:
36,192,72836,128,0,72902:3:0:0:0:
329,192,72836,1,0,3:0:0:0:
402,192,72836,1,0,0:0:0:0:
182,192,72902,128,0,72969:3:0:0:0:
256,192,72969,128,0,73036:0:0:0:0:
109,192,73036,128,0,73102:3:0:0:0:
402,192,73036,1,0,3:0:0:0:
475,192,73036,1,0,3:0:0:0:
182,192,73102,128,0,73169:3:0:0:0:
329,192,73169,128,0,73236:3:0:0:0:
36,192,73236,128,0,73302:3:0:0:0:
475,192,73236,1,0,3:0:0:0:
182,192,73302,128,0,73369:3:0:0:0:
329,192,73369,128,0,73436:3:0:0:0:
109,192,73436,128,0,73502:3:0:0:0:
36,192,73436,1,0,3:0:0:0:
475,192,73436,1,0,3:0:0:0:
256,192,73502,128,0,73569:3:0:0:0:
402,192,73569,128,0,73636:3:0:0:0:
36,192,73636,1,0,3:0:0:0:
109,192,73636,1,0,3:0:0:0:
182,192,73636,128,0,73702:3:0:0:0:
475,192,73636,1,0,3:0:0:0:
329,192,73702,128,0,73769:3:0:0:0:
256,192,73769,128,0,73836:3:0:0:0:
109,192,73836,128,0,73902:3:0:0:0:
475,192,73836,1,0,3:0:0:0:
36,192,73836,1,0,3:0:0:0:
182,192,73902,128,0,73969:3:0:0:0:
256,192,73969,128,0,74036:3:0:0:0:
475,192,74036,128,0,74102:3:0:0:0:
329,192,74102,128,0,74169:3:0:0:0:
182,192,74169,128,0,74236:3:0:0:0:
402,192,74236,128,0,74302:3:0:0:0:
475,192,74236,1,0,3:0:0:0:
36,192,74236,1,0,3:0:0:0:
256,192,74302,128,0,74369:3:0:0:0:
109,192,74369,128,0,74436:3:0:0:0:
182,192,74436,1,0,3:0:0:0:
329,192,74436,1,0,3:0:0:0:
402,192,74436,1,0,3:0:0:0:
475,192,74436,1,0,3:0:0:0:
36,192,74536,1,0,3:0:0:0:
109,192,74636,1,0,3:0:0:0:
256,192,74636,1,0,3:0:0:0:
402,192,74636,1,0,3:0:0:0:
475,192,74736,1,0,3:0:0:0:
329,192,74786,1,0,3:0:0:0:
182,192,74836,1,0,3:0:0:0:
36,192,74836,1,0,3:0:0:0:
109,192,74836,1,0,3:0:0:0:
256,192,74936,1,0,3:0:0:0:
329,192,75036,1,0,3:0:0:0:
475,192,75036,1,0,3:0:0:0:
36,192,75036,1,0,3:0:0:0:
182,192,75136,1,0,3:0:0:0:
109,192,75186,1,0,3:0:0:0:
475,192,75186,1,0,3:0:0:0:
36,192,75236,1,0,3:0:0:0:
256,192,75236,1,0,3:0:0:0:
402,192,75236,1,0,0:0:0:0:
182,192,75336,1,0,3:0:0:0:
329,192,75436,1,0,3:0:0:0:
182,192,75486,1,0,3:0:0:0:
36,192,75536,1,0,3:0:0:0:
475,192,75586,1,0,3:0:0:0:
256,192,75636,1,0,3:0:0:0:
402,192,75686,1,0,3:0:0:0:
182,192,75736,1,0,3:0:0:0:
329,192,75786,1,0,3:0:0:0:
109,192,75836,1,0,3:0:0:0:
36,192,75836,1,0,3:0:0:0:
475,192,75836,1,0,3:0:0:0:
329,192,76036,1,0,3:0:0:0:
402,192,76036,1,0,3:0:0:0:
109,192,76036,1,0,3:0:0:0:
182,192,76036,128,0,76836:3:0:0:0:
36,192,76336,128,0,76636:3:0:0:0:
329,192,76436,1,0,3:0:0:0:
109,192,76636,128,0,76836:3:0:0:0:
475,192,76836,1,0,3:0:0:0:
36,192,76836,128,0,77636:3:0:0:0:
256,192,76836,1,0,3:0:0:0:
329,192,77036,128,0,77086:3:0:0:0:
402,192,77236,128,0,77286:3:0:0:0:
329,192,77436,128,0,77486:3:0:0:0:
402,192,77636,128,0,78436:3:0:0:0:
256,192,77636,1,0,3:0:0:0:
109,192,77836,1,0,3:0:0:0:
36,192,77836,1,0,3:0:0:0:
475,192,77936,128,0,78436:3:0:0:0:
182,192,78036,1,0,3:0:0:0:
36,192,78136,1,0,3:0:0:0:
329,192,78236,128,0,78436:3:0:0:0:
256,192,78286,1,0,3:0:0:0:
182,192,78336,1,0,3:0:0:0:
109,192,78386,1,0,3:0:0:0:
256,192,78436,128,0,78486:3:0:0:0:
36,192,78436,128,0,79236:3:0:0:0:
329,192,78636,128,0,78686:3:0:0:0:
109,192,78736,128,0,79236:3:0:0:0:
256,192,78836,128,0,78886:3:0:0:0:
475,192,78836,1,0,3:0:0:0:
182,192,79036,128,0,79236:3:0:0:0:
402,192,79036,128,0,79086:3:0:0:0:
402,192,79236,128,0,80036:3:0:0:0:
475,192,79236,1,0,3:0:0:0:
329,192,79536,128,0,80036:3:0:0:0:
109,192,79636,1,0,3:0:0:0:
475,192,79836,128,0,80036:3:0:0:0:
182,192,79836,128,0,79886:3:0:0:0:
36,192,80036,128,0,80836:3:0:0:0:
109,192,80036,1,0,3:0:0:0:
256,192,80036,128,0,80086:3:0:0:0:
329,192,80236,128,0,80286:3:0:0:0:
182,192,80336,128,0,80836:3:0:0:0:
402,192,80436,128,0,80486:3:0:0:0:
109,192,80636,128,0,80836:3:0:0:0:
402,192,80636,128,0,80686:3:0:0:0:
329,192,80736,1,0,3:0:0:0:
256,192,80836,1,0,3:0:0:0:
475,192,80836,128,0,81636:3:0:0:0:
402,192,80836,128,0,81636:3:0:0:0:
36,192,81036,1,0,3:0:0:0:
182,192,81036,1,0,3:0:0:0:
109,192,81236,1,0,3:0:0:0:
182,192,81436,1,0,3:0:0:0:
256,192,81536,1,0,3:0:0:0:
329,192,81636,1,0,3:0:0:0:
109,192,81636,1,0,3:0:0:0:
36,192,81636,1,0,3:0:0:0:
182,192,81769,1,0,3:0:0:0:
36,192,81902,128,0,82036:3:0:0:0:
256,192,81902,1,0,0:0:0:0:
109,192,82036,128,0,82169:3:0:0:0:
256,192,82169,128,0,82302:3:0:0:0:
329,192,82169,1,0,0:0:0:0:
402,192,82302,128,0,82436:3:0:0:0:
475,192,82302,1,0,0:0:0:0:
182,192,82436,1,0,3:0:0:0:
36,192,82436,128,0,83136:3:0:0:0:
329,192,82436,1,0,3:0:0:0:
256,192,82436,1,0,0:0:0:0:
109,192,82736,128,0,83736:3:0:0:0:
256,192,82836,1,0,3:0:0:0:
182,192,83036,128,0,83436:3:0:0:0:
402,192,83036,128,0,83086:3:0:0:0:
36,192,83236,128,0,83936:3:0:0:0:
329,192,83236,1,0,3:0:0:0:
475,192,83236,1,0,3:0:0:0:
402,192,83436,128,0,83486:3:0:0:0:
182,192,83536,128,0,84436:3:0:0:0:
329,192,83636,128,0,83686:3:0:0:0:
109,192,83836,128,0,84436:3:0:0:0:
402,192,83836,128,0,83886:3:0:0:0:
36,192,84036,128,0,84436:3:0:0:0:
475,192,84036,128,0,84086:3:0:0:0:
256,192,84036,1,0,3:0:0:0:
329,192,84236,1,0,3:0:0:0:
402,192,84236,1,0,3:0:0:0:
475,192,84436,1,0,3:0:0:0:
329,192,84436,128,0,84569:0:0:0:0:
182,192,84569,128,0,84702:0:0:0:0:
475,192,84636,1,0,0:0:0:0:
36,192,84702,128,0,84836:0:0:0:0:
402,192,84736,1,0,0:0:0:0:
182,192,84836,128,0,84969:3:0:0:0:
475,192,84836,1,0,3:0:0:0:
256,192,84836,1,0,0:0:0:0:
109,192,84969,1,0,3:0:0:0:
329,192,84969,128,0,85102:3:0:0:0:
36,192,84969,1,0,3:0:0:0:
109,192,85102,1,0,3:0:0:0:
402,192,85102,1,0,3:0:0:0:
256,192,85102,128,0,85236:3:0:0:0:
36,192,85236,1,0,3:0:0:0:
182,192,85236,1,0,3:0:0:0:
402,192,85236,1,0,3:0:0:0:
475,192,85236,128,0,85502:3:0:0:0:
256,192,85369,1,0,0:0:0:0:
329,192,85502,1,0,0:0:0:0:
402,192,85502,1,0,0:0:0:0:
475,192,85636,1,0,3:0:0:0:
109,192,85636,1,0,3:0:0:0:
402,192,85636,1,0,3:0:0:0:
36,192,85636,128,0,86136:3:0:0:0:
329,192,86036,1,0,3:0:0:0:
475,192,86036,1,0,0:0:0:0:
256,192,86236,128,0,87436:3:0:0:0:
402,192,86236,128,0,86286:3:0:0:0:
402,192,86436,128,0,86486:3:0:0:0:
109,192,86436,1,0,3:0:0:0:
36,192,86636,128,0,86686:3:0:0:0:
109,192,86836,128,0,86886:3:0:0:0:
109,192,87036,128,0,87086:3:0:0:0:
109,192,87236,128,0,87436:3:0:0:0:
475,192,87236,1,0,3:0:0:0:
182,192,87436,1,0,3:0:0:0:
36,192,87436,1,0,3:0:0:0:
329,192,87436,128,0,87536:3:0:0:0:
402,192,87536,128,0,87636:3:0:0:0:
475,192,87636,128,0,87736:3:0:0:0:
36,192,87636,1,0,3:0:0:0:
182,192,87736,128,0,87836:3:0:0:0:
256,192,87836,128,0,87936:3:0:0:0:
475,192,87836,1,0,3:0:0:0:
329,192,87936,128,0,88036:3:0:0:0:
182,192,87986,1,0,3:0:0:0:
402,192,88036,1,0,3:0:0:0:
475,192,88036,1,0,3:0:0:0:
36,192,88036,128,0,88136:3:0:0:0:
256,192,88136,128,0,88236:3:0:0:0:
109,192,88236,128,0,88336:3:0:0:0:
475,192,88236,1,0,3:0:0:0:
256,192,88336,128,0,88436:3:0:0:0:
36,192,88336,1,0,3:0:0:0:
402,192,88436,128,0,88536:3:0:0:0:
182,192,88436,1,0,3:0:0:0:
36,192,88536,128,0,88636:0:0:0:0:
109,192,88636,128,0,88736:3:0:0:0:
329,192,88636,1,0,3:0:0:0:
182,192,88736,128,0,88836:3:0:0:0:
402,192,88736,1,0,3:0:0:0:
475,192,88836,1,0,3:0:0:0:
329,192,88836,128,0,89636:3:0:0:0:
36,192,88836,1,0,3:0:0:0:
256,192,88836,1,0,3:0:0:0:
475,192,89136,128,0,89436:3:0:0:0:
36,192,89236,1,0,3:0:0:0:
182,192,89236,128,0,89286:3:0:0:0:
402,192,89436,128,0,89636:3:0:0:0:
109,192,89436,128,0,89486:3:0:0:0:
256,192,89636,128,0,89686:3:0:0:0:
36,192,89636,128,0,90436:3:0:0:0:
256,192,89836,128,0,89886:3:0:0:0:
475,192,90036,1,0,3:0:0:0:
182,192,90036,128,0,90086:3:0:0:0:
329,192,90036,1,0,0:0:0:0:
256,192,90236,128,0,90286:3:0:0:0:
402,192,90236,1,0,0:0:0:0:
329,192,90436,128,0,91736:3:0:0:0:
109,192,90636,1,0,3:0:0:0:
475,192,90736,128,0,91136:3:0:0:0:
36,192,90836,1,0,3:0:0:0:
256,192,90836,1,0,3:0:0:0:
402,192,91036,128,0,91436:3:0:0:0:
109,192,91036,128,0,91086:3:0:0:0:
475,192,91236,128,0,91936:3:0:0:0:
182,192,91236,128,0,91286:3:0:0:0:
36,192,91336,1,0,3:0:0:0:
109,192,91436,128,0,91486:3:0:0:0:
402,192,91536,128,0,91936:3:0:0:0:
36,192,91636,1,0,3:0:0:0:
182,192,91636,1,0,3:0:0:0:
329,192,91836,128,0,92236:3:0:0:0:
109,192,91836,128,0,91886:3:0:0:0:
402,192,92036,128,0,92536:3:0:0:0:
475,192,92036,128,0,92836:3:0:0:0:
109,192,92036,128,0,92086:3:0:0:0:
329,192,92336,128,0,92536:3:0:0:0:
36,192,92436,1,0,3:0:0:0:
182,192,92436,128,0,92486:3:0:0:0:
402,192,92636,128,0,92836:3:0:0:0:
109,192,92636,128,0,92686:3:0:0:0:
329,192,92836,128,0,93536:3:0:0:0:
182,192,92836,128,0,92886:3:0:0:0:
182,192,93036,128,0,93086:3:0:0:0:
402,192,93136,128,0,94436:3:0:0:0:
256,192,93236,1,0,3:0:0:0:
36,192,93236,128,0,93286:3:0:0:0:
475,192,93436,128,0,94536:3:0:0:0:
109,192,93436,128,0,93486:3:0:0:0:
329,192,93636,128,0,94336:3:0:0:0:
182,192,93636,128,0,93686:3:0:0:0:
109,192,93836,1,0,3:0:0:0:
36,192,94036,1,0,3:0:0:0:
256,192,94036,1,0,3:0:0:0:
109,192,94236,128,0,94286:3:0:0:0:
36,192,94436,128,0,94486:3:0:0:0:
256,192,94436,1,0,0:0:0:0:
36,192,94636,1,0,3:0:0:0:
329,192,94636,128,0,94736:3:0:0:0:
182,192,94736,128,0,94836:3:0:0:0:
402,192,94836,128,0,94936:3:0:0:0:
475,192,94836,1,0,3:0:0:0:
36,192,94836,1,0,3:0:0:0:
109,192,94936,128,0,95036:3:0:0:0:
329,192,94936,1,0,3:0:0:0:
182,192,95036,128,0,95136:3:0:0:0:
402,192,95036,1,0,3:0:0:0:
475,192,95136,1,0,3:0:0:0:
256,192,95136,128,0,95236:0:0:0:0:
329,192,95236,1,0,3:0:0:0:
402,192,95236,1,0,3:0:0:0:
36,192,95236,128,0,96036:3:0:0:0:
109,192,95236,128,0,95936:3:0:0:0:
329,192,95436,1,0,3:0:0:0:
256,192,95636,1,0,3:0:0:0:
475,192,95636,1,0,3:0:0:0:
402,192,95836,128,0,95886:3:0:0:0:
402,192,96036,128,0,96086:3:0:0:0:
256,192,96036,1,0,0:0:0:0:
329,192,96236,1,0,3:0:0:0:
109,192,96236,128,0,96336:3:0:0:0:
182,192,96336,128,0,96436:3:0:0:0:
475,192,96436,1,0,3:0:0:0:
36,192,96436,1,0,3:0:0:0:
329,192,96436,128,0,96536:3:0:0:0:
109,192,96536,128,0,96636:3:0:0:0:
475,192,96636,1,0,3:0:0:0:
402,192,96636,128,0,96736:3:0:0:0:
256,192,96736,128,0,96836:3:0:0:0:
36,192,96836,128,0,97536:3:0:0:0:
109,192,96836,128,0,97436:3:0:0:0:
329,192,97036,1,0,3:0:0:0:
256,192,97236,1,0,3:0:0:0:
475,192,97236,1,0,3:0:0:0:
329,192,97436,1,0,3:0:0:0:
402,192,97436,1,0,0:0:0:0:
182,192,97636,128,0,98436:3:0:0:0:
475,192,97636,128,0,97686:3:0:0:0:
402,192,97736,1,0,3:0:0:0:
329,192,97836,128,0,97886:3:0:0:0:
36,192,97936,128,0,98436:3:0:0:0:
256,192,98036,1,0,3:0:0:0:
475,192,98036,128,0,98086:3:0:0:0:
109,192,98236,128,0,98436:3:0:0:0:
329,192,98236,128,0,98286:3:0:0:0:
402,192,98436,128,0,99036:3:0:0:0:
475,192,98436,128,0,99136:3:0:0:0:
256,192,98436,1,0,3:0:0:0:
109,192,98636,1,0,3:0:0:0:
182,192,98836,1,0,3:0:0:0:
36,192,98836,128,0,98886:3:0:0:0:
109,192,99036,1,0,3:0:0:0:
182,192,99136,1,0,3:0:0:0:
329,192,99236,128,0,100036:3:0:0:0:
256,192,99236,128,0,99286:3:0:0:0:
109,192,99436,128,0,99486:3:0:0:0:
475,192,99536,128,0,100036:3:0:0:0:
36,192,99636,1,0,3:0:0:0:
256,192,99636,128,0,99686:3:0:0:0:
402,192,99836,128,0,100036:3:0:0:0:
182,192,99836,128,0,99886:3:0:0:0:
109,192,100036,128,0,100636:3:0:0:0:
36,192,100036,128,0,100736:3:0:0:0:
329,192,100236,1,0,3:0:0:0:
256,192,100436,1,0,3:0:0:0:
475,192,100436,1,0,3:0:0:0:
329,192,100636,128,0,100686:3:0:0:0:
256,192,100736,1,0,0:0:0:0:
182,192,100836,128,0,101636:3:0:0:0:
402,192,100836,128,0,100886:3:0:0:0:
402,192,101036,128,0,101086:3:0:0:0:
109,192,101136,128,0,101636:3:0:0:0:
256,192,101236,1,0,3:0:0:0:
475,192,101236,1,0,3:0:0:0:
329,192,101336,1,0,3:0:0:0:
36,192,101436,128,0,101636:3:0:0:0:
402,192,101436,1,0,3:0:0:0:
329,192,101536,1,0,3:0:0:0:
256,192,101636,1,0,3:0:0:0:
402,192,101636,128,0,102336:3:0:0:0:
475,192,101636,128,0,102236:3:0:0:0:
36,192,102036,1,0,3:0:0:0:
182,192,102036,1,0,3:0:0:0:
182,192,102236,1,0,0:0:0:0:
256,192,102336,1,0,3:0:0:0:
109,192,102436,1,0,3:0:0:0:
36,192,102436,1,0,3:0:0:0:
329,192,102436,128,0,102702:3:0:0:0:
475,192,102436,1,0,3:0:0:0:
182,192,102569,1,0,3:0:0:0:
109,192,102702,1,0,3:0:0:0:
402,192,102702,1,0,3:0:0:0:
36,192,102702,128,0,102969:3:0:0:0:
256,192,102836,1,0,3:0:0:0:
329,192,102969,1,0,3:0:0:0:
109,192,102969,1,0,3:0:0:0:
182,192,102969,128,0,103236:3:0:0:0:
475,192,102969,1,0,3:0:0:0:
402,192,103102,1,0,3:0:0:0:
36,192,103236,128,0,103502:3:0:0:0:
256,192,103236,1,0,3:0:0:0:
475,192,103236,1,0,0:0:0:0:
182,192,103369,1,0,3:0:0:0:
256,192,103436,1,0,3:0:0:0:
475,192,103502,128,0,103769:3:0:0:0:
329,192,103502,1,0,3:0:0:0:
402,192,103502,1,0,3:0:0:0:
36,192,103636,1,0,3:0:0:0:
182,192,103702,1,0,3:0:0:0:
329,192,103769,1,0,3:0:0:0:
109,192,103769,128,0,104036:3:0:0:0:
182,192,103902,1,0,3:0:0:0:
256,192,103969,1,0,3:0:0:0:
475,192,104036,128,0,104569:3:0:0:0:
402,192,104036,1,0,3:0:0:0:
329,192,104036,1,0,3:0:0:0:
36,192,104036,1,0,3:0:0:0:
256,192,104169,1,0,3:0:0:0:
109,192,104302,1,0,3:0:0:0:
36,192,104302,128,0,104569:3:0:0:0:
256,192,104319,1,0,3:0:0:0:
329,192,104436,1,0,3:0:0:0:
256,192,104569,128,0,104836:3:0:0:0:
182,192,104569,1,0,3:0:0:0:
402,192,104702,1,0,3:0:0:0:
36,192,104836,1,0,3:0:0:0:
475,192,104836,1,0,3:0:0:0:
109,192,104836,1,0,3:0:0:0:
329,192,104969,1,0,3:0:0:0:
402,192,105036,1,0,3:0:0:0:
475,192,105102,1,0,3:0:0:0:
36,192,105102,1,0,3:0:0:0:
182,192,105102,1,0,3:0:0:0:
36,192,105236,1,0,3:0:0:0:
256,192,105236,1,0,3:0:0:0:
475,192,105236,1,0,3:0:0:0:
329,192,105369,1,0,3:0:0:0:
36,192,105369,1,0,3:0:0:0:
475,192,105369,1,0,3:0:0:0:
402,192,105502,1,0,3:0:0:0:
256,192,105502,1,0,3:0:0:0:
182,192,105636,1,0,3:0:0:0:
402,192,105636,1,0,3:0:0:0:
402,192,105769,1,0,3:0:0:0:
109,192,105769,1,0,3:0:0:0:
329,192,105902,1,0,3:0:0:0:
109,192,105902,1,0,3:0:0:0:
109,192,106036,1,0,3:0:0:0:
256,192,106036,1,0,3:0:0:0:
182,192,106169,1,0,3:0:0:0:
36,192,106169,1,0,3:0:0:0:
36,192,106302,1,0,3:0:0:0:
256,192,106302,1,0,3:0:0:0:
475,192,106302,1,0,3:0:0:0:
402,192,106436,1,0,3:0:0:0:
36,192,106436,1,0,3:0:0:0:
256,192,106502,1,0,3:0:0:0:
109,192,106569,1,0,3:0:0:0:
329,192,106636,1,0,3:0:0:0:
256,192,106702,1,0,3:0:0:0:
182,192,106769,1,0,3:0:0:0:
475,192,106836,1,0,3:0:0:0:
36,192,106836,1,0,3:0:0:0:
109,192,106902,1,0,3:0:0:0:
402,192,106902,1,0,3:0:0:0:
329,192,106969,1,0,3:0:0:0:
36,192,107036,1,0,0:0:0:0:
182,192,107102,1,0,3:0:0:0:
329,192,107169,1,0,3:0:0:0:
182,192,107236,1,0,3:0:0:0:
475,192,107236,1,0,3:0:0:0:
402,192,107236,1,0,3:0:0:0:
109,192,107369,1,0,3:0:0:0:
36,192,107369,1,0,3:0:0:0:
329,192,107369,1,0,3:0:0:0:
256,192,107502,1,0,3:0:0:0:
329,192,107569,1,0,3:0:0:0:
182,192,107636,1,0,3:0:0:0:
475,192,107702,1,0,3:0:0:0:
402,192,107702,1,0,3:0:0:0:
109,192,107702,1,0,3:0:0:0:
36,192,107702,1,0,3:0:0:0:
36,192,108136,1,0,3:0:0:0:
109,192,108136,1,0,3:0:0:0:
182,192,108136,1,0,3:0:0:0:
329,192,108136,1,0,3:0:0:0:
36,192,108436,1,0,3:0:0:0:
182,192,108436,1,0,3:0:0:0:
256,192,108436,1,0,3:0:0:0:
402,192,108436,1,0,3:0:0:0:
109,192,108736,1,0,3:0:0:0:
36,192,108736,1,0,3:0:0:0:
256,192,108836,1,0,3:0:0:0:
402,192,108836,1,0,3:0:0:0:
475,192,108836,1,0,3:0:0:0:
182,192,108836,1,0,3:0:0:0:
36,192,108969,1,0,3:0:0:0:
182,192,109036,1,0,3:0:0:0:
329,192,109102,1,0,3:0:0:0:
182,192,109236,1,0,3:0:0:0:
329,192,109302,1,0,3:0:0:0:
475,192,109369,1,0,3:0:0:0:
109,192,109436,1,0,3:0:0:0:
36,192,109436,1,0,3:0:0:0:
256,192,109436,1,0,3:0:0:0:
182,192,109536,1,0,3:0:0:0:
329,192,109536,1,0,3:0:0:0:
402,192,109536,1,0,3:0:0:0:
475,192,109536,1,0,3:0:0:0:
36,192,109736,1,0,3:0:0:0:
109,192,109786,1,0,3:0:0:0:
182,192,109836,1,0,3:0:0:0:
475,192,109886,1,0,3:0:0:0:
402,192,109936,1,0,3:0:0:0:
329,192,109986,1,0,3:0:0:0:
109,192,110036,1,0,3:0:0:0:
36,192,110036,1,0,3:0:0:0:
256,192,110036,1,0,3:0:0:0:
36,192,110169,1,0,3:0:0:0:
182,192,110169,1,0,3:0:0:0:
329,192,110169,1,0,3:0:0:0:
475,192,110302,1,0,3:0:0:0:
402,192,110302,1,0,3:0:0:0:
256,192,110302,1,0,3:0:0:0:
109,192,110436,1,0,3:0:0:0:
36,192,110436,1,0,3:0:0:0:
402,192,110436,1,0,3:0:0:0:
475,192,110436,1,0,3:0:0:0:
182,192,110502,1,0,3:0:0:0:
256,192,110569,1,0,3:0:0:0:
329,192,110636,1,0,3:0:0:0:
109,192,110702,1,0,3:0:0:0:
256,192,110769,1,0,3:0:0:0:
402,192,110836,1,0,3:0:0:0:
109,192,110936,1,0,3:0:0:0:
329,192,110936,1,0,3:0:0:0:
256,192,111036,1,0,3:0:0:0:
475,192,111036,1,0,3:0:0:0:
402,192,111036,1,0,3:0:0:0:
36,192,111036,1,0,3:0:0:0:
182,192,111102,1,0,3:0:0:0:
109,192,111169,1,0,3:0:0:0:
329,192,111236,1,0,3:0:0:0:
256,192,111302,1,0,3:0:0:0:
182,192,111369,1,0,3:0:0:0:
402,192,111436,1,0,3:0:0:0:
329,192,111536,1,0,3:0:0:0:
182,192,111536,1,0,3:0:0:0:
256,192,111636,1,0,3:0:0:0:
109,192,111636,1,0,3:0:0:0:
36,192,111636,1,0,3:0:0:0:
475,192,111636,1,0,0:0:0:0:
402,192,111702,1,0,3:0:0:0:
329,192,111769,1,0,3:0:0:0:
182,192,111836,1,0,3:0:0:0:
256,192,111902,1,0,3:0:0:0:
329,192,111969,1,0,3:0:0:0:
109,192,112036,1,0,3:0:0:0:
182,192,112102,1,0,3:0:0:0:
256,192,112169,1,0,0:0:0:0:
109,192,112236,1,0,3:0:0:0:
329,192,112236,1,0,3:0:0:0:
475,192,112236,1,0,3:0:0:0:
182,192,112336,1,0,3:0:0:0:
182,192,112436,1,0,3:0:0:0:
36,192,112536,1,0,3:0:0:0:
402,192,112536,1,0,3:0:0:0:
256,192,112536,1,0,3:0:0:0:
109,192,112636,1,0,3:0:0:0:
109,192,112736,1,0,3:0:0:0:
329,192,112836,1,0,3:0:0:0:
36,192,112836,128,0,113536:3:0:0:0:
475,192,112836,128,0,113536:3:0:0:0:
109,192,113036,1,0,0:0:0:0:
182,192,113086,1,0,0:0:0:0:
256,192,113136,1,0,0:0:0:0:
329,192,113186,1,0,0:0:0:0:
402,192,113236,1,0,3:0:0:0:
109,192,113236,1,0,0:0:0:0:
182,192,113336,1,0,3:0:0:0:
256,192,113436,1,0,3:0:0:0:
329,192,113536,1,0,3:0:0:0:
182,192,113636,1,0,3:0:0:0:
109,192,113636,1,0,3:0:0:0:
475,192,113636,1,0,3:0:0:0:
36,192,113636,128,0,114436:3:0:0:0:
329,192,113736,1,0,3:0:0:0:
475,192,113836,1,0,3:0:0:0:
329,192,113936,1,0,3:0:0:0:
182,192,114036,1,0,3:0:0:0:
402,192,114036,1,0,3:0:0:0:
256,192,114136,1,0,3:0:0:0:
329,192,114236,1,0,3:0:0:0:
256,192,114336,1,0,3:0:0:0:
182,192,114436,1,0,3:0:0:0:
475,192,114436,128,0,114936:3:0:0:0:
402,192,114436,1,0,3:0:0:0:
109,192,114536,1,0,3:0:0:0:
182,192,114636,1,0,3:0:0:0:
402,192,114736,128,0,115236:3:0:0:0:
109,192,114736,1,0,3:0:0:0:
256,192,114836,1,0,3:0:0:0:
36,192,114836,1,0,3:0:0:0:
182,192,114936,1,0,3:0:0:0:
109,192,115036,1,0,3:0:0:0:
475,192,115036,128,0,115236:3:0:0:0:
182,192,115136,1,0,3:0:0:0:
256,192,115236,128,0,116036:3:0:0:0:
36,192,115236,1,0,3:0:0:0:
329,192,115236,1,0,3:0:0:0:
109,192,115336,1,0,3:0:0:0:
36,192,115436,1,0,3:0:0:0:
109,192,115536,1,0,3:0:0:0:
475,192,115636,1,0,3:0:0:0:
182,192,115636,1,0,3:0:0:0:
402,192,115736,1,0,3:0:0:0:
329,192,115836,1,0,3:0:0:0:
402,192,115936,1,0,3:0:0:0:
182,192,116036,1,0,3:0:0:0:
475,192,116036,1,0,3:0:0:0:
36,192,116036,128,0,116536:3:0:0:0:
329,192,116136,1,0,3:0:0:0:
475,192,116236,1,0,3:0:0:0:
109,192,116336,128,0,116836:3:0:0:0:
329,192,116336,1,0,3:0:0:0:
256,192,116436,1,0,3:0:0:0:
475,192,116436,1,0,3:0:0:0:
182,192,116436,1,0,3:0:0:0:
402,192,116536,1,0,3:0:0:0:
36,192,116636,128,0,116836:3:0:0:0:
329,192,116636,1,0,3:0:0:0:
402,192,116736,1,0,3:0:0:0:
182,192,116836,1,0,3:0:0:0:
256,192,116836,1,0,3:0:0:0:
475,192,116836,128,0,117636:3:0:0:0:
329,192,116936,1,0,3:0:0:0:
182,192,117036,1,0,3:0:0:0:
329,192,117136,1,0,3:0:0:0:
36,192,117236,1,0,3:0:0:0:
109,192,117236,1,0,3:0:0:0:
182,192,117336,1,0,3:0:0:0:
256,192,117436,1,0,3:0:0:0:
182,192,117536,1,0,3:0:0:0:
109,192,117636,1,0,3:0:0:0:
329,192,117636,1,0,3:0:0:0:
402,192,117636,128,0,118236:3:0:0:0:
36,192,117736,1,0,3:0:0:0:
109,192,117836,1,0,3:0:0:0:
36,192,117936,128,0,118236:3:0:0:0:
256,192,117936,1,0,3:0:0:0:
329,192,118036,1,0,3:0:0:0:
182,192,118036,1,0,3:0:0:0:
109,192,118136,1,0,3:0:0:0:
475,192,118236,1,0,3:0:0:0:
256,192,118236,128,0,118436:3:0:0:0:
402,192,118336,1,0,3:0:0:0:
182,192,118436,1,0,3:0:0:0:
329,192,118436,1,0,3:0:0:0:
109,192,118436,1,0,3:0:0:0:
36,192,118436,128,0,119836:3:0:0:0:
329,192,118636,1,0,3:0:0:0:
256,192,118686,1,0,3:0:0:0:
182,192,118736,1,0,3:0:0:0:
402,192,118786,1,0,3:0:0:0:
329,192,118836,1,0,3:0:0:0:
256,192,118886,1,0,3:0:0:0:
182,192,118936,1,0,3:0:0:0:
109,192,118986,1,0,3:0:0:0:
402,192,119036,1,0,3:0:0:0:
475,192,119036,1,0,0:0:0:0:
182,192,119236,1,0,3:0:0:0:
256,192,119286,1,0,3:0:0:0:
329,192,119336,1,0,3:0:0:0:
109,192,119386,1,0,3:0:0:0:
182,192,119436,1,0,3:0:0:0:
256,192,119486,1,0,3:0:0:0:
329,192,119536,1,0,3:0:0:0:
402,192,119586,1,0,3:0:0:0:
475,192,119636,1,0,3:0:0:0:
182,192,119636,1,0,3:0:0:0:
329,192,119836,1,0,3:0:0:0:
329,192,119936,1,0,3:0:0:0:
475,192,120036,128,0,120736:0:0:0:0:
182,192,120036,1,0,0:0:0:0:
109,192,120036,1,0,0:0:0:0:
36,192,120036,1,0,0:0:0:0:
256,192,120036,1,0,0:0:0:0:
402,192,120136,128,0,121036:0:0:0:0:
329,192,120236,128,0,120536:0:0:0:0:
36,192,120336,128,0,120836:0:0:0:0:
109,192,120436,128,0,120636:0:0:0:0:
182,192,120536,128,0,120736:0:0:0:0:
329,192,120636,128,0,120936:0:0:0:0:
109,192,120736,128,0,121236:0:0:0:0:
182,192,120836,128,0,121136:0:0:0:0:
475,192,120836,128,0,121336:0:0:0:0:
36,192,120936,128,0,121336:0:0:0:0:
329,192,121036,128,0,121536:0:0:0:0:
402,192,121136,128,0,121436:0:0:0:0:
182,192,121236,128,0,121336:0:0:0:0:
109,192,121336,128,0,121436:0:0:0:0:
36,192,121436,128,0,121536:0:0:0:0:
475,192,121536,128,0,121636:0:0:0:0:
402,192,121636,1,0,0:0:0:0:
256,192,121636,1,0,0:0:0:0:
36,192,121736,128,0,122336:0:0:0:0:
109,192,121836,128,0,122136:0:0:0:0:
182,192,121936,128,0,122236:0:0:0:0:
329,192,122036,128,0,122636:0:0:0:0:
475,192,122136,128,0,122836:0:0:0:0:
109,192,122236,128,0,122436:0:0:0:0:
182,192,122336,128,0,122536:0:0:0:0:
402,192,122436,128,0,122736:0:0:0:0:
36,192,122436,128,0,122836:0:0:0:0:
109,192,122536,128,0,122936:0:0:0:0:
182,192,122636,128,0,123036:0:0:0:0:
329,192,122736,128,0,122936:0:0:0:0:
402,192,122836,128,0,123036:0:0:0:0:
475,192,122936,128,0,123136:0:0:0:0:
36,192,123036,128,0,123136:0:0:0:0:
109,192,123136,128,0,123236:0:0:0:0:
182,192,123236,128,0,123536:0:0:0:0:
329,192,123236,1,0,0:0:0:0:
402,192,123236,1,0,0:0:0:0:
475,192,123236,1,0,0:0:0:0:
256,192,123236,1,0,0:0:0:0:
36,192,123336,128,0,123936:0:0:0:0:
329,192,123436,128,0,123736:0:0:0:0:
475,192,123536,128,0,123936:0:0:0:0:
182,192,123636,128,0,124036:0:0:0:0:
109,192,123736,128,0,124736:0:0:0:0:
329,192,123836,128,0,124336:0:0:0:0:
402,192,123936,128,0,124236:0:0:0:0:
36,192,124036,128,0,124736:0:0:0:0:
475,192,124036,128,0,124136:0:0:0:0:
182,192,124136,128,0,124436:0:0:0:0:
475,192,124236,128,0,125036:0:0:0:0:
402,192,124336,128,0,124536:0:0:0:0:
329,192,124436,128,0,124636:0:0:0:0:
182,192,124536,128,0,124836:0:0:0:0:
402,192,124636,128,0,124936:0:0:0:0:
329,192,124736,128,0,125236:0:0:0:0:
109,192,124836,128,0,125136:0:0:0:0:
36,192,124836,128,0,125636:0:0:0:0:
182,192,124936,128,0,125436:0:0:0:0:
402,192,125036,128,0,125336:0:0:0:0:
475,192,125136,128,0,125436:0:0:0:0:
109,192,125236,128,0,125536:0:0:0:0:
329,192,125336,128,0,125436:0:0:0:0:
402,192,125436,128,0,125536:0:0:0:0:
475,192,125536,128,0,125636:0:0:0:0:
182,192,125636,128,0,125769:0:0:0:0:
256,192,125636,1,0,0:0:0:0:
109,192,125702,128,0,125836:0:0:0:0:
36,192,125769,128,0,125902:0:0:0:0:
329,192,125836,128,0,125969:0:0:0:0:
256,192,125902,128,0,126036:0:0:0:0:
182,192,125969,128,0,126102:0:0:0:0:
475,192,126036,128,0,126169:0:0:0:0:
402,192,126102,128,0,126236:0:0:0:0:
329,192,126169,128,0,126302:0:0:0:0:
182,192,126236,1,0,0:0:0:0:
109,192,126302,1,0,0:0:0:0:
36,192,126369,1,0,0:0:0:0:
182,192,126436,128,0,126836:0:0:0:0:
329,192,126436,1,0,0:0:0:0:
402,192,126436,1,0,0:0:0:0:
256,192,126436,1,0,0:0:0:0:
475,192,126436,1,0,0:0:0:0:
109,192,126536,128,0,126936:0:0:0:0:
36,192,126636,128,0,127036:0:0:0:0:
256,192,126736,128,0,127236:0:0:0:0:
475,192,126836,128,0,127736:0:0:0:0:
402,192,126936,128,0,127736:0:0:0:0:
329,192,127036,128,0,127436:0:0:0:0:
182,192,127136,128,0,127336:0:0:0:0:
36,192,127236,128,0,127636:0:0:0:0:
109,192,127236,128,0,127636:0:0:0:0:
256,192,127336,128,0,127536:0:0:0:0:
182,192,127436,128,0,127636:0:0:0:0:
329,192,127536,128,0,127736:0:0:0:0:
256,192,127636,128,0,127836:0:0:0:0:
182,192,127736,128,0,128036:0:0:0:0:
109,192,127836,128,0,128036:0:0:0:0:
36,192,127936,128,0,128036:0:0:0:0:
475,192,128036,128,0,128336:0:0:0:0:
256,192,128036,1,0,0:0:0:0:
402,192,128136,128,0,128436:0:0:0:0:
256,192,128236,128,0,128536:0:0:0:0:
182,192,128336,128,0,129036:0:0:0:0:
36,192,128436,128,0,128836:0:0:0:0:
109,192,128536,128,0,128936:0:0:0:0:
256,192,128636,128,0,129436:0:0:0:0:
329,192,128736,128,0,129336:0:0:0:0:
402,192,128836,128,0,129236:0:0:0:0:
475,192,128836,128,0,129136:0:0:0:0:
36,192,128936,128,0,129236:0:0:0:0:
109,192,129036,128,0,129236:0:0:0:0:
182,192,129136,128,0,129236:0:0:0:0:
475,192,129236,128,0,129536:0:0:0:0:
402,192,129336,128,0,129536:0:0:0:0:
329,192,129436,128,0,129536:0:0:0:0:
256,192,129536,128,0,129636:0:0:0:0:
329,192,129636,1,0,0:0:0:0:
402,192,129636,1,0,0:0:0:0:
36,192,129636,128,0,130236:0:0:0:0:
475,192,129636,1,0,0:0:0:0:
109,192,129636,1,0,0:0:0:0:
182,192,129736,128,0,130036:0:0:0:0:
329,192,129836,128,0,130336:0:0:0:0:
109,192,129936,128,0,130136:0:0:0:0:
256,192,130036,128,0,130336:0:0:0:0:
182,192,130136,128,0,130436:0:0:0:0:
109,192,130236,128,0,130436:0:0:0:0:
36,192,130336,128,0,130436:0:0:0:0:
256,192,130436,128,0,131036:0:0:0:0:
329,192,130436,128,0,130936:0:0:0:0:
402,192,130536,128,0,130836:0:0:0:0:
475,192,130636,128,0,130736:0:0:0:0:
182,192,130736,128,0,131136:0:0:0:0:
475,192,130836,128,0,131236:0:0:0:0:
402,192,130936,128,0,131236:0:0:0:0:
329,192,131036,128,0,131236:0:0:0:0:
256,192,131136,128,0,131236:0:0:0:0:
109,192,131236,1,0,0:0:0:0:
36,192,131236,128,0,131936:0:0:0:0:
182,192,131336,128,0,131636:0:0:0:0:
475,192,131436,128,0,131836:0:0:0:0:
329,192,131536,128,0,131636:0:0:0:0:
109,192,131636,128,0,131936:0:0:0:0:
402,192,131736,128,0,131836:0:0:0:0:
182,192,131836,128,0,131936:0:0:0:0:
329,192,131836,1,0,0:0:0:0:
256,192,131836,1,0,0:0:0:0:
475,192,131936,128,0,132036:0:0:0:0:
329,192,132036,128,0,132336:0:0:0:0:
402,192,132136,128,0,132536:0:0:0:0:
475,192,132236,128,0,132736:0:0:0:0:
256,192,132236,128,0,132336:0:0:0:0:
182,192,132236,1,0,0:0:0:0:
36,192,132336,128,0,132636:0:0:0:0:
109,192,132436,128,0,132636:0:0:0:0:
329,192,132436,128,0,132536:0:0:0:0:
256,192,132436,1,0,0:0:0:0:
182,192,132536,128,0,132636:0:0:0:0:
329,192,132636,1,0,0:0:0:0:
402,192,132636,128,0,132736:0:0:0:0:
256,192,132736,128,0,132836:0:0:0:0:
475,192,132836,128,0,133236:3:0:0:0:
402,192,132836,1,0,3:0:0:0:
109,192,132836,1,0,0:0:0:0:
182,192,132836,1,0,0:0:0:0:
36,192,132836,128,0,133236:0:0:0:0:
329,192,132936,1,0,3:0:0:0:
256,192,133036,1,0,3:0:0:0:
182,192,133136,1,0,3:0:0:0:
402,192,133236,1,0,3:0:0:0:
109,192,133236,1,0,3:0:0:0:
329,192,133236,1,0,3:0:0:0:
256,192,133336,1,0,3:0:0:0:
36,192,133436,128,0,133502:0:0:0:0:
109,192,133502,128,0,133569:0:0:0:0:
475,192,133536,1,0,0:0:0:0:
182,192,133569,128,0,133636:0:0:0:0:
329,192,133636,128,0,133736:3:0:0:0:
402,192,133636,1,0,0:0:0:0:
36,192,133736,1,0,3:0:0:0:
182,192,133836,1,0,3:0:0:0:
36,192,133936,128,0,134036:3:0:0:0:
329,192,134036,1,0,3:0:0:0:
475,192,134036,1,0,3:0:0:0:
109,192,134036,1,0,0:0:0:0:
182,192,134136,1,0,3:0:0:0:
402,192,134236,1,0,3:0:0:0:
256,192,134236,128,0,134336:3:0:0:0:
109,192,134336,1,0,3:0:0:0:
256,192,134436,128,0,135636:3:0:0:0:
402,192,134436,1,0,3:0:0:0:
36,192,134536,1,0,3:0:0:0:
182,192,134636,1,0,3:0:0:0:
402,192,134736,1,0,3:0:0:0:
36,192,134836,1,0,3:0:0:0:
475,192,134836,1,0,3:0:0:0:
109,192,134936,1,0,3:0:0:0:
36,192,135036,1,0,3:0:0:0:
475,192,135036,1,0,3:0:0:0:
402,192,135136,1,0,3:0:0:0:
36,192,135236,1,0,3:0:0:0:
109,192,135286,1,0,3:0:0:0:
182,192,135336,1,0,3:0:0:0:
329,192,135386,1,0,3:0:0:0:
475,192,135436,1,0,3:0:0:0:
402,192,135486,1,0,3:0:0:0:
329,192,135536,1,0,3:0:0:0:
182,192,135586,1,0,3:0:0:0:
36,192,135636,5,0,3:0:0:0:
402,192,135636,1,0,3:0:0:0:
475,192,135636,1,0,3:0:0:0:
182,192,135736,1,0,3:0:0:0:
109,192,135836,1,0,3:0:0:0:
329,192,135836,1,0,3:0:0:0:
475,192,135836,1,0,3:0:0:0:
36,192,136048,5,0,3:0:0:0:
256,192,136048,1,0,0:0:0:0:
402,192,136048,1,0,0:0:0:0:
475,192,136048,1,0,0:0:0:0:
475,192,138236,1,0,0:0:0:0:
256,192,138236,1,0,0:0:0:0:
402,192,138286,1,0,0:0:0:0:
182,192,138286,1,0,0:0:0:0:
329,192,138336,1,0,0:0:0:0:
109,192,138336,1,0,0:0:0:0:
182,192,138436,1,0,3:0:0:0:
36,192,138436,128,0,138636:3:0:0:0:
256,192,138436,1,0,0:0:0:0:
475,192,138436,1,0,0:0:0:0:
329,192,138636,1,0,3:0:0:0:
256,192,138686,1,0,3:0:0:0:
182,192,138736,1,0,3:0:0:0:
402,192,138736,1,0,3:0:0:0:
475,192,138736,128,0,138936:3:0:0:0:
109,192,138836,1,0,3:0:0:0:
256,192,138886,1,0,3:0:0:0:
402,192,138936,1,0,3:0:0:0:
36,192,139036,1,0,3:0:0:0:
329,192,139036,1,0,3:0:0:0:
182,192,139036,128,0,139236:3:0:0:0:
109,192,139236,1,0,3:0:0:0:
256,192,139236,1,0,3:0:0:0:
402,192,139236,1,0,3:0:0:0:
36,192,139236,128,0,139636:3:0:0:0:
256,192,139636,128,0,139736:0:0:0:0:
256,192,140036,128,0,140136:0:0:0:0:
256,192,140436,128,0,140536:0:0:0:0:
475,192,140636,1,0,3:0:0:0:
109,192,140636,1,0,0:0:0:0:
182,192,140686,1,0,3:0:0:0:
402,192,140686,1,0,0:0:0:0:
329,192,140736,1,0,3:0:0:0:
36,192,140736,1,0,0:0:0:0:
109,192,140786,1,0,3:0:0:0:
256,192,140836,1,0,3:0:0:0:
402,192,140836,1,0,3:0:0:0:
475,192,140836,128,0,140936:3:0:0:0:
182,192,140836,1,0,0:0:0:0:
182,192,141036,1,0,3:0:0:0:
109,192,141036,1,0,0:0:0:0:
36,192,141136,1,0,3:0:0:0:
402,192,141136,1,0,3:0:0:0:
256,192,141136,128,0,141236:3:0:0:0:
329,192,141336,1,0,3:0:0:0:
256,192,141336,1,0,0:0:0:0:
109,192,141436,1,0,3:0:0:0:
475,192,141436,1,0,3:0:0:0:
36,192,141436,128,0,141536:3:0:0:0:
182,192,141436,1,0,0:0:0:0:
256,192,141636,1,0,3:0:0:0:
182,192,141636,1,0,0:0:0:0:
36,192,141736,1,0,3:0:0:0:
475,192,141736,1,0,3:0:0:0:
329,192,141736,128,0,141836:3:0:0:0:
182,192,141836,1,0,3:0:0:0:
402,192,141836,1,0,0:0:0:0:
109,192,141886,1,0,3:0:0:0:
329,192,141886,1,0,0:0:0:0:
256,192,141936,1,0,0:0:0:0:
36,192,141936,1,0,0:0:0:0:
182,192,141986,1,0,0:0:0:0:
475,192,142036,1,0,3:0:0:0:
402,192,142036,128,0,142136:3:0:0:0:
109,192,142036,1,0,0:0:0:0:
329,192,142036,1,0,0:0:0:0:
109,192,142136,1,0,0:0:0:0:
36,192,142236,1,0,3:0:0:0:
256,192,142236,128,0,142436:3:0:0:0:
475,192,142236,1,0,3:0:0:0:
109,192,142436,1,0,3:0:0:0:
36,192,142436,1,0,3:0:0:0:
402,192,142436,1,0,3:0:0:0:
329,192,142436,1,0,3:0:0:0:
182,192,142536,1,0,3:0:0:0:
475,192,142536,1,0,3:0:0:0:
256,192,142636,1,0,3:0:0:0:
402,192,142686,1,0,3:0:0:0:
36,192,142736,1,0,3:0:0:0:
109,192,142736,1,0,3:0:0:0:
475,192,142736,1,0,3:0:0:0:
329,192,142836,1,0,3:0:0:0:
36,192,142936,1,0,3:0:0:0:
182,192,142936,1,0,3:0:0:0:
402,192,142936,1,0,3:0:0:0:
256,192,143036,1,0,3:0:0:0:
36,192,143136,1,0,3:0:0:0:
329,192,143136,1,0,3:0:0:0:
475,192,143136,1,0,3:0:0:0:
109,192,143236,1,0,3:0:0:0:
256,192,143286,1,0,3:0:0:0:
36,192,143336,1,0,3:0:0:0:
402,192,143336,1,0,3:0:0:0:
475,192,143336,1,0,3:0:0:0:
329,192,143436,1,0,3:0:0:0:
36,192,143536,1,0,3:0:0:0:
182,192,143536,1,0,3:0:0:0:
475,192,143536,1,0,3:0:0:0:
256,192,143636,1,0,3:0:0:0:
36,192,143736,1,0,3:0:0:0:
402,192,143736,1,0,3:0:0:0:
329,192,143736,1,0,3:0:0:0:
182,192,143836,1,0,3:0:0:0:
36,192,143936,1,0,3:0:0:0:
329,192,143936,1,0,3:0:0:0:
475,192,143936,1,0,3:0:0:0:
256,192,144036,1,0,3:0:0:0:
475,192,144136,1,0,3:0:0:0:
182,192,144136,1,0,3:0:0:0:
109,192,144136,1,0,3:0:0:0:
36,192,144236,1,0,3:0:0:0:
256,192,144286,1,0,3:0:0:0:
475,192,144336,1,0,3:0:0:0:
109,192,144336,1,0,3:0:0:0:
402,192,144336,1,0,3:0:0:0:
182,192,144436,1,0,3:0:0:0:
475,192,144536,1,0,3:0:0:0:
329,192,144536,1,0,3:0:0:0:
36,192,144536,1,0,3:0:0:0:
256,192,144636,1,0,3:0:0:0:
475,192,144736,1,0,3:0:0:0:
109,192,144736,1,0,3:0:0:0:
36,192,144736,1,0,3:0:0:0:
329,192,144836,1,0,3:0:0:0:
182,192,144886,1,0,3:0:0:0:
475,192,144936,1,0,3:0:0:0:
36,192,144936,1,0,3:0:0:0:
402,192,144936,1,0,3:0:0:0:
256,192,145036,1,0,3:0:0:0:
475,192,145136,1,0,3:0:0:0:
109,192,145136,1,0,3:0:0:0:
36,192,145136,1,0,3:0:0:0:
329,192,145236,1,0,3:0:0:0:
475,192,145336,1,0,3:0:0:0:
182,192,145336,1,0,3:0:0:0:
256,192,145336,1,0,3:0:0:0:
36,192,145436,1,0,3:0:0:0:
256,192,145536,1,0,3:0:0:0:
109,192,145536,1,0,3:0:0:0:
329,192,145636,1,0,3:0:0:0:
475,192,145636,1,0,3:0:0:0:
182,192,145636,1,0,3:0:0:0:
402,192,145636,1,0,3:0:0:0:
36,192,145736,1,0,3:0:0:0:
109,192,145736,1,0,3:0:0:0:
256,192,145836,1,0,3:0:0:0:
402,192,145886,1,0,3:0:0:0:
36,192,145936,1,0,3:0:0:0:
182,192,145936,1,0,3:0:0:0:
475,192,145936,1,0,3:0:0:0:
329,192,146036,1,0,3:0:0:0:
36,192,146136,1,0,3:0:0:0:
475,192,146136,1,0,3:0:0:0:
109,192,146136,1,0,3:0:0:0:
256,192,146236,1,0,3:0:0:0:
36,192,146336,1,0,3:0:0:0:
402,192,146336,1,0,3:0:0:0:
475,192,146336,1,0,3:0:0:0:
329,192,146436,1,0,3:0:0:0:
182,192,146486,1,0,3:0:0:0:
36,192,146536,1,0,3:0:0:0:
475,192,146536,1,0,3:0:0:0:
256,192,146536,1,0,3:0:0:0:
402,192,146636,1,0,3:0:0:0:
36,192,146736,1,0,3:0:0:0:
256,192,146736,1,0,3:0:0:0:
329,192,146736,1,0,3:0:0:0:
182,192,146836,1,0,3:0:0:0:
36,192,146936,1,0,3:0:0:0:
329,192,146936,1,0,3:0:0:0:
475,192,146936,1,0,3:0:0:0:
182,192,147036,1,0,3:0:0:0:
402,192,147086,1,0,3:0:0:0:
256,192,147136,1,0,3:0:0:0:
475,192,147186,1,0,3:0:0:0:
109,192,147236,1,0,3:0:0:0:
36,192,147236,1,0,3:0:0:0:
329,192,147236,1,0,3:0:0:0:
182,192,147236,128,0,147336:0:0:0:0:
402,192,147336,1,0,3:0:0:0:
402,192,147436,1,0,3:0:0:0:
36,192,147536,1,0,3:0:0:0:
475,192,147536,1,0,3:0:0:0:
256,192,147536,128,0,147636:0:0:0:0:
109,192,147636,1,0,3:0:0:0:
109,192,147736,1,0,3:0:0:0:
36,192,147836,1,0,3:0:0:0:
329,192,147836,1,0,3:0:0:0:
182,192,147836,1,0,3:0:0:0:
402,192,147836,128,0,147936:0:0:0:0:
256,192,147936,1,0,3:0:0:0:
256,192,148036,1,0,3:0:0:0:
402,192,148136,1,0,3:0:0:0:
36,192,148136,1,0,3:0:0:0:
475,192,148136,128,0,148236:0:0:0:0:
109,192,148186,1,0,3:0:0:0:
182,192,148236,1,0,3:0:0:0:
329,192,148286,1,0,3:0:0:0:
109,192,148336,1,0,3:0:0:0:
256,192,148386,1,0,3:0:0:0:
475,192,148436,1,0,3:0:0:0:
36,192,148436,1,0,3:0:0:0:
402,192,148436,128,0,148536:0:0:0:0:
329,192,148536,1,0,3:0:0:0:
256,192,148636,1,0,3:0:0:0:
36,192,148636,1,0,3:0:0:0:
109,192,148652,1,0,3:0:0:0:
36,192,148836,1,0,3:0:0:0:
329,192,148836,1,0,3:0:0:0:
402,192,148836,1,0,3:0:0:0:
109,192,148836,128,0,148936:3:0:0:0:
182,192,148936,128,0,149036:3:0:0:0:
402,192,149036,1,0,3:0:0:0:
475,192,149036,1,0,3:0:0:0:
109,192,149036,128,0,149136:3:0:0:0:
182,192,149136,128,0,149236:3:0:0:0:
256,192,149236,128,0,149336:3:0:0:0:
329,192,149336,128,0,149436:3:0:0:0:
182,192,149436,1,0,3:0:0:0:
36,192,149436,1,0,3:0:0:0:
475,192,149436,128,0,149536:3:0:0:0:
402,192,149536,128,0,149636:3:0:0:0:
329,192,149636,128,0,150136:3:0:0:0:
109,192,149736,1,0,3:0:0:0:
182,192,149836,1,0,3:0:0:0:
475,192,149836,1,0,3:0:0:0:
36,192,149936,1,0,3:0:0:0:
182,192,150036,1,0,0:0:0:0:
402,192,150136,128,0,150236:3:0:0:0:
329,192,150236,128,0,150336:3:0:0:0:
36,192,150236,1,0,3:0:0:0:
182,192,150236,1,0,3:0:0:0:
256,192,150336,128,0,150436:3:0:0:0:
182,192,150436,128,0,150836:3:0:0:0:
402,192,150436,1,0,3:0:0:0:
329,192,150536,1,0,3:0:0:0:
475,192,150636,1,0,3:0:0:0:
36,192,150636,1,0,3:0:0:0:
256,192,150736,1,0,3:0:0:0:
109,192,150836,128,0,151036:3:0:0:0:
329,192,150936,1,0,3:0:0:0:
402,192,151036,128,0,151161:3:0:0:0:
36,192,151036,1,0,3:0:0:0:
182,192,151036,1,0,3:0:0:0:
256,192,151161,128,0,151236:3:0:0:0:
36,192,151236,128,0,151636:3:0:0:0:
182,192,151336,1,0,3:0:0:0:
329,192,151436,1,0,3:0:0:0:
475,192,151436,1,0,3:0:0:0:
256,192,151536,1,0,3:0:0:0:
109,192,151636,128,0,151836:3:0:0:0:
402,192,151736,1,0,3:0:0:0:
182,192,151836,128,0,151936:3:0:0:0:
256,192,151836,1,0,3:0:0:0:
36,192,151836,1,0,3:0:0:0:
329,192,151936,128,0,152036:3:0:0:0:
475,192,151936,1,0,3:0:0:0:
402,192,152036,128,0,152169:3:0:0:0:
182,192,152036,1,0,3:0:0:0:
36,192,152036,1,0,3:0:0:0:
256,192,152169,128,0,152236:3:0:0:0:
109,192,152236,128,0,152336:3:0:0:0:
329,192,152236,1,0,3:0:0:0:
475,192,152236,1,0,3:0:0:0:
36,192,152336,128,0,152436:3:0:0:0:
329,192,152436,128,0,152536:3:0:0:0:
256,192,152536,128,0,152636:3:0:0:0:
36,192,152636,1,0,3:0:0:0:
475,192,152636,1,0,3:0:0:0:
182,192,152636,128,0,152736:3:0:0:0:
109,192,152736,128,0,152836:3:0:0:0:
402,192,152836,128,0,153136:3:0:0:0:
256,192,152836,1,0,3:0:0:0:
36,192,152936,1,0,3:0:0:0:
109,192,153036,1,0,3:0:0:0:
256,192,153036,1,0,3:0:0:0:
36,192,153136,128,0,153536:3:0:0:0:
329,192,153136,1,0,3:0:0:0:
475,192,153236,1,0,3:0:0:0:
329,192,153336,1,0,3:0:0:0:
256,192,153436,1,0,3:0:0:0:
402,192,153436,1,0,3:0:0:0:
402,192,153536,1,0,3:0:0:0:
256,192,153536,1,0,3:0:0:0:
36,192,153636,1,0,3:0:0:0:
109,192,153636,1,0,3:0:0:0:
182,192,153636,1,0,3:0:0:0:
475,192,153636,128,0,153736:3:0:0:0:
329,192,153736,128,0,153836:3:0:0:0:
36,192,153836,1,0,3:0:0:0:
109,192,153836,1,0,3:0:0:0:
256,192,153836,128,0,153936:3:0:0:0:
402,192,153936,128,0,154036:3:0:0:0:
36,192,154036,1,0,3:0:0:0:
109,192,154036,1,0,3:0:0:0:
329,192,154036,128,0,154136:3:0:0:0:
182,192,154136,1,0,3:0:0:0:
256,192,154186,1,0,0:0:0:0:
329,192,154236,1,0,3:0:0:0:
475,192,154236,1,0,3:0:0:0:
36,192,154236,128,0,154336:3:0:0:0:
109,192,154336,128,0,154436:3:0:0:0:
256,192,154436,1,0,3:0:0:0:
36,192,154436,1,0,3:0:0:0:
402,192,154436,1,0,3:0:0:0:
475,192,154436,128,0,154836:3:0:0:0:
182,192,154536,1,0,3:0:0:0:
36,192,154636,1,0,3:0:0:0:
109,192,154736,1,0,3:0:0:0:
256,192,154836,128,0,155236:3:0:0:0:
329,192,154936,1,0,3:0:0:0:
402,192,155036,1,0,3:0:0:0:
475,192,155136,1,0,3:0:0:0:
109,192,155236,1,0,3:0:0:0:
36,192,155236,1,0,3:0:0:0:
182,192,155236,1,0,3:0:0:0:
402,192,155236,128,0,155286:3:0:0:0:
256,192,155336,1,0,3:0:0:0:
36,192,155436,1,0,3:0:0:0:
182,192,155436,1,0,3:0:0:0:
475,192,155436,1,0,3:0:0:0:
329,192,155536,128,0,155586:3:0:0:0:
256,192,155636,1,0,3:0:0:0:
182,192,155736,1,0,3:0:0:0:
475,192,155836,128,0,155886:3:0:0:0:
109,192,155836,1,0,3:0:0:0:
329,192,155836,1,0,3:0:0:0:
256,192,155936,1,0,3:0:0:0:
402,192,156036,1,0,3:0:0:0:
329,192,156136,128,0,156186:3:0:0:0:
182,192,156236,1,0,3:0:0:0:
36,192,156236,1,0,3:0:0:0:
475,192,156236,1,0,3:0:0:0:
256,192,156336,1,0,3:0:0:0:
329,192,156436,128,0,156486:3:0:0:0:
402,192,156536,128,0,156586:3:0:0:0:
109,192,156636,128,0,156686:3:0:0:0:
256,192,156636,1,0,3:0:0:0:
475,192,156636,1,0,3:0:0:0:
182,192,156736,128,0,156786:3:0:0:0:
329,192,156836,128,0,156886:3:0:0:0:
109,192,156936,1,0,3:0:0:0:
256,192,157036,1,0,3:0:0:0:
402,192,157036,1,0,3:0:0:0:
36,192,157036,1,0,3:0:0:0:
475,192,157136,128,0,157186:3:0:0:0:
182,192,157236,1,0,3:0:0:0:
256,192,157336,1,0,3:0:0:0:
402,192,157436,128,0,157486:3:0:0:0:
36,192,157436,1,0,3:0:0:0:
182,192,157436,1,0,3:0:0:0:
329,192,157536,1,0,3:0:0:0:
256,192,157636,1,0,3:0:0:0:
329,192,157736,128,0,157786:3:0:0:0:
475,192,157836,1,0,3:0:0:0:
182,192,157836,1,0,3:0:0:0:
36,192,157836,1,0,3:0:0:0:
402,192,157936,1,0,3:0:0:0:
256,192,158036,1,0,3:0:0:0:
329,192,158036,1,0,3:0:0:0:
36,192,158036,128,0,158086:3:0:0:0:
475,192,158136,128,0,158186:3:0:0:0:
402,192,158236,1,0,3:0:0:0:
109,192,158236,1,0,3:0:0:0:
329,192,158236,128,0,158286:3:0:0:0:
36,192,158336,128,0,158386:3:0:0:0:
256,192,158436,1,0,3:0:0:0:
402,192,158436,1,0,3:0:0:0:
475,192,158436,1,0,3:0:0:0:
182,192,158436,128,0,158486:3:0:0:0:
109,192,158536,1,0,3:0:0:0:
402,192,158636,1,0,3:0:0:0:
475,192,158636,1,0,3:0:0:0:
329,192,158636,128,0,158686:3:0:0:0:
36,192,158736,128,0,158786:3:0:0:0:
182,192,158836,1,0,3:0:0:0:
402,192,158936,128,0,158986:3:0:0:0:
182,192,158936,1,0,0:0:0:0:
109,192,159036,128,0,159086:3:0:0:0:
329,192,159036,1,0,3:0:0:0:
36,192,159036,1,0,3:0:0:0:
475,192,159136,1,0,3:0:0:0:
256,192,159236,128,0,159286:3:0:0:0:
182,192,159336,128,0,159386:3:0:0:0:
109,192,159436,1,0,3:0:0:0:
329,192,159436,1,0,3:0:0:0:
475,192,159436,1,0,3:0:0:0:
256,192,159536,1,0,3:0:0:0:
36,192,159636,128,0,159686:3:0:0:0:
475,192,159636,1,0,0:0:0:0:
329,192,159736,128,0,159786:3:0:0:0:
182,192,159736,1,0,0:0:0:0:
256,192,159836,128,0,159886:3:0:0:0:
36,192,159836,1,0,3:0:0:0:
402,192,159836,1,0,3:0:0:0:
182,192,159936,128,0,159986:3:0:0:0:
36,192,159936,1,0,0:0:0:0:
329,192,160036,1,0,3:0:0:0:
475,192,160036,1,0,3:0:0:0:
402,192,160036,1,0,3:0:0:0:
109,192,160036,128,0,160086:3:0:0:0:
256,192,160136,1,0,3:0:0:0:
402,192,160236,128,0,160286:3:0:0:0:
36,192,160336,1,0,3:0:0:0:
475,192,160336,1,0,3:0:0:0:
109,192,160336,1,0,3:0:0:0:
329,192,160336,128,0,160386:3:0:0:0:
256,192,160436,1,0,3:0:0:0:
182,192,160536,128,0,160586:3:0:0:0:
256,192,160636,1,0,3:0:0:0:
475,192,160636,1,0,3:0:0:0:
402,192,160636,1,0,3:0:0:0:
36,192,160636,128,0,160686:3:0:0:0:
182,192,160736,1,0,3:0:0:0:
329,192,160786,1,0,3:0:0:0:
109,192,160836,1,0,3:0:0:0:
475,192,160836,128,0,160886:0:0:0:0:
182,192,160936,1,0,3:0:0:0:
36,192,160936,1,0,3:0:0:0:
402,192,160936,128,0,160986:3:0:0:0:
256,192,161036,1,0,3:0:0:0:
329,192,161136,1,0,3:0:0:0:
109,192,161236,1,0,3:0:0:0:
36,192,161236,1,0,3:0:0:0:
256,192,161236,1,0,3:0:0:0:
475,192,161236,128,0,161286:3:0:0:0:
182,192,161336,1,0,3:0:0:0:
402,192,161336,128,0,161386:3:0:0:0:
109,192,161436,1,0,3:0:0:0:
329,192,161436,128,0,161486:3:0:0:0:
475,192,161536,1,0,3:0:0:0:
256,192,161536,128,0,161586:3:0:0:0:
109,192,161636,1,0,3:0:0:0:
36,192,161636,1,0,3:0:0:0:
402,192,161636,1,0,3:0:0:0:
182,192,161636,128,0,161686:3:0:0:0:
256,192,161736,1,0,3:0:0:0:
109,192,161836,1,0,3:0:0:0:
329,192,161836,1,0,3:0:0:0:
475,192,161836,128,0,161886:3:0:0:0:
182,192,161936,1,0,3:0:0:0:
36,192,161936,128,0,161986:3:0:0:0:
402,192,162036,1,0,3:0:0:0:
109,192,162136,1,0,3:0:0:0:
402,192,162136,128,0,162186:3:0:0:0:
329,192,162236,1,0,3:0:0:0:
182,192,162236,1,0,3:0:0:0:
256,192,162236,128,0,162286:3:0:0:0:
109,192,162336,1,0,3:0:0:0:
36,192,162436,1,0,3:0:0:0:
256,192,162436,1,0,3:0:0:0:
329,192,162436,1,0,3:0:0:0:
402,192,162436,1,0,3:0:0:0:
475,192,162536,128,0,162586:3:0:0:0:
36,192,162636,1,0,3:0:0:0:
329,192,162636,1,0,3:0:0:0:
182,192,162636,1,0,3:0:0:0:
402,192,162736,1,0,3:0:0:0:
36,192,162836,1,0,3:0:0:0:
256,192,162836,128,0,162886:3:0:0:0:
109,192,162936,128,0,162986:3:0:0:0:
329,192,163036,1,0,3:0:0:0:
475,192,163036,1,0,3:0:0:0:
256,192,163036,128,0,163086:3:0:0:0:
182,192,163136,128,0,163186:3:0:0:0:
475,192,163236,1,0,3:0:0:0:
109,192,163236,1,0,3:0:0:0:
36,192,163236,1,0,3:0:0:0:
402,192,163236,128,0,163286:3:0:0:0:
256,192,163336,1,0,3:0:0:0:
475,192,163436,1,0,3:0:0:0:
109,192,163436,1,0,3:0:0:0:
329,192,163436,1,0,3:0:0:0:
256,192,163536,128,0,163586:3:0:0:0:
36,192,163636,1,0,3:0:0:0:
402,192,163736,128,0,163786:3:0:0:0:
36,192,163736,1,0,0:0:0:0:
256,192,163836,128,0,163886:3:0:0:0:
329,192,163836,1,0,3:0:0:0:
182,192,163836,1,0,3:0:0:0:
109,192,163936,1,0,0:0:0:0:
329,192,164036,1,0,3:0:0:0:
402,192,164036,1,0,3:0:0:0:
475,192,164036,1,0,3:0:0:0:
182,192,164036,1,0,3:0:0:0:
36,192,164136,128,0,164186:3:0:0:0:
475,192,164236,1,0,3:0:0:0:
109,192,164236,1,0,3:0:0:0:
256,192,164236,1,0,3:0:0:0:
329,192,164336,1,0,3:0:0:0:
36,192,164436,1,0,3:0:0:0:
402,192,164436,1,0,3:0:0:0:
256,192,164436,128,0,164486:3:0:0:0:
182,192,164536,128,0,164586:3:0:0:0:
475,192,164636,1,0,3:0:0:0:
329,192,164636,128,0,164686:3:0:0:0:
256,192,164736,128,0,164786:3:0:0:0:
402,192,164736,1,0,0:0:0:0:
36,192,164836,1,0,3:0:0:0:
109,192,164836,1,0,3:0:0:0:
182,192,164836,1,0,3:0:0:0:
329,192,164836,1,0,3:0:0:0:
402,192,164936,1,0,3:0:0:0:
329,192,165036,1,0,3:0:0:0:
36,192,165036,1,0,3:0:0:0:
182,192,165036,1,0,3:0:0:0:
475,192,165136,1,0,3:0:0:0:
36,192,165236,1,0,3:0:0:0:
182,192,165236,1,0,3:0:0:0:
329,192,165236,1,0,3:0:0:0:
475,192,165336,1,0,3:0:0:0:
329,192,165386,1,0,3:0:0:0:
182,192,165436,1,0,3:0:0:0:
36,192,165436,1,0,3:0:0:0:
109,192,165436,1,0,3:0:0:0:
256,192,165536,1,0,3:0:0:0:
329,192,165586,1,0,3:0:0:0:
109,192,165636,1,0,3:0:0:0:
36,192,165636,1,0,3:0:0:0:
402,192,165636,1,0,3:0:0:0:
475,192,165636,1,0,3:0:0:0:
182,192,165736,1,0,3:0:0:0:
329,192,165786,1,0,3:0:0:0:
36,192,165836,1,0,3:0:0:0:
256,192,165836,1,0,3:0:0:0:
475,192,165836,1,0,3:0:0:0:
109,192,165902,1,0,3:0:0:0:
329,192,165969,1,0,3:0:0:0:
475,192,166036,1,0,3:0:0:0:
402,192,166036,1,0,3:0:0:0:
182,192,166036,1,0,3:0:0:0:
256,192,166036,1,0,3:0:0:0:
36,192,166136,1,0,3:0:0:0:
109,192,166186,1,0,3:0:0:0:
329,192,166236,1,0,3:0:0:0:
182,192,166236,1,0,3:0:0:0:
329,192,166336,1,0,3:0:0:0:
475,192,166336,1,0,3:0:0:0:
182,192,166386,1,0,3:0:0:0:
36,192,166436,1,0,3:0:0:0:
402,192,166436,1,0,3:0:0:0:
256,192,166436,1,0,3:0:0:0:
475,192,166536,1,0,3:0:0:0:
329,192,166586,1,0,3:0:0:0:
36,192,166636,1,0,3:0:0:0:
182,192,166636,1,0,3:0:0:0:
256,192,166736,1,0,3:0:0:0:
402,192,166836,1,0,3:0:0:0:
475,192,166836,1,0,3:0:0:0:
329,192,166836,1,0,3:0:0:0:
109,192,166936,1,0,3:0:0:0:
182,192,166986,1,0,3:0:0:0:
256,192,167036,1,0,3:0:0:0:
36,192,167036,1,0,3:0:0:0:
475,192,167036,1,0,3:0:0:0:
402,192,167136,1,0,3:0:0:0:
182,192,167236,1,0,3:0:0:0:
109,192,167236,1,0,3:0:0:0:
36,192,167236,1,0,3:0:0:0:
256,192,167286,1,0,3:0:0:0:
329,192,167336,1,0,3:0:0:0:
475,192,167386,1,0,3:0:0:0:
182,192,167436,1,0,3:0:0:0:
329,192,167486,1,0,3:0:0:0:
109,192,167536,1,0,3:0:0:0:
256,192,167586,1,0,3:0:0:0:
36,192,167636,1,0,3:0:0:0:
182,192,167686,1,0,3:0:0:0:
402,192,167736,1,0,3:0:0:0:
256,192,167786,1,0,3:0:0:0:
36,192,167836,1,0,3:0:0:0:
475,192,167836,1,0,3:0:0:0:
329,192,167836,1,0,0:0:0:0:
182,192,167936,1,0,3:0:0:0:
109,192,168036,1,0,3:0:0:0:
402,192,168036,1,0,3:0:0:0:
36,192,168036,128,0,169336:3:0:0:0:
475,192,168036,128,0,169236:3:0:0:0:
182,192,168236,1,0,3:0:0:0:
329,192,168236,1,0,3:0:0:0:
256,192,168436,1,0,3:0:0:0:
256,192,168536,1,0,3:0:0:0:
182,192,168636,1,0,3:0:0:0:
329,192,168636,1,0,3:0:0:0:
256,192,168836,1,0,3:0:0:0:
182,192,169036,1,0,3:0:0:0:
329,192,169036,1,0,3:0:0:0:
256,192,169136,1,0,3:0:0:0:
256,192,169336,1,0,3:0:0:0:
329,192,169436,1,0,3:0:0:0:
182,192,169436,128,0,169536:3:0:0:0:
402,192,169436,1,0,3:0:0:0:
109,192,169536,128,0,169636:3:0:0:0:
256,192,169636,1,0,3:0:0:0:
475,192,169636,128,0,169736:3:0:0:0:
329,192,169736,128,0,169836:3:0:0:0:
475,192,169836,128,0,169902:3:0:0:0:
36,192,169836,1,0,3:0:0:0:
109,192,169836,1,0,3:0:0:0:
256,192,169902,128,0,169969:0:0:0:0:
329,192,169969,128,0,170036:0:0:0:0:
402,192,170036,128,0,170136:3:0:0:0:
109,192,170036,1,0,3:0:0:0:
256,192,170136,128,0,170236:3:0:0:0:
109,192,170136,1,0,3:0:0:0:
329,192,170236,128,0,170336:3:0:0:0:
36,192,170236,1,0,3:0:0:0:
475,192,170236,1,0,3:0:0:0:
182,192,170336,128,0,170436:3:0:0:0:
329,192,170436,128,0,170536:3:0:0:0:
402,192,170436,1,0,3:0:0:0:
109,192,170536,128,0,170636:3:0:0:0:
256,192,170636,128,0,170736:3:0:0:0:
402,192,170636,1,0,3:0:0:0:
475,192,170636,1,0,3:0:0:0:
109,192,170736,128,0,170836:3:0:0:0:
329,192,170736,1,0,3:0:0:0:
182,192,170836,128,0,170936:3:0:0:0:
36,192,170936,128,0,171036:3:0:0:0:
329,192,170936,1,0,3:0:0:0:
182,192,171036,128,0,171136:3:0:0:0:
475,192,171036,1,0,3:0:0:0:
402,192,171036,1,0,3:0:0:0:
109,192,171136,128,0,171236:3:0:0:0:
256,192,171236,128,0,171336:3:0:0:0:
402,192,171236,1,0,3:0:0:0:
109,192,171336,128,0,171436:3:0:0:0:
182,192,171436,128,0,171502:3:0:0:0:
475,192,171436,1,0,3:0:0:0:
36,192,171436,1,0,3:0:0:0:
256,192,171502,128,0,171569:3:0:0:0:
329,192,171569,128,0,171636:0:0:0:0:
402,192,171636,128,0,171736:3:0:0:0:
109,192,171636,1,0,3:0:0:0:
256,192,171736,128,0,171836:3:0:0:0:
109,192,171736,1,0,3:0:0:0:
182,192,171836,128,0,171902:3:0:0:0:
402,192,171836,1,0,3:0:0:0:
475,192,171836,1,0,3:0:0:0:
109,192,171902,128,0,171969:3:0:0:0:
36,192,171969,128,0,172036:0:0:0:0:
182,192,172036,128,0,172136:3:0:0:0:
256,192,172036,1,0,3:0:0:0:
329,192,172136,128,0,172236:3:0:0:0:
402,192,172236,128,0,172336:3:0:0:0:
109,192,172236,1,0,3:0:0:0:
475,192,172236,1,0,3:0:0:0:
36,192,172336,128,0,172436:3:0:0:0:
256,192,172336,1,0,3:0:0:0:
329,192,172436,1,0,3:0:0:0:
36,192,172536,128,0,172636:3:0:0:0:
256,192,172536,1,0,3:0:0:0:
182,192,172636,128,0,172702:3:0:0:0:
475,192,172636,1,0,3:0:0:0:
402,192,172636,1,0,3:0:0:0:
256,192,172702,128,0,172769:0:0:0:0:
329,192,172769,128,0,172836:0:0:0:0:
109,192,172836,1,0,3:0:0:0:
402,192,172836,128,0,172902:0:0:0:0:
329,192,172902,128,0,172969:0:0:0:0:
256,192,172969,128,0,173036:0:0:0:0:
182,192,173036,128,0,173102:3:0:0:0:
36,192,173036,1,0,3:0:0:0:
475,192,173036,1,0,3:0:0:0:
402,192,173102,128,0,173169:3:0:0:0:
109,192,173169,128,0,173236:0:0:0:0:
329,192,173236,128,0,173302:0:0:0:0:
36,192,173236,1,0,0:0:0:0:
256,192,173302,128,0,173369:0:0:0:0:
182,192,173369,128,0,173436:0:0:0:0:
329,192,173436,1,0,3:0:0:0:
402,192,173436,128,0,173502:0:0:0:0:
475,192,173436,1,0,0:0:0:0:
256,192,173502,128,0,173569:3:0:0:0:
109,192,173569,128,0,173636:0:0:0:0:
36,192,173636,1,0,3:0:0:0:
475,192,173636,128,0,173702:0:0:0:0:
329,192,173702,128,0,173769:0:0:0:0:
182,192,173769,128,0,173836:0:0:0:0:
36,192,173836,128,0,173902:3:0:0:0:
475,192,173836,1,0,3:0:0:0:
402,192,173836,1,0,3:0:0:0:
256,192,173902,128,0,173969:3:0:0:0:
109,192,173969,128,0,174036:3:0:0:0:
329,192,174036,128,0,174102:3:0:0:0:
182,192,174102,128,0,174169:3:0:0:0:
402,192,174169,128,0,174236:0:0:0:0:
109,192,174236,1,0,3:0:0:0:
329,192,174236,128,0,174302:0:0:0:0:
36,192,174236,1,0,0:0:0:0:
256,192,174302,128,0,174369:0:0:0:0:
182,192,174369,128,0,174436:0:0:0:0:
36,192,174436,128,0,174536:3:0:0:0:
329,192,174436,1,0,3:0:0:0:
402,192,174436,1,0,3:0:0:0:
475,192,174436,1,0,3:0:0:0:
36,192,174636,128,0,174736:3:0:0:0:
256,192,174636,1,0,3:0:0:0:
402,192,174636,1,0,3:0:0:0:
109,192,174736,128,0,174836:3:0:0:0:
329,192,174836,1,0,3:0:0:0:
36,192,174936,128,0,175036:3:0:0:0:
329,192,174936,1,0,3:0:0:0:
256,192,175036,1,0,3:0:0:0:
402,192,175036,1,0,3:0:0:0:
475,192,175036,1,0,3:0:0:0:
109,192,175036,128,0,175136:0:0:0:0:
182,192,175236,128,0,175336:3:0:0:0:
329,192,175236,1,0,3:0:0:0:
36,192,175336,128,0,175436:3:0:0:0:
475,192,175436,1,0,3:0:0:0:
256,192,175436,1,0,3:0:0:0:
402,192,175436,1,0,3:0:0:0:
36,192,175536,128,0,175636:3:0:0:0:
182,192,175536,1,0,3:0:0:0:
329,192,175636,128,0,175736:3:0:0:0:
182,192,175736,128,0,175836:3:0:0:0:
256,192,175736,1,0,0:0:0:0:
109,192,175836,1,0,3:0:0:0:
475,192,175836,128,0,175936:3:0:0:0:
36,192,175836,1,0,0:0:0:0:
402,192,175936,128,0,176036:3:0:0:0:
329,192,176036,1,0,3:0:0:0:
182,192,176036,128,0,176102:3:0:0:0:
36,192,176102,128,0,176169:3:0:0:0:
256,192,176169,128,0,176236:3:0:0:0:
109,192,176236,128,0,176302:3:0:0:0:
475,192,176236,1,0,3:0:0:0:
329,192,176236,1,0,3:0:0:0:
182,192,176302,128,0,176369:3:0:0:0:
402,192,176369,128,0,176436:3:0:0:0:
36,192,176436,128,0,176502:3:0:0:0:
109,192,176502,128,0,176569:3:0:0:0:
256,192,176569,128,0,176636:3:0:0:0:
109,192,176636,1,0,3:0:0:0:
36,192,176636,1,0,3:0:0:0:
182,192,176636,128,0,176702:3:0:0:0:
329,192,176702,128,0,176769:3:0:0:0:
475,192,176769,128,0,176836:3:0:0:0:
402,192,176836,128,0,176902:3:0:0:0:
256,192,176902,128,0,176969:3:0:0:0:
109,192,176969,128,0,177036:3:0:0:0:
36,192,177036,1,0,3:0:0:0:
475,192,177036,1,0,3:0:0:0:
402,192,177036,128,0,177102:3:0:0:0:
329,192,177102,128,0,177169:3:0:0:0:
256,192,177169,128,0,177236:3:0:0:0:
182,192,177236,128,0,177302:3:0:0:0:
109,192,177302,128,0,177369:3:0:0:0:
36,192,177369,128,0,177436:3:0:0:0:
329,192,177436,128,0,177502:3:0:0:0:
475,192,177436,1,0,3:0:0:0:
402,192,177436,1,0,3:0:0:0:
182,192,177502,128,0,177569:3:0:0:0:
256,192,177569,128,0,177636:3:0:0:0:
36,192,177636,1,0,3:0:0:0:
329,192,177636,128,0,177736:3:0:0:0:
475,192,177736,1,0,3:0:0:0:
256,192,177736,128,0,177836:0:0:0:0:
402,192,177836,1,0,3:0:0:0:
36,192,177836,1,0,3:0:0:0:
109,192,177836,128,0,177936:3:0:0:0:
256,192,177936,128,0,178136:3:0:0:0:
402,192,178036,1,0,3:0:0:0:
182,192,178136,128,0,178236:3:0:0:0:
402,192,178136,1,0,3:0:0:0:
329,192,178236,128,0,178336:3:0:0:0:
475,192,178236,1,0,3:0:0:0:
36,192,178236,1,0,3:0:0:0:
182,192,178336,128,0,178436:3:0:0:0:
36,192,178436,128,0,178536:3:0:0:0:
256,192,178436,1,0,3:0:0:0:
402,192,178536,128,0,178636:3:0:0:0:
109,192,178636,128,0,178736:3:0:0:0:
475,192,178636,1,0,3:0:0:0:
36,192,178636,1,0,3:0:0:0:
329,192,178736,128,0,178836:3:0:0:0:
256,192,178736,1,0,3:0:0:0:
182,192,178836,128,0,178936:3:0:0:0:
256,192,178936,128,0,179036:3:0:0:0:
36,192,178936,1,0,3:0:0:0:
182,192,179036,128,0,179136:3:0:0:0:
475,192,179036,1,0,3:0:0:0:
402,192,179036,1,0,3:0:0:0:
109,192,179136,128,0,179236:3:0:0:0:
36,192,179236,128,0,179636:3:0:0:0:
329,192,179236,1,0,3:0:0:0:
256,192,179436,1,0,3:0:0:0:
475,192,179436,1,0,3:0:0:0:
182,192,179636,1,0,3:0:0:0:
475,192,179736,1,0,3:0:0:0:
182,192,179736,1,0,3:0:0:0:
402,192,179736,128,0,179836:0:0:0:0:
36,192,179836,1,0,3:0:0:0:
109,192,179836,1,0,3:0:0:0:
329,192,179836,128,0,179936:0:0:0:0:
256,192,179936,128,0,180036:0:0:0:0:
475,192,180036,1,0,3:0:0:0:
182,192,180036,128,0,180136:3:0:0:0:
329,192,180236,1,0,3:0:0:0:
402,192,180236,1,0,3:0:0:0:
36,192,180236,128,0,180336:3:0:0:0:
182,192,180336,128,0,180436:3:0:0:0:
256,192,180336,1,0,3:0:0:0:
109,192,180436,128,0,180536:3:0:0:0:
256,192,180536,128,0,180636:3:0:0:0:
329,192,180536,1,0,3:0:0:0:
182,192,180636,128,0,180736:3:0:0:0:
36,192,180636,1,0,3:0:0:0:
475,192,180636,1,0,3:0:0:0:
329,192,180736,128,0,180836:3:0:0:0:
109,192,180836,1,0,3:0:0:0:
36,192,180836,1,0,3:0:0:0:
256,192,180836,1,0,3:0:0:0:
402,192,180836,1,0,0:0:0:0:
475,192,181036,128,0,181136:3:0:0:0:
182,192,181036,1,0,3:0:0:0:
36,192,181036,1,0,3:0:0:0:
402,192,181136,128,0,181236:0:0:0:0:
329,192,181236,128,0,181336:3:0:0:0:
109,192,181236,1,0,3:0:0:0:
256,192,181336,128,0,181436:3:0:0:0:
109,192,181336,1,0,3:0:0:0:
402,192,181436,128,0,181536:3:0:0:0:
475,192,181436,1,0,3:0:0:0:
36,192,181436,1,0,3:0:0:0:
329,192,181636,128,0,181836:3:0:0:0:
182,192,181636,1,0,3:0:0:0:
36,192,181836,1,0,3:0:0:0:
109,192,181836,1,0,3:0:0:0:
475,192,181836,1,0,3:0:0:0:
256,192,181936,128,0,182136:3:0:0:0:
402,192,181936,1,0,3:0:0:0:
109,192,182136,1,0,3:0:0:0:
402,192,182136,1,0,3:0:0:0:
475,192,182236,128,0,182336:3:0:0:0:
36,192,182236,1,0,3:0:0:0:
256,192,182236,1,0,3:0:0:0:
329,192,182436,128,0,183236:3:0:0:0:
402,192,182436,128,0,183136:3:0:0:0:
36,192,182636,1,0,3:0:0:0:
256,192,182636,1,0,3:0:0:0:
182,192,182736,1,0,3:0:0:0:
109,192,182836,1,0,3:0:0:0:
182,192,182936,1,0,3:0:0:0:
36,192,183036,1,0,3:0:0:0:
475,192,183036,1,0,3:0:0:0:
109,192,183236,128,0,183336:3:0:0:0:
36,192,183236,1,0,3:0:0:0:
256,192,183336,128,0,183436:3:0:0:0:
402,192,183436,128,0,183536:3:0:0:0:
182,192,183436,1,0,3:0:0:0:
329,192,183436,1,0,3:0:0:0:
475,192,183536,128,0,183636:3:0:0:0:
109,192,183536,1,0,3:0:0:0:
329,192,183636,128,0,183736:3:0:0:0:
182,192,183736,128,0,183836:3:0:0:0:
109,192,183736,1,0,3:0:0:0:
256,192,183836,128,0,183936:3:0:0:0:
475,192,183836,1,0,3:0:0:0:
36,192,183836,1,0,3:0:0:0:
329,192,183936,128,0,184036:3:0:0:0:
475,192,184036,1,0,3:0:0:0:
402,192,184036,1,0,3:0:0:0:
256,192,184086,1,0,3:0:0:0:
109,192,184136,128,0,184236:3:0:0:0:
402,192,184236,1,0,3:0:0:0:
475,192,184236,1,0,3:0:0:0:
329,192,184236,1,0,3:0:0:0:
182,192,184286,1,0,3:0:0:0:
36,192,184336,128,0,184436:3:0:0:0:
475,192,184436,1,0,3:0:0:0:
402,192,184436,1,0,3:0:0:0:
256,192,184486,1,0,3:0:0:0:
109,192,184536,128,0,184636:3:0:0:0:
36,192,184536,1,0,3:0:0:0:
182,192,184636,1,0,3:0:0:0:
475,192,184636,1,0,3:0:0:0:
402,192,184636,1,0,3:0:0:0:
329,192,184686,1,0,3:0:0:0:
256,192,184736,128,0,184836:3:0:0:0:
402,192,184836,1,0,3:0:0:0:
36,192,184836,1,0,3:0:0:0:
109,192,184886,1,0,3:0:0:0:
182,192,184936,128,0,185036:3:0:0:0:
475,192,185036,128,0,185102:3:0:0:0:
36,192,185036,1,0,3:0:0:0:
256,192,185036,1,0,3:0:0:0:
329,192,185102,128,0,185169:3:0:0:0:
182,192,185169,128,0,185236:3:0:0:0:
402,192,185236,128,0,185302:3:0:0:0:
256,192,185302,128,0,185369:3:0:0:0:
109,192,185369,128,0,185436:0:0:0:0:
475,192,185436,1,0,3:0:0:0:
329,192,185436,128,0,185502:3:0:0:0:
402,192,185436,1,0,3:0:0:0:
182,192,185502,128,0,185569:3:0:0:0:
36,192,185569,128,0,185636:3:0:0:0:
475,192,185636,128,0,185836:3:0:0:0:
109,192,185636,1,0,3:0:0:0:
36,192,185836,1,0,3:0:0:0:
109,192,185836,1,0,3:0:0:0:
256,192,185836,1,0,3:0:0:0:
402,192,185936,1,0,3:0:0:0:
182,192,186036,128,0,186136:3:0:0:0:
256,192,186136,128,0,186236:3:0:0:0:
475,192,186136,1,0,0:0:0:0:
329,192,186236,128,0,186436:0:0:0:0:
36,192,186236,1,0,3:0:0:0:
109,192,186236,1,0,3:0:0:0:
475,192,186436,128,0,186536:0:0:0:0:
402,192,186536,128,0,186636:3:0:0:0:
36,192,186636,1,0,3:0:0:0:
109,192,186636,1,0,0:0:0:0:
329,192,186636,128,0,186736:3:0:0:0:
256,192,186736,128,0,186836:0:0:0:0:
182,192,186736,1,0,0:0:0:0:
475,192,186836,128,0,186936:0:0:0:0:
256,192,186936,1,0,0:0:0:0:
402,192,186936,128,0,187036:0:0:0:0:
109,192,187036,1,0,3:0:0:0:
36,192,187036,1,0,3:0:0:0:
329,192,187036,128,0,187136:0:0:0:0:
182,192,187136,128,0,187236:0:0:0:0:
256,192,187236,1,0,3:0:0:0:
402,192,187236,1,0,3:0:0:0:
475,192,187236,1,0,3:0:0:0:
36,192,187236,128,0,187302:3:0:0:0:
109,192,187302,128,0,187369:3:0:0:0:
182,192,187369,128,0,187436:3:0:0:0:
475,192,187436,1,0,3:0:0:0:
402,192,187436,1,0,3:0:0:0:
329,192,187436,128,0,187502:3:0:0:0:
256,192,187502,128,0,187569:3:0:0:0:
182,192,187569,128,0,187636:3:0:0:0:
36,192,187636,128,0,187702:3:0:0:0:
109,192,187702,128,0,187769:3:0:0:0:
182,192,187769,128,0,187836:3:0:0:0:
402,192,187836,1,0,3:0:0:0:
475,192,187836,1,0,3:0:0:0:
329,192,187836,128,0,187902:3:0:0:0:
256,192,187902,128,0,187969:3:0:0:0:
182,192,187969,128,0,188036:3:0:0:0:
36,192,188036,128,0,188102:3:0:0:0:
109,192,188102,128,0,188169:3:0:0:0:
182,192,188169,128,0,188236:3:0:0:0:
475,192,188236,1,0,3:0:0:0:
402,192,188236,1,0,3:0:0:0:
329,192,188236,128,0,188302:3:0:0:0:
256,192,188302,128,0,188369:3:0:0:0:
182,192,188369,128,0,188436:3:0:0:0:
402,192,188436,128,0,188502:3:0:0:0:
109,192,188502,128,0,188569:3:0:0:0:
256,192,188569,128,0,188636:3:0:0:0:
36,192,188636,128,0,188702:3:0:0:0:
329,192,188636,1,0,3:0:0:0:
475,192,188636,1,0,3:0:0:0:
109,192,188702,128,0,188769:3:0:0:0:
182,192,188769,128,0,188836:3:0:0:0:
256,192,188836,128,0,188936:3:0:0:0:
475,192,188836,1,0,3:0:0:0:
402,192,188936,128,0,189036:3:0:0:0:
109,192,189036,1,0,3:0:0:0:
36,192,189036,1,0,3:0:0:0:
256,192,189036,128,0,189136:0:0:0:0:
329,192,189136,128,0,189236:3:0:0:0:
182,192,189236,128,0,189336:3:0:0:0:
402,192,189236,1,0,3:0:0:0:
36,192,189336,128,0,189436:3:0:0:0:
402,192,189336,1,0,3:0:0:0:
329,192,189436,1,0,3:0:0:0:
475,192,189436,1,0,3:0:0:0:
109,192,189436,128,0,189536:3:0:0:0:
182,192,189536,128,0,189636:3:0:0:0:
256,192,189636,128,0,189736:3:0:0:0:
402,192,189636,1,0,3:0:0:0:
109,192,189736,128,0,189836:0:0:0:0:
36,192,189836,1,0,3:0:0:0:
329,192,189836,1,0,3:0:0:0:
475,192,189836,1,0,3:0:0:0:
182,192,189936,128,0,190036:3:0:0:0:
256,192,189936,1,0,3:0:0:0:
402,192,190036,128,0,190136:3:0:0:0:
109,192,190136,128,0,190236:3:0:0:0:
256,192,190136,1,0,3:0:0:0:
329,192,190236,128,0,190336:3:0:0:0:
182,192,190236,1,0,3:0:0:0:
475,192,190236,1,0,3:0:0:0:
36,192,190336,128,0,190436:3:0:0:0:
256,192,190436,128,0,190736:3:0:0:0:
109,192,190436,1,0,3:0:0:0:
36,192,190636,1,0,3:0:0:0:
475,192,190636,1,0,3:0:0:0:
402,192,190736,128,0,190836:3:0:0:0:
182,192,190836,128,0,191036:3:0:0:0:
329,192,190836,1,0,3:0:0:0:
329,192,190936,1,0,3:0:0:0:
256,192,191036,1,0,3:0:0:0:
36,192,191036,1,0,3:0:0:0:
475,192,191036,1,0,3:0:0:0:
182,192,191136,128,0,191236:3:0:0:0:
36,192,191236,128,0,191336:3:0:0:0:
402,192,191236,1,0,3:0:0:0:
109,192,191336,128,0,191436:3:0:0:0:
256,192,191436,128,0,191536:3:0:0:0:
329,192,191436,1,0,3:0:0:0:
475,192,191436,1,0,3:0:0:0:
109,192,191536,128,0,191636:3:0:0:0:
36,192,191536,1,0,3:0:0:0:
182,192,191636,128,0,191736:3:0:0:0:
329,192,191736,128,0,191836:3:0:0:0:
36,192,191736,1,0,3:0:0:0:
182,192,191836,128,0,191936:3:0:0:0:
475,192,191836,1,0,3:0:0:0:
402,192,191836,1,0,3:0:0:0:
256,192,191936,128,0,192036:3:0:0:0:
36,192,192036,128,0,192136:3:0:0:0:
402,192,192036,1,0,3:0:0:0:
182,192,192136,128,0,192236:3:0:0:0:
329,192,192236,128,0,192336:3:0:0:0:
256,192,192236,1,0,3:0:0:0:
475,192,192236,1,0,3:0:0:0:
36,192,192336,128,0,192436:3:0:0:0:
109,192,192436,128,0,192536:3:0:0:0:
402,192,192436,1,0,3:0:0:0:
402,192,192536,128,0,192636:3:0:0:0:
256,192,192536,1,0,3:0:0:0:
182,192,192636,128,0,192736:3:0:0:0:
36,192,192636,1,0,3:0:0:0:
475,192,192636,1,0,3:0:0:0:
329,192,192736,128,0,192836:3:0:0:0:
256,192,192736,1,0,3:0:0:0:
475,192,192836,128,0,193036:3:0:0:0:
402,192,192836,1,0,3:0:0:0:
36,192,192836,1,0,3:0:0:0:
109,192,192836,1,0,0:0:0:0:
182,192,192936,1,0,0:0:0:0:
256,192,192986,1,0,0:0:0:0:
329,192,193036,1,0,0:0:0:0:
36,192,193136,128,0,193336:3:0:0:0:
182,192,193136,1,0,3:0:0:0:
402,192,193136,1,0,3:0:0:0:
475,192,193236,1,0,3:0:0:0:
329,192,193286,1,0,3:0:0:0:
256,192,193336,1,0,3:0:0:0:
182,192,193386,1,0,0:0:0:0:
109,192,193436,128,0,193636:3:0:0:0:
36,192,193436,1,0,3:0:0:0:
402,192,193436,1,0,3:0:0:0:
256,192,193536,1,0,3:0:0:0:
475,192,193636,1,0,3:0:0:0:
182,192,193636,128,0,193836:3:0:0:0:
402,192,193636,128,0,193736:3:0:0:0:
329,192,193736,128,0,193836:3:0:0:0:
256,192,193836,128,0,193936:3:0:0:0:
36,192,193936,128,0,194136:3:0:0:0:
329,192,193936,128,0,194036:3:0:0:0:
109,192,193936,1,0,3:0:0:0:
256,192,194036,128,0,194136:3:0:0:0:
182,192,194136,128,0,194236:3:0:0:0:
475,192,194236,1,0,3:0:0:0:
109,192,194236,128,0,194636:3:0:0:0:
402,192,194236,128,0,194636:3:0:0:0:
36,192,194636,1,0,3:0:0:0:
36,192,194736,1,0,3:0:0:0:
256,192,194836,1,0,3:0:0:0:
402,192,194836,1,0,3:0:0:0:
475,192,194836,1,0,3:0:0:0:
109,192,194936,1,0,3:0:0:0:
475,192,195036,1,0,3:0:0:0:
329,192,195048,1,0,3:0:0:0:
182,192,195136,1,0,3:0:0:0:
402,192,195236,1,0,3:0:0:0:
109,192,195236,128,0,195336:3:0:0:0:
475,192,195236,128,0,195436:3:0:0:0:
182,192,195336,128,0,195436:3:0:0:0:
256,192,195436,128,0,195536:3:0:0:0:
109,192,195536,1,0,3:0:0:0:
402,192,195536,128,0,195636:3:0:0:0:
36,192,195536,128,0,195736:3:0:0:0:
329,192,195636,128,0,195736:3:0:0:0:
256,192,195736,128,0,195836:3:0:0:0:
182,192,195836,128,0,196036:3:0:0:0:
475,192,195836,128,0,196036:3:0:0:0:
36,192,195836,1,0,3:0:0:0:
329,192,195936,1,0,3:0:0:0:
256,192,196036,1,0,3:0:0:0:
402,192,196036,1,0,3:0:0:0:
109,192,196136,1,0,3:0:0:0:
329,192,196186,1,0,3:0:0:0:
182,192,196236,1,0,3:0:0:0:
36,192,196286,1,0,3:0:0:0:
475,192,196336,1,0,3:0:0:0:
329,192,196386,1,0,3:0:0:0:
182,192,196436,1,0,3:0:0:0:
402,192,196486,1,0,3:0:0:0:
256,192,196536,1,0,3:0:0:0:
109,192,196586,1,0,3:0:0:0:
36,192,196636,1,0,3:0:0:0:
329,192,196648,1,0,3:0:0:0:
256,192,196736,1,0,0:0:0:0:
109,192,196836,1,0,3:0:0:0:
36,192,196836,128,0,197036:3:0:0:0:
402,192,196836,1,0,0:0:0:0:
182,192,197036,1,0,3:0:0:0:
36,192,197136,1,0,3:0:0:0:
329,192,197136,1,0,3:0:0:0:
475,192,197136,128,0,197336:3:0:0:0:
109,192,197236,1,0,3:0:0:0:
182,192,197286,1,0,3:0:0:0:
256,192,197336,1,0,3:0:0:0:
329,192,197386,1,0,3:0:0:0:
402,192,197436,1,0,3:0:0:0:
36,192,197436,128,0,197636:3:0:0:0:
475,192,197436,128,0,197636:3:0:0:0:
182,192,197636,1,0,3:0:0:0:
36,192,197736,1,0,3:0:0:0:
256,192,197736,1,0,3:0:0:0:
475,192,197736,1,0,3:0:0:0:
402,192,197836,1,0,3:0:0:0:
256,192,197886,1,0,3:0:0:0:
36,192,197936,1,0,3:0:0:0:
109,192,197986,1,0,0:0:0:0:
182,192,198036,1,0,3:0:0:0:
329,192,198036,1,0,3:0:0:0:
475,192,198036,1,0,3:0:0:0:
182,192,198136,1,0,3:0:0:0:
256,192,198236,1,0,3:0:0:0:
402,192,198236,1,0,3:0:0:0:
402,192,198336,1,0,3:0:0:0:
109,192,198436,1,0,3:0:0:0:
36,192,198436,1,0,3:0:0:0:
475,192,198436,1,0,3:0:0:0:
182,192,198436,128,0,198636:3:0:0:0:
329,192,198536,1,0,3:0:0:0:
256,192,198636,1,0,3:0:0:0:
36,192,198636,1,0,3:0:0:0:
475,192,198636,1,0,3:0:0:0:
329,192,198736,128,0,198936:3:0:0:0:
109,192,198836,1,0,3:0:0:0:
182,192,198836,1,0,3:0:0:0:
475,192,198936,1,0,3:0:0:0:
256,192,198986,1,0,3:0:0:0:
402,192,199036,1,0,3:0:0:0:
109,192,199036,1,0,3:0:0:0:
36,192,199036,128,0,199136:3:0:0:0:
182,192,199136,1,0,3:0:0:0:
36,192,199236,128,0,199436:3:0:0:0:
256,192,199236,1,0,3:0:0:0:
475,192,199236,1,0,3:0:0:0:
402,192,199286,1,0,3:0:0:0:
329,192,199336,1,0,3:0:0:0:
256,192,199386,1,0,3:0:0:0:
182,192,199436,1,0,3:0:0:0:
329,192,199486,1,0,3:0:0:0:
256,192,199536,1,0,3:0:0:0:
182,192,199586,1,0,0:0:0:0:
109,192,199636,1,0,3:0:0:0:
475,192,199636,128,0,199836:3:0:0:0:
256,192,199686,1,0,3:0:0:0:
182,192,199736,1,0,3:0:0:0:
109,192,199786,1,0,3:0:0:0:
36,192,199836,1,0,3:0:0:0:
402,192,199836,1,0,3:0:0:0:
256,192,199936,128,0,200036:3:0:0:0:
182,192,200036,1,0,3:0:0:0:
36,192,200036,128,0,200136:3:0:0:0:
475,192,200036,128,0,200236:0:0:0:0:
109,192,200136,128,0,200236:0:0:0:0:
329,192,200236,1,0,3:0:0:0:
182,192,200236,128,0,200336:3:0:0:0:
36,192,200336,1,0,3:0:0:0:
256,192,200336,128,0,200436:3:0:0:0:
402,192,200336,128,0,200536:0:0:0:0:
109,192,200436,128,0,200536:3:0:0:0:
182,192,200536,128,0,200636:3:0:0:0:
475,192,200636,1,0,3:0:0:0:
329,192,200636,128,0,201036:3:0:0:0:
36,192,200636,1,0,3:0:0:0:
256,192,200836,1,0,3:0:0:0:
182,192,201036,1,0,3:0:0:0:
36,192,201036,1,0,3:0:0:0:
402,192,201036,1,0,3:0:0:0:
256,192,201136,128,0,201336:3:0:0:0:
182,192,201336,1,0,3:0:0:0:
329,192,201436,1,0,3:0:0:0:
475,192,201436,1,0,3:0:0:0:
36,192,201436,128,0,201636:3:0:0:0:
475,192,201636,1,0,3:0:0:0:
182,192,201636,128,0,201736:3:0:0:0:
256,192,201636,1,0,0:0:0:0:
402,192,201636,128,0,201836:0:0:0:0:
109,192,201736,128,0,201836:3:0:0:0:
256,192,201836,128,0,201936:3:0:0:0:
329,192,201836,1,0,3:0:0:0:
182,192,201936,128,0,202036:3:0:0:0:
36,192,201936,1,0,3:0:0:0:
475,192,201936,128,0,202136:0:0:0:0:
329,192,202036,128,0,202136:3:0:0:0:
256,192,202136,128,0,202236:3:0:0:0:
36,192,202136,1,0,3:0:0:0:
402,192,202236,128,0,202636:3:0:0:0:
109,192,202236,1,0,3:0:0:0:
182,192,202236,1,0,3:0:0:0:
182,192,202436,1,0,3:0:0:0:
182,192,202536,1,0,3:0:0:0:
36,192,202636,1,0,3:0:0:0:
256,192,202636,1,0,3:0:0:0:
475,192,202636,1,0,3:0:0:0:
329,192,202736,128,0,202936:3:0:0:0:
256,192,202936,1,0,3:0:0:0:
36,192,203036,1,0,3:0:0:0:
182,192,203036,128,0,203236:3:0:0:0:
402,192,203036,1,0,0:0:0:0:
402,192,203136,1,0,0:0:0:0:
109,192,203236,1,0,3:0:0:0:
256,192,203236,1,0,3:0:0:0:
475,192,203236,1,0,3:0:0:0:
36,192,203236,128,0,203436:3:0:0:0:
256,192,203436,1,0,3:0:0:0:
329,192,203436,1,0,3:0:0:0:
109,192,203536,128,0,203736:3:0:0:0:
402,192,203536,1,0,3:0:0:0:
475,192,203536,1,0,3:0:0:0:
182,192,203536,1,0,3:0:0:0:
475,192,203736,1,0,3:0:0:0:
182,192,203836,128,0,204136:3:0:0:0:
36,192,203836,1,0,3:0:0:0:
402,192,203836,1,0,3:0:0:0:
329,192,203836,1,0,3:0:0:0:
402,192,204036,1,0,3:0:0:0:
402,192,204136,1,0,3:0:0:0:
182,192,204236,1,0,3:0:0:0:
36,192,204236,1,0,3:0:0:0:
329,192,204236,1,0,3:0:0:0:
256,192,204336,1,0,3:0:0:0:
109,192,204436,1,0,3:0:0:0:
36,192,204436,1,0,3:0:0:0:
402,192,204436,1,0,3:0:0:0:
182,192,204436,128,0,204636:3:0:0:0:
475,192,204611,1,0,3:0:0:0:
329,192,204636,1,0,3:0:0:0:
256,192,204636,128,0,204836:3:0:0:0:
402,192,204836,1,0,3:0:0:0:
36,192,204836,1,0,3:0:0:0:
182,192,204836,1,0,3:0:0:0:
475,192,204836,128,0,205136:3:0:0:0:
329,192,204936,1,0,3:0:0:0:
182,192,205036,1,0,3:0:0:0:
329,192,205136,128,0,205436:3:0:0:0:
109,192,205236,1,0,3:0:0:0:
36,192,205236,1,0,3:0:0:0:
182,192,205336,1,0,3:0:0:0:
109,192,205436,128,0,205536:3:0:0:0:
402,192,205536,1,0,3:0:0:0:
36,192,205636,128,0,206036:3:0:0:0:
402,192,205636,1,0,3:0:0:0:
182,192,205636,1,0,3:0:0:0:
256,192,205736,1,0,3:0:0:0:
402,192,205836,1,0,3:0:0:0:
182,192,205936,1,0,3:0:0:0:
475,192,206036,128,0,206436:3:0:0:0:
329,192,206036,1,0,3:0:0:0:
109,192,206036,1,0,3:0:0:0:
256,192,206136,1,0,3:0:0:0:
329,192,206236,1,0,3:0:0:0:
182,192,206336,1,0,3:0:0:0:
402,192,206436,1,0,3:0:0:0:
36,192,206436,1,0,3:0:0:0:
109,192,206436,128,0,206736:3:0:0:0:
256,192,206536,1,0,3:0:0:0:
329,192,206636,1,0,3:0:0:0:
182,192,206736,128,0,207036:3:0:0:0:
402,192,206836,1,0,3:0:0:0:
475,192,206836,1,0,3:0:0:0:
329,192,206936,1,0,3:0:0:0:
256,192,207036,128,0,207136:3:0:0:0:
475,192,207136,1,0,3:0:0:0:
256,192,207236,128,0,207636:3:0:0:0:
109,192,207236,1,0,3:0:0:0:
402,192,207236,1,0,3:0:0:0:
36,192,207336,1,0,3:0:0:0:
182,192,207436,1,0,3:0:0:0:
109,192,207536,1,0,3:0:0:0:
402,192,207636,128,0,208036:3:0:0:0:
475,192,207636,1,0,3:0:0:0:
329,192,207636,1,0,3:0:0:0:
36,192,207636,1,0,3:0:0:0:
109,192,207736,1,0,3:0:0:0:
182,192,207786,1,0,3:0:0:0:
256,192,207836,1,0,3:0:0:0:
182,192,207936,1,0,3:0:0:0:
475,192,208036,128,0,209436:3:0:0:0:
329,192,208036,1,0,3:0:0:0:
36,192,208036,1,0,3:0:0:0:
109,192,208036,1,0,3:0:0:0:
256,192,208136,1,0,3:0:0:0:
182,192,208186,1,0,3:0:0:0:
109,192,208236,1,0,3:0:0:0:
36,192,208236,1,0,3:0:0:0:
402,192,208236,1,0,3:0:0:0:
329,192,208336,1,0,3:0:0:0:
182,192,208386,1,0,3:0:0:0:
36,192,208436,1,0,3:0:0:0:
109,192,208536,1,0,3:0:0:0:
402,192,208536,1,0,3:0:0:0:
256,192,208636,1,0,3:0:0:0:
182,192,208736,1,0,3:0:0:0:
256,192,208786,1,0,3:0:0:0:
329,192,208836,1,0,3:0:0:0:
402,192,208836,1,0,3:0:0:0:
36,192,208836,1,0,3:0:0:0:
109,192,208936,1,0,3:0:0:0:
36,192,209036,1,0,3:0:0:0:
329,192,209036,1,0,3:0:0:0:
182,192,209136,1,0,3:0:0:0:
109,192,209236,1,0,3:0:0:0:
109,192,209336,1,0,3:0:0:0:
36,192,209436,1,0,3:0:0:0:
256,192,209436,1,0,3:0:0:0:
402,192,209436,1,0,3:0:0:0:
182,192,209536,1,0,3:0:0:0:
475,192,209636,1,0,3:0:0:0:
256,192,209636,1,0,3:0:0:0:
36,192,209686,1,0,3:0:0:0:
329,192,209736,1,0,3:0:0:0:
109,192,209786,1,0,3:0:0:0:
402,192,209836,1,0,3:0:0:0:
182,192,209886,1,0,3:0:0:0:
475,192,209936,1,0,3:0:0:0:
256,192,209986,1,0,3:0:0:0:
402,192,210036,1,0,3:0:0:0:
182,192,210086,1,0,3:0:0:0:
329,192,210136,1,0,3:0:0:0:
109,192,210186,1,0,3:0:0:0:
256,192,210236,1,0,3:0:0:0:
36,192,210286,1,0,3:0:0:0:
182,192,210336,1,0,3:0:0:0:
256,192,210386,1,0,3:0:0:0:
329,192,210436,1,0,3:0:0:0:
402,192,210436,1,0,3:0:0:0:
475,192,210436,1,0,3:0:0:0:
109,192,210436,1,0,3:0:0:0:
109,192,210836,128,0,211036:3:0:0:0:
182,192,211036,128,0,211236:3:0:0:0:
256,192,211236,1,0,3:0:0:0:
36,192,211236,1,0,3:0:0:0:
402,192,211236,1,0,3:0:0:0:
475,192,211236,128,0,211436:3:0:0:0:
256,192,211336,1,0,3:0:0:0:
36,192,211436,1,0,3:0:0:0:
402,192,211436,1,0,3:0:0:0:
182,192,211436,1,0,3:0:0:0:
329,192,211536,128,0,211736:3:0:0:0:
109,192,211636,1,0,3:0:0:0:
109,192,211736,1,0,3:0:0:0:
475,192,211836,128,0,212236:3:0:0:0:
256,192,211836,1,0,3:0:0:0:
36,192,211836,1,0,3:0:0:0:
182,192,211936,1,0,3:0:0:0:
402,192,212036,128,0,212236:3:0:0:0:
256,192,212036,1,0,3:0:0:0:
109,192,212136,1,0,3:0:0:0:
182,192,212236,1,0,3:0:0:0:
329,192,212236,1,0,3:0:0:0:
36,192,212236,1,0,3:0:0:0:
475,192,212336,1,0,3:0:0:0:
329,192,212436,128,0,212636:3:0:0:0:
182,192,212436,1,0,3:0:0:0:
109,192,212536,1,0,3:0:0:0:
36,192,212636,128,0,213036:3:0:0:0:
256,192,212636,1,0,3:0:0:0:
475,192,212636,1,0,3:0:0:0:
402,192,212736,1,0,3:0:0:0:
182,192,212836,128,0,213036:3:0:0:0:
329,192,212836,1,0,3:0:0:0:
329,192,212936,1,0,3:0:0:0:
256,192,213036,1,0,3:0:0:0:
475,192,213036,1,0,3:0:0:0:
402,192,213036,1,0,3:0:0:0:
109,192,213136,128,0,213336:3:0:0:0:
329,192,213236,1,0,3:0:0:0:
329,192,213336,1,0,3:0:0:0:
36,192,213436,128,0,213836:3:0:0:0:
182,192,213436,1,0,3:0:0:0:
475,192,213436,1,0,3:0:0:0:
256,192,213536,1,0,3:0:0:0:
109,192,213636,128,0,213836:3:0:0:0:
402,192,213636,1,0,3:0:0:0:
329,192,213736,1,0,3:0:0:0:
182,192,213836,1,0,3:0:0:0:
402,192,213836,1,0,3:0:0:0:
475,192,213836,1,0,3:0:0:0:
329,192,213936,1,0,3:0:0:0:
256,192,213986,1,0,3:0:0:0:
182,192,214036,128,0,214236:3:0:0:0:
36,192,214036,1,0,3:0:0:0:
475,192,214136,1,0,3:0:0:0:
329,192,214236,128,0,214636:3:0:0:0:
256,192,214236,1,0,3:0:0:0:
109,192,214236,1,0,3:0:0:0:
475,192,214336,1,0,3:0:0:0:
182,192,214436,1,0,3:0:0:0:
36,192,214436,1,0,3:0:0:0:
402,192,214436,128,0,214636:3:0:0:0:
182,192,214536,1,0,3:0:0:0:
36,192,214636,1,0,3:0:0:0:
256,192,214636,1,0,3:0:0:0:
109,192,214636,1,0,3:0:0:0:
402,192,214736,128,0,214936:3:0:0:0:
182,192,214836,1,0,3:0:0:0:
182,192,214936,1,0,3:0:0:0:
475,192,215036,128,0,215436:3:0:0:0:
256,192,215036,1,0,3:0:0:0:
36,192,215036,1,0,3:0:0:0:
109,192,215136,1,0,3:0:0:0:
402,192,215236,128,0,215436:3:0:0:0:
182,192,215236,1,0,3:0:0:0:
109,192,215336,1,0,3:0:0:0:
182,192,215436,128,0,215836:3:0:0:0:
36,192,215436,1,0,3:0:0:0:
329,192,215436,1,0,3:0:0:0:
402,192,215536,1,0,3:0:0:0:
475,192,215636,128,0,215836:3:0:0:0:
329,192,215636,1,0,3:0:0:0:
256,192,215736,1,0,3:0:0:0:
36,192,215836,128,0,216236:3:0:0:0:
109,192,215836,1,0,3:0:0:0:
402,192,215836,1,0,0:0:0:0:
182,192,215936,1,0,3:0:0:0:
402,192,216036,1,0,3:0:0:0:
256,192,216036,1,0,3:0:0:0:
475,192,216036,128,0,216236:3:0:0:0:
256,192,216136,1,0,3:0:0:0:
182,192,216236,1,0,3:0:0:0:
329,192,216236,1,0,3:0:0:0:
109,192,216236,1,0,0:0:0:0:
256,192,216336,128,0,216536:3:0:0:0:
402,192,216436,1,0,3:0:0:0:
402,192,216536,1,0,3:0:0:0:
36,192,216636,128,0,217036:3:0:0:0:
329,192,216636,1,0,3:0:0:0:
182,192,216636,1,0,3:0:0:0:
475,192,216736,1,0,3:0:0:0:
402,192,216836,1,0,3:0:0:0:
182,192,216836,128,0,217036:3:0:0:0:
329,192,216936,1,0,3:0:0:0:
109,192,217036,1,0,3:0:0:0:
256,192,217036,1,0,3:0:0:0:
402,192,217036,1,0,3:0:0:0:
475,192,217136,128,0,217436:3:0:0:0:
109,192,217236,1,0,3:0:0:0:
182,192,217286,1,0,3:0:0:0:
256,192,217336,1,0,3:0:0:0:
329,192,217386,1,0,3:0:0:0:
402,192,217436,1,0,3:0:0:0:
109,192,217436,1,0,3:0:0:0:
36,192,217436,1,0,3:0:0:0:
256,192,217536,1,0,3:0:0:0:
402,192,217636,1,0,3:0:0:0:
329,192,217636,1,0,3:0:0:0:
182,192,217636,1,0,3:0:0:0:
475,192,217636,128,0,217836:3:0:0:0:
182,192,217736,1,0,3:0:0:0:
36,192,217836,1,0,3:0:0:0:
256,192,217836,1,0,3:0:0:0:
402,192,217836,1,0,3:0:0:0:
329,192,217936,128,0,218136:3:0:0:0:
109,192,218036,1,0,3:0:0:0:
109,192,218136,1,0,3:0:0:0:
402,192,218236,128,0,218636:3:0:0:0:
182,192,218236,1,0,3:0:0:0:
475,192,218236,1,0,3:0:0:0:
256,192,218336,1,0,3:0:0:0:
109,192,218436,128,0,218636:3:0:0:0:
182,192,218436,1,0,3:0:0:0:
329,192,218536,1,0,3:0:0:0:
256,192,218636,1,0,3:0:0:0:
36,192,218636,1,0,3:0:0:0:
475,192,218636,1,0,3:0:0:0:
182,192,218736,1,0,3:0:0:0:
36,192,218836,128,0,219236:3:0:0:0:
329,192,218836,1,0,3:0:0:0:
256,192,218936,1,0,3:0:0:0:
182,192,219036,128,0,219236:3:0:0:0:
475,192,219036,1,0,3:0:0:0:
402,192,219036,1,0,0:0:0:0:
329,192,219136,1,0,3:0:0:0:
109,192,219236,128,0,219436:3:0:0:0:
256,192,219236,1,0,3:0:0:0:
256,192,219336,1,0,3:0:0:0:
329,192,219436,1,0,3:0:0:0:
475,192,219436,1,0,3:0:0:0:
402,192,219436,1,0,3:0:0:0:
36,192,219536,128,0,219736:3:0:0:0:
329,192,219636,1,0,3:0:0:0:
329,192,219736,1,0,3:0:0:0:
256,192,219836,128,0,220236:3:0:0:0:
182,192,219836,1,0,3:0:0:0:
36,192,219836,1,0,3:0:0:0:
402,192,219936,1,0,3:0:0:0:
475,192,220036,128,0,220236:3:0:0:0:
109,192,220036,1,0,3:0:0:0:
109,192,220136,1,0,3:0:0:0:
329,192,220236,1,0,3:0:0:0:
36,192,220236,1,0,3:0:0:0:
182,192,220236,1,0,3:0:0:0:
402,192,220336,128,0,220536:3:0:0:0:
256,192,220386,1,0,0:0:0:0:
109,192,220436,1,0,0:0:0:0:
182,192,220486,1,0,0:0:0:0:
256,192,220536,1,0,0:0:0:0:
329,192,220636,128,0,221036:3:0:0:0:
182,192,220636,1,0,3:0:0:0:
36,192,220636,1,0,3:0:0:0:
182,192,220736,1,0,3:0:0:0:
36,192,220736,1,0,0:0:0:0:
402,192,220836,128,0,221036:3:0:0:0:
109,192,220836,1,0,3:0:0:0:
475,192,220836,1,0,3:0:0:0:
256,192,220936,1,0,3:0:0:0:
109,192,221036,1,0,3:0:0:0:
36,192,221036,1,0,3:0:0:0:
475,192,221036,1,0,3:0:0:0:
182,192,221136,128,0,221336:3:0:0:0:
329,192,221236,1,0,3:0:0:0:
256,192,221336,1,0,3:0:0:0:
109,192,221436,128,0,221636:3:0:0:0:
402,192,221436,1,0,3:0:0:0:
475,192,221436,1,0,3:0:0:0:
402,192,221536,1,0,3:0:0:0:
475,192,221536,1,0,3:0:0:0:
36,192,221636,128,0,221836:3:0:0:0:
182,192,221636,1,0,3:0:0:0:
256,192,221636,1,0,3:0:0:0:
329,192,221836,1,0,3:0:0:0:
475,192,221936,128,0,222136:3:0:0:0:
402,192,221936,1,0,3:0:0:0:
109,192,221936,1,0,3:0:0:0:
36,192,222036,1,0,3:0:0:0:
182,192,222086,1,0,3:0:0:0:
329,192,222136,1,0,3:0:0:0:
475,192,222236,1,0,3:0:0:0:
182,192,222236,1,0,3:0:0:0:
256,192,222236,1,0,3:0:0:0:
475,192,222336,1,0,3:0:0:0:
182,192,222336,1,0,0:0:0:0:
329,192,222436,1,0,3:0:0:0:
109,192,222436,1,0,3:0:0:0:
36,192,222436,1,0,3:0:0:0:
256,192,222436,1,0,3:0:0:0:
475,192,222536,1,0,3:0:0:0:
402,192,222586,1,0,3:0:0:0:
329,192,222636,1,0,3:0:0:0:
109,192,222636,1,0,3:0:0:0:
36,192,222636,1,0,3:0:0:0:
256,192,222686,1,0,0:0:0:0:
402,192,222736,1,0,3:0:0:0:
329,192,222786,1,0,3:0:0:0:
36,192,222836,1,0,3:0:0:0:
256,192,222836,1,0,3:0:0:0:
475,192,222836,1,0,0:0:0:0:
109,192,222886,1,0,0:0:0:0:
182,192,222936,1,0,3:0:0:0:
256,192,222986,1,0,0:0:0:0:
36,192,223036,1,0,3:0:0:0:
329,192,223036,1,0,3:0:0:0:
475,192,223036,1,0,3:0:0:0:
182,192,223136,1,0,3:0:0:0:
329,192,223186,1,0,3:0:0:0:
36,192,223236,1,0,3:0:0:0:
475,192,223286,1,0,3:0:0:0:
109,192,223336,1,0,3:0:0:0:
402,192,223386,1,0,3:0:0:0:
36,192,223436,1,0,3:0:0:0:
475,192,223486,1,0,3:0:0:0:
109,192,223536,1,0,3:0:0:0:
402,192,223586,1,0,3:0:0:0:
182,192,223636,1,0,3:0:0:0:
329,192,223686,1,0,3:0:0:0:
256,192,223736,1,0,3:0:0:0:
182,192,223786,1,0,3:0:0:0:
36,192,223836,1,0,3:0:0:0:
475,192,223836,1,0,3:0:0:0:
329,192,223836,1,0,3:0:0:0:
256,192,223936,1,0,3:0:0:0:
475,192,224036,1,0,3:0:0:0:
402,192,224036,1,0,3:0:0:0:
182,192,224036,1,0,3:0:0:0:
36,192,224036,128,0,224786:3:0:0:0:
109,192,224036,128,0,224736:3:0:0:0:
182,192,224736,1,0,3:0:0:0:
109,192,224786,1,0,3:0:0:0:
36,192,224836,1,0,3:0:0:0:
329,192,225036,1,0,3:0:0:0:
402,192,225086,1,0,3:0:0:0:
475,192,225136,1,0,3:0:0:0:
36,192,225336,1,0,3:0:0:0:
475,192,225436,1,0,3:0:0:0:
329,192,225536,1,0,3:0:0:0:
182,192,225636,1,0,3:0:0:0:
109,192,225636,1,0,3:0:0:0:
36,192,225636,1,0,3:0:0:0:
475,192,225636,1,0,3:0:0:0:
402,192,225636,1,0,3:0:0:0:
256,192,225736,1,0,3:0:0:0:
329,192,225736,1,0,3:0:0:0:
182,192,225836,1,0,3:0:0:0:
402,192,225936,1,0,3:0:0:0:
36,192,225936,1,0,3:0:0:0:
109,192,225936,1,0,3:0:0:0:
256,192,226036,1,0,3:0:0:0:
182,192,226136,1,0,3:0:0:0:
475,192,226136,1,0,3:0:0:0:
402,192,226136,1,0,3:0:0:0:
36,192,226236,1,0,3:0:0:0:
109,192,226336,1,0,3:0:0:0:
402,192,226336,1,0,3:0:0:0:
329,192,226336,1,0,3:0:0:0:
256,192,226436,1,0,3:0:0:0:
182,192,226536,1,0,3:0:0:0:
475,192,226536,1,0,3:0:0:0:
36,192,226536,1,0,3:0:0:0:
329,192,226636,1,0,3:0:0:0:
36,192,226736,1,0,3:0:0:0:
475,192,226736,1,0,3:0:0:0:
402,192,226736,1,0,3:0:0:0:
182,192,226786,1,0,3:0:0:0:
329,192,226836,1,0,3:0:0:0:
109,192,226936,1,0,3:0:0:0:
475,192,226936,1,0,3:0:0:0:
36,192,226936,1,0,3:0:0:0:
329,192,226986,1,0,3:0:0:0:
182,192,227036,1,0,3:0:0:0:
402,192,227136,1,0,3:0:0:0:
36,192,227136,1,0,3:0:0:0:
475,192,227136,1,0,3:0:0:0:
256,192,227186,1,0,3:0:0:0:
109,192,227236,1,0,3:0:0:0:
182,192,227336,1,0,3:0:0:0:
329,192,227336,1,0,3:0:0:0:
402,192,227336,1,0,3:0:0:0:
36,192,227436,1,0,3:0:0:0:
256,192,227536,1,0,3:0:0:0:
402,192,227536,1,0,3:0:0:0:
475,192,227536,1,0,3:0:0:0:
109,192,227636,1,0,3:0:0:0:
36,192,227736,1,0,3:0:0:0:
329,192,227736,1,0,3:0:0:0:
182,192,227736,1,0,3:0:0:0:
475,192,227836,1,0,3:0:0:0:
256,192,227936,1,0,3:0:0:0:
109,192,227936,1,0,3:0:0:0:
329,192,227936,1,0,3:0:0:0:
402,192,228036,1,0,3:0:0:0:
256,192,228136,1,0,3:0:0:0:
475,192,228136,1,0,3:0:0:0:
182,192,228136,1,0,3:0:0:0:
36,192,228236,1,0,3:0:0:0:
109,192,228286,1,0,3:0:0:0:
182,192,228336,1,0,3:0:0:0:
402,192,228336,1,0,3:0:0:0:
475,192,228336,1,0,3:0:0:0:
256,192,228386,1,0,0:0:0:0:
36,192,228436,1,0,3:0:0:0:
109,192,228486,1,0,3:0:0:0:
182,192,228536,1,0,3:0:0:0:
329,192,228536,1,0,3:0:0:0:
402,192,228536,1,0,3:0:0:0:
109,192,228636,1,0,3:0:0:0:
182,192,228736,1,0,3:0:0:0:
256,192,228736,1,0,3:0:0:0:
402,192,228836,1,0,3:0:0:0:
36,192,228836,1,0,3:0:0:0:
475,192,228836,128,0,228936:3:0:0:0:
329,192,228836,1,0,3:0:0:0:
109,192,228936,1,0,3:0:0:0:
256,192,228936,1,0,3:0:0:0:
402,192,229036,128,0,229086:3:0:0:0:
182,192,229136,1,0,3:0:0:0:
475,192,229136,1,0,3:0:0:0:
329,192,229136,128,0,229186:3:0:0:0:
36,192,229236,1,0,3:0:0:0:
256,192,229336,1,0,3:0:0:0:
109,192,229336,1,0,3:0:0:0:
475,192,229336,128,0,229386:3:0:0:0:
402,192,229436,128,0,229636:3:0:0:0:
182,192,229536,1,0,3:0:0:0:
36,192,229536,1,0,3:0:0:0:
329,192,229636,128,0,229686:0:0:0:0:
109,192,229736,1,0,3:0:0:0:
36,192,229736,1,0,3:0:0:0:
182,192,229736,128,0,229786:3:0:0:0:
256,192,229836,128,0,230236:3:0:0:0:
329,192,229836,1,0,3:0:0:0:
402,192,229886,1,0,3:0:0:0:
475,192,229936,1,0,3:0:0:0:
36,192,229936,1,0,3:0:0:0:
109,192,230036,1,0,3:0:0:0:
182,192,230136,1,0,3:0:0:0:
475,192,230136,1,0,3:0:0:0:
109,192,230236,1,0,3:0:0:0:
329,192,230286,1,0,0:0:0:0:
475,192,230336,1,0,3:0:0:0:
36,192,230336,1,0,3:0:0:0:
256,192,230336,1,0,0:0:0:0:
182,192,230386,1,0,0:0:0:0:
402,192,230436,1,0,0:0:0:0:
329,192,230486,1,0,0:0:0:0:
109,192,230536,1,0,3:0:0:0:
36,192,230536,1,0,3:0:0:0:
256,192,230536,1,0,0:0:0:0:
475,192,230586,1,0,3:0:0:0:
402,192,230636,1,0,3:0:0:0:
329,192,230686,1,0,3:0:0:0:
182,192,230736,1,0,3:0:0:0:
36,192,230736,1,0,3:0:0:0:
109,192,230736,1,0,3:0:0:0:
402,192,230786,1,0,0:0:0:0:
256,192,230836,1,0,3:0:0:0:
109,192,230886,1,0,3:0:0:0:
475,192,230936,1,0,3:0:0:0:
402,192,230936,1,0,3:0:0:0:
329,192,230936,1,0,3:0:0:0:
182,192,230986,1,0,3:0:0:0:
109,192,231036,1,0,3:0:0:0:
36,192,231086,1,0,3:0:0:0:
256,192,231136,1,0,3:0:0:0:
402,192,231136,1,0,3:0:0:0:
475,192,231136,1,0,3:0:0:0:
182,192,231186,1,0,3:0:0:0:
109,192,231236,1,0,3:0:0:0:
329,192,231286,1,0,3:0:0:0:
182,192,231336,1,0,3:0:0:0:
36,192,231386,1,0,3:0:0:0:
256,192,231436,1,0,3:0:0:0:
402,192,231486,1,0,3:0:0:0:
182,192,231536,1,0,3:0:0:0:
475,192,231536,1,0,3:0:0:0:
36,192,231536,1,0,3:0:0:0:
329,192,231586,1,0,3:0:0:0:
109,192,231636,1,0,3:0:0:0:
256,192,231686,1,0,3:0:0:0:
402,192,231736,1,0,3:0:0:0:
475,192,231736,1,0,3:0:0:0:
182,192,231736,1,0,3:0:0:0:
109,192,231786,1,0,3:0:0:0:
36,192,231836,1,0,3:0:0:0:
182,192,231886,1,0,3:0:0:0:
402,192,231936,1,0,3:0:0:0:
329,192,231936,1,0,3:0:0:0:
475,192,231936,1,0,3:0:0:0:
36,192,232036,1,0,3:0:0:0:
109,192,232086,1,0,3:0:0:0:
182,192,232136,1,0,3:0:0:0:
475,192,232136,1,0,3:0:0:0:
256,192,232136,1,0,3:0:0:0:
402,192,232236,1,0,3:0:0:0:
36,192,232336,1,0,3:0:0:0:
256,192,232336,1,0,3:0:0:0:
475,192,232336,1,0,3:0:0:0:
109,192,232386,1,0,3:0:0:0:
182,192,232436,1,0,3:0:0:0:
329,192,232536,1,0,3:0:0:0:
402,192,232536,1,0,3:0:0:0:
475,192,232536,1,0,3:0:0:0:
36,192,232636,1,0,3:0:0:0:
109,192,232686,1,0,3:0:0:0:
182,192,232736,1,0,3:0:0:0:
256,192,232736,1,0,3:0:0:0:
402,192,232736,1,0,3:0:0:0:
329,192,232836,1,0,3:0:0:0:
36,192,232936,1,0,3:0:0:0:
256,192,232936,1,0,3:0:0:0:
475,192,232936,1,0,3:0:0:0:
109,192,232986,1,0,3:0:0:0:
182,192,233036,1,0,3:0:0:0:
475,192,233086,1,0,3:0:0:0:
402,192,233136,1,0,3:0:0:0:
329,192,233136,1,0,3:0:0:0:
256,192,233136,1,0,3:0:0:0:
36,192,233236,1,0,3:0:0:0:
109,192,233286,1,0,3:0:0:0:
182,192,233336,1,0,3:0:0:0:
329,192,233336,1,0,3:0:0:0:
475,192,233336,1,0,3:0:0:0:
256,192,233436,1,0,3:0:0:0:
36,192,233536,1,0,3:0:0:0:
402,192,233536,1,0,3:0:0:0:
475,192,233536,1,0,3:0:0:0:
109,192,233586,1,0,3:0:0:0:
182,192,233636,1,0,3:0:0:0:
329,192,233736,1,0,3:0:0:0:
36,192,233736,1,0,3:0:0:0:
402,192,233736,1,0,3:0:0:0:
256,192,233836,1,0,3:0:0:0:
109,192,233936,1,0,3:0:0:0:
475,192,233936,1,0,3:0:0:0:
36,192,233936,1,0,3:0:0:0:
402,192,233986,1,0,3:0:0:0:
329,192,234036,1,0,3:0:0:0:
182,192,234136,1,0,3:0:0:0:
475,192,234136,1,0,3:0:0:0:
36,192,234136,1,0,3:0:0:0:
256,192,234236,1,0,3:0:0:0:
109,192,234336,1,0,3:0:0:0:
329,192,234336,1,0,3:0:0:0:
475,192,234336,1,0,3:0:0:0:
402,192,234436,1,0,3:0:0:0:
256,192,234536,1,0,3:0:0:0:
36,192,234536,1,0,3:0:0:0:
109,192,234536,1,0,3:0:0:0:
475,192,234636,1,0,3:0:0:0:
329,192,234686,1,0,3:0:0:0:
182,192,234736,1,0,3:0:0:0:
36,192,234736,1,0,3:0:0:0:
109,192,234736,1,0,3:0:0:0:
402,192,234786,1,0,3:0:0:0:
256,192,234836,1,0,3:0:0:0:
329,192,234886,1,0,3:0:0:0:
402,192,234936,1,0,3:0:0:0:
182,192,234936,1,0,3:0:0:0:
475,192,234936,1,0,3:0:0:0:
109,192,234986,1,0,3:0:0:0:
36,192,235036,1,0,3:0:0:0:
256,192,235086,1,0,3:0:0:0:
475,192,235136,1,0,3:0:0:0:
402,192,235136,1,0,3:0:0:0:
109,192,235136,1,0,3:0:0:0:
182,192,235186,1,0,3:0:0:0:
256,192,235236,1,0,3:0:0:0:
402,192,235236,1,0,3:0:0:0:
475,192,235236,1,0,3:0:0:0:
36,192,235236,128,0,235336:3:0:0:0:
109,192,235336,128,0,235436:3:0:0:0:
329,192,235336,1,0,3:0:0:0:
182,192,235436,128,0,235536:3:0:0:0:
36,192,235536,128,0,235636:3:0:0:0:
256,192,235536,1,0,3:0:0:0:
475,192,235536,1,0,3:0:0:0:
109,192,235636,128,0,235736:3:0:0:0:
36,192,235736,128,0,235836:3:0:0:0:
329,192,235736,1,0,3:0:0:0:
475,192,235736,1,0,3:0:0:0:
256,192,235836,128,0,235936:3:0:0:0:
182,192,235936,128,0,236036:3:0:0:0:
475,192,235936,1,0,3:0:0:0:
402,192,235936,1,0,3:0:0:0:
109,192,236036,128,0,236136:3:0:0:0:
36,192,236136,128,0,236236:3:0:0:0:
329,192,236136,1,0,3:0:0:0:
475,192,236136,1,0,3:0:0:0:
109,192,236236,128,0,236336:3:0:0:0:
475,192,236286,1,0,3:0:0:0:
402,192,236336,128,0,236436:3:0:0:0:
182,192,236336,1,0,3:0:0:0:
256,192,236336,1,0,0:0:0:0:
329,192,236436,128,0,236536:3:0:0:0:
402,192,236536,128,0,236636:3:0:0:0:
109,192,236536,1,0,3:0:0:0:
36,192,236536,1,0,3:0:0:0:
475,192,236636,128,0,236736:3:0:0:0:
109,192,236736,1,0,3:0:0:0:
329,192,236736,1,0,3:0:0:0:
256,192,236786,1,0,3:0:0:0:
36,192,236836,1,0,3:0:0:0:
182,192,236886,1,0,3:0:0:0:
475,192,236936,1,0,3:0:0:0:
109,192,236936,1,0,3:0:0:0:
329,192,236936,1,0,0:0:0:0:
256,192,236986,1,0,0:0:0:0:
402,192,237036,1,0,0:0:0:0:
182,192,237086,1,0,0:0:0:0:
256,192,237136,1,0,3:0:0:0:
36,192,237136,1,0,3:0:0:0:
329,192,237136,1,0,0:0:0:0:
109,192,237186,1,0,0:0:0:0:
182,192,237236,1,0,3:0:0:0:
36,192,237286,1,0,3:0:0:0:
256,192,237336,1,0,3:0:0:0:
402,192,237336,1,0,3:0:0:0:
475,192,237336,1,0,3:0:0:0:
109,192,237386,1,0,0:0:0:0:
182,192,237436,1,0,0:0:0:0:
256,192,237486,1,0,0:0:0:0:
329,192,237536,1,0,3:0:0:0:
475,192,237536,1,0,3:0:0:0:
36,192,237536,1,0,0:0:0:0:
109,192,237586,1,0,0:0:0:0:
182,192,237636,1,0,0:0:0:0:
256,192,237686,1,0,0:0:0:0:
329,192,237736,1,0,3:0:0:0:
475,192,237736,1,0,3:0:0:0:
402,192,237736,1,0,3:0:0:0:
109,192,237786,1,0,3:0:0:0:
182,192,237836,1,0,3:0:0:0:
329,192,237886,1,0,0:0:0:0:
36,192,237936,1,0,3:0:0:0:
402,192,237936,1,0,3:0:0:0:
109,192,237936,1,0,3:0:0:0:
256,192,237986,1,0,3:0:0:0:
475,192,238036,1,0,3:0:0:0:
329,192,238086,1,0,3:0:0:0:
182,192,238136,1,0,3:0:0:0:
109,192,238136,1,0,3:0:0:0:
36,192,238136,1,0,3:0:0:0:
402,192,238186,1,0,3:0:0:0:
256,192,238236,1,0,3:0:0:0:
109,192,238286,1,0,3:0:0:0:
329,192,238336,1,0,3:0:0:0:
475,192,238386,1,0,3:0:0:0:
402,192,238436,1,0,3:0:0:0:
182,192,238436,1,0,3:0:0:0:
36,192,238436,1,0,3:0:0:0:
256,192,238436,1,0,3:0:0:0:
182,192,238636,1,0,3:0:0:0:
329,192,238736,1,0,3:0:0:0:
402,192,238736,1,0,3:0:0:0:
475,192,238736,1,0,3:0:0:0:
109,192,238936,1,0,3:0:0:0:
182,192,238986,1,0,3:0:0:0:
256,192,239036,1,0,3:0:0:0:
475,192,239036,1,0,3:0:0:0:
36,192,239036,1,0,3:0:0:0:
329,192,239236,1,0,3:0:0:0:
182,192,239336,1,0,3:0:0:0:
36,192,239336,1,0,3:0:0:0:
475,192,239336,1,0,3:0:0:0:
402,192,239536,1,0,3:0:0:0:
109,192,239536,1,0,3:0:0:0:
256,192,239636,1,0,3:0:0:0:
182,192,239836,1,0,3:0:0:0:
109,192,239836,1,0,3:0:0:0:
36,192,239836,1,0,3:0:0:0:
329,192,239836,1,0,3:0:0:0:
109,192,240036,1,0,3:0:0:0:
36,192,240036,1,0,3:0:0:0:
182,192,240036,1,0,3:0:0:0:
329,192,240036,1,0,3:0:0:0:
182,192,240236,1,0,3:0:0:0:
256,192,240286,1,0,3:0:0:0:
475,192,240336,1,0,3:0:0:0:
402,192,240336,1,0,3:0:0:0:
329,192,240336,128,0,240436:3:0:0:0:
36,192,240436,1,0,0:0:0:0:
329,192,240502,1,0,0:0:0:0:
182,192,240569,1,0,0:0:0:0:
329,192,240636,128,0,240736:3:0:0:0:
402,192,240736,1,0,3:0:0:0:
475,192,240736,1,0,3:0:0:0:
182,192,240736,1,0,3:0:0:0:
36,192,240736,1,0,3:0:0:0:
402,192,240836,1,0,3:0:0:0:
475,192,240836,1,0,3:0:0:0:
36,192,241036,1,0,3:0:0:0:
182,192,241036,1,0,3:0:0:0:
329,192,241036,1,0,3:0:0:0:
256,192,241136,1,0,3:0:0:0:
182,192,241186,1,0,3:0:0:0:
109,192,241236,1,0,3:0:0:0:
36,192,241286,1,0,3:0:0:0:
402,192,241336,1,0,3:0:0:0:
475,192,241336,1,0,3:0:0:0:
329,192,241336,1,0,3:0:0:0:
182,192,241436,1,0,3:0:0:0:
256,192,241486,1,0,3:0:0:0:
329,192,241536,1,0,3:0:0:0:
475,192,241536,1,0,3:0:0:0:
109,192,241536,1,0,3:0:0:0:
36,192,241636,1,0,3:0:0:0:
109,192,241686,1,0,3:0:0:0:
182,192,241736,1,0,3:0:0:0:
256,192,241786,1,0,3:0:0:0:
329,192,241836,1,0,3:0:0:0:
402,192,241886,1,0,3:0:0:0:
475,192,241936,1,0,3:0:0:0:
182,192,241986,1,0,3:0:0:0:
402,192,242036,1,0,3:0:0:0:
109,192,242086,1,0,3:0:0:0:
329,192,242136,1,0,3:0:0:0:
256,192,242186,1,0,3:0:0:0:
182,192,242236,1,0,3:0:0:0:
109,192,242286,1,0,3:0:0:0:
36,192,242336,1,0,3:0:0:0:
475,192,242336,1,0,3:0:0:0:
329,192,242536,1,0,3:0:0:0:
36,192,242536,1,0,3:0:0:0:
109,192,242536,1,0,3:0:0:0:
256,192,242536,1,0,3:0:0:0:
402,192,242636,1,0,3:0:0:0:
182,192,242636,1,0,3:0:0:0:
475,192,242636,1,0,3:0:0:0:
256,192,242736,1,0,3:0:0:0:
329,192,242836,1,0,3:0:0:0:
109,192,242836,1,0,3:0:0:0:
36,192,242836,1,0,3:0:0:0:
182,192,242936,1,0,3:0:0:0:
329,192,243036,1,0,3:0:0:0:
36,192,243036,1,0,3:0:0:0:
402,192,243036,1,0,3:0:0:0:
109,192,243136,1,0,3:0:0:0:
329,192,243236,1,0,3:0:0:0:
475,192,243236,1,0,3:0:0:0:
182,192,243236,1,0,3:0:0:0:
256,192,243336,1,0,3:0:0:0:
109,192,243436,1,0,3:0:0:0:
329,192,243436,1,0,3:0:0:0:
402,192,243436,1,0,3:0:0:0:
182,192,243536,1,0,3:0:0:0:
256,192,243586,1,0,3:0:0:0:
329,192,243636,1,0,3:0:0:0:
36,192,243636,1,0,3:0:0:0:
475,192,243636,1,0,3:0:0:0:
256,192,243736,1,0,3:0:0:0:
475,192,243836,1,0,3:0:0:0:
329,192,243836,1,0,3:0:0:0:
109,192,243836,1,0,3:0:0:0:
36,192,243936,1,0,3:0:0:0:
182,192,244036,1,0,3:0:0:0:
256,192,244036,1,0,3:0:0:0:
475,192,244036,1,0,3:0:0:0:
329,192,244102,1,0,3:0:0:0:
402,192,244169,1,0,3:0:0:0:
256,192,244236,1,0,3:0:0:0:
109,192,244236,1,0,3:0:0:0:
36,192,244236,1,0,3:0:0:0:
475,192,244302,1,0,3:0:0:0:
402,192,244369,1,0,3:0:0:0:
182,192,244436,1,0,3:0:0:0:
329,192,244436,1,0,3:0:0:0:
109,192,244436,1,0,3:0:0:0:
475,192,244502,1,0,3:0:0:0:
256,192,244569,1,0,3:0:0:0:
402,192,244636,1,0,3:0:0:0:
36,192,244636,1,0,3:0:0:0:
109,192,244636,1,0,3:0:0:0:
329,192,244702,1,0,3:0:0:0:
256,192,244769,1,0,0:0:0:0:
182,192,244836,1,0,3:0:0:0:
402,192,244836,1,0,3:0:0:0:
36,192,244836,1,0,3:0:0:0:
329,192,244902,1,0,0:0:0:0:
256,192,244969,1,0,0:0:0:0:
475,192,245036,1,0,3:0:0:0:
402,192,245036,1,0,3:0:0:0:
109,192,245036,1,0,0:0:0:0:
329,192,245136,1,0,3:0:0:0:
36,192,245186,1,0,3:0:0:0:
109,192,245236,1,0,3:0:0:0:
475,192,245236,1,0,3:0:0:0:
256,192,245236,1,0,3:0:0:0:
402,192,245286,1,0,3:0:0:0:
329,192,245336,1,0,3:0:0:0:
256,192,245386,1,0,3:0:0:0:
182,192,245436,1,0,3:0:0:0:
36,192,245436,1,0,3:0:0:0:
475,192,245436,1,0,3:0:0:0:
402,192,245536,1,0,3:0:0:0:
329,192,245636,1,0,3:0:0:0:
36,192,245636,1,0,3:0:0:0:
402,192,245736,1,0,3:0:0:0:
475,192,245736,1,0,3:0:0:0:
109,192,245736,1,0,3:0:0:0:
256,192,245736,1,0,3:0:0:0:
182,192,245836,1,0,3:0:0:0:
36,192,245836,1,0,3:0:0:0:
475,192,245936,1,0,3:0:0:0:
329,192,246036,1,0,3:0:0:0:
109,192,246036,1,0,3:0:0:0:
182,192,246036,1,0,3:0:0:0:
256,192,246136,1,0,3:0:0:0:
36,192,246236,1,0,3:0:0:0:
109,192,246236,1,0,3:0:0:0:
329,192,246236,1,0,3:0:0:0:
256,192,246336,1,0,3:0:0:0:
329,192,246436,1,0,3:0:0:0:
475,192,246436,1,0,3:0:0:0:
36,192,246436,1,0,3:0:0:0:
182,192,246536,1,0,3:0:0:0:
109,192,246636,1,0,3:0:0:0:
329,192,246636,1,0,3:0:0:0:
402,192,246636,1,0,3:0:0:0:
36,192,246736,1,0,3:0:0:0:
109,192,246786,1,0,3:0:0:0:
182,192,246836,1,0,3:0:0:0:
329,192,246836,1,0,3:0:0:0:
475,192,246836,1,0,3:0:0:0:
256,192,246936,1,0,3:0:0:0:
402,192,247036,1,0,3:0:0:0:
475,192,247036,1,0,3:0:0:0:
109,192,247036,1,0,3:0:0:0:
182,192,247086,1,0,3:0:0:0:
256,192,247136,1,0,3:0:0:0:
329,192,247236,1,0,3:0:0:0:
36,192,247236,1,0,3:0:0:0:
182,192,247236,1,0,3:0:0:0:
402,192,247286,1,0,3:0:0:0:
475,192,247336,1,0,3:0:0:0:
256,192,247386,1,0,3:0:0:0:
402,192,247436,1,0,3:0:0:0:
109,192,247436,1,0,3:0:0:0:
36,192,247436,1,0,3:0:0:0:
329,192,247486,1,0,3:0:0:0:
182,192,247536,1,0,3:0:0:0:
109,192,247586,1,0,3:0:0:0:
36,192,247636,1,0,3:0:0:0:
475,192,247636,1,0,3:0:0:0:
402,192,247636,1,0,3:0:0:0:
329,192,247686,1,0,3:0:0:0:
256,192,247736,1,0,3:0:0:0:
182,192,247786,1,0,3:0:0:0:
109,192,247836,1,0,3:0:0:0:
36,192,247836,1,0,3:0:0:0:
475,192,247836,1,0,3:0:0:0:
402,192,247886,1,0,3:0:0:0:
329,192,247936,1,0,3:0:0:0:
256,192,247986,1,0,0:0:0:0:
36,192,248036,1,0,3:0:0:0:
475,192,248036,1,0,3:0:0:0:
109,192,248036,1,0,3:0:0:0:
329,192,248086,1,0,3:0:0:0:
182,192,248136,1,0,3:0:0:0:
256,192,248186,1,0,3:0:0:0:
109,192,248236,1,0,3:0:0:0:
329,192,248236,1,0,3:0:0:0:
475,192,248236,1,0,3:0:0:0:
36,192,248286,1,0,3:0:0:0:
256,192,248336,1,0,3:0:0:0:
182,192,248386,1,0,3:0:0:0:
475,192,248436,1,0,3:0:0:0:
402,192,248436,1,0,3:0:0:0:
109,192,248436,1,0,3:0:0:0:
329,192,248486,1,0,3:0:0:0:
182,192,248536,1,0,3:0:0:0:
109,192,248586,1,0,3:0:0:0:
36,192,248636,1,0,3:0:0:0:
256,192,248686,1,0,3:0:0:0:
475,192,248736,1,0,3:0:0:0:
402,192,248786,1,0,3:0:0:0:
182,192,248836,1,0,3:0:0:0:
109,192,248886,1,0,3:0:0:0:
329,192,248936,1,0,3:0:0:0:
402,192,248936,1,0,3:0:0:0:
475,192,248936,1,0,3:0:0:0:
36,192,248936,1,0,3:0:0:0:
182,192,249036,1,0,3:0:0:0:
256,192,249136,1,0,3:0:0:0:
109,192,249136,1,0,0:0:0:0:
329,192,249236,1,0,0:0:0:0:
475,192,249236,1,0,0:0:0:0:
36,192,249336,1,0,0:0:0:0:
182,192,249386,1,0,0:0:0:0:
475,192,249436,1,0,0:0:0:0:
329,192,249436,1,0,0:0:0:0:
36,192,249536,1,0,3:0:0:0:
109,192,249586,1,0,3:0:0:0:
475,192,249636,1,0,3:0:0:0:
182,192,249636,1,0,0:0:0:0:
36,192,249736,1,0,0:0:0:0:
329,192,249736,1,0,0:0:0:0:
475,192,249836,1,0,0:0:0:0:
402,192,249886,1,0,0:0:0:0:
182,192,249936,1,0,3:0:0:0:
329,192,249936,1,0,0:0:0:0:
109,192,250036,1,0,3:0:0:0:
256,192,250086,1,0,3:0:0:0:
402,192,250136,1,0,3:0:0:0:
36,192,250136,1,0,0:0:0:0:
182,192,250186,1,0,3:0:0:0:
329,192,250236,1,0,0:0:0:0:
475,192,250286,1,0,3:0:0:0:
256,192,250336,1,0,3:0:0:0:
36,192,250386,1,0,0:0:0:0:
329,192,250436,1,0,3:0:0:0:
182,192,250436,1,0,0:0:0:0:
402,192,250486,1,0,0:0:0:0:
36,192,250536,1,0,3:0:0:0:
475,192,250536,1,0,3:0:0:0:
109,192,250586,1,0,3:0:0:0:
182,192,250636,1,0,3:0:0:0:
329,192,250636,1,0,0:0:0:0:
402,192,250686,1,0,3:0:0:0:
475,192,250736,1,0,3:0:0:0:
256,192,250786,1,0,0:0:0:0:
36,192,250836,1,0,3:0:0:0:
109,192,250836,1,0,0:0:0:0:
402,192,250886,1,0,3:0:0:0:
256,192,250936,1,0,3:0:0:0:
109,192,250986,1,0,3:0:0:0:
402,192,251036,1,0,3:0:0:0:
475,192,251036,1,0,0:0:0:0:
182,192,251086,1,0,0:0:0:0:
36,192,251136,1,0,0:0:0:0:
329,192,251186,1,0,0:0:0:0:
182,192,251236,1,0,0:0:0:0:
475,192,251236,1,0,0:0:0:0:
256,192,251286,1,0,0:0:0:0:
36,192,251336,1,0,0:0:0:0:
109,192,251386,1,0,0:0:0:0:
329,192,251436,1,0,0:0:0:0:
402,192,251486,1,0,0:0:0:0:
36,192,251536,1,0,3:0:0:0:
109,192,251586,1,0,3:0:0:0:
256,192,251636,1,0,3:0:0:0:
402,192,251686,1,0,3:0:0:0:
475,192,251736,1,0,3:0:0:0:
329,192,251786,1,0,3:0:0:0:
36,192,251836,1,0,3:0:0:0:
182,192,251886,1,0,3:0:0:0:
329,192,251936,1,0,3:0:0:0:
475,192,251936,1,0,3:0:0:0:
109,192,251986,1,0,3:0:0:0:
329,192,252036,1,0,3:0:0:0:
475,192,252036,1,0,3:0:0:0:
256,192,252136,1,0,3:0:0:0:
109,192,252136,1,0,3:0:0:0:
36,192,252136,1,0,3:0:0:0:
402,192,252136,1,0,3:0:0:0:
182,192,252236,1,0,3:0:0:0:
329,192,252236,1,0,0:0:0:0:
256,192,252336,1,0,3:0:0:0:
36,192,252436,1,0,3:0:0:0:
329,192,252436,1,0,3:0:0:0:
475,192,252436,1,0,3:0:0:0:
182,192,252536,1,0,3:0:0:0:
402,192,252636,1,0,3:0:0:0:
36,192,252636,1,0,3:0:0:0:
109,192,252636,1,0,3:0:0:0:
256,192,252736,1,0,3:0:0:0:
329,192,252836,1,0,3:0:0:0:
36,192,252836,1,0,3:0:0:0:
475,192,252836,1,0,3:0:0:0:
182,192,252936,1,0,3:0:0:0:
36,192,253036,1,0,3:0:0:0:
109,192,253036,1,0,3:0:0:0:
475,192,253036,1,0,3:0:0:0:
329,192,253136,1,0,3:0:0:0:
182,192,253186,1,0,3:0:0:0:
36,192,253236,1,0,3:0:0:0:
475,192,253236,1,0,3:0:0:0:
402,192,253236,1,0,3:0:0:0:
256,192,253336,1,0,3:0:0:0:
36,192,253436,1,0,3:0:0:0:
329,192,253436,1,0,3:0:0:0:
402,192,253436,1,0,3:0:0:0:
182,192,253536,1,0,3:0:0:0:
36,192,253636,1,0,3:0:0:0:
402,192,253636,1,0,3:0:0:0:
475,192,253636,1,0,3:0:0:0:
329,192,253686,1,0,3:0:0:0:
256,192,253736,1,0,3:0:0:0:
182,192,253786,1,0,3:0:0:0:
475,192,253836,1,0,3:0:0:0:
109,192,253836,1,0,0:0:0:0:
36,192,253836,1,0,0:0:0:0:
402,192,253886,1,0,3:0:0:0:
329,192,253936,1,0,3:0:0:0:
182,192,253986,1,0,3:0:0:0:
36,192,254036,1,0,3:0:0:0:
475,192,254036,1,0,3:0:0:0:
256,192,254036,1,0,3:0:0:0:
109,192,254086,1,0,3:0:0:0:
182,192,254136,1,0,3:0:0:0:
329,192,254186,1,0,3:0:0:0:
36,192,254236,1,0,3:0:0:0:
256,192,254236,1,0,3:0:0:0:
475,192,254236,1,0,3:0:0:0:
402,192,254286,1,0,0:0:0:0:
329,192,254336,1,0,3:0:0:0:
182,192,254386,1,0,3:0:0:0:
36,192,254436,1,0,3:0:0:0:
475,192,254436,1,0,3:0:0:0:
109,192,254436,1,0,3:0:0:0:
256,192,254486,1,0,3:0:0:0:
329,192,254536,1,0,3:0:0:0:
402,192,254586,1,0,3:0:0:0:
109,192,254636,1,0,3:0:0:0:
475,192,254636,1,0,3:0:0:0:
36,192,254636,1,0,3:0:0:0:
182,192,254686,1,0,3:0:0:0:
256,192,254736,1,0,3:0:0:0:
329,192,254786,1,0,0:0:0:0:
402,192,254836,1,0,3:0:0:0:
475,192,254836,1,0,3:0:0:0:
36,192,254836,1,0,3:0:0:0:
256,192,254886,1,0,0:0:0:0:
182,192,254936,1,0,3:0:0:0:
109,192,254986,1,0,3:0:0:0:
36,192,255036,1,0,3:0:0:0:
329,192,255036,1,0,3:0:0:0:
475,192,255036,1,0,3:0:0:0:
109,192,255136,1,0,3:0:0:0:
182,192,255186,1,0,3:0:0:0:
402,192,255236,1,0,3:0:0:0:
329,192,255286,1,0,3:0:0:0:
256,192,255336,1,0,3:0:0:0:
109,192,255336,1,0,3:0:0:0:
36,192,255336,1,0,3:0:0:0:
475,192,255336,1,0,3:0:0:0:
256,192,255536,1,0,3:0:0:0:
36,192,255636,1,0,3:0:0:0:
329,192,255636,1,0,3:0:0:0:
402,192,255636,1,0,3:0:0:0:
256,192,255836,1,0,3:0:0:0:
329,192,255886,1,0,3:0:0:0:
402,192,255936,1,0,3:0:0:0:
475,192,255936,1,0,3:0:0:0:
36,192,255936,1,0,3:0:0:0:
182,192,256136,1,0,3:0:0:0:
256,192,256236,1,0,3:0:0:0:
402,192,256236,1,0,3:0:0:0:
36,192,256236,1,0,3:0:0:0:
182,192,256436,1,0,3:0:0:0:
329,192,256436,1,0,3:0:0:0:
36,192,256436,1,0,3:0:0:0:
256,192,256536,1,0,3:0:0:0:
36,192,256736,1,0,3:0:0:0:
109,192,256736,1,0,3:0:0:0:
182,192,256736,1,0,3:0:0:0:
329,192,256736,1,0,3:0:0:0:
36,192,256936,1,0,3:0:0:0:
109,192,256936,1,0,3:0:0:0:
182,192,256936,1,0,3:0:0:0:
329,192,256936,1,0,3:0:0:0:
182,192,257136,1,0,3:0:0:0:
256,192,257186,1,0,3:0:0:0:
402,192,257236,1,0,3:0:0:0:
475,192,257236,1,0,3:0:0:0:
329,192,257236,1,0,3:0:0:0:
109,192,257236,1,0,3:0:0:0:
36,192,257336,1,0,3:0:0:0:
182,192,257402,1,0,3:0:0:0:
329,192,257469,1,0,3:0:0:0:
36,192,257536,1,0,3:0:0:0:
256,192,257636,1,0,3:0:0:0:
402,192,257636,1,0,3:0:0:0:
475,192,257636,1,0,3:0:0:0:
109,192,257636,1,0,0:0:0:0:
402,192,257736,1,0,3:0:0:0:
475,192,257736,1,0,3:0:0:0:
182,192,257936,1,0,3:0:0:0:
36,192,257936,1,0,3:0:0:0:
329,192,257936,1,0,3:0:0:0:
402,192,258136,1,0,3:0:0:0:
329,192,258186,1,0,3:0:0:0:
256,192,258236,1,0,3:0:0:0:
182,192,258236,1,0,3:0:0:0:
329,192,258436,1,0,3:0:0:0:
475,192,258436,1,0,3:0:0:0:
109,192,258436,1,0,3:0:0:0:
182,192,258536,1,0,3:0:0:0:
256,192,258536,1,0,3:0:0:0:
36,192,258736,1,0,3:0:0:0:
182,192,258736,1,0,3:0:0:0:
475,192,258736,1,0,3:0:0:0:
109,192,258736,1,0,3:0:0:0:
475,192,258836,1,0,3:0:0:0:
256,192,258836,1,0,3:0:0:0:
402,192,258836,1,0,3:0:0:0:
182,192,258936,1,0,3:0:0:0:
329,192,258936,1,0,3:0:0:0:
109,192,259036,1,0,3:0:0:0:
256,192,259036,1,0,3:0:0:0:
182,192,259136,1,0,3:0:0:0:
36,192,259136,1,0,3:0:0:0:
182,192,259236,1,0,3:0:0:0:
329,192,259236,1,0,3:0:0:0:
329,192,259336,1,0,3:0:0:0:
475,192,259336,1,0,3:0:0:0:
109,192,259402,1,0,3:0:0:0:
402,192,259469,1,0,3:0:0:0:
182,192,259536,1,0,3:0:0:0:
475,192,259602,1,0,3:0:0:0:
256,192,259669,1,0,3:0:0:0:
475,192,259736,1,0,3:0:0:0:
329,192,259802,1,0,3:0:0:0:
182,192,259869,1,0,3:0:0:0:
36,192,259936,1,0,3:0:0:0:
109,192,259936,1,0,3:0:0:0:
402,192,259936,1,0,3:0:0:0:
256,192,259936,1,0,3:0:0:0:
182,192,260136,1,0,3:0:0:0:
402,192,260136,1,0,3:0:0:0:
475,192,260136,1,0,3:0:0:0:
329,192,260136,1,0,3:0:0:0:
402,192,260236,1,0,3:0:0:0:
475,192,260236,1,0,3:0:0:0:
182,192,260436,1,0,3:0:0:0:
36,192,260436,1,0,3:0:0:0:
329,192,260436,1,0,3:0:0:0:
329,192,260636,1,0,3:0:0:0:
475,192,260636,1,0,3:0:0:0:
36,192,260736,1,0,3:0:0:0:
329,192,260736,1,0,3:0:0:0:
182,192,260736,1,0,3:0:0:0:
109,192,260936,1,0,3:0:0:0:
256,192,260936,1,0,3:0:0:0:
402,192,260936,1,0,3:0:0:0:
182,192,261136,1,0,3:0:0:0:
329,192,261202,1,0,3:0:0:0:
182,192,261269,1,0,3:0:0:0:
475,192,261336,1,0,3:0:0:0:
402,192,261336,1,0,3:0:0:0:
36,192,261336,1,0,3:0:0:0:
329,192,261336,1,0,3:0:0:0:
109,192,261536,1,0,3:0:0:0:
36,192,261536,1,0,3:0:0:0:
256,192,261536,1,0,3:0:0:0:
475,192,261536,1,0,3:0:0:0:
256,192,261736,1,0,3:0:0:0:
36,192,261811,1,0,0:0:0:0:
475,192,261811,1,0,0:0:0:0:
329,192,261836,1,0,3:0:0:0:
182,192,261836,1,0,3:0:0:0:
256,192,261969,1,0,3:0:0:0:
402,192,261969,1,0,3:0:0:0:
329,192,262102,1,0,3:0:0:0:
475,192,262102,1,0,3:0:0:0:
182,192,262236,1,0,3:0:0:0:
256,192,262236,1,0,3:0:0:0:
402,192,262236,1,0,3:0:0:0:
36,192,262236,128,0,262836:3:0:0:0:
109,192,262236,128,0,262836:3:0:0:0:
475,192,262836,1,0,3:0:0:0:
182,192,262836,1,0,3:0:0:0:
256,192,262902,1,0,3:0:0:0:
402,192,262902,1,0,3:0:0:0:
329,192,262969,1,0,3:0:0:0:
182,192,262969,1,0,3:0:0:0:
36,192,263036,1,0,3:0:0:0:
109,192,263036,1,0,3:0:0:0:
256,192,263036,1,0,3:0:0:0:
402,192,263036,1,0,3:0:0:0:
475,192,263036,1,0,3:0:0:0:
329,192,263169,1,0,3:0:0:0:
182,192,263169,1,0,3:0:0:0:
109,192,263302,1,0,3:0:0:0:
256,192,263302,1,0,3:0:0:0:
475,192,263302,1,0,3:0:0:0:
329,192,263436,1,0,3:0:0:0:
402,192,263436,1,0,3:0:0:0:
109,192,263569,1,0,0:0:0:0:
256,192,263569,1,0,0:0:0:0:
36,192,263702,1,0,3:0:0:0:
182,192,263702,1,0,0:0:0:0:
256,192,263836,1,0,3:0:0:0:
475,192,263836,1,0,3:0:0:0:
402,192,263836,1,0,0:0:0:0:
329,192,263969,1,0,3:0:0:0:
109,192,263969,1,0,0:0:0:0:
402,192,264102,1,0,0:0:0:0:
182,192,264102,1,0,0:0:0:0:
475,192,264236,1,0,3:0:0:0:
329,192,264236,1,0,3:0:0:0:
36,192,264236,1,0,3:0:0:0:
256,192,264236,1,0,0:0:0:0:
109,192,264236,1,0,0:0:0:0:
109,192,264636,1,0,3:0:0:0:
329,192,264636,1,0,3:0:0:0:
402,192,264636,1,0,3:0:0:0:
36,192,264636,1,0,3:0:0:0:
182,192,264636,128,0,264936:3:0:0:0:
475,192,264636,128,0,264936:3:0:0:0:
256,192,264936,128,0,265236:3:0:0:0:
402,192,264936,128,0,265236:3:0:0:0:
36,192,265036,128,0,265136:3:0:0:0:
109,192,265236,128,0,265436:3:0:0:0:
329,192,265236,128,0,265436:3:0:0:0:
182,192,265436,128,0,265836:3:0:0:0:
475,192,265436,128,0,265836:3:0:0:0:
36,192,265836,128,0,265936:3:0:0:0:
256,192,265836,128,0,266036:3:0:0:0:
402,192,265836,128,0,266036:0:0:0:0:
329,192,266036,128,0,266236:0:0:0:0:
109,192,266036,128,0,266636:0:0:0:0:
475,192,266236,128,0,266636:3:0:0:0:
182,192,266236,128,0,266636:0:0:0:0:
256,192,266636,128,0,266836:3:0:0:0:
36,192,266636,128,0,266736:3:0:0:0:
402,192,266636,128,0,266836:0:0:0:0:
182,192,266836,128,0,267436:0:0:0:0:
329,192,266836,128,0,267036:0:0:0:0:
109,192,267036,128,0,267436:0:0:0:0:
329,192,267436,1,0,3:0:0:0:
402,192,267436,1,0,3:0:0:0:
256,192,267436,1,0,3:0:0:0:
36,192,267436,128,0,268036:3:0:0:0:
475,192,267436,1,0,3:0:0:0:
109,192,267636,128,0,268036:3:0:0:0:
182,192,267836,128,0,268036:3:0:0:0:
329,192,268136,128,0,268836:3:0:0:0:
109,192,268236,1,0,3:0:0:0:
182,192,268236,1,0,3:0:0:0:
256,192,268236,1,0,3:0:0:0:
36,192,268236,1,0,3:0:0:0:
402,192,268436,128,0,269036:3:0:0:0:
475,192,268636,128,0,269236:3:0:0:0:
36,192,268836,128,0,269636:3:0:0:0:
109,192,269036,128,0,269636:3:0:0:0:
256,192,269036,1,0,3:0:0:0:
182,192,269036,1,0,0:0:0:0:
329,192,269036,128,0,269436:0:0:0:0:
402,192,269236,128,0,269436:3:0:0:0:
475,192,269436,128,0,269936:3:0:0:0:
402,192,269736,128,0,270436:3:0:0:0:
36,192,269836,1,0,3:0:0:0:
109,192,269836,1,0,3:0:0:0:
182,192,269836,1,0,3:0:0:0:
256,192,269836,1,0,3:0:0:0:
475,192,270036,128,0,270436:3:0:0:0:
329,192,270236,128,0,270436:3:0:0:0:
109,192,270236,1,0,3:0:0:0:
36,192,270236,1,0,3:0:0:0:
256,192,270236,1,0,3:0:0:0:
182,192,270536,1,0,0:0:0:0:
182,192,270636,128,0,270836:3:0:0:0:
36,192,270636,128,0,271036:3:0:0:0:
109,192,270636,128,0,270936:3:0:0:0:
329,192,270636,1,0,3:0:0:0:
475,192,270636,1,0,3:0:0:0:
475,192,271036,1,0,3:0:0:0:
182,192,271036,128,0,271236:3:0:0:0:
402,192,271102,1,0,3:0:0:0:
329,192,271169,1,0,3:0:0:0:
109,192,271236,1,0,3:0:0:0:
36,192,271236,1,0,3:0:0:0:
256,192,271236,1,0,3:0:0:0:
475,192,271236,1,0,3:0:0:0:
402,192,271336,128,0,271536:3:0:0:0:
182,192,271436,1,0,3:0:0:0:
182,192,271536,1,0,3:0:0:0:
256,192,271636,1,0,3:0:0:0:
36,192,271636,128,0,272036:3:0:0:0:
402,192,271636,1,0,3:0:0:0:
475,192,271836,128,0,272036:3:0:0:0:
182,192,271836,1,0,3:0:0:0:
109,192,272036,1,0,3:0:0:0:
329,192,272036,1,0,3:0:0:0:
402,192,272036,1,0,3:0:0:0:
256,192,272136,1,0,3:0:0:0:
36,192,272236,128,0,272436:3:0:0:0:
402,192,272236,1,0,3:0:0:0:
256,192,272336,1,0,3:0:0:0:
182,192,272436,1,0,3:0:0:0:
109,192,272436,1,0,3:0:0:0:
475,192,272436,128,0,272836:3:0:0:0:
329,192,272636,128,0,272836:3:0:0:0:
256,192,272636,1,0,3:0:0:0:
36,192,272836,1,0,3:0:0:0:
182,192,272836,1,0,3:0:0:0:
402,192,272836,1,0,3:0:0:0:
109,192,272936,128,0,273136:3:0:0:0:
329,192,273036,1,0,3:0:0:0:
329,192,273136,1,0,3:0:0:0:
182,192,273236,128,0,273636:3:0:0:0:
475,192,273236,1,0,3:0:0:0:
36,192,273236,1,0,3:0:0:0:
256,192,273436,128,0,273636:3:0:0:0:
402,192,273436,1,0,3:0:0:0:
329,192,273636,1,0,3:0:0:0:
475,192,273636,1,0,3:0:0:0:
36,192,273636,1,0,3:0:0:0:
182,192,273736,1,0,3:0:0:0:
256,192,273836,128,0,274036:3:0:0:0:
182,192,273936,1,0,3:0:0:0:
36,192,274036,1,0,3:0:0:0:
475,192,274036,1,0,3:0:0:0:
329,192,274036,128,0,274436:3:0:0:0:
182,192,274236,128,0,274436:3:0:0:0:
475,192,274236,1,0,3:0:0:0:
109,192,274436,1,0,3:0:0:0:
402,192,274436,1,0,3:0:0:0:
36,192,274436,1,0,3:0:0:0:
256,192,274536,128,0,274736:3:0:0:0:
475,192,274636,1,0,3:0:0:0:
475,192,274736,1,0,3:0:0:0:
36,192,274836,1,0,3:0:0:0:
109,192,274836,1,0,3:0:0:0:
329,192,274836,128,0,275236:3:0:0:0:
256,192,275036,128,0,275236:3:0:0:0:
182,192,275036,1,0,3:0:0:0:
402,192,275236,128,0,275636:3:0:0:0:
36,192,275236,1,0,3:0:0:0:
475,192,275236,1,0,3:0:0:0:
182,192,275336,1,0,3:0:0:0:
475,192,275436,128,0,275636:3:0:0:0:
109,192,275536,1,0,3:0:0:0:
36,192,275636,128,0,276036:3:0:0:0:
182,192,275636,1,0,3:0:0:0:
329,192,275636,1,0,3:0:0:0:
329,192,275736,1,0,3:0:0:0:
109,192,275836,128,0,276036:3:0:0:0:
182,192,275836,1,0,3:0:0:0:
475,192,275836,1,0,3:0:0:0:
402,192,275936,1,0,3:0:0:0:
329,192,276036,1,0,3:0:0:0:
256,192,276036,1,0,3:0:0:0:
182,192,276136,128,0,276636:3:0:0:0:
329,192,276236,1,0,3:0:0:0:
475,192,276236,1,0,3:0:0:0:
256,192,276336,1,0,3:0:0:0:
475,192,276436,1,0,3:0:0:0:
402,192,276436,1,0,3:0:0:0:
109,192,276436,128,0,276636:3:0:0:0:
329,192,276536,1,0,3:0:0:0:
36,192,276636,1,0,3:0:0:0:
109,192,276702,1,0,3:0:0:0:
182,192,276769,1,0,3:0:0:0:
256,192,276836,1,0,3:0:0:0:
329,192,276902,1,0,3:0:0:0:
402,192,276969,1,0,3:0:0:0:
475,192,277036,1,0,3:0:0:0:
256,192,277102,1,0,3:0:0:0:
36,192,277169,1,0,3:0:0:0:
329,192,277236,1,0,3:0:0:0:
402,192,277236,1,0,3:0:0:0:
182,192,277236,1,0,3:0:0:0:
182,192,277336,1,0,3:0:0:0:
329,192,277336,1,0,3:0:0:0:
402,192,277336,1,0,3:0:0:0:
109,192,277436,1,0,3:0:0:0:
256,192,277436,1,0,3:0:0:0:
475,192,277436,1,0,3:0:0:0:
36,192,277436,128,0,277636:3:0:0:0:
256,192,277536,1,0,3:0:0:0:
329,192,277636,1,0,3:0:0:0:
475,192,277636,1,0,3:0:0:0:
182,192,277636,1,0,3:0:0:0:
109,192,277736,128,0,277936:3:0:0:0:
402,192,277836,1,0,3:0:0:0:
402,192,277936,1,0,3:0:0:0:
36,192,278036,128,0,278436:3:0:0:0:
256,192,278036,1,0,3:0:0:0:
475,192,278036,1,0,3:0:0:0:
329,192,278136,1,0,3:0:0:0:
182,192,278236,128,0,278436:3:0:0:0:
402,192,278236,1,0,3:0:0:0:
475,192,278236,1,0,3:0:0:0:
329,192,278336,1,0,3:0:0:0:
109,192,278436,1,0,3:0:0:0:
475,192,278436,1,0,3:0:0:0:
256,192,278436,1,0,3:0:0:0:
402,192,278536,1,0,3:0:0:0:
329,192,278636,128,0,278836:3:0:0:0:
182,192,278636,1,0,3:0:0:0:
109,192,278736,1,0,3:0:0:0:
402,192,278836,128,0,279236:3:0:0:0:
256,192,278836,1,0,3:0:0:0:
36,192,278836,1,0,3:0:0:0:
109,192,278936,1,0,3:0:0:0:
329,192,279036,128,0,279236:3:0:0:0:
182,192,279036,1,0,3:0:0:0:
182,192,279136,1,0,3:0:0:0:
256,192,279236,1,0,3:0:0:0:
475,192,279236,1,0,3:0:0:0:
109,192,279236,1,0,3:0:0:0:
36,192,279336,128,0,279636:3:0:0:0:
402,192,279436,1,0,3:0:0:0:
402,192,279536,1,0,3:0:0:0:
109,192,279636,128,0,280036:3:0:0:0:
256,192,279636,1,0,3:0:0:0:
475,192,279636,1,0,3:0:0:0:
329,192,279736,1,0,3:0:0:0:
36,192,279836,128,0,280036:3:0:0:0:
402,192,279836,1,0,3:0:0:0:
256,192,279936,1,0,3:0:0:0:
402,192,280036,1,0,3:0:0:0:
475,192,280036,1,0,3:0:0:0:
182,192,280036,1,0,3:0:0:0:
329,192,280136,1,0,3:0:0:0:
256,192,280186,1,0,3:0:0:0:
182,192,280236,1,0,3:0:0:0:
475,192,280236,128,0,280436:3:0:0:0:
36,192,280336,1,0,3:0:0:0:
402,192,280436,128,0,280836:3:0:0:0:
109,192,280436,1,0,3:0:0:0:
256,192,280436,1,0,3:0:0:0:
182,192,280536,1,0,3:0:0:0:
329,192,280636,128,0,280836:3:0:0:0:
36,192,280636,1,0,3:0:0:0:
36,192,280736,1,0,3:0:0:0:
109,192,280836,1,0,3:0:0:0:
256,192,280836,1,0,3:0:0:0:
475,192,280836,1,0,3:0:0:0:
182,192,280936,128,0,281236:3:0:0:0:
329,192,281036,1,0,3:0:0:0:
329,192,281136,1,0,3:0:0:0:
109,192,281236,128,0,281636:3:0:0:0:
402,192,281236,1,0,3:0:0:0:
475,192,281236,1,0,3:0:0:0:
256,192,281336,1,0,3:0:0:0:
36,192,281436,128,0,281636:3:0:0:0:
329,192,281436,1,0,3:0:0:0:
402,192,281536,1,0,3:0:0:0:
256,192,281636,1,0,3:0:0:0:
182,192,281636,1,0,3:0:0:0:
475,192,281636,128,0,282036:0:0:0:0:
329,192,281736,1,0,3:0:0:0:
109,192,281836,1,0,3:0:0:0:
182,192,281936,1,0,3:0:0:0:
256,192,282036,128,0,282436:3:0:0:0:
109,192,282036,1,0,3:0:0:0:
329,192,282036,1,0,3:0:0:0:
475,192,282136,1,0,3:0:0:0:
36,192,282236,128,0,282436:3:0:0:0:
402,192,282236,1,0,3:0:0:0:
329,192,282336,1,0,3:0:0:0:
109,192,282436,1,0,3:0:0:0:
182,192,282436,1,0,3:0:0:0:
475,192,282436,1,0,3:0:0:0:
402,192,282536,128,0,282836:3:0:0:0:
182,192,282636,1,0,3:0:0:0:
109,192,282736,1,0,3:0:0:0:
256,192,282836,128,0,283236:3:0:0:0:
36,192,282836,1,0,3:0:0:0:
475,192,282836,1,0,3:0:0:0:
402,192,282936,1,0,3:0:0:0:
109,192,283036,128,0,283236:3:0:0:0:
329,192,283036,1,0,3:0:0:0:
475,192,283136,1,0,3:0:0:0:
182,192,283236,1,0,3:0:0:0:
36,192,283236,1,0,3:0:0:0:
402,192,283236,1,0,3:0:0:0:
36,192,283436,128,0,283636:3:0:0:0:
475,192,283436,1,0,3:0:0:0:
402,192,283486,1,0,3:0:0:0:
329,192,283536,1,0,3:0:0:0:
256,192,283586,1,0,3:0:0:0:
182,192,283636,1,0,3:0:0:0:
109,192,283636,1,0,3:0:0:0:
402,192,283636,1,0,3:0:0:0:
256,192,283736,1,0,3:0:0:0:
329,192,283836,1,0,3:0:0:0:
36,192,283836,1,0,3:0:0:0:
402,192,283836,1,0,3:0:0:0:
475,192,283836,128,0,284036:3:0:0:0:
36,192,283936,1,0,3:0:0:0:
256,192,284036,1,0,3:0:0:0:
109,192,284036,1,0,3:0:0:0:
402,192,284036,1,0,3:0:0:0:
329,192,284136,128,0,284336:3:0:0:0:
182,192,284236,1,0,3:0:0:0:
182,192,284336,1,0,3:0:0:0:
475,192,284436,128,0,284836:3:0:0:0:
256,192,284436,1,0,3:0:0:0:
36,192,284436,1,0,3:0:0:0:
109,192,284536,1,0,3:0:0:0:
329,192,284636,128,0,284836:3:0:0:0:
256,192,284636,1,0,3:0:0:0:
36,192,284736,1,0,3:0:0:0:
182,192,284836,1,0,3:0:0:0:
109,192,284836,1,0,3:0:0:0:
402,192,284836,1,0,3:0:0:0:
256,192,284936,1,0,3:0:0:0:
36,192,285036,128,0,285236:3:0:0:0:
329,192,285036,1,0,3:0:0:0:
402,192,285136,1,0,3:0:0:0:
182,192,285236,128,0,285636:3:0:0:0:
256,192,285236,1,0,3:0:0:0:
475,192,285236,1,0,3:0:0:0:
402,192,285336,1,0,3:0:0:0:
36,192,285436,128,0,285636:3:0:0:0:
329,192,285436,1,0,3:0:0:0:
329,192,285536,1,0,3:0:0:0:
109,192,285636,1,0,3:0:0:0:
475,192,285636,1,0,3:0:0:0:
402,192,285636,1,0,3:0:0:0:
256,192,285736,128,0,286036:3:0:0:0:
109,192,285836,1,0,3:0:0:0:
109,192,285936,1,0,3:0:0:0:
475,192,286036,1,0,3:0:0:0:
36,192,286036,1,0,3:0:0:0:
329,192,286036,128,0,286436:3:0:0:0:
182,192,286136,1,0,3:0:0:0:
402,192,286236,128,0,286436:3:0:0:0:
109,192,286236,1,0,3:0:0:0:
182,192,286336,1,0,3:0:0:0:
256,192,286436,1,0,3:0:0:0:
36,192,286436,1,0,3:0:0:0:
109,192,286436,1,0,3:0:0:0:
475,192,286536,128,0,286736:3:0:0:0:
329,192,286586,1,0,3:0:0:0:
182,192,286636,1,0,3:0:0:0:
36,192,286736,1,0,3:0:0:0:
256,192,286836,128,0,287236:3:0:0:0:
402,192,286836,1,0,3:0:0:0:
109,192,286836,1,0,3:0:0:0:
109,192,286936,1,0,3:0:0:0:
402,192,286936,1,0,3:0:0:0:
36,192,287036,128,0,287236:3:0:0:0:
182,192,287036,1,0,3:0:0:0:
475,192,287036,1,0,3:0:0:0:
329,192,287136,1,0,3:0:0:0:
182,192,287236,1,0,3:0:0:0:
475,192,287236,1,0,3:0:0:0:
402,192,287236,1,0,3:0:0:0:
109,192,287336,128,0,287536:3:0:0:0:
329,192,287436,1,0,3:0:0:0:
329,192,287536,1,0,3:0:0:0:
256,192,287636,128,0,287836:3:0:0:0:
36,192,287636,1,0,3:0:0:0:
475,192,287636,1,0,3:0:0:0:
36,192,287736,1,0,3:0:0:0:
475,192,287736,1,0,3:0:0:0:
182,192,287836,1,0,3:0:0:0:
109,192,287836,1,0,3:0:0:0:
402,192,287836,1,0,3:0:0:0:
329,192,287836,128,0,288036:3:0:0:0:
109,192,288036,1,0,3:0:0:0:
329,192,288136,128,0,288336:3:0:0:0:
36,192,288136,1,0,3:0:0:0:
256,192,288136,1,0,3:0:0:0:
475,192,288136,1,0,3:0:0:0:
109,192,288236,1,0,3:0:0:0:
182,192,288286,1,0,3:0:0:0:
256,192,288336,1,0,3:0:0:0:
402,192,288436,128,0,288636:3:0:0:0:
36,192,288436,1,0,3:0:0:0:
256,192,288536,1,0,3:0:0:0:
36,192,288536,1,0,3:0:0:0:
475,192,288636,128,0,288836:3:0:0:0:
182,192,288636,1,0,3:0:0:0:
329,192,288636,1,0,3:0:0:0:
109,192,288686,1,0,3:0:0:0:
36,192,288736,1,0,3:0:0:0:
329,192,288836,1,0,3:0:0:0:
109,192,288836,1,0,3:0:0:0:
402,192,288836,1,0,3:0:0:0:
256,192,288886,1,0,3:0:0:0:
182,192,288936,1,0,3:0:0:0:
475,192,289036,1,0,3:0:0:0:
36,192,289036,128,0,289236:3:0:0:0:
256,192,289036,1,0,3:0:0:0:
402,192,289086,1,0,3:0:0:0:
329,192,289136,1,0,3:0:0:0:
402,192,289236,1,0,3:0:0:0:
475,192,289236,1,0,3:0:0:0:
256,192,289236,1,0,3:0:0:0:
109,192,289236,1,0,3:0:0:0:
182,192,289336,1,0,3:0:0:0:
329,192,289386,1,0,3:0:0:0:
475,192,289436,128,0,289636:0:0:0:0:
109,192,289486,1,0,0:0:0:0:
256,192,289536,1,0,0:0:0:0:
182,192,289636,1,0,3:0:0:0:
329,192,289686,1,0,3:0:0:0:
109,192,289736,1,0,3:0:0:0:
475,192,289786,1,0,0:0:0:0:
402,192,289836,1,0,3:0:0:0:
36,192,289836,128,0,290036:0:0:0:0:
329,192,289886,1,0,0:0:0:0:
182,192,289936,1,0,3:0:0:0:
256,192,290036,1,0,3:0:0:0:
109,192,290036,1,0,3:0:0:0:
475,192,290036,1,0,3:0:0:0:
402,192,290236,1,0,3:0:0:0:
475,192,290236,1,0,3:0:0:0:
36,192,290236,128,0,290936:3:0:0:0:
109,192,290236,128,0,290836:3:0:0:0:
182,192,290236,128,0,290736:3:0:0:0:
475,192,290636,128,0,290736:3:0:0:0:
475,192,290936,1,0,3:0:0:0:
329,192,290986,1,0,3:0:0:0:
36,192,291036,1,0,3:0:0:0:
182,192,291036,1,0,3:0:0:0:
109,192,291036,1,0,3:0:0:0:
182,192,291169,1,0,3:0:0:0:
36,192,291169,1,0,3:0:0:0:
109,192,291302,1,0,3:0:0:0:
256,192,291302,1,0,3:0:0:0:
182,192,291402,1,0,3:0:0:0:
329,192,291436,1,0,3:0:0:0:
402,192,291569,1,0,3:0:0:0:
475,192,291569,1,0,3:0:0:0:
109,192,291569,1,0,3:0:0:0:
182,192,291702,1,0,3:0:0:0:
402,192,291702,1,0,3:0:0:0:
475,192,291702,1,0,3:0:0:0:
256,192,291836,1,0,3:0:0:0:
329,192,291836,1,0,3:0:0:0:
109,192,291836,1,0,3:0:0:0:
36,192,291836,1,0,3:0:0:0:
182,192,292036,1,0,3:0:0:0:
109,192,292036,1,0,3:0:0:0:
36,192,292036,1,0,3:0:0:0:
256,192,292036,1,0,3:0:0:0:
109,192,292236,1,0,3:0:0:0:
256,192,292236,1,0,3:0:0:0:
329,192,292336,1,0,3:0:0:0:
402,192,292336,1,0,3:0:0:0:
475,192,292336,1,0,3:0:0:0:
36,192,292502,1,0,3:0:0:0:
182,192,292536,1,0,3:0:0:0:
256,192,292736,1,0,3:0:0:0:
109,192,292736,1,0,3:0:0:0:
329,192,292836,1,0,3:0:0:0:
182,192,292836,1,0,3:0:0:0:
402,192,292836,128,0,293336:3:0:0:0:
475,192,292836,128,0,293336:3:0:0:0:
36,192,293236,128,0,293336:3:0:0:0:
475,192,293436,1,0,3:0:0:0:
256,192,293502,1,0,3:0:0:0:
402,192,293569,1,0,3:0:0:0:
36,192,293636,128,0,293736:3:0:0:0:
329,192,293702,1,0,3:0:0:0:
475,192,293769,1,0,3:0:0:0:
182,192,293836,1,0,3:0:0:0:
402,192,293902,1,0,3:0:0:0:
256,192,293969,1,0,3:0:0:0:
36,192,294036,128,0,294136:3:0:0:0:
182,192,294102,1,0,3:0:0:0:
475,192,294169,1,0,3:0:0:0:
329,192,294236,1,0,3:0:0:0:
36,192,294236,1,0,3:0:0:0:
109,192,294302,1,0,3:0:0:0:
256,192,294302,1,0,3:0:0:0:
475,192,294369,1,0,3:0:0:0:
182,192,294369,1,0,3:0:0:0:
109,192,294436,1,0,3:0:0:0:
329,192,294436,1,0,3:0:0:0:
402,192,294436,1,0,3:0:0:0:
36,192,294436,1,0,3:0:0:0:
182,192,294536,1,0,3:0:0:0:
256,192,294536,1,0,3:0:0:0:
329,192,294536,1,0,3:0:0:0:
36,192,294536,128,0,295836:3:0:0:0:
475,192,294536,128,0,295836:3:0:0:0:
109,192,295836,1,0,3:0:0:0:
329,192,295836,1,0,3:0:0:0:
402,192,295902,1,0,3:0:0:0:
182,192,295902,1,0,3:0:0:0:
475,192,295969,1,0,3:0:0:0:
256,192,295969,1,0,3:0:0:0:
36,192,296036,5,0,3:0:0:0:
109,192,296036,1,0,0:0:0:0:
329,192,296036,1,0,0:0:0:0:
36,192,300836,1,0,3:0:0:0:
109,192,300836,1,0,3:0:0:0:
402,192,300836,1,0,3:0:0:0:
475,192,300836,1,0,3:0:0:0:
182,192,300936,1,0,3:0:0:0:
329,192,300986,1,0,3:0:0:0:
475,192,301036,1,0,3:0:0:0:
109,192,301136,1,0,3:0:0:0:
182,192,301136,1,0,3:0:0:0:
36,192,301136,1,0,3:0:0:0:
329,192,301136,1,0,3:0:0:0:
402,192,301236,1,0,3:0:0:0:
256,192,301286,1,0,3:0:0:0:
109,192,301336,1,0,3:0:0:0:
36,192,301436,1,0,3:0:0:0:
182,192,301436,1,0,3:0:0:0:
402,192,301436,1,0,3:0:0:0:
329,192,301436,1,0,3:0:0:0:
475,192,301536,1,0,3:0:0:0:
329,192,301586,1,0,3:0:0:0:
182,192,301636,1,0,3:0:0:0:
109,192,301736,1,0,3:0:0:0:
402,192,301736,1,0,3:0:0:0:
475,192,301736,1,0,3:0:0:0:
256,192,301736,1,0,3:0:0:0:
36,192,301836,1,0,3:0:0:0:
182,192,301886,1,0,3:0:0:0:
329,192,301936,1,0,3:0:0:0:
402,192,302036,1,0,3:0:0:0:
475,192,302036,1,0,3:0:0:0:
109,192,302036,1,0,3:0:0:0:
36,192,302036,1,0,3:0:0:0:
182,192,302086,1,0,3:0:0:0:
256,192,302136,1,0,3:0:0:0:
329,192,302186,1,0,3:0:0:0:
36,192,302236,1,0,3:0:0:0:
475,192,302236,1,0,3:0:0:0:
402,192,302236,1,0,3:0:0:0:
109,192,302336,1,0,3:0:0:0:
182,192,302436,1,0,3:0:0:0:
256,192,302436,1,0,3:0:0:0:
329,192,302436,1,0,3:0:0:0:
402,192,302436,1,0,3:0:0:0:
36,192,302486,1,0,3:0:0:0:
402,192,302536,1,0,3:0:0:0:
109,192,302586,1,0,3:0:0:0:
475,192,302636,1,0,3:0:0:0:
182,192,302686,1,0,3:0:0:0:
475,192,302736,1,0,3:0:0:0:
256,192,302786,1,0,3:0:0:0:
36,192,302836,1,0,3:0:0:0:
329,192,302886,1,0,3:0:0:0:
36,192,302936,1,0,3:0:0:0:
402,192,302986,1,0,3:0:0:0:
109,192,303036,1,0,3:0:0:0:
475,192,303086,1,0,3:0:0:0:
109,192,303136,1,0,3:0:0:0:
256,192,303186,1,0,3:0:0:0:
402,192,303236,1,0,3:0:0:0:
36,192,303286,1,0,3:0:0:0:
402,192,303336,1,0,3:0:0:0:
109,192,303386,1,0,3:0:0:0:
475,192,303436,1,0,3:0:0:0:
182,192,303486,1,0,3:0:0:0:
475,192,303536,1,0,3:0:0:0:
256,192,303586,1,0,3:0:0:0:
36,192,303636,1,0,3:0:0:0:
329,192,303686,1,0,3:0:0:0:
36,192,303736,1,0,3:0:0:0:
402,192,303786,1,0,3:0:0:0:
109,192,303836,1,0,3:0:0:0:
475,192,303886,1,0,3:0:0:0:
109,192,303936,1,0,3:0:0:0:
256,192,303986,1,0,3:0:0:0:
402,192,304036,1,0,3:0:0:0:
36,192,304086,1,0,3:0:0:0:
402,192,304136,1,0,3:0:0:0:
109,192,304186,1,0,3:0:0:0:
475,192,304236,1,0,3:0:0:0:
182,192,304286,1,0,3:0:0:0:
475,192,304336,1,0,3:0:0:0:
256,192,304386,1,0,3:0:0:0:
36,192,304436,1,0,3:0:0:0:
329,192,304486,1,0,3:0:0:0:
36,192,304536,1,0,3:0:0:0:
402,192,304586,1,0,3:0:0:0:
109,192,304636,1,0,3:0:0:0:
475,192,304686,1,0,3:0:0:0:
109,192,304736,1,0,3:0:0:0:
256,192,304786,1,0,3:0:0:0:
402,192,304836,1,0,3:0:0:0:
475,192,304836,1,0,3:0:0:0:
36,192,304886,1,0,3:0:0:0:
182,192,304886,1,0,3:0:0:0:
329,192,304936,1,0,3:0:0:0:
256,192,304986,1,0,3:0:0:0:
475,192,305036,1,0,3:0:0:0:
36,192,305086,1,0,3:0:0:0:
109,192,305136,1,0,3:0:0:0:
402,192,305136,1,0,0:0:0:0:
256,192,305186,1,0,3:0:0:0:
475,192,305236,1,0,3:0:0:0:
329,192,305286,1,0,3:0:0:0:
182,192,305336,1,0,3:0:0:0:
109,192,305386,1,0,3:0:0:0:
475,192,305436,1,0,3:0:0:0:
36,192,305436,1,0,3:0:0:0:
256,192,305436,1,0,3:0:0:0:
402,192,305536,1,0,3:0:0:0:
109,192,305636,1,0,3:0:0:0:
182,192,305636,1,0,3:0:0:0:
329,192,305636,1,0,3:0:0:0:
256,192,305636,1,0,3:0:0:0:
475,192,305686,1,0,3:0:0:0:
109,192,305736,1,0,3:0:0:0:
402,192,305786,1,0,3:0:0:0:
36,192,305836,1,0,3:0:0:0:
329,192,305886,1,0,3:0:0:0:
36,192,305936,1,0,3:0:0:0:
256,192,305986,1,0,3:0:0:0:
475,192,306036,1,0,3:0:0:0:
182,192,306086,1,0,3:0:0:0:
475,192,306136,1,0,3:0:0:0:
109,192,306186,1,0,3:0:0:0:
402,192,306236,1,0,3:0:0:0:
36,192,306286,1,0,3:0:0:0:
402,192,306336,1,0,3:0:0:0:
256,192,306386,1,0,3:0:0:0:
109,192,306436,1,0,3:0:0:0:
475,192,306486,1,0,3:0:0:0:
109,192,306536,1,0,3:0:0:0:
402,192,306586,1,0,3:0:0:0:
36,192,306636,1,0,3:0:0:0:
329,192,306686,1,0,3:0:0:0:
36,192,306736,1,0,3:0:0:0:
256,192,306786,1,0,3:0:0:0:
475,192,306836,1,0,3:0:0:0:
182,192,306886,1,0,3:0:0:0:
475,192,306936,1,0,3:0:0:0:
109,192,306986,1,0,3:0:0:0:
402,192,307036,1,0,3:0:0:0:
36,192,307086,1,0,3:0:0:0:
402,192,307136,1,0,3:0:0:0:
329,192,307186,1,0,3:0:0:0:
475,192,307236,1,0,3:0:0:0:
256,192,307236,1,0,3:0:0:0:
36,192,307236,1,0,3:0:0:0:
109,192,307286,1,0,3:0:0:0:
182,192,307336,1,0,3:0:0:0:
329,192,307386,1,0,3:0:0:0:
109,192,307436,1,0,3:0:0:0:
256,192,307486,1,0,3:0:0:0:
475,192,307536,1,0,3:0:0:0:
36,192,307536,1,0,3:0:0:0:
402,192,307536,1,0,3:0:0:0:
182,192,307586,1,0,3:0:0:0:
329,192,307636,1,0,3:0:0:0:
109,192,307686,1,0,3:0:0:0:
256,192,307736,1,0,3:0:0:0:
475,192,307786,1,0,3:0:0:0:
329,192,307836,1,0,3:0:0:0:
182,192,307836,1,0,3:0:0:0:
402,192,307836,1,0,3:0:0:0:
109,192,307886,1,0,3:0:0:0:
36,192,307936,1,0,3:0:0:0:
256,192,307986,1,0,3:0:0:0:
402,192,308036,1,0,3:0:0:0:
182,192,308086,1,0,3:0:0:0:
329,192,308136,1,0,3:0:0:0:
475,192,308136,1,0,3:0:0:0:
36,192,308136,1,0,3:0:0:0:
256,192,308186,1,0,3:0:0:0:
182,192,308236,1,0,3:0:0:0:
475,192,308286,1,0,3:0:0:0:
402,192,308336,1,0,3:0:0:0:
329,192,308386,1,0,3:0:0:0:
36,192,308436,1,0,3:0:0:0:
109,192,308436,1,0,3:0:0:0:
256,192,308436,1,0,3:0:0:0:
475,192,308536,1,0,3:0:0:0:
402,192,308586,1,0,3:0:0:0:
36,192,308636,1,0,3:0:0:0:
329,192,308636,1,0,3:0:0:0:
182,192,308636,1,0,3:0:0:0:
256,192,308736,1,0,3:0:0:0:
329,192,308836,1,0,3:0:0:0:
402,192,308836,1,0,3:0:0:0:
475,192,308836,1,0,3:0:0:0:
36,192,308836,1,0,3:0:0:0:
109,192,308836,1,0,3:0:0:0:
182,192,308986,1,0,3:0:0:0:
256,192,309036,1,0,3:0:0:0:
329,192,309086,1,0,3:0:0:0:
402,192,309136,1,0,3:0:0:0:
475,192,309136,1,0,3:0:0:0:
109,192,309136,1,0,3:0:0:0:
36,192,309136,1,0,3:0:0:0:
182,192,309136,1,0,3:0:0:0:
109,192,309286,1,0,3:0:0:0:
182,192,309336,1,0,3:0:0:0:
256,192,309386,1,0,3:0:0:0:
329,192,309436,1,0,3:0:0:0:
36,192,309436,1,0,3:0:0:0:
475,192,309436,1,0,3:0:0:0:
402,192,309436,1,0,3:0:0:0:
36,192,309536,128,0,310036:3:0:0:0:
109,192,309536,128,0,309936:3:0:0:0:
475,192,309536,128,0,309836:3:0:0:0:
329,192,309536,1,0,0:0:0:0:
402,192,309536,1,0,0:0:0:0:
475,192,309936,1,0,3:0:0:0:
402,192,310036,1,0,3:0:0:0:
