osu file format v14

[General]
AudioFilename: audio.mp3
AudioLeadIn: 0
PreviewTime: 43640
Countdown: 0
SampleSet: Soft
StackLeniency: 0.7
Mode: 2
LetterboxInBreaks: 0
WidescreenStoryboard: 0

[Editor]
Bookmarks: 54440,107106,132340,168040,193640,211240,237740,238740,289840,302940
DistanceSpacing: 1.9
BeatDivisor: 4
GridSize: 32
TimelineZoom: 3.399999

[Metadata]
Title:Deadly force - Put an end
TitleUnicode:Deadly force - Put an end
Artist:Noah
ArtistUnicode:Noah
Creator:Bunnrei
Version:Revolt from the Abyss
Source:SOUND VOLTEX IV HEAVENLY HAVEN
Tags:metal rock video game sdvx 4 3 ExistRuth instrumental Revolt from the abyss gravity wars コナステ konasute konaste Ω omega dimension chara ster osu_gangster -plus- rei
BeatmapID:3172816
BeatmapSetID:1552869

[Difficulty]
HPDrainRate:2
CircleSize:4.2
OverallDifficulty:10
ApproachRate:10
SliderMultiplier:1.64
SliderTickRate:1

[Events]
//Background and Video events
0,0,"bg.jpg",0,0
//Break Periods
2,136240,137790
//Storyboard Layer 0 (Background)
//Storyboard Layer 1 (Fail)
//Storyboard Layer 2 (Pass)
//Storyboard Layer 3 (Foreground)
//Storyboard Layer 4 (Overlay)
//Storyboard Sound Samples

[TimingPoints]
840,200,4,2,1,80,1,0
5640,-100,4,1,1,80,0,0
7240,-100,4,2,1,80,0,0
12040,-100,4,1,1,80,0,0
13640,-100,4,1,2,80,0,0
13690,-100,4,2,1,70,0,0
29340,-50,4,2,1,70,0,0
29640,-100,4,2,1,70,0,0
32040,-76.9230769230769,4,2,1,70,0,0
32440,-100,4,2,1,70,0,0
36840,200,6,2,1,70,1,0
39240,200,4,2,1,70,1,0
43290,-100,4,2,69,5,0,0
43640,-100,4,2,1,70,0,0
43790,-100,4,2,69,5,0,0
43840,-100,4,2,1,70,0,0
43890,-100,4,2,69,5,0,0
44040,-100,4,3,4,80,0,1
44090,-100,4,3,1,80,0,1
56840,-100,4,2,1,75,0,0
63190,-100,4,2,69,5,0,0
63240,-100,4,2,1,75,0,0
69590,-100,4,2,69,5,0,0
69640,-100,4,2,1,75,0,0
75990,-100,4,2,69,5,0,0
76040,-117.647058823529,4,2,3,70,0,0
88840,-100,4,2,1,75,0,0
102440,-100,4,3,1,75,0,0
104840,-100,4,3,1,80,0,0
108040,-100,4,2,69,5,0,0
108140,-100,4,3,1,80,0,0
108390,-100,4,2,69,5,0,0
108440,-100,4,3,1,80,0,0
108690,-100,4,2,69,5,0,0
108740,-100,4,3,1,80,0,0
108940,-100,4,2,1,70,0,0
110440,200,3,2,1,70,1,0
112840,200,4,2,1,70,1,0
113640,-100,4,3,1,80,0,0
120040,-100,4,2,4,80,0,1
120090,-100,4,2,1,80,0,1
136040,-100,4,2,1,70,0,0
139640,-100,4,2,3,70,0,0
140640,-100,4,2,1,70,0,0
142390,-100,4,2,69,5,0,0
142440,-100,4,3,1,70,0,0
148790,-100,4,2,69,5,0,0
148840,-100,4,2,1,70,0,0
193590,-100,4,2,69,5,0,0
193640,-100,4,2,1,70,0,0
210490,-100,4,2,69,5,0,0
210840,-100,4,2,1,70,0,0
210890,-100,4,2,69,5,0,0
211040,-100,4,2,1,70,0,0
211090,-100,4,2,69,5,0,0
211240,-100,4,3,4,80,0,1
211290,-100,4,3,1,80,0,1
224040,-200,4,2,1,80,0,0
224090,-200,4,2,1,65,0,0
224740,-100,4,3,1,65,0,0
225640,-100,4,2,1,75,0,0
238440,200,6,2,1,75,1,0
239490,-100,6,2,69,5,0,0
239540,200,6,2,1,75,1,0
239790,-100,6,2,69,5,0,0
239840,-100,6,2,1,75,0,0
239990,-100,6,2,69,5,0,0
240040,-100,6,2,1,75,0,0
240190,-100,6,2,69,5,0,0
240240,-100,6,2,1,75,0,0
242540,200,4,2,1,75,1,0
248940,-90.9090909090909,4,3,1,75,0,0
252140,-100,4,3,1,75,0,0
255340,200,6,2,1,80,1,0
256390,-100,6,2,69,5,0,0
256440,200,6,2,1,75,1,0
256690,-100,6,2,69,5,0,0
256740,-100,6,2,1,75,0,0
256890,-100,6,2,69,5,0,0
256940,-100,6,2,1,75,0,0
257090,-100,6,2,69,5,0,0
257140,-100,6,2,1,75,0,0
257890,-100,6,2,69,5,0,0
257940,-100,6,2,1,75,0,0
258740,200,7,3,1,75,1,0
260140,200,6,3,1,75,1,0
261490,-100,6,2,69,5,0,0
261540,-100,6,3,1,75,0,0
261690,-100,6,2,69,5,0,0
261740,-100,6,3,1,75,0,0
262240,200,4,2,1,75,1,0
264540,-100,4,2,69,5,0,0
264640,-133.333333333333,4,2,3,60,0,0
267840,-133.333333333333,4,2,1,5,0,0
268240,-45.4545454545455,4,2,1,70,0,0
268440,-45.4545454545455,4,2,69,5,0,0
269040,-45.4545454545455,4,2,1,70,0,0
269240,-45.4545454545455,4,2,69,5,0,0
269840,-45.4545454545455,4,2,1,70,0,0
270140,-45.4545454545455,4,2,69,5,0,0
270240,-100,4,2,1,70,0,0
270540,-100,4,2,69,5,0,0
270640,-100,4,2,1,70,0,0
270940,-100,4,2,69,5,0,0
271040,-100,4,2,1,70,0,0
277440,-95.2380952380952,4,3,4,80,0,1
277490,-95.2380952380952,4,3,1,80,0,1
290190,-95.2380952380952,4,2,69,5,0,1
290240,-100,4,2,1,80,0,0
291840,200,5,2,1,80,1,0
292840,200,4,2,1,80,1,0
292890,-100,4,2,3,70,0,0
294540,-333.333333333333,4,2,1,70,0,0
296040,-133.333333333333,4,2,1,90,0,0
296140,-133.333333333333,4,2,1,50,0,0
300840,-100,4,1,1,80,0,0
302390,-100,4,2,69,5,0,0
302440,-100,4,1,1,80,0,1
304840,-100,4,3,1,80,0,1
305590,-100,4,2,69,5,0,1
305640,-100,4,1,1,80,0,1
307240,-100,4,3,1,80,0,1
308790,-100,4,3,69,5,0,1
308840,-100,4,3,1,80,0,1
309540,-83.3333333333333,4,3,1,80,0,1
310040,-100,4,2,1,45,0,0
310240,-100,4,2,1,25,0,0
310840,-100,4,2,1,15,0,0
311640,-100,4,2,69,5,0,0
312040,-100,4,2,69,5,0,0

[Colours]
Combo1 : 182,31,31
Combo2 : 192,192,255

[HitObjects]
85,192,5640,5,6,0:2:0:0:
345,192,5740,1,0,0:0:0:0:
386,192,5790,1,0,0:0:0:0:
427,192,5840,1,0,0:0:0:0:
101,192,5940,5,6,0:2:0:0:
329,192,6040,1,0,0:0:0:0:
370,192,6090,1,0,0:0:0:0:
411,192,6140,1,0,0:0:0:0:
117,192,6240,5,6,0:2:0:0:
313,192,6340,1,0,0:0:0:0:
354,192,6390,1,0,0:0:0:0:
395,192,6440,1,0,0:0:0:0:
133,192,6540,5,6,0:2:0:0:
297,192,6640,1,0,0:0:0:0:
338,192,6690,1,0,0:0:0:0:
379,192,6740,1,0,0:0:0:0:
174,192,6840,6,0,L|110:192,1,41,6|0,0:2|0:0,0:0:0:0:
338,192,6940,2,0,L|402:192,1,41
158,192,7040,2,0,L|117:192,1,41,2|0,0:2|0:0,0:0:0:0:
354,192,7140,2,0,L|418:192,1,41
256,288,7240,6,0,L|160:288,1,82,4|0,1:2|0:0,0:0:0:0:
272,232,7440,2,0,L|368:232,1,82,2|0,1:2|0:0,0:0:0:0:
133,204,7640,2,0,L|125:101,1,82,2|0,1:2|0:0,0:0:0:0:
225,93,7840,2,0,L|129:93,1,82,2|0,1:2|0:0,0:0:0:0:
369,42,8040,6,0,L|465:42,1,82,2|0,1:2|0:0,0:0:0:0:
353,42,8240,2,0,L|449:42,1,82,2|0,1:2|0:0,0:0:0:0:
197,319,8440,2,2,L|101:319,1,82,2|2,1:2|0:0,0:0:0:0:
213,263,8640,2,2,L|309:263,1,82,2|2,1:2|0:0,0:0:0:0:
32,192,8840,6,2,L|128:192,1,82,2|2,1:2|0:0,0:0:0:0:
338,96,9040,2,0,L|256:96,1,82,2|0,1:2|0:0,0:0:0:0:
354,211,9240,2,0,L|362:108,1,82,2|0,1:2|0:0,0:0:0:0:
459,112,9440,2,0,L|467:9,1,82,2|0,1:2|0:0,0:0:0:0:
256,64,9640,5,2,1:0:0:0:
354,64,9740,1,0,1:0:0:0:
313,64,9790,1,0,1:0:0:0:
272,64,9840,1,0,1:0:0:0:
32,64,9940,1,2,1:0:0:0:
130,64,10040,1,0,1:0:0:0:
89,64,10090,1,0,1:0:0:0:
48,64,10140,1,0,1:0:0:0:
256,64,10240,1,2,1:0:0:0:
166,64,10340,2,0,L|230:64,1,41,0|0,1:0|1:0,0:0:0:0:
420,64,10440,5,2,1:0:0:0:
256,64,10540,1,0,1:0:0:0:
420,64,10640,2,0,L|428:167,1,82,2|0,1:2|0:0,0:0:0:0:
221,189,10840,2,0,L|213:292,1,82,2|0,1:2|0:0,0:0:0:0:
116,254,11040,2,0,L|108:357,1,82,2|0,1:2|0:0,0:0:0:0:
338,192,11240,6,0,L|256:192,1,82,2|0,1:2|0:0,0:0:0:0:
92,192,11440,1,2,1:2:0:0:
256,192,11540,1,2,1:0:0:0:
420,192,11640,1,2,1:2:0:0:
256,192,11740,1,2,1:0:0:0:
92,192,11840,1,2,1:2:0:0:
256,192,11940,1,2,1:0:0:0:
427,192,12040,5,2,0:2:0:0:
167,192,12140,1,0,0:0:0:0:
126,192,12190,1,0,0:0:0:0:
85,192,12240,1,0,0:0:0:0:
411,192,12340,5,2,0:2:0:0:
183,192,12440,1,0,0:0:0:0:
142,192,12490,1,0,0:0:0:0:
101,192,12540,1,0,0:0:0:0:
395,192,12640,5,2,0:2:0:0:
199,192,12740,1,0,0:0:0:0:
158,192,12790,1,0,0:0:0:0:
117,192,12840,1,0,0:0:0:0:
379,192,12940,5,2,0:2:0:0:
215,192,13040,1,0,0:0:0:0:
174,192,13090,1,0,0:0:0:0:
133,192,13140,1,0,0:0:0:0:
338,192,13240,6,0,L|402:192,1,41,2|0,0:2|0:0,0:0:0:0:
174,192,13340,2,0,L|110:192,1,41
354,192,13440,2,0,L|395:192,1,41,2|0,0:2|0:0,0:0:0:0:
158,192,13540,2,0,L|94:192,1,41
256,160,13640,5,8,0:0:0:0:
441,193,14740,2,0,L|400:193,1,41,0|0,3:0|3:0,0:0:0:0:
256,192,14840,1,4,3:2:0:0:
441,193,14940,2,0,L|348:194,2,82,8|0|0,3:2|3:0|3:0,0:0:0:0:
174,256,15240,6,0,L|256:256,1,82,4|2,3:1|0:0,0:0:0:0:
67,281,15440,2,0,L|59:384,1,82,10|2,3:2|0:0,0:0:0:0:
159,184,15640,2,0,L|63:184,1,82,0|2,3:2|3:2,0:0:0:0:
256,96,15840,1,10,3:2:0:0:
158,96,15940,1,2,0:0:0:0:
338,50,16040,6,0,L|174:50,1,164,2|8,3:2|3:2,0:0:0:0:
256,160,16340,1,0,3:2:0:0:
445,291,16440,2,0,L|349:291,1,82,2|2,3:2|3:2,0:0:0:0:
174,320,16640,2,0,L|256:320,1,82,10|2,3:2|0:0,0:0:0:0:
67,255,16840,6,0,P|8:221|67:188,1,164,2|8,3:2|3:2,0:0:0:0:
153,170,17140,1,0,0:0:0:0:
342,91,17240,2,0,L|219:91,2,123,2|2|2,0:0|0:0|0:0,0:0:0:0:
137,182,17640,6,0,L|301:182,1,164,2|8,3:2|3:2,0:0:0:0:
219,135,17940,1,0,0:0:0:0:
399,64,18040,1,2,0:0:0:0:
256,64,18190,1,2,0:0:0:0:
113,64,18340,1,2,0:0:0:0:
348,209,18440,6,0,L|356:312,1,82,2|2,3:2|0:0,0:0:0:0:
256,320,18640,2,0,L|352:320,1,82,10|2,3:2|0:0,0:0:0:0:
164,203,18840,2,0,L|156:306,1,82,2|2,3:2|3:2,0:0:0:0:
264,96,19040,2,0,L|272:199,1,82,10|0,3:2|0:0,0:0:0:0:
57,191,19240,6,0,L|221:191,1,164,2|8,3:2|3:2,0:0:0:0:
139,301,19540,1,2,3:2:0:0:
338,200,19640,1,2,3:2:0:0:
256,190,19740,1,0,3:2:0:0:
174,200,19840,1,8,3:2:0:0:
256,190,19940,1,8,3:2:0:0:
468,118,20040,6,0,L|372:118,1,82,14|2,3:2|3:2,0:0:0:0:
126,118,20240,2,0,L|44:118,1,82,14|2,3:2|3:2,0:0:0:0:
301,81,20440,1,14,3:2:0:0:
211,81,20540,2,0,L|275:81,1,41,2|0,3:2|3:2,0:0:0:0:
468,118,20640,2,0,L|372:118,1,82,14|2,3:2|3:2,0:0:0:0:
160,320,20840,5,14,3:2:0:0:
62,308,20940,1,8,3:2:0:0:
256,224,21040,1,8,3:2:0:0:
354,212,21140,1,8,3:2:0:0:
115,370,21240,1,2,3:2:0:0:
25,358,21340,1,0,3:2:0:0:
107,370,21440,1,0,3:2:0:0:
17,358,21540,1,0,3:2:0:0:
256,320,21640,6,0,L|256:224,1,82,6|0,3:2|0:0,0:0:0:0:
162,192,21840,1,8,3:2:0:0:
367,78,21940,2,0,L|463:78,2,82,2|0|0,0:0|3:2|3:2,0:0:0:0:
168,192,22240,5,10,3:2:0:0:
262,238,22340,2,0,L|262:320,1,82,0|0,0:0|3:2,0:0:0:0:
63,78,22540,2,0,L|145:78,2,82,2|8|0,0:0|3:2|0:0,0:0:0:0:
256,160,22840,1,2,3:2:0:0:
449,78,22940,1,2,3:2:0:0:
367,78,23040,1,10,3:2:0:0:
449,78,23140,1,2,0:0:0:0:
162,198,23240,5,2,3:2:0:0:
256,244,23340,2,0,L|256:326,1,82,0|8,0:0|3:2,0:0:0:0:
51,326,23540,2,0,L|51:244,1,82,2|0,0:0|3:2,0:0:0:0:
145,198,23740,1,0,3:2:0:0:
350,198,23840,5,10,3:2:0:0:
256,244,23940,2,0,L|256:326,1,82,0|0,0:0|3:2,0:0:0:0:
461,326,24140,2,0,L|461:244,1,82,2|8,0:0|3:2,0:0:0:0:
367,198,24340,1,0,3:0:0:0:
162,198,24440,2,0,L|66:198,1,82,6|2,3:2|3:2,0:0:0:0:
256,192,24640,1,10,3:2:0:0:
80,198,24740,1,2,3:2:0:0:
367,198,24840,6,0,L|463:198,1,82,6|0,3:2|0:0,0:0:0:0:
256,224,25040,1,8,3:2:0:0:
449,198,25140,1,2,0:0:0:0:
355,244,25240,2,0,L|355:326,1,82,0|0,3:2|3:2,0:0:0:0:
145,198,25440,6,0,L|49:198,1,82,10|0,3:2|0:0,0:0:0:0:
256,224,25640,1,0,3:2:0:0:
63,198,25740,1,2,0:0:0:0:
157,244,25840,2,0,L|157:326,1,82,8|0,3:2|0:0,0:0:0:0:
384,128,26040,1,2,3:2:0:0:
215,64,26140,1,2,3:2:0:0:
297,64,26240,1,10,3:2:0:0:
128,128,26340,1,10,3:2:0:0:
416,352,26440,5,4,3:2:0:0:
330,299,26540,1,2,0:0:0:0:
424,243,26640,1,2,0:0:0:0:
88,243,26740,1,4,3:2:0:0:
182,299,26840,1,2,0:0:0:0:
96,352,26940,1,2,0:0:0:0:
352,192,27040,5,4,3:2:0:0:
160,192,27140,2,0,L|96:192,2,41,2|0|2,3:2|3:2|3:2,0:0:0:0:
352,96,27340,1,4,3:2:0:0:
256,96,27440,1,2,0:0:0:0:
160,96,27540,1,2,0:0:0:0:
448,192,27640,5,4,3:2:0:0:
256,288,27740,1,8,3:2:0:0:
64,192,27840,1,8,3:2:0:0:
256,288,27940,1,8,3:2:0:0:
448,96,28040,6,0,L|256:96,1,164,6|6,3:2|3:2,0:0:0:0:
64,192,28340,2,0,L|160:192,1,82,6|0,3:2|0:0,0:0:0:0:
366,192,28540,2,0,L|448:192,1,82,6|0,3:2|0:0,0:0:0:0:
158,173,28740,1,6,3:2:0:0:
354,173,28840,6,0,L|362:276,1,82,0|0,0:0|3:2,0:0:0:0:
174,326,29040,2,0,L|338:326,1,164,6|2,3:2|3:2,0:0:0:0:
92,278,29340,2,0,L|420:278,1,328,6|0,3:1|0:0,0:0:0:0:
426,196,29640,5,0,0:0:0:0:
160,160,29740,1,6,3:2:0:0:
352,160,29840,2,0,L|256:160,1,82,6|0,3:2|0:0,0:0:0:0:
263,241,30040,1,0,3:2:0:0:
59,314,30140,2,0,L|155:314,1,82,6|0,3:2|0:0,0:0:0:0:
453,314,30340,1,6,3:2:0:0:
257,266,30440,6,0,L|249:369,1,82,0|0,0:0|3:2,0:0:0:0:
453,314,30640,2,0,L|261:314,1,164,6|0,3:2|3:2,0:0:0:0:
59,314,30940,1,10,3:2:0:0:
153,247,31040,1,0,3:2:0:0:
67,193,31140,1,0,3:2:0:0:
256,192,31240,1,14,3:2:0:0:
158,141,31340,6,0,L|150:244,1,82,0|0,3:2|3:2,0:0:0:0:
361,222,31540,1,10,3:2:0:0:
151,222,31640,1,0,3:2:0:0:
192,222,31690,1,0,3:0:0:0:
233,222,31740,1,0,3:2:0:0:
430,222,31840,2,0,L|334:222,1,82,6|0,3:2|0:0,0:0:0:0:
82,222,32040,2,0,B|189:222|189:222|82:222,1,213.199990240479,6|0,3:1|0:0,0:0:0:0:
424,172,32440,6,0,L|488:172,2,54.6666666666667,2|0|2,0:0|0:0|0:0,0:0:0:0:
256,96,32640,2,0,L|320:96,2,54.6666666666667,2|2|2,0:0|0:0|0:0,0:0:0:0:
88,172,32840,6,0,L|24:172,2,54.6666666666667,2|0|2,0:0|0:0|0:0,0:0:0:0:
256,96,33040,2,0,L|192:96,2,54.6666666666667,10|2|2,3:2|0:0|0:0,0:0:0:0:
416,256,33240,1,6,3:2:0:0:
361,256,33306,1,2,0:0:0:0:
306,256,33373,1,0,0:0:0:0:
96,256,33440,1,14,3:2:0:0:
150,256,33506,1,2,0:0:0:0:
205,256,33573,1,2,0:0:0:0:
416,256,33640,6,0,P|475:222|416:189,1,164,6|0,3:2|0:0,0:0:0:0:
256,128,33940,1,2,3:2:0:0:
338,128,34040,1,0,0:0:0:0:
420,128,34140,1,0,0:0:0:0:
256,128,34240,2,0,P|197:94|256:61,1,164,10|0,3:2|0:0,0:0:0:0:
420,128,34540,2,0,L|228:128,1,164,2|0,3:2|0:0,0:0:0:0:
420,128,34840,6,0,L|484:128,2,54.6666666666667,10|0|0,3:2|0:0|0:0,0:0:0:0:
256,192,35040,1,2,3:2:0:0:
313,192,35106,2,0,L|321:127,1,54.6666666666667
160,128,35240,1,10,3:2:0:0:
352,128,35340,1,8,3:2:0:0:
96,256,35440,6,0,P|37:222|96:189,1,164,2|0,3:2|0:0,0:0:0:0:
256,128,35740,1,2,3:2:0:0:
174,128,35840,1,0,0:0:0:0:
92,128,35940,1,0,0:0:0:0:
256,128,36040,2,0,P|315:94|256:61,1,164,10|0,3:2|0:0,0:0:0:0:
92,128,36340,1,2,3:2:0:0:
297,274,36440,2,0,L|201:274,1,82,10|10,3:2|3:2,0:0:0:0:
420,128,36640,2,0,L|338:128,1,82,10|10,3:2|3:2,0:0:0:0:
49,270,36840,6,0,L|41:373,1,82,6|0,3:2|0:0,0:0:0:0:
149,147,37040,2,0,L|157:250,1,82,2|0,3:2|0:0,0:0:0:0:
262,259,37240,2,0,L|254:362,1,82,2|0,3:2|0:0,0:0:0:0:
39,251,37440,2,0,L|121:251,1,82,10|0,3:2|0:0,0:0:0:0:
219,172,37640,2,0,L|137:172,1,82,2|0,3:2|0:0,0:0:0:0:
30,251,37840,2,0,L|112:251,1,82,2|0,3:2|0:0,0:0:0:0:
361,270,38040,6,0,L|369:373,1,82,10|0,3:2|0:0,0:0:0:0:
261,147,38240,2,0,L|253:250,1,82,2|0,3:2|0:0,0:0:0:0:
148,259,38440,2,0,L|156:362,1,82,2|0,3:2|3:2,0:0:0:0:
480,191,38640,2,0,L|384:191,1,82,10|0,3:2|3:2,0:0:0:0:
215,81,38840,2,0,L|297:81,1,82,6|0,3:2|3:2,0:0:0:0:
114,191,39040,2,0,L|32:191,1,82,2|0,3:2|3:2,0:0:0:0:
256,256,39240,6,0,L|352:256,1,82,6|0,3:2|0:0,0:0:0:0:
128,319,39440,2,0,L|123:271,3,41,2|0|0|0,3:2|0:0|0:0|0:0,0:0:0:0:
254,363,39640,2,0,L|259:315,3,41,2|0|0|0,3:2|0:0|0:0|0:0,0:0:0:0:
388,278,39840,2,0,L|384:319,3,41,2|0|0|0,3:2|0:0|0:0|0:0,0:0:0:0:
128,192,40040,6,0,L|64:192,1,41,10|10,3:2|3:2,0:0:0:0:
259,125,40140,2,0,L|323:125,1,41,10|10,3:2|3:2,0:0:0:0:
253,125,40240,2,0,L|189:125,1,41,10|0,3:2|0:0,0:0:0:0:
384,192,40340,2,0,L|448:192,1,41,2|0,3:2|0:0,0:0:0:0:
174,288,40440,2,0,L|78:288,1,82,6|2,3:2|3:2,0:0:0:0:
338,288,40640,2,0,L|434:288,1,82,14|2,3:2|3:2,0:0:0:0:
160,128,40840,5,2,3:2:0:0:
256,96,40940,2,0,L|192:96,1,41,0|0,3:2|3:2,0:0:0:0:
64,96,41040,1,12,3:2:0:0:
256,96,41140,1,0,3:2:0:0:
352,64,41240,2,0,L|288:64,1,41,0|0,3:2|3:2,0:0:0:0:
160,64,41340,1,12,3:2:0:0:
352,64,41440,1,0,3:2:0:0:
448,32,41540,2,0,L|384:32,1,41,0|0,3:2|0:0,0:0:0:0:
256,32,41640,6,0,L|341:32,1,82,4|0,3:2|0:0,0:0:0:0:
496,307,41840,2,0,L|411:307,1,82,2|0,3:2|0:0,0:0:0:0:
307,241,42040,2,0,L|389:241,1,82,2|0,3:2|0:0,0:0:0:0:
150,289,42240,1,2,3:2:0:0:
362,289,42340,1,8,3:2:0:0:
148,358,42440,6,0,L|84:358,1,41,2|2,3:2|3:2,0:0:0:0:
375,224,42540,2,0,L|416:224,1,41,2|2,3:2|3:2,0:0:0:0:
168,358,42640,2,0,L|104:358,1,41,8|0,3:2|3:2,0:0:0:0:
367,224,42740,2,0,L|408:224,1,41,0|0,3:2|3:2,0:0:0:0:
188,358,42840,6,0,L|124:358,1,41,2|2,3:2|3:2,0:0:0:0:
359,224,42940,2,0,L|400:224,1,41,10|2,3:2|3:2,0:0:0:0:
208,358,43040,2,0,L|144:358,1,41,0|0,3:2|3:2,0:0:0:0:
351,224,43140,2,0,L|392:224,1,41,0|0,3:2|3:2,0:0:0:0:
224,224,43240,6,0,P|127:143|222:61,1,287,6|0,3:2|0:0,0:0:0:0:
379,32,43640,2,0,L|256:32,1,123,2|0,0:0|0:0,0:0:0:0:
133,32,43840,2,0,L|256:32,1,123,2|0,0:0|0:0,0:0:0:0:
461,195,44040,6,0,L|365:195,2,82,6|0|8,0:0|0:0|0:2,0:0:0:0:
256,288,44340,1,2,0:2:0:0:
354,298,44440,2,0,L|362:401,1,82
155,296,44640,2,0,L|237:296,1,82,10|0,0:2|0:0,0:0:0:0:
32,192,44840,5,2,0:2:0:0:
122,189,44940,1,0,0:0:0:0:
212,192,45040,1,8,0:2:0:0:
122,189,45140,1,0,0:0:0:0:
327,84,45240,2,0,L|245:84,1,82,2|0,0:2|0:0,0:0:0:0:
32,192,45440,2,0,L|114:192,1,82,10|0,0:2|0:0,0:0:0:0:
319,155,45640,5,2,0:2:0:0:
221,165,45740,2,0,L|213:268,1,82,0|8,0:0|0:2,0:0:0:0:
16,285,45940,1,2,0:2:0:0:
114,295,46040,2,0,L|122:398,1,82
325,230,46240,2,0,L|229:230,1,82,10|0,0:2|0:0,0:0:0:0:
460,104,46440,5,2,0:2:0:0:
378,104,46540,1,0,0:0:0:0:
296,104,46640,1,8,0:2:0:0:
460,104,46740,2,0,L|394:104,1,41
256,160,46840,2,0,L|338:160,1,82,2|0,0:2|0:0,0:0:0:0:
133,267,47040,2,0,L|51:267,1,82,10|0,0:2|0:0,0:0:0:0:
232,326,47240,6,0,L|328:326,2,82,2|0|8,0:2|0:0|0:2,0:0:0:0:
414,232,47540,2,0,L|496:232,2,82,2|0|0,0:2|0:0|0:0,0:0:0:0:
232,326,47840,2,0,L|328:326,1,82,10|0,0:2|0:0,0:0:0:0:
89,282,48040,6,0,L|81:385,1,82,2|0,0:2|0:0,0:0:0:0:
189,160,48240,2,0,L|197:263,1,82,10|0,0:2|0:0,0:0:0:0:
405,89,48440,2,0,L|309:89,1,82,2|0,0:2|0:0,0:0:0:0:
107,89,48640,2,0,L|203:89,1,82,10|0,0:2|0:0,0:0:0:0:
476,251,48840,6,0,L|380:251,2,82,2|0|8,0:2|0:0|0:2,0:0:0:0:
204,262,49140,1,2,0:2:0:0:
302,272,49240,2,0,L|310:375,1,82
36,251,49440,2,0,L|118:251,1,82,10|0,0:2|0:0,0:0:0:0:
338,160,49640,6,0,L|346:263,1,82,2|0,0:2|0:0,0:0:0:0:
174,160,49840,1,12,0:2:0:0:
338,160,49940,1,0,0:0:0:0:
160,256,50040,2,0,L|156:302,1,41,2|0,0:2|0:0,0:0:0:0:
352,256,50140,2,0,L|356:302,1,41
157,296,50240,2,0,L|61:296,1,82,12|0,0:2|0:0,0:0:0:0:
256,224,50440,5,6,0:1:0:0:
166,221,50540,1,0,0:0:0:0:
76,224,50640,1,8,0:2:0:0:
306,50,50740,2,0,L|210:50,2,82,2|0|0,0:2|0:0|0:0,0:0:0:0:
76,262,51040,2,0,L|68:365,1,82,10|0,0:2|0:0,0:0:0:0:
260,160,51240,5,2,0:2:0:0:
350,163,51340,1,0,0:0:0:0:
252,160,51440,1,8,0:2:0:0:
162,163,51540,1,0,0:0:0:0:
424,61,51640,2,0,L|328:61,1,82,2|0,0:2|0:0,0:0:0:0:
170,61,51840,2,0,L|88:61,1,82,10|0,0:2|0:0,0:0:0:0:
364,312,52040,6,0,L|282:312,2,82,2|0|8,0:2|0:0|0:2,0:0:0:0:
148,312,52340,2,0,L|230:312,2,82,2|0|0,0:2|0:0|0:0,0:0:0:0:
364,312,52640,2,0,L|372:209,1,82,10|0,0:2|0:0,0:0:0:0:
96,224,52840,5,2,0:2:0:0:
297,141,52940,2,0,L|215:141,1,82,0|8,0:0|0:2,0:0:0:0:
416,224,53140,2,0,L|366:224,1,41,2|0,0:2|0:0,0:0:0:0:
215,141,53240,2,0,L|297:141,1,82
96,224,53440,1,10,0:2:0:0:
256,224,53540,1,8,0:2:0:0:
96,224,53640,6,0,L|192:224,2,82,6|0|8,0:2|0:0|0:2,0:0:0:0:
338,151,53940,1,2,0:2:0:0:
256,151,54040,1,0,0:0:0:0:
174,151,54140,1,0,0:0:0:0:
338,151,54240,1,10,0:2:0:0:
174,151,54340,1,0,0:0:0:0:
416,224,54440,6,0,P|475:190|416:156,1,164,6|0,0:2|0:0,0:0:0:0:
155,93,54740,1,10,0:2:0:0:
357,93,54840,2,0,L|408:94,2,41
96,156,55040,2,0,L|0:156,1,82,8|8,0:2|0:2,0:0:0:0:
224,288,55240,6,0,L|288:288,1,41,2|0,0:2|0:0,0:0:0:0:
214,248,55340,2,0,L|150:248,1,41
296,179,55440,2,0,L|360:179,1,41,12|0,0:2|0:0,0:0:0:0:
286,139,55540,2,0,L|222:139,1,41
368,348,55640,6,0,L|432:348,1,41,12|0,0:2|0:0,0:0:0:0:
358,308,55740,2,0,L|294:308,1,41
440,239,55840,2,0,L|504:239,1,41,12|0,0:2|0:0,0:0:0:0:
430,199,55940,2,0,L|366:199,1,41
143,353,56040,6,0,L|79:353,1,41,10|10,0:2|0:2,0:0:0:0:
320,96,56140,2,0,L|384:96,1,41,10|0,0:2|0:0,0:0:0:0:
192,128,56240,2,0,L|128:128,1,41,2|2,0:2|0:2,0:0:0:0:
202,88,56340,2,0,L|266:88,1,41,2|0,0:2|0:0,0:0:0:0:
369,353,56440,6,0,L|433:353,1,41,10|10,0:2|0:2,0:0:0:0:
192,96,56540,2,0,L|128:96,1,41,10|0,0:2|0:0,0:0:0:0:
320,128,56640,2,0,L|416:128,1,82,2|2,0:2|0:2,0:0:0:0:
127,287,56840,6,0,L|45:287,1,82,6|0,3:1|0:0,0:0:0:0:
232,231,57040,2,0,L|40:231,1,164,10|0,3:2|3:2,0:0:0:0:
256,288,57340,1,2,3:2:0:0:
158,298,57440,2,0,L|150:401,1,82,8|0,3:2|0:0,0:0:0:0:
354,298,57640,6,0,P|413:264|354:230,1,164,2|8,3:2|3:2,0:0:0:0:
147,185,57940,2,0,L|229:185,2,82,2|0|0,3:2|0:0|3:2,0:0:0:0:
365,185,58240,2,0,L|283:185,1,82,10|0,3:2|0:0,0:0:0:0:
489,285,58440,6,0,L|496:367,1,82,2|0,3:2|0:0,0:0:0:0:
307,276,58640,2,0,L|499:276,1,164,10|0,3:2|3:2,0:0:0:0:
278,219,58940,2,0,L|372:219,2,82,2|8|0,3:2|3:2|0:0,0:0:0:0:
87,226,59240,6,0,P|28:192|87:158,1,164,2|8,3:2|3:2,0:0:0:0:
256,288,59540,1,2,3:2:0:0:
158,298,59640,2,0,L|150:401,1,82,0|0,0:0|3:2,0:0:0:0:
354,298,59840,2,0,L|360:379,1,82,14|0,3:2|0:0,0:0:0:0:
158,298,60040,5,0,3:2:0:0:
256,288,60140,1,0,3:2:0:0:
51,178,60240,2,0,L|243:178,1,164,14|0,3:2|3:2,0:0:0:0:
404,193,60540,1,2,3:2:0:0:
322,193,60640,1,8,3:2:0:0:
240,193,60740,1,0,0:0:0:0:
429,236,60840,6,0,P|488:202|429:168,1,164,2|8,3:2|3:2,0:0:0:0:
226,235,61140,2,0,L|130:235,2,82,2|0|0,3:2|0:0|3:2,0:0:0:0:
22,272,61440,2,0,L|16:354,1,82,10|0,3:2|0:0,0:0:0:0:
221,293,61640,5,4,3:2:0:0:
123,283,61740,1,0,3:2:0:0:
319,303,61840,1,14,3:2:0:0:
221,293,61940,1,0,3:2:0:0:
417,313,62040,1,12,3:2:0:0:
319,303,62140,2,0,L|375:298,1,41,2|0,3:2|0:0,0:0:0:0:
496,250,62240,2,0,L|400:250,1,82,12|0,3:2|3:2,0:0:0:0:
198,179,62440,6,0,L|134:179,1,41,10|8,3:2|3:2,0:0:0:0:
314,179,62540,2,0,L|378:179,1,41,0|0,3:2|3:2,0:0:0:0:
182,262,62640,2,0,L|178:218,1,41,0|0,3:2|3:2,0:0:0:0:
228,182,62740,2,0,L|232:138,1,41,2|0,3:2|3:2,0:0:0:0:
59,149,62840,1,0,3:2:0:0:
35,107,62890,1,0,3:2:0:0:
54,64,62940,1,0,3:2:0:0:
100,54,62990,1,0,3:2:0:0:
256,32,63040,2,0,L|96:32,1,123,10|0,3:2|0:0,0:0:0:0:
289,317,63240,6,0,L|385:317,1,82,6|2,3:1|0:0,0:0:0:0:
273,249,63440,2,0,L|177:249,1,82,10|2,3:2|0:0,0:0:0:0:
355,299,63640,2,0,L|361:380,1,82,2|2,3:2|3:2,0:0:0:0:
157,299,63840,2,0,L|151:380,1,82,10|2,3:2|0:0,0:0:0:0:
352,128,64040,5,2,3:2:0:0:
311,128,64090,1,0,0:0:0:0:
270,128,64140,1,2,0:0:0:0:
377,180,64240,2,0,L|383:261,1,82,10|2,3:2|3:2,0:0:0:0:
160,128,64440,1,2,0:0:0:0:
201,128,64490,1,0,0:0:0:0:
242,128,64540,1,2,3:2:0:0:
135,180,64640,2,0,L|129:261,1,82,10|2,3:2|0:0,0:0:0:0:
363,345,64840,6,0,P|422:311|363:277,1,164,2|8,3:2|3:2,0:0:0:0:
149,276,65140,1,2,0:0:0:0:
247,286,65240,2,0,L|255:389,1,82,0|0,3:2|3:2,0:0:0:0:
40,371,65440,2,0,L|136:371,1,82,8|0,3:2|0:0,0:0:0:0:
338,224,65640,6,0,L|256:224,2,82,0|0|8,3:2|3:0|3:2,0:0:0:0:
133,113,65940,2,0,L|297:113,1,164,0|0,3:2|3:2,0:0:0:0:
496,33,66240,2,0,L|414:33,1,82,8|0,3:2|0:0,0:0:0:0:
147,224,66440,5,2,3:2:0:0:
201,224,66506,1,0,0:0:0:0:
256,224,66573,1,0,0:0:0:0:
128,288,66640,2,0,L|32:288,2,54.6666666666667,10|0|0,3:2|0:0|0:0,0:0:0:0:
365,224,66840,1,2,3:2:0:0:
311,224,66906,1,0,0:0:0:0:
256,224,66973,1,0,0:0:0:0:
384,288,67040,2,0,L|480:288,2,54.6666666666667,10|0|0,3:2|0:0|0:0,0:0:0:0:
256,352,67240,6,0,L|160:352,2,54.6666666666667,2|0|0,3:2|0:0|0:0,0:0:0:0:
107,280,67440,2,0,L|11:280,2,54.6666666666667,10|0|0,3:2|0:0|0:0,0:0:0:0:
256,352,67640,2,0,L|352:352,2,54.6666666666667,2|0|0,0:2|0:0|0:0,0:0:0:0:
405,280,67840,2,0,L|501:280,2,54.6666666666667,10|0|0,3:2|0:0|0:0,0:0:0:0:
44,365,68040,6,0,L|32:301,2,54.6666666666667,2|0|0,3:2|0:0|0:0,0:0:0:0:
185,224,68240,2,0,L|185:128,2,54.6666666666667,10|0|0,3:2|0:0|0:0,0:0:0:0:
326,224,68440,2,0,L|326:169,2,54.6666666666667,2|0|0,3:2|0:0|0:0,0:0:0:0:
468,365,68640,2,0,L|480:301,2,54.6666666666667,10|0|0,3:2|0:0|0:0,0:0:0:0:
174,331,68840,6,0,L|338:331,1,164,14|0,3:2|3:2,0:0:0:0:
92,263,69140,1,12,3:2:0:0:
297,151,69240,1,0,3:2:0:0:
256,151,69290,1,0,3:2:0:0:
215,151,69340,1,0,3:2:0:0:
420,263,69440,2,0,P|462:230|416:199,1,123,12|0,3:2|0:0,0:0:0:0:
256,224,69640,5,6,3:2:0:0:
346,224,69740,1,2,0:0:0:0:
157,318,69840,2,0,L|61:318,2,82,10|0|2,3:2|0:0|3:2,0:0:0:0:
355,318,70140,2,0,L|451:318,2,82,2|8|2,3:2|3:2|0:0,0:0:0:0:
174,288,70440,6,0,L|256:288,1,82,2|0,3:2|0:0,0:0:0:0:
64,224,70640,2,0,L|53:144,1,54.6666666666667,10|0,3:2|0:0,0:0:0:0:
123,117,70773,1,0,0:0:0:0:
288,64,70840,1,2,0:0:0:0:
233,64,70906,1,0,0:0:0:0:
178,64,70973,1,0,0:0:0:0:
344,17,71040,2,0,L|408:17,2,54.6666666666667,10|0|0,3:2|0:0|0:0,0:0:0:0:
178,64,71240,6,0,L|352:64,1,164,2|8,3:2|3:2,0:0:0:0:
133,242,71540,1,2,0:0:0:0:
35,252,71640,2,0,L|27:355,1,82,0|0,3:2|3:2,0:0:0:0:
256,192,71840,2,0,L|160:192,1,82,10|2,3:2|0:0,0:0:0:0:
420,128,72040,6,0,L|256:128,1,164,2|8,3:2|3:2,0:0:0:0:
92,128,72340,2,0,L|256:128,1,164,0|0,3:2|3:2,0:0:0:0:
465,267,72640,2,0,L|369:267,1,82,8|0,3:2|0:0,0:0:0:0:
190,192,72840,5,6,3:2:0:0:
256,298,72907,2,0,L|263:243,1,54.6666666666667
71,164,73040,2,0,L|78:109,1,54.6666666666667,10|0,3:2|0:0,0:0:0:0:
145,95,73173,1,0,0:0:0:0:
322,192,73240,5,2,3:2:0:0:
256,298,73307,2,0,L|248:243,1,54.6666666666667
441,164,73440,2,0,L|433:109,1,54.6666666666667,10|0,3:2|0:0,0:0:0:0:
367,95,73573,1,0,0:0:0:0:
128,64,73640,6,0,L|64:64,2,54.6666666666667,6|0|0,3:2|0:0|0:0,0:0:0:0:
384,64,73840,2,0,L|448:64,2,54.6666666666667,10|0|0,3:2|0:0|0:0,0:0:0:0:
192,288,74040,5,2,3:2:0:0:
127,250,74106,2,0,L|119:195,1,54.6666666666667
393,195,74240,2,0,L|385:250,1,54.6666666666667,10|0,3:2|0:0,0:0:0:0:
320,288,74372,1,0,0:0:0:0:
174,128,74440,6,0,L|256:128,1,82,14|0,3:2|3:2,0:0:0:0:
51,127,74640,1,8,3:2:0:0:
133,128,74740,2,0,L|174:128,1,41,0|0,3:2|3:2,0:0:0:0:
338,128,74840,2,0,L|256:128,1,82,14|0,3:2|3:2,0:0:0:0:
461,127,75040,1,8,3:2:0:0:
379,128,75140,2,0,L|338:128,1,41,0|0,3:2|3:2,0:0:0:0:
122,294,75240,5,14,3:2:0:0:
98,252,75290,1,0,3:2:0:0:
117,209,75340,1,0,3:2:0:0:
163,199,75390,1,0,3:2:0:0:
390,294,75440,1,0,3:2:0:0:
414,252,75490,1,0,3:2:0:0:
395,209,75540,1,0,3:2:0:0:
349,199,75590,1,0,3:2:0:0:
145,109,75640,6,0,L|209:109,1,41,2|0,3:2|3:2,3:2:0:0:
326,109,75740,2,0,L|367:109,1,41,0|0,3:2|3:2,3:2:0:0:
145,109,75840,2,0,P|103:76|149:45,1,123,12|0,3:2|0:0,0:0:0:0:
361,26,76040,6,0,L|151:26,1,209.100003988266,4|2,3:1|0:0,0:0:0:0:
256,160,76440,2,0,L|416:160,1,139.400002658844,0|2,1:0|0:0,0:0:0:0:
95,366,76840,2,0,L|83:215,1,139.400002658844,10|0,3:2|0:0,0:0:0:0:
256,160,77240,1,0,1:2:0:0:
74,102,77440,1,8,3:2:0:0:
395,64,77640,6,0,L|256:64,2,139.400002658844,2|8|0,3:2|3:2|1:2,0:0:0:0:
256,256,78240,1,2,3:2:0:0:
215,238,78290,1,0,3:2:0:0:
215,194,78340,1,0,3:2:0:0:
254,175,78390,1,0,3:2:0:0:
415,189,78440,2,0,P|489:139|416:88,1,209.100003988266,2|2,3:2|0:0,0:0:0:0:
311,45,78840,2,0,L|471:45,1,139.400002658844,8|0,1:2|3:0,0:0:0:0:
151,26,79240,6,0,L|361:26,1,209.100003988266,2|2,3:2|0:0,0:0:0:0:
256,160,79640,2,0,L|419:160,1,139.400002658844,0|2,1:0|0:0,0:0:0:0:
89,327,80040,2,0,P|88:251|203:189,1,209.100003988266,14|2,3:2|0:0,0:0:0:0:
297,188,80440,1,0,1:0:0:0:
123,307,80640,2,0,L|113:222,1,69.700001329422,2|2,3:2|0:0,0:0:0:0:
416,96,80840,5,6,3:1:0:0:
256,128,81040,1,8,3:2:0:0:
96,96,81240,1,0,1:0:0:0:
389,307,81440,2,0,L|399:222,1,69.700001329422,0|0,3:0|3:0,0:0:0:0:
192,192,81640,2,0,L|64:192,2,92.933335105896,4|8|2,3:2|3:2|3:2,0:0:0:0:
320,192,82040,2,0,L|448:192,2,92.933335105896,10|2|2,3:2|3:2|3:2,0:0:0:0:
97,189,82440,6,0,P|23:139|96:88,1,209.100003988266,6|2,3:1|0:0,0:0:0:0:
201,45,82840,2,0,L|41:45,1,139.400002658844,0|2,1:0|0:0,0:0:0:0:
361,26,83240,2,0,L|151:26,1,209.100003988266,10|2,3:2|0:0,0:0:0:0:
47,67,83640,2,0,L|186:67,1,139.400002658844,0|10,1:0|3:2,0:0:0:0:
465,67,84040,6,0,L|325:67,1,139.400002658844,2|0,3:2|3:2,0:0:0:0:
69,305,84440,2,0,L|197:305,1,92.933335105896,2|2,1:2|0:0,0:0:0:0:
69,305,84706,2,0,L|5:305,1,46.466667552948,2|0,3:2|3:0,0:0:0:0:
224,192,84840,2,0,L|128:192,1,92.933335105896,10|6,3:2|3:2,0:0:0:0:
380,192,85106,1,2,3:2:0:0:
131,192,85240,1,14,3:2:0:0:
251,298,85373,2,0,L|260:205,1,92.933335105896,0|0,3:2|3:2,0:0:0:0:
467,285,85640,6,0,P|473:213|311:104,1,278.800005317688,6|0,3:2|1:0,0:0:0:0:
496,25,86240,1,2,0:0:0:0:
116,195,86440,2,0,L|404:195,1,278.800005317688,10|0,3:2|1:0,0:0:0:0:
256,288,87040,1,10,3:2:0:0:
64,352,87240,6,0,L|160:352,1,69.700001329422,2|2,3:2|0:2,0:0:0:0:
49,299,87440,2,0,L|145:299,1,69.700001329422,10|2,3:2|0:2,0:0:0:0:
393,299,87640,2,0,L|463:299,1,69.700001329422,2|2,1:2|0:2,0:0:0:0:
378,352,87840,2,0,L|448:352,1,69.700001329422,2|2,3:2|3:2,0:0:0:0:
118,299,88040,6,0,L|48:299,1,69.700001329422,6|2,3:1|3:2,0:0:0:0:
216,230,88240,2,0,L|226:143,1,69.700001329422,10|10,3:2|3:2,0:0:0:0:
394,299,88440,2,0,L|463:299,1,69.700001329422,2|2,3:2|3:2,0:0:0:0:
296,230,88640,2,0,L|286:143,1,69.700001329422,2|2,3:2|3:2,0:0:0:0:
81,152,88840,6,0,P|38:108|110:55,1,164,6|0,3:1|0:0,0:0:0:0:
182,58,89140,1,2,0:0:0:0:
344,76,89240,2,0,L|171:56,1,164,8|2,3:2|0:0,0:0:0:0:
479,383,89640,2,0,L|490:219,1,164,2|0,3:2|3:2,0:0:0:0:
313,207,90040,1,8,3:2:0:0:
496,100,90240,1,0,3:2:0:0:
192,192,90440,6,0,L|384:192,1,164,2|0,0:0|3:2,0:0:0:0:
364,102,90740,1,2,0:0:0:0:
200,347,90840,2,0,L|8:347,1,164,8|2,3:2|3:2,0:0:0:0:
350,298,91240,2,0,L|431:295,2,82,2|8|0,3:2|3:2|3:2,0:0:0:0:
162,298,91640,1,8,3:2:0:0:
350,298,91840,1,2,3:2:0:0:
64,288,92040,6,0,P|48:237|137:172,1,164,2|0,3:2|0:0,0:0:0:0:
204,169,92340,1,2,0:0:0:0:
302,165,92440,1,8,3:2:0:0:
105,273,92640,2,0,L|201:273,1,82,2|8,0:0|3:2,0:0:0:0:
448,288,92840,2,0,P|464:237|375:172,1,164,2|0,3:2|3:2,0:0:0:0:
308,169,93140,1,2,0:0:0:0:
144,169,93240,2,0,L|308:169,1,164,12|2,3:2|3:2,0:0:0:0:
16,35,93640,6,0,L|180:35,2,164,2|0|12,0:0|3:2|3:2,0:0:0:0:
308,291,94240,1,0,3:2:0:0:
210,301,94340,2,0,L|202:404,1,82,8|0,3:2|3:2,0:0:0:0:
496,177,94640,2,0,L|400:177,1,82,10|2,3:2|0:0,0:0:0:0:
225,143,94840,1,6,3:2:0:0:
315,135,94940,1,2,3:2:0:0:
233,152,95040,1,2,3:2:0:0:
323,144,95140,1,2,3:2:0:0:
128,352,95240,6,0,P|63:307|126:257,1,164,6|0,3:1|0:0,0:0:0:0:
302,160,95640,2,0,L|110:160,1,164,8|0,3:2|0:0,0:0:0:0:
220,160,95940,1,8,3:2:0:0:
302,160,96040,1,0,3:2:0:0:
16,177,96240,2,0,L|112:177,1,82,2|2,3:2|0:0,0:0:0:0:
287,143,96440,1,10,3:2:0:0:
197,135,96540,1,2,0:0:0:0:
279,152,96640,1,2,3:2:0:0:
189,144,96740,1,2,0:0:0:0:
384,352,96840,6,0,P|449:307|386:257,1,164,2|0,0:0|3:2,0:0:0:0:
210,160,97240,2,0,L|402:160,1,164,8|0,3:2|3:2,0:0:0:0:
98,288,97640,2,0,L|16:288,2,82,2|8|0,3:2|3:2|3:2,0:0:0:0:
399,77,98040,1,8,3:2:0:0:
113,77,98240,1,2,3:2:0:0:
384,320,98440,6,0,P|436:298|405:208,1,164,6|0,3:2|0:0,0:0:0:0:
128,320,98840,2,0,P|76:298|107:208,1,164,8|0,3:2|0:0,0:0:0:0:
184,188,99140,1,8,3:2:0:0:
414,288,99240,2,0,L|496:288,2,82,2|0|0,3:2|0:0|3:2,0:0:0:0:
113,77,99640,1,12,3:2:0:0:
399,77,99840,1,2,3:2:0:0:
128,320,100040,6,0,P|76:298|107:208,1,164,2|0,0:0|3:2,0:0:0:0:
420,128,100440,2,0,L|256:128,1,164,12|0,3:2|0:0,0:0:0:0:
249,209,100740,1,8,3:2:0:0:
448,32,100840,2,0,L|352:32,2,82,2|8|0,3:2|3:2|3:2,0:0:0:0:
73,210,101240,2,0,L|169:210,1,82,12|0,3:2|3:2,0:0:0:0:
357,210,101440,2,0,L|439:210,1,82,2|0,3:2|3:2,0:0:0:0:
256,320,101640,6,0,L|448:320,2,164,6|0|8,3:2|0:0|3:2,0:0:0:0:
436,227,102240,2,0,L|444:330,1,82,0|8,0:0|3:2,0:0:0:0:
256,192,102440,2,0,L|384:192,1,109.333333333333,6|8,0:2|0:2,0:0:0:0:
146,192,102706,1,2,0:2:0:0:
365,192,102840,1,8,0:2:0:0:
146,192,102973,2,0,L|18:192,1,109.333333333333,2|0,0:2|0:0,0:0:0:0:
256,256,103240,6,0,L|128:256,1,109.333333333333,6|0,0:2|0:0,0:0:0:0:
203,197,103440,1,0,0:0:0:0:
384,160,103506,2,0,L|384:32,1,109.333333333333,6|0,0:2|0:0,0:0:0:0:
323,32,103706,1,0,0:0:0:0:
128,160,103773,2,0,L|128:32,1,109.333333333333,6|0,0:2|0:0,0:0:0:0:
189,32,103973,1,0,0:0:0:0:
369,328,104040,6,0,L|497:328,1,109.333333333333,10|0,0:2|0:0,0:0:0:0:
256,320,104306,2,0,L|224:320,1,27.3333333333333,2|0,0:2|0:0,0:0:0:0:
324,321,104440,1,0,0:0:0:0:
95,252,104573,2,0,L|63:252,1,27.3333333333333,6|0,0:2|0:0,0:0:0:0:
256,256,104707,1,0,0:0:0:0:
32,352,104840,5,6,0:2:0:0:
250,225,104973,2,0,L|256:144,1,54.6666666666667,8|8,0:2|0:2,0:0:0:0:
419,135,105106,2,0,L|291:135,1,109.333333333333,0|4,0:0|0:2,0:0:0:0:
93,135,105373,1,8,0:2:0:0:
384,32,105506,1,8,0:2:0:0:
256,128,105640,1,8,0:2:0:0:
128,32,105773,1,0,0:0:0:0:
441,114,105906,6,0,L|322:114,1,109.333333333333,8|0,0:2|0:0,0:0:0:0:
71,114,106173,2,0,L|190:114,1,109.333333333333,8|0,0:2|0:0,0:0:0:0:
446,367,106440,2,0,L|452:286,1,54.6666666666667,8|0,0:2|0:0,0:0:0:0:
260,330,106573,2,0,L|254:249,1,54.6666666666667
66,367,106706,2,0,L|60:286,1,54.6666666666667
320,160,106840,6,0,L|384:160,1,54.6666666666667
192,160,106973,2,0,L|128:160,1,54.6666666666667
349,61,107106,2,0,L|403:61,1,54.6666666666667
137,160,107240,1,12,0:2:0:0:
374,160,107373,1,10,0:2:0:0:
76,288,107506,2,0,L|12:288,2,54.6666666666667
256,352,107706,6,0,P|336:339|260:190,1,314.333333333333,4|0,0:2|0:0,0:0:0:0:
130,213,108140,2,0,P|57:162|127:107,1,205,2|0,0:2|0:0,0:0:0:0:
256,160,108440,2,0,P|328:109|258:54,1,205,6|0,0:2|0:0,0:0:0:0:
147,100,108740,1,6,0:2:0:0:
365,100,108840,5,6,3:2:0:0:
156,352,108940,2,0,L|92:352,1,41
256,245,109040,1,0,0:0:0:0:
293,229,109090,1,0,0:0:0:0:
309,192,109140,1,0,0:0:0:0:
293,154,109190,1,0,0:0:0:0:
256,138,109240,1,0,0:0:0:0:
218,154,109290,1,0,0:0:0:0:
202,192,109340,1,0,0:0:0:0:
218,229,109390,1,0,0:0:0:0:
365,100,109440,5,6,3:2:0:0:
147,100,109540,1,6,3:1:0:0:
311,347,109640,2,0,L|375:347,1,41,8|8,3:2|3:2,0:0:0:0:
305,347,109740,2,0,L|241:347,1,41,0|0,3:0|3:0,0:0:0:0:
406,352,109840,5,0,3:0:0:0:
430,310,109890,1,0,3:0:0:0:
411,267,109940,1,0,3:0:0:0:
365,257,109990,1,0,3:0:0:0:
64,192,110040,1,6,3:2:0:0:
256,192,110173,1,6,3:2:0:0:
448,192,110306,1,6,3:2:0:0:
160,288,110440,6,0,L|64:288,1,82,6|0,3:2|0:0,0:0:0:0:
256,256,110640,2,0,L|320:256,2,54.6666666666667,2|0|0,0:0|0:0|0:0,0:0:0:0:
435,245,110840,2,0,L|454:164,2,54.6666666666667,2|0|0,0:0|0:0|0:0,0:0:0:0:
256,256,111040,6,0,L|192:256,2,54.6666666666667,6|0|0,3:2|0:0|0:0,0:0:0:0:
77,245,111240,2,0,L|58:164,2,54.6666666666667,2|0|0,3:2|0:0|0:0,0:0:0:0:
256,96,111440,1,2,3:2:0:0:
201,96,111506,1,0,0:0:0:0:
190,40,111573,1,0,0:0:0:0:
322,40,111640,1,6,3:2:0:0:
311,96,111707,1,0,0:0:0:0:
256,96,111773,1,0,0:0:0:0:
388,371,111840,5,10,3:2:0:0:
453,333,111906,2,0,L|461:278,1,54.6666666666667
256,256,112040,2,0,L|160:256,1,82,2|0,3:2|3:2,0:0:0:0:
416,128,112240,5,14,3:2:0:0:
215,136,112340,2,0,L|297:136,1,82,0|0,3:2|3:2,0:0:0:0:
96,128,112540,1,14,3:2:0:0:
297,136,112640,2,0,L|215:136,1,82,0|0,3:2|3:2,0:0:0:0:
415,195,112840,6,0,P|474:161|415:128,1,164,6|0,3:2|3:0,0:0:0:0:
373,127,113090,1,0,3:0:0:0:
256,192,113140,2,0,L|192:192,1,41,0|0,3:0|3:0,0:0:0:0:
373,127,113240,2,0,L|469:127,3,82,4|0|0|0,3:2|3:0|3:0|3:0,0:0:0:0:
128,320,113640,6,0,L|32:320,1,82,14|0,0:1|0:0,0:0:0:0:
144,320,113840,2,0,L|48:320,1,82
160,294,114040,2,0,L|64:294,1,82,8|0,0:2|0:0,0:0:0:0:
176,294,114240,2,0,L|80:294,1,82
354,186,114440,5,10,0:2:0:0:
256,224,114540,1,0,0:0:0:0:
158,186,114640,1,0,0:0:0:0:
384,96,114740,2,0,L|288:96,2,82,2|8|0,0:2|0:2|0:0,0:0:0:0:
210,96,115040,2,0,L|128:96,1,82,2|0,0:2|0:0,0:0:0:0:
384,320,115240,6,0,L|480:320,1,82,10|0,0:2|0:0,0:0:0:0:
359,320,115440,2,0,L|455:320,1,82
334,294,115640,2,0,L|430:294,1,82,8|0,0:2|0:0,0:0:0:0:
309,294,115840,2,0,L|405:294,1,82
121,294,116040,5,10,0:2:0:0:
219,243,116140,2,0,L|227:346,1,82
391,294,116340,1,2,0:2:0:0:
219,243,116440,2,0,L|301:243,1,82,12|0,0:2|0:0,0:0:0:0:
480,160,116640,2,0,L|384:160,1,82,2|0,0:2|0:0,0:0:0:0:
128,320,116840,6,0,L|32:320,1,82,14|0,0:1|0:0,0:0:0:0:
241,233,117040,2,0,L|145:233,1,82
354,233,117240,2,0,L|272:233,1,82,8|0,0:2|0:0,0:0:0:0:
466,320,117440,2,0,L|384:320,1,82
158,186,117640,5,10,0:2:0:0:
256,224,117740,1,0,0:0:0:0:
354,186,117840,1,0,0:0:0:0:
128,128,117940,2,0,L|32:128,2,82,2|8|0,0:2|0:2|0:0,0:0:0:0:
384,128,118240,2,0,L|480:128,1,82,2|0,0:2|0:0,0:0:0:0:
256,320,118440,5,6,0:2:0:0:
76,304,118640,2,0,L|72:260,3,41,8|8|8|0,0:2|0:2|0:2|0:0,0:0:0:0:
256,128,118840,2,0,L|260:84,1,41
79,344,118940,2,0,L|75:300,1,41
256,320,119040,5,4,0:2:0:0:
436,304,119240,2,0,L|440:260,3,41,8|8|8|0,0:2|0:2|0:2|0:0,0:0:0:0:
256,128,119440,2,0,L|252:84,1,41
433,344,119540,2,0,L|437:300,1,41
256,320,119640,1,6,0:2:0:0:
32,352,119840,2,0,L|128:352,1,82,8|8,0:2|0:2,0:0:0:0:
480,352,120040,5,6,3:0:0:0:
256,352,120140,1,2,0:0:0:0:
346,353,120240,1,10,3:2:0:0:
256,352,120340,1,2,0:0:0:0:
436,352,120440,1,2,3:2:0:0:
346,353,120540,1,2,3:2:0:0:
166,353,120640,1,10,3:2:0:0:
346,353,120740,1,2,3:2:0:0:
256,352,120840,5,2,0:0:0:0:
76,355,120940,1,2,3:2:0:0:
256,352,121040,1,10,3:2:0:0:
166,353,121140,1,2,0:0:0:0:
436,355,121240,1,2,3:2:0:0:
256,352,121340,1,2,3:2:0:0:
346,353,121440,1,10,3:2:0:0:
166,353,121540,1,2,0:0:0:0:
346,353,121640,5,2,3:2:0:0:
256,352,121740,1,2,0:0:0:0:
436,355,121840,1,10,3:2:0:0:
256,352,121940,1,2,0:0:0:0:
76,355,122040,1,2,3:2:0:0:
256,352,122140,1,2,3:2:0:0:
166,353,122240,1,10,3:2:0:0:
346,353,122340,1,2,3:2:0:0:
166,353,122440,5,2,0:0:0:0:
256,352,122540,1,2,3:2:0:0:
346,353,122640,1,10,3:2:0:0:
76,355,122740,1,2,0:0:0:0:
256,352,122840,1,2,3:2:0:0:
436,355,122940,1,2,3:2:0:0:
166,353,123040,1,10,3:2:0:0:
346,353,123140,1,2,0:0:0:0:
76,355,123240,5,6,3:2:0:0:
301,181,123340,1,2,0:0:0:0:
211,180,123440,1,10,3:2:0:0:
436,355,123540,1,2,0:0:0:0:
76,355,123640,1,2,3:2:0:0:
301,181,123740,1,2,3:2:0:0:
211,180,123840,1,10,3:2:0:0:
436,355,123940,1,2,3:2:0:0:
76,355,124040,5,2,0:0:0:0:
301,181,124140,1,2,3:2:0:0:
211,180,124240,1,10,3:2:0:0:
436,355,124340,1,2,0:0:0:0:
76,355,124440,1,2,3:2:0:0:
256,224,124540,1,2,3:2:0:0:
445,355,124640,1,10,3:2:0:0:
256,224,124740,1,2,0:0:0:0:
76,355,124840,5,2,3:2:0:0:
166,353,124940,1,2,0:0:0:0:
76,355,125040,1,10,3:2:0:0:
256,224,125140,1,2,0:0:0:0:
166,222,125240,1,2,3:2:0:0:
346,222,125340,1,2,3:2:0:0:
166,222,125440,1,10,3:2:0:0:
346,222,125540,1,2,3:2:0:0:
166,353,125640,5,2,0:0:0:0:
106,359,125706,1,0,0:0:0:0:
166,353,125773,1,0,0:0:0:0:
346,353,125840,1,10,3:2:0:0:
406,359,125906,1,0,0:0:0:0:
346,353,125973,1,0,0:0:0:0:
195,352,126040,1,2,3:2:0:0:
135,358,126106,1,0,0:0:0:0:
195,352,126173,1,0,0:0:0:0:
256,352,126240,1,10,3:2:0:0:
316,358,126306,1,0,0:0:0:0:
256,352,126373,1,0,0:0:0:0:
32,352,126440,5,6,3:1:0:0:
256,352,126540,1,2,0:0:0:0:
162,308,126640,1,10,3:2:0:0:
350,308,126740,1,2,0:0:0:0:
162,308,126840,1,2,3:2:0:0:
256,256,126940,1,2,3:2:0:0:
67,258,127040,1,10,3:2:0:0:
256,256,127140,1,2,3:2:0:0:
162,308,127240,5,2,0:0:0:0:
445,199,127340,1,2,3:2:0:0:
256,192,127440,1,10,3:2:0:0:
67,199,127540,1,2,0:0:0:0:
350,308,127640,1,2,3:2:0:0:
162,308,127740,1,2,3:2:0:0:
256,256,127840,1,10,3:2:0:0:
67,199,127940,1,2,0:0:0:0:
350,308,128040,5,2,3:2:0:0:
256,256,128140,1,2,0:0:0:0:
445,199,128240,1,10,3:2:0:0:
256,256,128340,1,2,0:0:0:0:
67,199,128440,1,2,3:2:0:0:
256,256,128540,1,2,3:2:0:0:
162,308,128640,1,10,3:2:0:0:
350,308,128740,1,2,3:2:0:0:
162,308,128840,5,2,0:0:0:0:
256,256,128940,1,2,3:2:0:0:
67,199,129040,1,10,3:2:0:0:
161,147,129140,1,2,0:0:0:0:
445,199,129240,1,2,3:2:0:0:
256,256,129340,1,2,3:2:0:0:
445,199,129440,1,10,3:2:0:0:
351,147,129540,1,2,0:0:0:0:
161,147,129640,5,6,3:2:0:0:
256,256,129740,1,2,0:0:0:0:
161,147,129840,1,10,3:2:0:0:
66,256,129940,1,2,0:0:0:0:
256,256,130040,1,2,3:2:0:0:
161,147,130140,1,2,3:2:0:0:
351,147,130240,1,10,3:2:0:0:
161,147,130340,1,2,3:2:0:0:
445,199,130440,5,2,0:0:0:0:
351,147,130540,1,2,3:2:0:0:
445,199,130640,1,10,3:2:0:0:
161,147,130740,1,2,0:0:0:0:
351,147,130840,1,2,3:2:0:0:
256,256,130940,1,2,3:2:0:0:
66,256,131040,1,10,3:2:0:0:
256,256,131140,1,2,0:0:0:0:
446,256,131240,5,2,3:2:0:0:
161,147,131340,1,2,0:0:0:0:
351,147,131440,1,10,3:2:0:0:
66,256,131540,1,2,0:0:0:0:
446,256,131640,1,2,3:2:0:0:
161,147,131740,1,2,3:2:0:0:
351,147,131840,1,10,3:2:0:0:
66,256,131940,1,2,3:2:0:0:
256,256,132040,5,2,0:0:0:0:
161,147,132140,1,2,3:2:0:0:
351,147,132240,1,10,3:2:0:0:
256,256,132340,1,2,0:0:0:0:
446,256,132440,1,2,3:2:0:0:
66,256,132540,1,2,3:2:0:0:
351,147,132640,1,10,3:2:0:0:
161,147,132740,1,2,0:0:0:0:
364,256,132840,6,0,L|460:256,3,82,6|0|0|0,3:1|0:0|0:0|0:0,0:0:0:0:
66,256,133240,2,0,L|58:359,1,82,8|0,3:2|0:0,0:0:0:0:
109,356,133390,1,0,0:0:0:0:
256,384,133440,1,2,0:0:0:0:
202,384,133506,1,2,0:0:0:0:
196,311,133573,1,2,0:0:0:0:
384,192,133640,6,0,L|480:192,2,82,2|0|0,3:2|0:0|0:0,0:0:0:0:
204,175,133940,1,2,0:0:0:0:
302,185,134040,2,0,L|310:288,1,82,8|0,3:2|0:0,0:0:0:0:
128,192,134240,2,0,L|32:192,1,82,2|0,0:0|0:0,0:0:0:0:
384,192,134440,6,0,L|480:192,1,82,2|8,3:2|3:2,0:0:0:0:
300,266,134640,2,0,L|292:369,1,82
128,192,134840,2,0,L|32:192,1,82,8|0,3:2|0:0,0:0:0:0:
237,256,135040,2,0,L|141:256,1,82,0|0,3:2|0:0,0:0:0:0:
346,305,135240,6,0,L|410:305,1,41,8|0,3:2|3:0,0:0:0:0:
227,209,135340,2,0,L|163:209,1,41,0|0,3:0|3:0,0:0:0:0:
368,262,135440,2,0,L|432:262,1,41,0|0,3:0|3:0,0:0:0:0:
249,166,135540,2,0,L|185:166,1,41,0|0,3:0|3:0,0:0:0:0:
378,266,135640,2,0,L|460:266,1,82,0|0,3:0|3:0,0:0:0:0:
52,266,135840,1,8,3:2:0:0:
460,266,136040,5,4,3:1:0:0:
93,266,138240,6,0,L|29:266,2,41,0|0|0,3:0|3:0|3:0,0:0:0:0:
339,266,138440,2,0,P|398:232|339:199,1,164,6|0,3:2|3:0,0:0:0:0:
294,196,138690,1,0,3:0:0:0:
166,171,138740,2,0,L|262:171,1,82,12|0,3:2|3:2,0:0:0:0:
261,133,138890,1,0,3:2:0:0:
241,99,138940,1,0,3:2:0:0:
201,95,138990,1,0,3:2:0:0:
73,287,139040,1,4,3:1:0:0:
439,287,139240,5,4,3:1:0:0:
199,325,139640,1,0,1:0:0:0:
188,152,140040,1,0,1:0:0:0:
177,325,140440,1,0,1:0:0:0:
352,288,140640,2,0,L|416:288,1,41,0|0,3:0|3:0,0:0:0:0:
344,348,140740,2,0,L|280:348,1,41,0|0,3:0|3:0,0:0:0:0:
456,368,140840,6,0,P|474:317|377:258,1,164,6|0,3:2|3:2,0:0:0:0:
145,126,141140,2,0,L|337:126,1,164,10|0,3:2|3:2,0:0:0:0:
56,368,141440,2,0,P|38:317|135:258,1,164,6|0,3:2|3:2,0:0:0:0:
384,192,141740,5,2,3:2:0:0:
128,192,141840,2,0,L|224:192,1,82,8|0,3:2|3:2,0:0:0:0:
448,192,142040,1,6,3:2:0:0:
256,288,142140,1,0,3:2:0:0:
64,192,142240,2,0,P|22:159|68:128,1,123,10|0,3:2|0:0,0:0:0:0:
256,96,142440,6,0,L|160:96,1,82,4|8,0:1|0:2,0:0:0:0:
371,275,142640,1,0,0:0:0:0:
412,275,142690,1,0,0:0:0:0:
453,275,142740,1,8,0:2:0:0:
256,192,142840,2,0,L|352:192,1,82,0|8,0:0|0:2,0:0:0:0:
141,292,143040,2,0,L|45:292,1,82,0|8,0:0|0:2,0:0:0:0:
256,256,143240,5,0,0:0:0:0:
259,296,143290,1,0,0:0:0:0:
262,337,143340,1,8,0:2:0:0:
65,177,143440,2,0,L|161:177,1,82,0|8,0:0|0:2,0:0:0:0:
338,96,143640,2,0,L|256:96,1,82,0|8,0:0|0:2,0:0:0:0:
43,32,143840,2,0,L|125:32,1,82,0|8,0:0|0:2,0:0:0:0:
371,221,144040,6,0,L|379:324,1,82,0|8,0:0|0:2,0:0:0:0:
197,203,144240,1,0,0:0:0:0:
238,203,144290,1,0,0:0:0:0:
279,203,144340,1,8,0:2:0:0:
98,316,144440,2,0,L|16:316,1,82,0|8,0:0|0:2,0:0:0:0:
213,289,144640,2,0,L|221:392,1,82,0|8,0:0|0:2,0:0:0:0:
416,320,144840,6,0,L|480:320,2,41,0|0|8,0:0|0:0|0:2,0:0:0:0:
219,208,145040,2,0,L|315:208,1,82,0|8,0:0|0:2,0:0:0:0:
104,111,145240,2,0,L|200:111,1,82,0|8,0:0|0:2,0:0:0:0:
408,111,145440,2,0,L|312:111,1,82,0|8,0:0|0:2,0:0:0:0:
32,320,145640,6,0,L|128:320,1,82,6|8,0:2|0:2,0:0:0:0:
212,257,145840,1,0,0:0:0:0:
171,257,145890,1,0,0:0:0:0:
130,257,145940,1,8,0:2:0:0:
319,150,146040,2,0,L|327:253,1,82,0|8,0:0|0:2,0:0:0:0:
212,257,146240,2,0,L|204:360,1,82,0|8,0:0|0:2,0:0:0:0:
448,352,146440,6,0,L|512:352,2,41,2|0|8,0:2|0:0|0:2,0:0:0:0:
350,321,146640,2,0,L|446:321,2,82,0|8|0,0:0|0:2|0:0,0:0:0:0:
162,321,146940,1,12,0:2:0:0:
384,288,147040,1,0,0:0:0:0:
408,246,147090,1,0,0:0:0:0:
389,203,147140,1,0,0:0:0:0:
343,193,147190,1,0,0:0:0:0:
96,192,147240,5,6,0:1:0:0:
298,124,147340,2,0,L|216:124,1,82
416,192,147540,1,6,0:2:0:0:
214,124,147640,2,0,L|296:124,1,82
64,320,147840,5,10,0:2:0:0:
253,247,147940,2,0,L|259:328,1,82
448,320,148140,2,0,L|401:319,1,41,6|0,0:2|0:0,0:0:0:0:
251,177,148240,2,0,L|210:177,1,41
261,177,148340,2,0,L|301:177,1,41
64,320,148440,1,10,0:2:0:0:
40,278,148490,1,0,0:0:0:0:
59,235,148540,1,0,0:0:0:0:
105,225,148590,1,0,0:0:0:0:
318,96,148640,2,0,L|195:96,1,123,10|0,0:2|0:0,0:0:0:0:
414,215,148840,6,0,L|496:215,1,82,4|2,3:1|0:0,0:0:0:0:
301,276,149040,2,0,L|295:357,1,82,10|2,3:2|0:0,0:0:0:0:
98,215,149240,2,0,L|16:215,1,82,0|2,3:2|3:2,0:0:0:0:
213,140,149440,1,10,3:2:0:0:
115,140,149540,1,2,0:0:0:0:
346,146,149640,6,0,P|405:112|346:79,1,164,2|8,3:2|3:2,0:0:0:0:
256,64,149940,1,0,3:2:0:0:
448,32,150040,2,0,L|352:32,1,82,2|2,3:2|3:2,0:0:0:0:
146,32,150240,2,0,L|64:32,1,82,10|2,3:2|0:0,0:0:0:0:
256,256,150440,6,0,L|64:256,1,164,2|8,3:2|3:2,0:0:0:0:
182,182,150740,1,0,0:0:0:0:
16,83,150840,2,0,L|144:83,2,123,2|2|2,0:0|0:0|0:0,0:0:0:0:
256,256,151240,6,0,P|315:222|256:189,1,164,2|8,3:2|3:2,0:0:0:0:
166,174,151540,1,0,0:0:0:0:
391,62,151640,1,2,0:0:0:0:
256,96,151790,1,2,0:0:0:0:
410,165,151940,1,2,0:0:0:0:
213,335,152040,6,0,L|117:335,1,82,2|2,3:2|0:0,0:0:0:0:
229,245,152240,2,0,L|325:245,1,82,10|2,3:2|0:0,0:0:0:0:
106,245,152440,2,0,L|100:326,1,82,2|2,3:2|3:2,0:0:0:0:
199,357,152640,2,0,L|103:357,1,82,10|0,3:2|0:0,0:0:0:0:
313,357,152840,6,0,P|372:323|313:290,1,164,2|8,3:2|3:2,0:0:0:0:
198,289,153140,1,2,3:2:0:0:
406,188,153240,1,2,3:2:0:0:
496,183,153340,1,0,3:2:0:0:
398,177,153440,1,8,3:2:0:0:
488,172,153540,1,8,3:2:0:0:
192,160,153640,6,0,L|96:160,1,82,14|2,3:2|3:2,0:0:0:0:
320,160,153840,2,0,L|416:160,1,82,14|2,3:2|3:2,0:0:0:0:
166,352,154040,1,14,3:2:0:0:
256,288,154140,2,0,L|192:288,1,41,2|0,3:2|3:2,0:0:0:0:
62,125,154240,2,0,L|144:125,1,82,14|2,3:2|3:2,0:0:0:0:
480,32,154440,5,14,3:2:0:0:
390,27,154540,1,8,3:2:0:0:
166,165,154640,1,8,3:2:0:0:
256,160,154740,1,8,3:2:0:0:
453,331,154840,1,2,3:2:0:0:
363,326,154940,1,0,3:2:0:0:
461,331,155040,1,0,3:2:0:0:
371,326,155140,1,0,3:2:0:0:
100,348,155240,6,0,L|196:348,2,82,6|0|8,3:2|0:0|3:2,0:0:0:0:
305,331,155540,2,0,L|305:235,1,82,2|0,0:0|3:2,0:0:0:0:
207,222,155740,1,0,3:2:0:0:
412,348,155840,6,0,L|316:348,2,82,10|0|0,3:2|0:0|3:2,0:0:0:0:
207,331,156140,2,0,L|207:235,1,82,2|8,0:0|3:2,0:0:0:0:
305,222,156340,1,0,0:0:0:0:
76,190,156440,1,2,3:2:0:0:
256,192,156540,1,2,3:2:0:0:
166,191,156640,1,10,3:2:0:0:
256,192,156740,1,2,0:0:0:0:
436,190,156840,6,0,L|352:192,2,82,2|0|8,3:2|0:0|3:2,0:0:0:0:
207,222,157140,1,2,0:0:0:0:
305,249,157240,2,0,L|305:331,1,82,0|0,3:2|3:2,0:0:0:0:
76,190,157440,6,0,L|160:192,2,82,10|0|0,3:2|0:0|3:2,0:0:0:0:
305,222,157740,1,2,0:0:0:0:
207,249,157840,2,0,L|207:331,1,82,8|0,3:2|3:0,0:0:0:0:
440,102,158040,2,0,L|352:101,1,82,6|2,3:2|3:2,0:0:0:0:
153,101,158240,1,10,3:2:0:0:
358,101,158340,1,2,3:2:0:0:
153,101,158440,6,0,L|53:100,1,82,6|0,3:2|0:0,0:0:0:0:
256,96,158640,1,8,3:2:0:0:
71,100,158740,2,0,L|153:101,2,82,2|0|0,0:0|3:2|3:2,0:0:0:0:
358,101,159040,6,0,L|459:100,1,82,10|0,3:2|0:0,0:0:0:0:
256,96,159240,1,0,3:2:0:0:
440,100,159340,2,0,L|358:101,2,82,2|8|0,0:0|3:2|0:0,0:0:0:0:
128,128,159640,1,2,3:2:0:0:
297,64,159740,1,2,3:2:0:0:
215,64,159840,1,10,3:2:0:0:
384,128,159940,1,10,3:2:0:0:
192,288,160040,5,10,3:2:0:0:
32,192,160140,2,0,L|128:192,1,82,0|0,3:2|3:2,0:0:0:0:
320,288,160340,1,6,3:2:0:0:
480,192,160440,2,0,L|384:192,1,82,0|0,3:2|3:2,0:0:0:0:
160,320,160640,5,14,3:2:0:0:
352,320,160740,1,0,3:2:0:0:
311,320,160790,1,0,3:2:0:0:
270,320,160840,1,0,3:2:0:0:
62,211,160940,1,6,3:2:0:0:
160,238,161040,2,0,L|160:320,1,82,0|0,3:2|3:2,0:0:0:0:
420,172,161240,1,2,3:2:0:0:
256,64,161340,1,10,3:2:0:0:
92,172,161440,1,10,3:2:0:0:
256,64,161540,1,10,3:2:0:0:
420,172,161640,6,0,L|325:172,2,82,6|0|8,3:2|0:0|3:2,0:0:0:0:
174,291,161940,1,2,0:0:0:0:
256,291,162040,1,0,3:2:0:0:
338,291,162140,1,0,3:2:0:0:
92,172,162240,6,0,L|187:172,2,82,10|0|4,3:2|0:0|3:2,0:0:0:0:
338,291,162540,1,2,0:0:0:0:
256,291,162640,1,8,3:2:0:0:
174,291,162740,1,0,3:2:0:0:
338,291,162840,2,0,L|421:291,1,82,2|2,0:0|3:2,0:0:0:0:
256,291,163040,1,10,3:2:0:0:
420,291,163140,1,2,0:0:0:0:
158,182,163240,5,6,3:2:0:0:
256,209,163340,2,0,L|256:291,1,82,0|8,0:0|3:2,0:0:0:0:
60,291,163540,2,0,L|60:209,1,82,2|0,0:2|3:2,0:0:0:0:
158,182,163740,1,0,3:2:0:0:
354,182,163840,5,10,3:2:0:0:
256,209,163940,2,0,L|256:291,1,82,0|4,0:0|3:2,0:0:0:0:
452,291,164140,2,0,L|452:209,1,82,2|8,0:2|3:2,0:0:0:0:
354,182,164340,1,0,0:0:0:0:
158,182,164440,2,0,L|58:182,1,82,2|2,3:2|0:2,0:0:0:0:
256,128,164640,1,10,3:2:0:0:
436,182,164740,1,10,3:2:0:0:
256,320,164840,6,0,L|160:320,1,82,6|0,3:2|0:0,0:0:0:0:
363,231,165040,2,0,L|369:312,1,82,8|0,3:2|0:0,0:0:0:0:
150,115,165240,2,0,L|86:115,2,54.6666666666667,10|0|0,3:2|0:0|0:0,0:0:0:0:
320,64,165440,2,0,L|384:64,1,54.6666666666667,10|0,3:2|0:0,0:0:0:0:
209,25,165573,1,0,0:0:0:0:
44,17,165640,5,6,3:2:0:0:
98,17,165706,1,0,0:0:0:0:
153,17,165773,1,0,0:0:0:0:
318,155,165840,1,10,3:2:0:0:
264,155,165906,1,0,0:0:0:0:
209,155,165973,1,0,0:0:0:0:
379,154,166040,6,0,L|443:154,2,54.6666666666667,14|0|0,3:2|0:0|0:0,0:0:0:0:
209,103,166240,2,0,L|145:103,1,54.6666666666667,10|0,3:2|0:0,0:0:0:0:
320,64,166373,1,0,0:0:0:0:
485,22,166440,6,0,L|389:22,1,82,6|0,3:2|0:0,0:0:0:0:
215,236,166640,2,0,L|297:236,1,82,0|0,3:2|0:0,0:0:0:0:
109,22,166840,2,0,L|27:22,1,82,8|0,3:2|0:0,0:0:0:0:
215,140,167040,2,0,L|133:140,1,82,12|0,3:2|0:0,0:0:0:0:
416,320,167240,6,0,L|480:320,1,41,10|2,3:2|3:2,0:0:0:0:
297,320,167340,2,0,L|256:320,1,41,2|2,3:2|3:2,0:0:0:0:
384,192,167440,2,0,L|448:192,1,41,0|0,3:2|3:2,0:0:0:0:
297,320,167540,2,0,L|233:320,1,41,0|0,3:2|3:2,0:0:0:0:
96,320,167640,6,0,L|32:320,1,41,10|2,3:2|3:2,0:0:0:0:
215,320,167740,2,0,L|256:320,1,41,2|2,3:2|3:2,0:0:0:0:
128,192,167840,2,0,L|13:192,1,82,0|0,3:2|0:0,0:0:0:0:
256,192,168040,6,0,P|315:158|256:125,1,164,4|8,3:1|3:2,0:0:0:0:
162,123,168340,1,0,0:0:0:0:
357,50,168440,2,0,L|363:131,1,82,0|0,3:2|3:2,0:0:0:0:
256,32,168640,2,0,L|352:32,1,82,8|0,3:2|0:0,0:0:0:0:
133,343,168840,6,0,L|297:343,1,164,0|8,3:2|3:2,0:0:0:0:
496,271,169140,2,0,L|332:271,1,164,0|0,3:2|3:2,0:0:0:0:
98,271,169440,2,0,L|16:271,1,82,10|2,3:2|0:0,0:0:0:0:
256,160,169640,5,2,3:2:0:0:
155,50,169740,1,2,0:0:0:0:
151,90,169790,1,0,0:0:0:0:
148,131,169840,1,8,3:2:0:0:
48,188,169940,1,2,0:0:0:0:
256,256,170040,2,0,L|352:256,1,82,2|2,3:2|3:2,0:0:0:0:
231,301,170240,2,0,L|135:301,1,82,10|2,3:2|0:0,0:0:0:0:
367,269,170440,6,0,L|373:188,1,82,2|2,3:2|0:2,0:0:0:0:
279,338,170640,2,0,L|183:338,1,82,10|2,3:2|3:2,0:0:0:0:
414,64,170840,2,0,L|496:64,1,82,2|2,0:0|3:2,0:0:0:0:
307,188,171040,2,0,L|389:188,1,82,10|2,3:2|0:0,0:0:0:0:
184,257,171240,6,0,L|178:338,1,82,2|2,3:2|0:0,0:0:0:0:
285,275,171440,2,0,L|291:356,1,82,10|0,3:2|0:0,0:0:0:0:
92,152,171640,2,0,L|188:152,1,82,2|2,3:2|3:2,0:0:0:0:
67,276,171840,2,0,L|61:357,1,82,10|0,3:2|0:0,0:0:0:0:
256,160,172040,5,2,3:2:0:0:
174,160,172140,1,0,0:0:0:0:
92,160,172240,1,10,3:2:0:0:
297,88,172340,1,2,3:2:0:0:
190,176,172440,2,0,L|184:257,1,82,0|2,0:0|3:2,0:0:0:0:
391,249,172640,2,0,L|397:330,1,82,10|2,3:2|0:0,0:0:0:0:
148,346,172840,6,0,L|84:346,2,54.6666666666667,2|0|0,3:2|0:0|0:0,0:0:0:0:
320,192,173040,2,0,L|384:192,2,54.6666666666667,10|0|0,3:2|0:0|0:0,0:0:0:0:
192,192,173240,2,0,L|128:192,2,54.6666666666667,2|0|0,3:2|0:0|0:0,0:0:0:0:
364,346,173440,2,0,L|428:346,2,54.6666666666667,10|0|0,3:2|0:0|0:0,0:0:0:0:
202,118,173640,5,2,3:2:0:0:
256,118,173706,1,0,0:0:0:0:
311,118,173773,1,0,0:0:0:0:
160,256,173840,2,0,L|96:256,1,54.6666666666667,10|0,3:2|0:0,0:0:0:0:
256,192,173973,1,0,0:0:0:0:
406,256,174040,2,0,L|352:256,1,54.6666666666667,2|0,0:0|0:0,0:0:0:0:
202,253,174173,1,0,0:0:0:0:
51,248,174240,1,10,3:2:0:0:
105,248,174306,1,0,0:0:0:0:
160,248,174373,1,0,0:0:0:0:
366,248,174440,6,0,P|425:214|366:181,1,164,4|10,3:1|3:2,0:0:0:0:
160,96,174740,2,0,L|256:96,2,82,2|0|2,0:0|3:2|3:2,0:0:0:0:
352,96,175040,6,0,L|160:97,1,164,10|2,3:2|3:2,0:0:0:0:
393,141,175340,2,0,L|297:141,2,82,2|8|2,0:0|3:2|3:2,0:0:0:0:
187,324,175640,1,2,0:0:0:0:
97,312,175740,1,2,3:2:0:0:
179,324,175840,1,10,3:2:0:0:
89,312,175940,1,2,0:0:0:0:
335,237,176040,6,0,L|341:156,1,54.6666666666667,2|0,3:2|0:0,0:0:0:0:
271,156,176173,1,0,0:0:0:0:
466,140,176240,2,0,L|472:59,1,54.6666666666667,10|0,3:2|0:0,0:0:0:0:
402,59,176373,1,0,0:0:0:0:
206,50,176440,1,2,3:2:0:0:
43,53,176506,2,0,L|139:53,1,54.6666666666667
293,142,176640,2,0,L|389:142,1,54.6666666666667,10|0,3:2|0:0,0:0:0:0:
183,46,176773,1,0,0:0:0:0:
347,142,176840,6,0,L|443:142,2,54.6666666666667,2|0|0,3:2|0:0|0:0,0:0:0:0:
165,142,177040,2,0,L|69:142,2,54.6666666666667,10|0|0,3:2|0:0|0:0,0:0:0:0:
239,117,177240,1,2,0:0:0:0:
184,117,177306,1,0,0:0:0:0:
129,117,177373,1,0,0:0:0:0:
321,168,177440,2,0,L|417:168,2,54.6666666666667,10|0|0,3:2|0:0|0:0,0:0:0:0:
128,319,177640,6,0,L|32:319,2,82,2|2|10,3:2|0:0|3:2,0:0:0:0:
333,331,177940,2,0,L|141:331,1,164,2|2,0:0|3:2,0:0:0:0:
276,160,178240,2,0,L|282:241,1,82,10|2,3:2|0:0,0:0:0:0:
466,319,178440,6,0,L|384:319,2,82,2|2|10,3:2|0:0|3:2,0:0:0:0:
256,320,178740,1,2,3:2:0:0:
421,188,178840,2,0,L|325:188,1,82,2|2,0:0|3:2,0:0:0:0:
91,188,179040,2,0,L|173:188,1,82,10|2,3:2|0:0,0:0:0:0:
338,112,179240,6,0,L|174:112,1,164,2|8,3:2|3:2,0:0:0:0:
256,192,179540,1,0,0:0:0:0:
149,232,179640,2,0,L|143:313,1,82,0|0,3:2|3:2,0:0:0:0:
363,232,179840,2,0,L|369:313,1,82,12|0,3:2|0:0,0:0:0:0:
149,232,180040,6,0,P|90:198|149:165,1,164,0|14,3:2|3:2,0:0:0:0:
243,163,180340,1,2,3:2:0:0:
448,84,180440,1,2,0:0:0:0:
353,82,180540,1,2,3:2:0:0:
107,33,180640,1,14,3:2:0:0:
287,23,180740,1,2,0:0:0:0:
41,176,180840,6,0,L|238:166,1,164,6|8,3:1|3:2,0:0:0:0:
122,109,181140,1,0,0:0:0:0:
318,172,181240,2,0,L|324:253,1,82,0|0,3:2|3:2,0:0:0:0:
217,154,181440,2,0,L|313:154,1,82,8|0,3:2|0:0,0:0:0:0:
496,84,181640,6,0,L|297:82,1,164,2|8,3:2|3:2,0:0:0:0:
125,234,181940,2,0,L|324:232,1,164,2|0,3:2|3:2,0:0:0:0:
84,112,182240,2,0,L|191:112,1,82,10|0,3:2|0:0,0:0:0:0:
371,329,182440,6,0,P|430:295|371:262,1,164,2|8,3:2|3:2,0:0:0:0:
277,260,182740,1,0,0:0:0:0:
84,266,182840,1,0,3:2:0:0:
183,241,182940,1,0,3:2:0:0:
84,266,183040,2,0,L|78:347,1,82,8|0,3:2|0:0,0:0:0:0:
256,128,183240,5,2,3:2:0:0:
158,95,183340,1,2,0:0:0:0:
354,95,183440,1,10,3:2:0:0:
158,95,183540,1,2,3:2:0:0:
354,95,183640,1,2,0:0:0:0:
256,128,183740,1,2,3:2:0:0:
158,95,183840,1,10,3:2:0:0:
256,128,183940,1,2,0:0:0:0:
51,365,184040,6,0,L|45:284,2,54.6666666666667,2|0|0,3:2|0:0|0:0,0:0:0:0:
192,192,184240,2,0,L|128:192,2,54.6666666666667,10|0|0,3:2|0:0|0:0,0:0:0:0:
320,192,184440,2,0,L|384:192,2,54.6666666666667,2|0|0,3:2|0:0|0:0,0:0:0:0:
461,365,184640,2,0,L|467:284,2,54.6666666666667,10|0|0,3:2|0:0|0:0,0:0:0:0:
256,288,184840,6,0,L|192:288,2,54.6666666666667,2|0|0,3:2|0:0|0:0,0:0:0:0:
102,257,185040,2,0,L|96:176,2,54.6666666666667,10|0|0,3:2|0:0|0:0,0:0:0:0:
256,288,185240,2,0,L|320:288,2,54.6666666666667,2|0|0,0:0|0:0|0:0,0:0:0:0:
410,257,185440,2,0,L|416:176,2,54.6666666666667,10|0|0,3:2|0:0|0:0,0:0:0:0:
256,192,185640,6,0,L|448:192,1,164,2|10,3:2|3:2,0:0:0:0:
322,120,185940,1,2,0:0:0:0:
404,90,186040,1,2,3:2:0:0:
190,120,186140,2,0,L|88:120,1,82,2|8,3:2|3:2,0:0:0:0:
338,38,186340,6,0,L|174:38,1,164,2|2,0:0|0:0,0:0:0:0:
395,292,186640,2,0,L|401:373,1,82,10|2,3:2|3:2,0:0:0:0:
207,154,186840,1,2,0:0:0:0:
305,154,186940,1,2,3:2:0:0:
140,333,187040,1,10,3:2:0:0:
371,333,187140,1,2,0:0:0:0:
140,333,187240,6,0,L|71:333,2,54.6666666666667,6|0|0,3:2|0:0|0:0,0:0:0:0:
303,331,187440,1,10,3:2:0:0:
140,333,187506,2,0,L|60:333,1,54.6666666666667
372,333,187640,6,0,L|441:333,2,54.6666666666667,2|0|0,3:2|0:0|0:0,0:0:0:0:
209,331,187840,1,10,3:2:0:0:
372,333,187906,2,0,L|452:333,1,54.6666666666667
140,333,188040,6,0,L|71:333,2,54.6666666666667,2|0|0,3:2|0:0|0:0,0:0:0:0:
303,331,188240,1,10,3:2:0:0:
140,333,188306,2,0,L|60:333,1,54.6666666666667
372,333,188440,6,0,L|441:333,2,54.6666666666667,2|0|0,0:0|0:0|0:0,0:0:0:0:
209,331,188640,1,10,3:2:0:0:
372,333,188706,2,0,L|452:333,1,54.6666666666667
140,333,188840,6,0,L|30:332,1,82,2|2,3:2|0:0,0:0:0:0:
256,192,189040,2,0,L|146:191,1,82,10|2,3:2|0:0,0:0:0:0:
372,51,189240,1,2,3:2:0:0:
471,38,189340,1,2,3:2:0:0:
273,64,189440,1,10,3:2:0:0:
471,38,189540,1,2,0:0:0:0:
256,288,189640,6,0,L|192:288,2,41,2|0|0,3:2|0:0|0:0,0:0:0:0:
354,279,189840,1,8,3:2:0:0:
256,288,189940,1,2,3:2:0:0:
46,187,190040,2,0,L|142:187,1,82,2|2,0:0|3:2,0:0:0:0:
338,288,190240,2,0,L|242:288,1,82,10|2,3:2|0:0,0:0:0:0:
461,114,190440,6,0,L|269:114,1,164,2|8,3:2|3:2,0:0:0:0:
395,220,190740,2,0,L|459:220,1,41,2|2,0:0|0:0,0:0:0:0:
256,288,190840,2,0,L|250:369,1,82,2|0,3:2|3:2,0:0:0:0:
357,270,191040,2,0,L|261:270,1,82,8|0,3:2|0:0,0:0:0:0:
64,192,191240,5,2,3:2:0:0:
162,157,191340,1,2,0:0:0:0:
260,192,191440,1,10,3:2:0:0:
162,157,191540,1,2,3:2:0:0:
350,157,191640,2,0,L|356:238,1,82,2|2,0:0|3:2,0:0:0:0:
162,157,191840,2,0,L|156:238,1,82,10|2,3:2|0:0,0:0:0:0:
340,348,192040,5,2,3:2:0:0:
430,336,192140,1,2,0:0:0:0:
332,342,192240,1,10,3:2:0:0:
422,330,192340,1,2,0:0:0:0:
172,348,192440,1,2,3:2:0:0:
82,336,192540,1,2,3:2:0:0:
279,330,192640,1,14,3:2:0:0:
90,330,192740,1,2,3:2:0:0:
338,123,192840,6,0,L|174:123,1,164,6|0,3:1|3:2,0:0:0:0:
391,259,193140,1,10,3:2:0:0:
192,192,193240,2,0,L|128:192,1,41,0|0,3:2|3:2,0:0:0:0:
320,192,193340,2,0,L|384:192,1,41,0|0,3:2|3:2,0:0:0:0:
121,259,193440,2,0,P|79:226|125:195,1,123,14|0,3:2|0:0,0:0:0:0:
320,288,193640,5,6,3:2:0:0:
480,192,193740,2,0,L|384:192,1,82,2|2,0:0|0:0,0:0:0:0:
192,288,193940,1,6,3:2:0:0:
32,192,194040,2,0,L|128:192,1,82,2|2,0:0|0:0,0:0:0:0:
320,288,194240,6,0,P|405:224|320:161,1,246,6|0,3:1|0:0,0:0:0:0:
128,128,194640,1,8,3:2:0:0:
384,128,194740,1,8,3:2:0:0:
192,161,194840,2,0,L|85:161,1,82,6|0,3:2|3:2,0:0:0:0:
402,161,195040,1,10,3:2:0:0:
361,161,195090,1,0,0:0:0:0:
320,161,195140,1,8,3:2:0:0:
90,326,195240,5,6,3:2:0:0:
297,97,195340,2,0,L|215:97,1,82,2|2,0:0|0:0,0:0:0:0:
422,326,195540,1,6,3:2:0:0:
215,97,195640,2,0,L|297:97,1,82,2|2,0:0|0:0,0:0:0:0:
90,326,195840,2,0,L|84:245,1,82,6|8,3:1|3:2,0:0:0:0:
297,97,196040,5,0,3:2:0:0:
215,97,196140,1,0,0:0:0:0:
422,326,196240,1,8,3:2:0:0:
446,284,196290,1,8,3:2:0:0:
427,241,196340,1,8,3:2:0:0:
381,231,196390,1,0,3:2:0:0:
215,97,196440,2,0,L|151:97,1,41,2|0,3:2|3:2,0:0:0:0:
219,177,196540,2,0,L|283:177,1,41,0|0,3:2|3:2,0:0:0:0:
111,332,196640,2,0,L|15:332,1,82,2|0,3:2|0:0,0:0:0:0:
256,256,196840,6,0,L|448:256,1,164,6|0,3:2|3:2,0:0:0:0:
174,201,197140,1,14,3:2:0:0:
270,137,197240,2,0,L|206:137,1,41,0|0,3:2|3:2,0:0:0:0:
106,45,197340,2,0,L|42:45,1,41,0|0,3:2|3:2,0:0:0:0:
229,137,197440,6,0,P|288:103|229:70,1,164,6|0,3:1|3:2,0:0:0:0:
24,80,197740,1,8,3:2:0:0:
122,57,197840,1,0,3:2:0:0:
81,57,197890,1,0,3:2:0:0:
40,57,197940,1,0,3:2:0:0:
231,351,198040,2,0,L|135:351,1,82,6|0,3:2|3:2,0:0:0:0:
340,303,198240,2,0,L|436:303,1,82,10|8,3:2|3:2,0:0:0:0:
114,353,198440,5,14,3:2:0:0:
24,349,198540,1,0,3:2:0:0:
241,201,198640,1,8,3:2:0:0:
151,197,198740,1,2,3:2:0:0:
369,197,198840,1,8,3:2:0:0:
279,201,198940,2,0,L|329:200,1,41,0|0,3:2|3:2,0:0:0:0:
496,349,199040,1,10,3:2:0:0:
406,353,199140,1,0,3:2:0:0:
169,271,199240,6,0,L|105:271,1,41,10|8,3:2|3:2,0:0:0:0:
343,271,199340,2,0,L|407:271,1,41,8|0,3:2|3:2,0:0:0:0:
169,271,199440,1,0,3:2:0:0:
145,229,199490,1,0,3:2:0:0:
164,186,199540,1,0,3:2:0:0:
210,176,199590,1,0,3:2:0:0:
343,271,199640,5,2,3:2:0:0:
367,229,199690,1,0,3:2:0:0:
348,186,199740,1,0,3:2:0:0:
302,176,199790,1,0,3:2:0:0:
158,83,199840,2,0,L|76:83,1,82,10|10,3:2|3:2,0:0:0:0:
357,240,200040,5,6,3:2:0:0:
256,279,200140,2,0,L|248:382,1,82,2|10,0:2|3:2,0:0:0:0:
455,258,200340,2,0,L|448:176,1,82,2|2,0:2|3:2,0:0:0:0:
341,137,200540,1,2,3:2:0:0:
136,86,200640,2,0,L|232:86,1,82,10|0,3:2|0:0,0:0:0:0:
16,230,200840,6,0,L|208:230,1,164,0|8,3:2|3:2,0:0:0:0:
384,96,201140,2,0,L|480:96,2,82,2|0|0,3:2|0:0|3:2,0:0:0:0:
174,160,201440,2,0,L|256:160,1,82,10|0,3:2|0:0,0:0:0:0:
26,191,201640,5,2,3:2:0:0:
133,230,201740,2,0,L|141:333,1,82,2|10,0:2|3:2,0:0:0:0:
338,246,201940,1,2,3:2:0:0:
237,285,202040,2,0,L|229:388,1,82,2|2,3:2|3:2,0:0:0:0:
436,210,202240,2,0,L|444:313,1,82,10|0,3:2|0:0,0:0:0:0:
256,320,202440,5,0,3:2:0:0:
338,320,202540,1,0,3:0:0:0:
420,320,202640,1,8,3:2:0:0:
215,180,202740,2,0,L|207:283,1,82,2|0,3:2|0:0,0:0:0:0:
102,309,202940,1,0,3:2:0:0:
328,309,203040,2,0,L|424:309,1,82,10|0,3:2|3:0,0:0:0:0:
174,148,203240,6,0,L|338:148,1,164,6|10,3:2|3:2,0:0:0:0:
102,309,203540,2,0,L|184:309,2,82,2|0|2,0:0|3:2|3:2,0:0:0:0:
338,148,203840,2,0,P|397:114|338:81,1,164,10|0,3:2|3:2,0:0:0:0:
256,96,204140,5,0,3:0:0:0:
51,189,204240,2,0,L|133:189,1,82,8|0,3:2|3:2,0:0:0:0:
354,188,204440,1,6,3:2:0:0:
158,188,204540,1,0,3:0:0:0:
354,188,204640,1,10,3:2:0:0:
256,192,204740,1,0,3:0:0:0:
482,138,204840,6,0,L|490:241,2,82,6|0|0,3:1|0:0|0:0,0:0:0:0:
375,230,205140,2,0,L|383:333,2,82,2|8|0,0:0|3:2|0:0,0:0:0:0:
268,287,205440,2,0,L|276:390,1,82,2|0,0:0|0:0,0:0:0:0:
69,229,205640,6,0,L|165:229,1,82,2|8,3:2|3:2,0:0:0:0:
44,281,205840,2,0,L|36:384,1,82,0|0,3:2|0:0,0:0:0:0:
256,128,206040,2,0,L|160:128,1,82,10|0,3:2|0:0,0:0:0:0:
281,180,206240,2,0,L|289:283,1,82
41,186,206440,6,0,L|137:186,2,82,6|0|0,3:2|0:0|3:2,0:0:0:0:
215,186,206740,2,0,L|311:186,2,82,2|8|0,0:0|3:2|0:0,0:0:0:0:
389,186,207040,2,0,L|471:186,1,82,2|0,3:2|0:0,0:0:0:0:
256,256,207240,5,2,3:2:0:0:
158,247,207340,1,8,3:2:0:0:
347,265,207440,2,0,L|355:368,1,82,0|0,3:2|0:0,0:0:0:0:
158,346,207640,1,14,3:2:0:0:
256,288,207740,2,0,L|192:288,1,41,0|0,3:2|0:0,0:0:0:0:
59,248,207840,2,0,L|155:248,1,82,8|0,3:2|0:0,0:0:0:0:
352,128,208040,5,2,3:2:0:0:
256,96,208140,2,0,L|320:96,1,41,0|0,3:2|3:2,0:0:0:0:
448,96,208240,1,12,3:2:0:0:
256,96,208340,1,0,3:2:0:0:
160,64,208440,2,0,L|224:64,1,41,0|0,3:2|3:2,0:0:0:0:
352,64,208540,1,12,3:2:0:0:
160,64,208640,1,0,3:2:0:0:
64,32,208740,2,0,L|128:32,1,41,0|0,3:2|0:0,0:0:0:0:
256,32,208840,6,0,L|171:32,1,82,4|0,3:2|0:0,0:0:0:0:
16,307,209040,2,0,L|101:307,1,82,2|0,3:2|0:0,0:0:0:0:
205,241,209240,2,0,L|123:241,1,82,2|0,3:2|0:0,0:0:0:0:
362,289,209440,1,2,3:2:0:0:
150,289,209540,1,8,3:2:0:0:
364,358,209640,6,0,L|428:358,1,41,2|2,3:2|3:2,0:0:0:0:
137,224,209740,2,0,L|96:224,1,41,2|2,3:2|3:2,0:0:0:0:
344,358,209840,2,0,L|408:358,1,41,8|0,3:2|3:2,0:0:0:0:
145,224,209940,2,0,L|104:224,1,41,0|0,3:2|3:2,0:0:0:0:
324,358,210040,6,0,L|388:358,1,41,2|2,3:2|3:2,0:0:0:0:
153,224,210140,2,0,L|112:224,1,41,10|2,3:2|3:2,0:0:0:0:
304,358,210240,2,0,L|368:358,1,41,0|0,3:2|3:2,0:0:0:0:
161,224,210340,2,0,L|120:224,1,41,0|0,3:2|3:2,0:0:0:0:
288,224,210440,6,0,P|385:143|290:61,1,287,6|0,3:2|0:0,0:0:0:0:
133,32,210840,2,0,L|256:32,1,123,2|0,0:0|0:0,0:0:0:0:
379,32,211040,2,0,L|256:32,1,123,2|0,0:0|0:0,0:0:0:0:
51,323,211240,6,0,L|147:323,2,82,6|0|8,0:0|0:0|0:2,0:0:0:0:
256,192,211540,2,0,L|160:192,2,82,2|0|0,0:2|0:0|0:0,0:0:0:0:
51,323,211840,2,0,L|45:242,1,82,10|0,0:2|0:0,0:0:0:0:
256,192,212040,5,2,0:2:0:0:
166,195,212140,1,0,0:0:0:0:
256,192,212240,1,8,0:2:0:0:
346,195,212340,1,0,0:0:0:0:
128,320,212440,2,0,L|224:320,1,82,2|0,0:2|0:0,0:0:0:0:
384,320,212640,2,0,L|288:320,1,82,10|0,0:2|0:0,0:0:0:0:
496,108,212840,5,2,0:2:0:0:
398,118,212940,2,0,L|390:221,1,82,0|8,0:0|0:2,0:0:0:0:
187,229,213140,1,2,0:2:0:0:
285,239,213240,2,0,L|293:342,1,82
496,108,213440,2,0,L|382:108,1,82,10|0,0:2|0:0,0:0:0:0:
166,195,213640,5,2,0:2:0:0:
256,192,213740,1,0,0:0:0:0:
346,195,213840,1,8,0:2:0:0:
166,195,213940,2,0,L|228:192,1,41
371,146,214040,2,0,L|281:143,1,82,2|0,0:2|0:0,0:0:0:0:
97,45,214240,2,0,L|16:43,1,82,10|0,0:2|0:0,0:0:0:0:
262,156,214440,5,2,0:2:0:0:
164,166,214540,2,0,L|156:269,1,82,0|8,0:0|0:2,0:0:0:0:
363,334,214740,2,0,L|267:334,2,82,2|0|0,0:2|0:0|0:0,0:0:0:0:
158,169,215040,2,0,L|150:272,1,82,10|0,0:2|0:0,0:0:0:0:
377,63,215240,6,0,L|473:63,1,82,2|0,0:2|0:0,0:0:0:0:
352,180,215440,2,0,L|344:283,1,82,10|0,0:2|0:0,0:0:0:0:
135,63,215640,2,0,L|39:63,1,82,2|0,0:2|0:0,0:0:0:0:
253,192,215840,2,0,L|261:295,1,82,10|0,0:2|0:0,0:0:0:0:
459,63,216040,6,0,L|377:63,2,82,2|0|8,0:2|0:0|0:2,0:0:0:0:
256,256,216340,2,0,L|338:256,2,82,2|0|0,0:2|0:0|0:0,0:0:0:0:
53,63,216640,2,0,L|135:63,1,82,10|0,0:2|0:0,0:0:0:0:
338,160,216840,6,0,L|346:263,1,82,2|0,0:2|0:0,0:0:0:0:
174,160,217040,1,12,0:2:0:0:
338,160,217140,1,0,0:0:0:0:
160,256,217240,2,0,L|156:302,1,41,2|0,0:2|0:0,0:0:0:0:
352,256,217340,2,0,L|356:302,1,41
157,296,217440,2,0,L|61:296,1,82,12|0,0:2|0:0,0:0:0:0:
321,187,217640,5,6,0:1:0:0:
231,184,217740,1,0,0:0:0:0:
141,187,217840,1,8,0:2:0:0:
371,187,217940,1,2,0:2:0:0:
281,184,218040,1,0,0:0:0:0:
191,187,218140,1,0,0:0:0:0:
421,110,218240,2,0,L|325:110,1,82,10|0,0:2|0:0,0:0:0:0:
93,317,218440,5,2,0:2:0:0:
183,314,218540,1,0,0:0:0:0:
273,317,218640,1,8,0:2:0:0:
183,314,218740,1,0,0:0:0:0:
385,132,218840,2,0,L|393:235,1,82,2|0,0:2|0:0,0:0:0:0:
174,128,219040,2,0,L|256:128,1,82,10|0,0:2|0:0,0:0:0:0:
38,46,219240,6,0,L|120:46,2,82,2|0|8,0:2|0:0|0:2,0:0:0:0:
231,173,219540,1,2,0:2:0:0:
133,183,219640,2,0,L|125:286,1,82
319,329,219840,2,0,L|237:329,1,82,10|0,0:2|0:0,0:0:0:0:
416,224,220040,5,2,0:2:0:0:
215,141,220140,2,0,L|297:141,1,82,0|8,0:0|0:2,0:0:0:0:
96,224,220340,2,0,L|146:224,1,41,2|0,0:2|0:0,0:0:0:0:
297,141,220440,2,0,L|215:141,1,82
416,224,220640,1,10,0:2:0:0:
256,224,220740,1,8,0:2:0:0:
416,224,220840,5,6,0:2:0:0:
318,234,220940,2,0,L|310:337,1,82,0|8,0:0|0:2,0:0:0:0:
96,224,221140,1,2,0:2:0:0:
194,234,221240,1,0,0:0:0:0:
96,224,221340,1,0,0:0:0:0:
352,64,221440,1,10,0:2:0:0:
160,64,221540,1,0,0:0:0:0:
416,224,221640,6,0,L|224:224,1,164,6|0,0:2|0:0,0:0:0:0:
416,224,221940,1,10,0:2:0:0:
160,224,222040,2,0,L|96:224,2,41
352,224,222240,2,0,L|444:224,1,82,8|8,0:2|0:2,0:0:0:0:
142,208,222440,6,0,L|101:208,1,41,10|0,0:2|0:0,0:0:0:0:
332,94,222540,2,0,L|396:94,1,41
180,94,222640,2,0,L|116:94,1,41,10|0,0:2|0:0,0:0:0:0:
370,208,222740,2,0,L|411:208,1,41
254,237,222840,6,0,L|190:237,1,41,10|0,0:2|0:0,0:0:0:0:
258,237,222940,2,0,L|322:237,1,41
122,178,223040,1,8,0:2:0:0:
98,136,223090,1,0,0:0:0:0:
117,93,223140,1,0,0:0:0:0:
163,83,223190,1,0,0:0:0:0:
375,143,223240,6,0,L|439:143,1,41,10|10,0:2|0:2,0:0:0:0:
137,143,223340,2,0,L|73:143,1,41
360,101,223440,2,0,L|424:101,1,41,10|10,0:2|0:2,0:0:0:0:
152,101,223540,2,0,L|88:101,1,41
258,237,223640,6,0,L|322:237,1,41,10|0,0:2|0:0,0:0:0:0:
254,237,223740,2,0,L|190:237,1,41
360,101,223840,2,0,L|456:101,1,82,10|8,0:2|0:2,0:0:0:0:
61,86,224040,6,0,P|127:206|61:327,1,287,6|0,3:1|0:0,0:0:0:0:
104,351,224790,1,0,0:0:0:0:
288,352,224840,2,0,P|347:314|288:288,1,164,8|0,0:2|0:0,0:0:0:0:
244,293,225090,1,0,0:0:0:0:
60,327,225140,2,0,L|60:135,1,164
305,111,225440,1,0,0:0:0:0:
207,111,225540,1,8,0:2:0:0:
452,352,225640,5,6,3:1:0:0:
256,192,225740,2,0,L|352:192,1,82,8|0,3:2|3:2,0:0:0:0:
174,192,225940,1,8,3:2:0:0:
384,64,226040,2,0,L|288:64,1,82,0|8,3:2|3:2,0:0:0:0:
97,64,226240,2,0,L|15:64,1,82,0|8,3:2|3:2,0:0:0:0:
256,256,226440,6,0,L|264:359,1,82,0|8,3:2|3:2,0:0:0:0:
80,203,226640,2,0,L|144:203,1,41,2|0,3:2|0:0,0:0:0:0:
283,203,226740,2,0,L|324:203,1,41,10|0,3:2|0:0,0:0:0:0:
160,138,226840,5,2,3:2:0:0:
136,96,226890,1,0,0:0:0:0:
155,53,226940,1,10,3:2:0:0:
201,43,226990,1,0,0:0:0:0:
341,37,227040,2,0,L|405:37,1,41,2|0,3:2|0:0,0:0:0:0:
335,110,227140,2,0,L|271:110,1,41,10|0,3:2|0:0,0:0:0:0:
419,270,227240,6,0,L|501:270,1,82,2|8,3:2|3:2,0:0:0:0:
296,159,227440,2,0,L|378:159,1,82,0|8,3:2|3:2,0:0:0:0:
173,248,227640,1,2,3:2:0:0:
280,267,227740,2,0,L|288:370,1,82,8|0,3:2|3:2,0:0:0:0:
81,341,227940,1,8,3:2:0:0:
286,114,228040,5,2,3:2:0:0:
245,114,228090,1,0,0:0:0:0:
204,114,228140,1,8,3:2:0:0:
163,114,228190,1,0,0:0:0:0:
307,235,228240,1,0,3:2:0:0:
348,235,228290,1,0,3:0:0:0:
389,235,228340,1,8,3:2:0:0:
430,235,228390,1,0,3:0:0:0:
224,320,228440,6,0,L|160:320,1,41,2|0,3:2|3:0,0:0:0:0:
327,184,228540,2,0,L|391:184,1,41,10|0,3:2|0:0,0:0:0:0:
183,320,228640,2,0,L|119:320,1,41,2|0,3:2|0:0,0:0:0:0:
329,320,228740,2,0,L|393:320,1,41,10|0,3:2|0:0,0:0:0:0:
128,192,228840,6,0,L|32:192,2,82,6|8|2,3:2|3:2|3:2,0:0:0:0:
384,192,229140,2,0,L|480:192,2,82,10|0|10,3:2|3:2|3:2,0:0:0:0:
145,262,229440,1,2,3:2:0:0:
253,281,229540,2,0,L|261:384,1,82,10|0,3:2|3:2,0:0:0:0:
367,262,229740,5,10,3:2:0:0:
145,262,229840,2,0,L|97:262,2,41,2|0|8,3:2|3:0|3:2,0:0:0:0:
367,262,230040,2,0,L|277:262,1,82,0|8,3:2|3:2,0:0:0:0:
117,114,230240,2,0,L|181:114,1,41,2|2,3:2|0:0,0:0:0:0:
354,114,230340,2,0,L|395:114,1,41,10|0,3:2|0:0,0:0:0:0:
256,224,230440,6,0,L|215:224,1,41,2|2,3:2|0:0,0:0:0:0:
354,114,230540,2,0,L|395:114,1,41,10|2,3:2|0:0,0:0:0:0:
158,334,230640,2,0,L|117:334,1,41,2|0,3:2|0:0,0:0:0:0:
256,224,230740,2,0,L|297:224,1,41,10|0,3:2|0:0,0:0:0:0:
117,334,230840,5,2,3:2:0:0:
71,324,230890,1,2,0:0:0:0:
52,281,230940,1,10,3:2:0:0:
76,239,230990,1,2,0:0:0:0:
256,128,231040,2,0,L|297:128,1,41,2|0,3:2|0:0,0:0:0:0:
342,67,231140,2,0,L|301:67,1,41,10|0,3:2|0:0,0:0:0:0:
176,292,231240,6,0,L|135:292,1,41,2|2,3:2|3:2,0:0:0:0:
336,292,231340,2,0,L|377:292,1,41,10|2,3:2|3:2,0:0:0:0:
156,347,231440,2,0,L|115:347,1,41,2|0,3:2|3:2,0:0:0:0:
356,347,231540,2,0,L|397:347,1,41,14|2,3:2|3:2,0:0:0:0:
256,192,231640,6,0,L|192:192,1,41,2|0,3:2|3:2,0:0:0:0:
71,101,231740,2,0,L|135:101,1,41,14|0,3:2|3:2,0:0:0:0:
256,192,231840,2,0,L|320:192,1,41,2|0,3:2|3:2,0:0:0:0:
441,101,231940,2,0,L|377:101,1,41,14|0,3:2|3:2,0:0:0:0:
144,101,232040,6,0,L|103:101,1,41,6|2,3:1|0:0,0:0:0:0:
256,192,232140,2,0,L|297:192,1,41,10|0,3:2|0:0,0:0:0:0:
185,101,232240,2,0,L|181:57,1,41,2|0,3:2|0:0,0:0:0:0:
368,101,232340,6,0,L|409:101,1,41,10|2,3:2|0:0,0:0:0:0:
256,192,232440,2,0,L|215:192,1,41,2|0,3:2|0:0,0:0:0:0:
327,101,232540,2,0,L|331:57,1,41,10|0,3:2|0:0,0:0:0:0:
132,101,232640,6,0,L|91:101,1,41,2|2,3:2|0:0,0:0:0:0:
256,192,232740,2,0,L|297:192,1,41,10|0,3:2|0:0,0:0:0:0:
173,101,232840,2,0,L|169:57,1,41,2|0,3:2|0:0,0:0:0:0:
380,101,232940,6,0,L|421:101,1,41,10|2,3:2|0:0,0:0:0:0:
256,192,233040,2,0,L|215:192,1,41,2|0,3:2|3:2,0:0:0:0:
339,101,233140,2,0,L|343:57,1,41,10|0,3:2|0:0,0:0:0:0:
125,101,233240,6,0,L|84:101,1,41,2|2,3:2|0:0,0:0:0:0:
256,192,233340,2,0,L|297:192,1,41,10|0,3:2|0:0,0:0:0:0:
153,101,233440,2,0,L|149:57,1,41,2|0,3:2|0:0,0:0:0:0:
387,101,233540,2,0,L|428:101,1,41,8|0,3:2|0:0,0:0:0:0:
189,311,233640,6,0,L|148:311,1,41,0|0,3:2|0:0,0:0:0:0:
300,222,233740,2,0,L|341:222,1,41,10|0,3:2|0:0,0:0:0:0:
212,222,233840,2,0,L|171:222,1,41,2|0,3:2|0:0,0:0:0:0:
323,311,233940,2,0,L|364:311,1,41,10|0,3:2|0:0,0:0:0:0:
189,311,234040,2,0,L|95:311,1,82,0|10,3:2|3:2,0:0:0:0:
352,96,234240,1,2,3:2:0:0:
160,96,234340,1,10,3:2:0:0:
405,311,234440,6,0,L|323:311,1,82,2|10,3:2|3:2,0:0:0:0:
107,311,234640,2,0,L|63:311,1,41,2|0,3:2|3:2,0:0:0:0:
112,203,234740,2,0,L|156:203,1,41,8|0,3:2|3:2,0:0:0:0:
311,96,234840,2,0,L|352:96,1,41,2|0,3:2|3:2,0:0:0:0:
201,96,234940,2,0,L|160:96,1,41,10|0,3:2|0:0,0:0:0:0:
384,203,235040,2,0,L|466:203,1,82,2|10,3:2|3:2,0:0:0:0:
158,326,235240,5,6,3:2:0:0:
354,326,235340,1,10,3:2:0:0:
256,224,235440,1,2,3:2:0:0:
432,61,235540,2,0,L|368:61,1,41,10|0,3:2|0:0,0:0:0:0:
256,160,235640,2,0,L|352:160,1,82,0|10,3:2|3:2,0:0:0:0:
158,326,235840,2,0,L|62:326,1,82,2|10,3:2|3:2,0:0:0:0:
354,326,236040,5,2,3:2:0:0:
158,326,236140,1,10,3:2:0:0:
256,224,236240,1,2,3:2:0:0:
80,61,236340,2,0,L|144:61,1,41,10|0,3:2|0:0,0:0:0:0:
256,160,236440,2,0,L|160:160,1,82,0|8,3:2|3:2,0:0:0:0:
354,326,236640,1,0,3:2:0:0:
256,288,236740,2,0,L|320:288,1,41,8|0,3:2|3:0,0:0:0:0:
453,206,236840,6,0,L|389:206,1,41,0|0,3:2|3:0,0:0:0:0:
297,128,236940,2,0,L|256:128,1,41,10|2,3:2|3:2,0:0:0:0:
59,206,237040,2,0,L|123:206,1,41,0|0,3:2|3:0,0:0:0:0:
215,128,237140,2,0,L|256:128,1,41,10|2,3:2|3:2,0:0:0:0:
141,206,237240,6,0,L|85:206,1,41,0|0,3:2|3:0,0:0:0:0:
320,192,237340,2,0,L|384:192,1,41,10|2,3:2|3:2,0:0:0:0:
192,192,237440,2,0,L|128:192,1,41,0|0,3:2|3:0,0:0:0:0:
371,206,237540,2,0,L|435:206,1,41,10|2,3:2|3:2,0:0:0:0:
191,325,237640,6,0,L|187:281,1,41,0|0,3:2|3:0,0:0:0:0:
321,325,237740,2,0,L|325:281,1,41,10|2,3:2|3:2,0:0:0:0:
187,284,237840,2,0,L|152:235,1,41,0|0,3:2|3:0,0:0:0:0:
324,284,237940,2,0,L|359:235,1,41,10|2,3:2|3:2,0:0:0:0:
163,250,238040,6,0,L|112:250,1,41,0|0,3:2|3:0,0:0:0:0:
347,250,238140,2,0,L|398:250,1,41,10|2,3:2|3:2,0:0:0:0:
155,250,238240,2,0,L|104:250,1,41,0|0,3:2|3:0,0:0:0:0:
357,250,238340,2,0,L|398:250,1,41,10|2,3:2|3:2,0:0:0:0:
191,325,238440,6,0,L|27:325,1,164,6|0,3:2|3:2,0:0:0:0:
321,325,238740,2,0,L|485:325,1,164,6|0,3:2|3:2,0:0:0:0:
444,276,238990,1,0,3:2:0:0:
256,224,239040,2,0,P|197:190|256:157,1,164,6|0,3:2|3:2,0:0:0:0:
447,64,239340,2,0,L|319:64,1,123,6|0,3:2|0:0,0:0:0:0:
188,64,239540,5,6,3:2:0:0:
379,160,239640,2,0,L|256:160,1,123,0|0,3:2|0:0,0:0:0:0:
133,160,239840,2,0,L|256:160,1,123,6|0,3:2|0:0,0:0:0:0:
133,160,240040,2,0,P|89:132|132:104,1,123,6|0,3:2|0:0,0:0:0:0:
288,64,240240,6,0,L|224:64,1,41,6|0,3:2|0:0,0:0:0:0:
96,288,240340,1,6,3:2:0:0:
178,288,240440,1,2,0:0:0:0:
192,237,240506,1,2,0:0:0:0:
164,192,240573,1,2,0:0:0:0:
111,184,240639,1,2,0:0:0:0:
367,191,240740,5,6,3:2:0:0:
178,288,240840,2,0,L|82:288,1,82,2|0,3:2|0:0,0:0:0:0:
256,192,241040,2,0,L|320:192,1,41,2|0,3:2|0:0,0:0:0:0:
122,178,241140,1,0,3:2:0:0:
98,136,241190,1,0,3:2:0:0:
117,93,241240,1,0,3:2:0:0:
163,83,241290,1,0,3:2:0:0:
338,64,241340,5,6,3:2:0:0:
253,63,241440,2,0,L|189:63,1,41,0|0,3:2|3:2,3:2:0:0:
366,230,241540,1,4,3:2:0:0:
451,229,241640,2,0,L|515:229,1,41,2|0,3:2|3:2,3:2:0:0:
314,283,241740,2,0,L|250:283,1,41,0|0,3:2|3:2,0:0:0:0:
325,230,241840,2,0,L|366:230,1,41,0|0,3:2|3:2,0:0:0:0:
187,188,241940,6,0,L|183:144,1,41,2|0,3:2|3:2,0:0:0:0:
238,122,242040,2,0,L|242:78,1,41,0|0,3:2|3:2,0:0:0:0:
59,136,242140,1,2,3:2:0:0:
35,94,242190,1,0,0:0:0:0:
54,51,242240,1,0,3:2:0:0:
100,41,242290,1,0,3:2:0:0:
267,26,242340,2,0,L|75:26,1,164,10|6,3:2|3:1,0:0:0:0:
357,159,242640,5,8,3:2:0:0:
155,159,242740,2,0,L|147:262,1,82,0|8,3:2|3:2,0:0:0:0:
352,128,242940,2,0,L|256:128,1,82,0|8,3:2|3:2,0:0:0:0:
377,288,243140,2,0,L|473:288,1,82,0|8,3:2|3:2,0:0:0:0:
234,287,243340,6,0,L|226:390,1,82,0|8,3:2|3:2,0:0:0:0:
334,251,243540,1,0,3:2:0:0:
293,251,243590,1,0,3:0:0:0:
252,251,243640,1,8,3:2:0:0:
73,159,243740,2,0,L|169:159,1,82,0|8,3:2|3:2,0:0:0:0:
357,159,243940,2,0,L|439:159,1,82,0|8,3:2|3:2,0:0:0:0:
220,174,244140,6,0,L|212:277,1,82,0|8,3:2|3:2,0:0:0:0:
103,254,244340,2,0,L|95:357,1,82,0|8,3:2|3:2,0:0:0:0:
300,334,244540,2,0,L|204:334,1,82,0|8,3:2|3:2,0:0:0:0:
415,219,244740,2,0,L|511:219,1,82,0|8,3:2|3:2,0:0:0:0:
256,128,244940,6,0,L|352:128,2,82,0|8|0,3:2|3:2|3:2,0:0:0:0:
64,128,245240,2,0,L|114:128,1,41,8|0,3:2|3:0,0:0:0:0:
256,64,245340,2,0,L|320:64,1,41,0|0,3:2|3:0,0:0:0:0:
146,128,245440,2,0,L|82:128,1,41,8|0,3:2|3:0,0:0:0:0:
256,256,245540,2,0,L|352:256,1,82,0|8,3:2|3:2,0:0:0:0:
81,355,245740,6,0,L|163:355,1,82,6|8,3:2|3:2,0:0:0:0:
338,160,245940,2,0,L|256:160,1,82,0|8,3:2|3:2,0:0:0:0:
432,278,246140,2,0,L|440:381,1,82,0|8,3:2|3:2,0:0:0:0:
332,277,246340,2,0,L|414:277,1,82,0|8,3:2|3:2,0:0:0:0:
209,310,246540,6,0,L|127:310,1,82,0|8,3:2|3:2,0:0:0:0:
234,270,246740,1,0,3:2:0:0:
193,270,246790,1,0,3:0:0:0:
152,270,246840,1,8,3:2:0:0:
357,70,246940,2,0,L|365:173,1,82,0|8,3:2|3:2,0:0:0:0:
158,119,247140,1,0,3:2:0:0:
199,119,247190,1,0,0:0:0:0:
240,119,247240,1,10,3:2:0:0:
281,119,247290,1,0,0:0:0:0:
96,192,247340,6,0,L|32:192,1,41,0|0,3:2|3:2,0:0:0:0:
256,224,247440,2,0,L|260:180,1,41,10|2,3:2|3:2,0:0:0:0:
92,232,247540,2,0,L|96:188,1,41,0|0,3:2|3:2,0:0:0:0:
235,245,247640,2,0,L|299:245,1,41,10|2,3:2|3:2,0:0:0:0:
416,192,247740,6,0,L|480:192,1,41,0|0,3:2|3:2,0:0:0:0:
256,224,247840,2,0,L|252:180,1,41,10|2,3:2|3:2,0:0:0:0:
420,232,247940,2,0,L|416:188,1,41,0|0,3:2|3:2,0:0:0:0:
277,245,248040,2,0,L|213:245,1,41,10|2,3:2|3:2,0:0:0:0:
123,159,248140,6,0,L|120:200,1,41,0|0,3:2|3:2,0:0:0:0:
320,96,248240,2,0,L|384:96,1,41,10|2,3:2|3:2,0:0:0:0:
192,96,248340,2,0,L|188:136,1,41,0|0,3:2|3:2,0:0:0:0:
389,159,248440,2,0,L|453:159,1,41,10|2,3:2|3:2,0:0:0:0:
187,234,248540,5,0,3:2:0:0:
141,244,248590,1,0,3:2:0:0:
122,287,248640,1,8,3:2:0:0:
146,329,248690,1,0,3:2:0:0:
366,329,248740,1,0,3:2:0:0:
390,287,248790,1,0,3:2:0:0:
371,244,248840,1,8,3:2:0:0:
325,234,248890,1,0,3:2:0:0:
130,121,248940,6,0,L|194:121,1,45.1000013763428,14|0,0:1|0:0,0:0:0:0:
337,121,249040,2,0,L|382:121,1,45.1000013763428,10|0,0:1|0:0,0:0:0:0:
175,121,249140,2,0,L|129:121,1,45.1000013763428,10|0,0:1|0:0,0:0:0:0:
337,121,249240,2,0,L|382:121,1,45.1000013763428,10|0,0:1|0:0,0:0:0:0:
124,121,249340,6,0,L|118:182,1,45.1000013763428,10|0,0:1|0:0,0:0:0:0:
256,244,249440,2,0,L|301:244,1,45.1000013763428,10|0,0:1|0:0,0:0:0:0:
437,321,249540,2,0,L|431:382,1,45.1000013763428,10|0,0:1|0:0,0:0:0:0:
270,254,249640,2,0,L|224:254,1,45.1000013763428,10|0,0:1|0:0,0:0:0:0:
62,133,249740,6,0,L|16:133,1,45.1000013763428,10|0,0:1|0:0,0:0:0:0:
256,96,249840,2,0,L|302:96,1,45.1000013763428,10|0,0:1|0:0,0:0:0:0:
247,124,249940,2,0,L|201:124,1,45.1000013763428,10|0,0:1|0:0,0:0:0:0:
338,253,250040,2,0,L|384:253,1,45.1000013763428,10|0,0:1|0:0,0:0:0:0:
174,253,250140,6,0,L|128:253,1,45.1000013763428,10|0,0:1|0:0,0:0:0:0:
338,253,250240,2,0,L|384:253,1,45.1000013763428,10|0,0:1|0:0,0:0:0:0:
174,253,250340,2,0,L|168:314,1,45.1000013763428,10|0,0:1|0:0,0:0:0:0:
338,253,250440,2,0,L|344:314,1,45.1000013763428,10|0,0:1|0:0,0:0:0:0:
128,253,250540,6,0,L|82:253,1,45.1000013763428,10|0,0:1|0:0,0:0:0:0:
210,192,250640,2,0,L|256:192,1,45.1000013763428,10|0,0:1|0:0,0:0:0:0:
384,253,250740,2,0,L|430:253,1,45.1000013763428,10|0,0:1|0:0,0:0:0:0:
302,192,250840,2,0,L|256:192,1,45.1000013763428,10|0,0:1|0:0,0:0:0:0:
448,96,250940,6,0,L|512:96,1,45.1000013763428,10|0,0:1|0:0,0:0:0:0:
301,64,251040,2,0,L|256:64,1,45.1000013763428,10|0,0:1|0:0,0:0:0:0:
64,96,251140,2,0,L|0:96,1,45.1000013763428,10|0,0:1|0:0,0:0:0:0:
210,64,251240,2,0,L|256:64,1,45.1000013763428,10|0,0:1|0:0,0:0:0:0:
136,365,251340,6,0,L|90:365,1,45.1000013763428,10|0,0:1|0:0,0:0:0:0:
376,365,251440,2,0,L|422:365,1,45.1000013763428,2|0,0:1|0:0,0:0:0:0:
162,304,251540,2,0,L|116:304,1,45.1000013763428,10|0,0:1|0:0,0:0:0:0:
350,304,251640,2,0,L|396:304,1,45.1000013763428,2|0,0:1|0:0,0:0:0:0:
188,243,251740,6,0,L|142:243,1,45.1000013763428,10|0,0:1|0:0,0:0:0:0:
324,243,251840,2,0,L|370:243,1,45.1000013763428,2|0,0:1|0:0,0:0:0:0:
162,304,251940,2,0,L|66:304,1,90.2000027526856,10|10,0:1|0:1,0:0:0:0:
338,202,252140,6,0,L|434:202,1,82,6|8,0:2|0:2,0:0:0:0:
256,202,252340,1,0,0:0:0:0:
420,202,252440,1,8,0:2:0:0:
256,202,252540,2,0,L|352:202,1,82,0|8,0:0|0:2,0:0:0:0:
174,202,252740,1,0,0:0:0:0:
338,202,252840,1,8,0:2:0:0:
174,202,252940,6,0,L|78:202,1,82,2|8,0:2|0:2,0:0:0:0:
256,202,253140,2,0,L|208:202,1,41
92,202,253240,1,8,0:2:0:0:
256,202,253340,2,0,L|160:202,1,82,0|8,0:0|0:2,0:0:0:0:
338,202,253540,1,0,0:0:0:0:
174,202,253640,2,0,L|231:202,1,41,8|0,0:2|0:0,0:0:0:0:
411,120,253740,6,0,L|417:181,1,41,2|0,0:2|0:0,0:0:0:0:
279,243,253840,2,0,L|234:243,1,41,10|0,0:2|0:0,0:0:0:0:
98,320,253940,2,0,L|104:381,1,41,2|0,0:2|0:0,0:0:0:0:
352,352,254040,2,0,L|416:352,1,41,10|0,0:2|0:0,0:0:0:0:
101,120,254140,6,0,L|95:181,1,41,2|0,0:2|0:0,0:0:0:0:
233,243,254240,2,0,L|278:243,1,41,10|0,0:2|0:0,0:0:0:0:
414,320,254340,2,0,L|408:381,1,41,2|0,0:2|0:0,0:0:0:0:
160,352,254440,2,0,L|96:352,1,41,10|0,0:2|0:0,0:0:0:0:
414,320,254540,6,0,L|478:320,1,41,2|0,0:2|0:0,0:0:0:0:
297,192,254640,2,0,L|256:192,1,41,8|0,0:2|0:0,0:0:0:0:
436,367,254740,2,0,L|500:367,1,41
250,76,254840,6,0,L|209:76,1,41,12|0,0:2|0:0,0:0:0:0:
262,76,254940,2,0,L|303:76,1,41
98,320,255040,2,0,L|34:320,1,41,12|0,0:2|0:0,0:0:0:0:
370,128,255140,2,0,L|434:128,1,41,8|8,0:2|0:2,0:0:0:0:
142,128,255240,2,0,L|78:128,1,41,8|8,0:2|0:2,0:0:0:0:
321,325,255340,6,0,L|485:325,1,164,6|0,3:2|3:2,0:0:0:0:
191,325,255640,2,0,L|27:325,1,164,6|0,3:2|3:2,0:0:0:0:
68,276,255890,1,0,3:2:0:0:
256,224,255940,2,0,P|315:190|256:157,1,164,6|0,3:2|3:2,0:0:0:0:
65,64,256240,2,0,L|193:64,1,123,6|0,3:2|0:0,0:0:0:0:
324,64,256440,5,6,3:2:0:0:
133,160,256540,2,0,L|256:160,1,123,0|0,3:2|0:0,0:0:0:0:
379,160,256740,2,0,L|256:160,1,123,6|0,3:2|0:0,0:0:0:0:
379,160,256940,2,0,P|423:132|380:104,1,123,6|0,3:2|0:0,0:0:0:0:
224,64,257140,2,0,L|288:64,1,41,6|0,3:2|0:0,0:0:0:0:
416,288,257240,5,6,3:2:0:0:
334,288,257340,1,2,0:0:0:0:
320,237,257406,1,2,0:0:0:0:
348,192,257473,1,2,0:0:0:0:
401,184,257539,1,2,0:0:0:0:
145,191,257640,5,6,3:2:0:0:
309,287,257740,2,0,P|353:259|310:231,1,123,0|0,3:0|0:0,0:0:0:0:
125,288,257940,2,0,L|317:288,1,164,6|0,3:2|3:0,0:0:0:0:
247,239,258190,1,0,3:0:0:0:
63,191,258240,6,0,L|159:191,2,82,6|0|0,3:2|3:0|3:0,0:0:0:0:
256,288,258540,2,0,L|448:288,1,164,6|8,3:2|0:2,0:0:0:0:
160,128,258840,1,8,0:2:0:0:
352,128,258940,1,8,0:2:0:0:
92,288,259040,2,0,L|192:288,2,82,2|2|2,0:2|0:2|0:2,0:0:0:0:
352,288,259340,6,0,L|416:288,1,54.6666666666667,2|2,0:2|0:2,0:0:0:0:
260,192,259473,2,0,L|252:137,1,54.6666666666667,2|0,0:2|0:0,0:0:0:0:
105,288,259606,2,0,L|160:288,1,54.6666666666667,2|2,0:2|0:2,0:0:0:0:
311,64,259740,1,2,0:2:0:0:
256,64,259806,1,2,0:2:0:0:
201,64,259873,1,0,0:0:0:0:
406,288,259940,6,0,P|465:254|406:221,1,164,6|2,0:2|0:2,0:0:0:0:
203,137,260240,1,0,0:0:0:0:
309,137,260340,1,0,0:0:0:0:
106,288,260440,2,0,P|47:254|106:221,1,164,2|10,0:2|0:2,0:0:0:0:
369,130,260740,1,0,0:0:0:0:
143,130,260840,1,0,0:0:0:0:
406,288,260940,6,0,P|465:254|406:221,1,164,2|2,0:2|0:2,0:0:0:0:
256,192,261206,1,2,0:2:0:0:
105,220,261273,1,2,0:2:0:0:
288,64,261340,2,0,L|416:64,1,123,6|0,0:2|0:0,0:0:0:0:
224,64,261540,2,0,L|96:64,1,123,10|0,0:2|0:0,0:0:0:0:
319,336,261740,6,0,L|383:336,1,61.5,2|10,0:2|0:2,0:0:0:0:
360,295,261840,1,2,0:2:0:0:
131,336,261965,1,2,0:2:0:0:
380,336,262090,1,2,0:2:0:0:
131,336,262240,2,0,P|81:299|246:10,1,492,6|8,3:2|3:2,0:0:0:0:
292,45,262906,2,0,L|222:45,1,54.6666666666667,8|8,3:2|3:2,0:0:0:0:
433,177,263040,6,0,L|455:311,1,109.333333333333,14|2,3:2|0:2,0:0:0:0:
177,343,263306,1,10,3:2:0:0:
401,362,263440,1,2,0:2:0:0:
165,300,263573,2,0,L|57:311,1,109.333333333333,2|2,3:2|3:2,0:0:0:0:
335,343,263840,5,10,3:2:0:0:
111,362,263973,1,2,3:2:0:0:
401,362,264106,1,2,3:2:0:0:
133,159,264240,2,0,L|379:159,1,246,6|0,3:2|0:0,0:0:0:0:
111,362,264640,6,0,P|36:277|110:192,1,246.000009384156,6|0,3:1|1:0,0:0:0:0:
402,192,265840,1,0,1:0:0:0:
133,171,266240,6,0,L|389:171,2,246.000009384156,2|0|2,0:0|1:0|0:0,0:0:0:0:
401,362,267440,2,0,L|137:362,1,246.000009384156,4|0,3:1|0:0,0:0:0:0:
52,192,268240,6,0,L|436:192,1,360.800011010743,4|0,3:2|0:0,0:0:0:0:
460,192,269040,6,0,L|76:192,1,360.800011010743,4|0,3:2|0:0,0:0:0:0:
52,192,269840,6,0,B|410:190|410:190|494:28,1,541.200016516114,4|0,3:2|0:0,0:0:0:0:
160,287,270240,6,0,P|73:227|158:165,1,246,4|0,3:2|0:0,0:0:0:0:
379,61,270640,6,0,L|133:61,1,246,4|0,3:2|0:0,0:0:0:0:
352,287,271040,6,0,L|418:287,2,54.6666666666667,2|0|0,3:2|3:0|3:0,0:0:0:0:
289,288,271240,2,0,L|385:288,1,82,8|2,3:2|0:2,0:0:0:0:
164,261,271440,2,0,L|156:364,1,82,4|0,3:2|3:0,0:0:0:0:
338,160,271640,2,0,L|256:160,1,82,10|0,3:2|0:0,0:0:0:0:
38,170,271840,5,2,3:2:0:0:
128,167,271940,1,0,0:0:0:0:
218,170,272040,1,8,3:2:0:0:
128,167,272140,1,0,3:2:0:0:
320,96,272240,2,0,L|416:96,1,82,2|0,0:0|3:2,0:0:0:0:
192,96,272440,2,0,L|96:96,1,82,10|0,3:2|0:0,0:0:0:0:
338,288,272640,6,0,L|256:288,2,82,2|0|8,3:2|0:0|3:2,0:0:0:0:
133,189,272940,1,2,0:2:0:0:
231,199,273040,2,0,L|239:302,1,82,0|0,3:2|3:2,0:0:0:0:
32,352,273240,2,0,L|128:352,1,82,10|0,3:2|0:0,0:0:0:0:
346,285,273440,5,2,3:2:0:0:
256,288,273540,1,0,0:0:0:0:
354,285,273640,1,8,3:2:0:0:
264,288,273740,1,0,3:2:0:0:
471,102,273840,2,0,L|375:102,1,82,2|0,0:2|3:2,0:0:0:0:
123,102,274040,2,0,L|41:102,1,82,10|0,3:2|0:0,0:0:0:0:
256,128,274240,5,2,3:2:0:0:
354,138,274340,2,0,L|362:241,1,82,0|8,0:0|3:2,0:0:0:0:
99,297,274540,2,0,L|181:297,2,82,2|0|0,0:0|3:2|3:2,0:0:0:0:
331,297,274840,2,0,L|413:297,1,82,10|0,3:2|0:0,0:0:0:0:
174,128,275040,6,0,L|256:128,1,82,2|0,3:2|0:0,0:0:0:0:
51,240,275240,2,0,L|43:343,1,82,10|0,3:2|3:2,0:0:0:0:
256,128,275440,2,0,L|174:128,1,82,2|0,0:0|3:2,0:0:0:0:
360,57,275640,1,14,3:2:0:0:
152,57,275740,1,8,3:2:0:0:
380,266,275840,6,0,L|462:266,1,82,14|0,3:2|3:2,0:0:0:0:
256,192,276040,1,8,3:2:0:0:
462,266,276140,1,2,3:2:0:0:
132,266,276240,6,0,L|50:266,1,82,8|0,3:2|3:2,0:0:0:0:
256,192,276440,1,10,3:2:0:0:
50,266,276540,1,0,3:2:0:0:
407,266,276640,6,0,L|462:266,2,54.6666666666667,10|8|8,3:2|3:2|3:2,0:0:0:0:
256,256,276840,2,0,L|310:256,2,54.6666666666667,0|0|0,3:2|3:2|3:2,0:0:0:0:
104,266,277040,2,0,L|50:266,2,54.6666666666667,10|0|0,3:2|3:2|3:2,0:0:0:0:
352,320,277240,1,4,3:2:0:0:
160,320,277340,1,0,3:0:0:0:
448,96,277440,5,6,0:0:0:0:
191,72,277540,2,0,L|95:72,1,86.0999973724366,0|8,0:0|0:2,0:0:0:0:
407,72,277740,1,2,0:2:0:0:
151,96,277840,2,0,L|55:96,1,86.0999973724366
361,96,278040,2,0,L|457:96,1,86.0999973724366,10|0,0:2|0:0,0:0:0:0:
192,256,278240,6,0,L|128:256,1,43.0499986862183,2|0,0:2|0:0,0:0:0:0:
353,325,278340,2,0,L|417:325,1,43.0499986862183
220,353,278440,2,0,L|216:309,1,43.0499986862183,8|0,0:2|0:0,0:0:0:0:
353,189,278540,2,0,L|417:189,1,43.0499986862183
205,228,278640,6,0,L|209:180,1,43.0499986862183,2|0,0:2|0:0,0:0:0:0:
262,162,278740,2,0,L|266:114,1,43.0499986862183
74,152,278840,2,0,L|161:152,1,86.0999973724366,10|0,0:2|0:0,0:0:0:0:
384,192,279040,5,2,0:2:0:0:
169,331,279140,2,0,L|161:236,1,86.0999973724366,0|8,0:0|0:2,0:0:0:0:
349,249,279340,1,2,0:2:0:0:
160,128,279440,2,0,L|64:128,1,86.0999973724366
352,128,279640,2,0,L|448:128,1,86.0999973724366,10|0,0:2|0:0,0:0:0:0:
114,335,279840,6,0,L|50:335,1,43.0499986862183,2|0,0:2|0:0,0:0:0:0:
212,192,279940,2,0,L|256:192,1,43.0499986862183
398,335,280040,2,0,L|462:335,1,43.0499986862183,8|0,0:2|0:0,0:0:0:0:
299,192,280140,2,0,L|256:192,1,43.0499986862183
398,335,280240,6,0,L|462:335,1,43.0499986862183,2|0,0:2|0:0,0:0:0:0:
300,192,280340,2,0,L|256:192,1,43.0499986862183
114,335,280440,2,0,L|50:335,1,43.0499986862183,10|0,0:2|0:0,0:0:0:0:
213,192,280540,2,0,L|256:192,1,43.0499986862183
114,335,280640,6,0,L|19:335,1,86.0999973724366,2|0,0:2|0:0,0:0:0:0:
256,192,280840,1,8,0:2:0:0:
76,228,280940,2,0,L|171:228,2,86.0999973724366,2|0|0,0:2|0:0|0:0,0:0:0:0:
342,192,281240,2,0,L|247:192,1,86.0999973724366,10|0,0:2|0:0,0:0:0:0:
437,380,281440,6,0,L|444:294,1,86.0999973724366,2|0,0:2|0:0,0:0:0:0:
211,99,281640,2,0,L|297:99,1,86.0999973724366,10|0,0:2|0:0,0:0:0:0:
75,380,281840,2,0,L|67:290,1,86.0999973724366,2|0,0:2|0:0,0:0:0:0:
352,173,282040,1,10,0:2:0:0:
160,173,282140,1,0,0:0:0:0:
437,380,282240,6,0,L|326:376,1,86.0999973724366,2|0,0:2|0:0,0:0:0:0:
128,320,282440,1,8,0:2:0:0:
384,320,282540,2,0,L|273:316,1,86.0999973724366,2|0,0:2|0:2,0:0:0:0:
75,380,282740,1,0,0:0:0:0:
350,376,282840,2,0,L|436:379,1,86.0999973724366,10|0,0:2|0:0,0:0:0:0:
162,376,283040,6,0,L|75:379,1,86.0999973724366,2|0,0:2|0:0,0:0:0:0:
352,128,283240,1,12,0:2:0:0:
160,128,283340,1,0,0:0:0:0:
352,128,283440,2,0,L|401:128,1,43.0499986862183,2|0,0:2|0:0,0:0:0:0:
160,128,283540,2,0,L|111:128,1,43.0499986862183
350,376,283640,6,0,L|436:379,1,86.0999973724366,12|0,0:2|0:0,0:0:0:0:
82,348,283840,5,6,0:1:0:0:
362,258,283940,2,0,L|369:173,1,86.0999973724366,0|8,0:0|0:2,0:0:0:0:
150,258,284140,1,2,0:2:0:0:
430,348,284240,2,0,L|439:262,1,86.0999973724366
82,348,284440,2,0,L|75:262,1,86.0999973724366,10|0,0:2|0:0,0:0:0:0:
256,128,284640,5,2,0:2:0:0:
161,103,284740,1,0,0:0:0:0:
351,103,284840,1,8,0:2:0:0:
161,103,284940,1,0,0:0:0:0:
437,103,285040,2,0,L|341:103,1,86.0999973724366,2|0,0:2|0:0,0:0:0:0:
75,103,285240,2,0,L|171:103,1,86.0999973724366,10|0,0:2|0:0,0:0:0:0:
384,320,285440,5,2,0:2:0:0:
436,303,285490,1,0,0:0:0:0:
447,249,285540,1,0,0:0:0:0:
406,213,285590,1,0,0:0:0:0:
256,192,285640,2,0,L|192:192,1,43.0499986862183,8|0,0:2|0:0,0:0:0:0:
384,320,285740,5,2,0:2:0:0:
424,283,285790,1,0,0:0:0:0:
413,230,285840,1,0,0:0:0:0:
361,213,285890,1,0,0:0:0:0:
212,192,285940,2,0,L|148:192,1,43.0499986862183
342,70,286040,6,0,L|406:70,1,43.0499986862183,10|0,0:2|0:0,0:0:0:0:
256,96,286140,2,0,L|192:96,1,43.0499986862183
393,173,286240,6,0,L|489:173,1,86.0999973724366,2|0,0:2|0:0,0:0:0:0:
190,317,286440,2,0,L|186:365,1,43.0499986862183,8|0,0:2|0:0,0:0:0:0:
322,317,286540,2,0,L|326:372,1,43.0499986862183,2|0,0:2|0:0,0:0:0:0:
119,173,286640,2,0,L|48:173,2,43.0499986862183
352,64,286840,1,10,0:2:0:0:
160,64,286940,1,8,0:2:0:0:
416,352,287040,6,0,L|480:352,1,43.0499986862183,6|0,0:2|0:0,0:0:0:0:
408,261,287140,2,0,L|344:261,1,43.0499986862183
192,256,287240,2,0,L|148:256,1,43.0499986862183,8|0,0:2|0:0,0:0:0:0:
320,352,287340,6,0,L|363:352,1,43.0499986862183,2|0,0:2|0:0,0:0:0:0:
312,261,287440,2,0,L|248:261,1,43.0499986862183
96,256,287540,2,0,L|52:256,1,43.0499986862183
212,114,287640,6,0,L|256:114,1,43.0499986862183,10|0,0:2|0:0,0:0:0:0:
73,324,287740,2,0,L|29:324,1,43.0499986862183
309,360,287840,5,6,0:2:0:0:
349,323,287890,1,0,0:0:0:0:
338,270,287940,1,0,0:0:0:0:
286,253,287990,1,0,0:0:0:0:
144,174,288040,2,0,L|208:174,1,43.0499986862183
324,174,288140,2,0,L|368:174,1,43.0499986862183,10|0,0:2|0:0,0:0:0:0:
134,236,288240,6,0,L|90:236,2,43.0499986862183
368,174,288440,2,0,L|304:174,1,43.0499986862183,8|0,0:2|0:0,0:0:0:0:
187,174,288540,2,0,L|144:174,1,43.0499986862183,8|0,0:2|0:0,0:0:0:0:
448,320,288640,6,0,L|512:320,1,43.0499986862183,10|0,0:2|0:0,0:0:0:0:
256,192,288740,2,0,L|192:192,1,43.0499986862183,2|0,0:2|0:0,0:0:0:0:
452,345,288840,2,0,L|516:345,1,43.0499986862183,14|0,0:2|0:0,0:0:0:0:
252,167,288940,2,0,L|188:167,1,43.0499986862183,2|0,0:2|0:0,0:0:0:0:
404,156,289040,5,14,0:2:0:0:
421,108,289090,1,0,0:0:0:0:
397,64,289140,1,0,0:0:0:0:
348,53,289190,1,0,0:0:0:0:
108,156,289240,1,12,0:2:0:0:
91,108,289290,1,0,0:0:0:0:
115,64,289340,1,0,0:0:0:0:
164,53,289390,1,0,0:0:0:0:
402,359,289440,6,0,L|466:359,1,43.0499986862183,8|0,0:2|0:0,0:0:0:0:
110,359,289540,2,0,L|46:359,1,43.0499986862183
382,313,289640,2,0,L|446:313,1,43.0499986862183
130,313,289740,2,0,L|66:313,1,43.0499986862183
362,267,289840,6,0,L|426:267,1,43.0499986862183,2|0,0:2|0:0,0:0:0:0:
150,267,289940,2,0,L|86:267,1,43.0499986862183
395,313,290040,2,0,P|440:283|393:256,1,129.149996058655,8|0,0:2|0:0,0:0:0:0:
92,162,290240,6,0,L|444:162,1,328,2|0,3:2|0:0,0:0:0:0:
174,61,290940,2,0,L|238:61,1,41
465,58,291040,1,2,3:2:0:0:
256,128,291173,1,4,3:2:0:0:
47,58,291306,1,8,3:2:0:0:
434,341,291440,1,2,3:2:0:0:
78,341,291573,1,8,3:2:0:0:
434,341,291706,1,8,3:2:0:0:
78,341,291840,6,0,L|70:238,1,82,2|0,3:2|0:0,0:0:0:0:
297,209,292040,2,0,L|215:209,1,82,14|0,3:2|0:0,0:0:0:0:
434,341,292240,1,2,3:2:0:0:
133,209,292340,2,0,L|215:209,1,82,2|0,3:2|0:0,0:0:0:0:
379,209,292540,2,0,L|178:208,1,164,10|2,3:2|3:2,0:0:0:0:
489,368,292840,6,0,L|489:16,1,328,6|0,3:2|1:0,0:0:0:0:
70,321,293440,2,0,L|16:321,2,54.6666666666667,2|2|2,0:0|0:0|0:0,0:0:0:0:
194,192,293640,6,0,L|173:102,2,54.6666666666667,2|2|2,1:2|0:0|0:0,0:0:0:0:
318,192,293840,2,0,L|339:102,2,54.6666666666667,2|2|2,0:0|0:0|0:0,0:0:0:0:
441,321,294040,2,0,L|496:321,2,54.6666666666667,2|2|2,1:2|0:0|0:0,0:0:0:0:
166,327,294240,1,0,3:0:0:0:
95,311,294306,1,0,3:0:0:0:
166,327,294373,1,0,3:0:0:0:
346,327,294440,5,12,3:2:0:0:
77,285,294540,2,0,P|179:184|75:84,1,319.799990240479,12|0,3:2|3:2,0:0:0:0:
16,107,295906,1,0,3:2:0:0:
75,84,295973,1,0,3:2:0:0:
326,78,296040,5,6,3:2:0:0:
434,130,296140,2,0,L|443:217,6,61.5000023460389,2|2|2|2|2|2|2,0:0|0:0|0:0|0:0|0:0|0:0|0:0,0:0:0:0:
326,248,296840,6,0,L|317:335,3,61.5000023460389,2|2|2|2,0:0|0:0|0:0|0:0,0:0:0:0:
212,290,297240,2,0,L|203:377,3,61.5000023460389,2|2|2|2,0:0|0:0|0:0|0:0,0:0:0:0:
98,307,297640,6,0,L|89:394,1,61.5000023460389,2|2,0:0|0:0,0:0:0:0:
199,348,297840,2,0,L|208:261,5,61.5000023460389,2|2|2|2|2|2,0:0|0:0|0:0|0:0|0:0|0:0,0:0:0:0:
32,128,298440,2,0,L|224:128,2,184.500007038117,2|2|2,0:0|0:0|0:0,0:0:0:0:
348,62,299240,6,0,L|163:62,1,184.500007038117,2|2,0:0|0:0,0:0:0:0:
273,255,299640,2,0,L|282:168,3,61.5000023460389,2|2|2|2,0:0|0:0|0:0|0:0,0:0:0:0:
381,172,300040,2,0,L|390:85,3,61.5000023460389,2|2|2|2,0:0|0:0|0:0|0:0,0:0:0:0:
489,110,300440,2,0,L|496:49,3,61.5000023460389,2|2|2|2,0:0|0:0|0:0|0:0,0:0:0:0:
85,192,300840,5,6,0:2:0:0:
345,192,300940,1,0,0:0:0:0:
386,192,300990,1,0,0:0:0:0:
427,192,301040,1,0,0:0:0:0:
101,192,301140,5,6,0:2:0:0:
329,192,301240,1,0,0:0:0:0:
370,192,301290,1,0,0:0:0:0:
411,192,301340,1,0,0:0:0:0:
117,192,301440,5,6,0:2:0:0:
313,192,301540,1,0,0:0:0:0:
354,192,301590,1,0,0:0:0:0:
395,192,301640,1,0,0:0:0:0:
133,192,301740,5,6,0:2:0:0:
297,192,301840,1,0,0:0:0:0:
338,192,301890,1,0,0:0:0:0:
379,192,301940,1,0,0:0:0:0:
174,192,302040,6,0,L|110:192,1,41,6|0,0:2|0:0,0:0:0:0:
338,192,302140,2,0,L|402:192,1,41
158,192,302240,2,0,P|113:166|158:140,1,123,2|0,0:1|0:0,0:0:0:0:
328,223,302440,6,0,L|392:223,1,41,6|0,0:0|0:0,0:0:0:0:
184,223,302540,2,0,L|120:223,1,41,2|0,0:0|0:0,0:0:0:0:
353,288,302640,2,0,L|417:288,1,41,2|0,0:0|0:0,0:0:0:0:
159,288,302740,2,0,L|95:288,1,41,2|0,0:0|0:0,0:0:0:0:
334,223,302840,6,0,L|398:223,1,41,2|0,0:0|0:0,0:0:0:0:
178,223,302940,2,0,L|114:223,1,41,2|0,0:0|0:0,0:0:0:0:
359,288,303040,2,0,L|423:288,1,41,2|0,0:0|0:0,0:0:0:0:
153,288,303140,2,0,L|89:288,1,41,2|0,0:0|0:0,0:0:0:0:
340,223,303240,6,0,L|404:223,1,41,2|0,0:0|0:0,0:0:0:0:
172,223,303340,2,0,L|108:223,1,41,2|0,0:0|0:0,0:0:0:0:
365,288,303440,2,0,L|429:288,1,41,2|0,0:0|0:0,0:0:0:0:
147,288,303540,2,0,L|83:288,1,41,2|0,0:0|0:0,0:0:0:0:
346,223,303640,6,0,L|387:223,1,41,2|0,0:0|0:0,0:0:0:0:
166,223,303740,2,0,L|125:223,1,41,2|0,0:0|0:0,0:0:0:0:
371,288,303840,2,0,L|412:288,1,41,2|0,0:0|0:0,0:0:0:0:
141,288,303940,2,0,L|100:288,1,41,2|0,0:0|0:0,0:0:0:0:
352,223,304040,6,0,L|393:223,1,41,2|0,0:0|0:0,0:0:0:0:
160,223,304140,2,0,L|119:223,1,41,2|0,0:0|0:0,0:0:0:0:
377,288,304240,2,0,L|418:288,1,41,2|0,0:0|0:0,0:0:0:0:
135,288,304340,2,0,L|94:288,1,41,2|0,0:0|0:0,0:0:0:0:
358,223,304440,6,0,L|399:223,1,41,2|0,0:0|0:0,0:0:0:0:
154,223,304540,2,0,L|113:223,1,41,2|0,0:0|0:0,0:0:0:0:
383,288,304640,2,0,L|424:288,1,41,2|0,0:0|0:0,0:0:0:0:
129,288,304740,2,0,L|88:288,1,41,2|0,0:0|0:0,0:0:0:0:
364,223,304840,6,0,L|405:223,1,41,8|8,0:2|0:2,0:2:0:0:
223,307,304940,1,8,0:2:0:0:
171,290,304990,1,0,0:0:0:0:
160,236,305040,1,0,0:0:0:0:
201,200,305090,1,0,0:0:0:0:
372,223,305140,6,0,L|413:223,1,41,2|0,0:2|0:2,0:2:0:0:
201,200,305240,1,0,0:0:0:0:
160,236,305290,1,0,0:0:0:0:
171,290,305340,1,0,0:0:0:0:
223,307,305390,1,0,0:0:0:0:
405,224,305440,2,0,P|446:190|404:158,1,123,14|0,0:2|0:0,0:0:0:0:
172,223,305640,6,0,L|108:223,1,41,6|0,0:0|0:0,0:0:0:0:
340,223,305740,2,0,L|404:223,1,41,2|0,0:0|0:0,0:0:0:0:
147,288,305840,2,0,L|83:288,1,41,2|0,0:0|0:0,0:0:0:0:
365,288,305940,2,0,L|429:288,1,41,2|0,0:0|0:0,0:0:0:0:
166,223,306040,6,0,L|125:223,1,41,2|0,0:0|0:0,0:0:0:0:
346,223,306140,2,0,L|387:223,1,41,2|0,0:0|0:0,0:0:0:0:
141,288,306240,2,0,L|100:288,1,41,2|0,0:0|0:0,0:0:0:0:
371,288,306340,2,0,L|412:288,1,41,2|0,0:0|0:0,0:0:0:0:
160,223,306440,6,0,L|119:223,1,41,2|0,0:0|0:0,0:0:0:0:
352,223,306540,2,0,L|393:223,1,41,2|0,0:0|0:0,0:0:0:0:
135,288,306640,2,0,L|94:288,1,41,2|0,0:0|0:0,0:0:0:0:
377,288,306740,2,0,L|418:288,1,41,2|0,0:0|0:0,0:0:0:0:
154,223,306840,6,0,L|113:223,1,41,2|0,0:0|0:0,0:0:0:0:
358,223,306940,2,0,L|399:223,1,41,2|0,0:0|0:0,0:0:0:0:
129,288,307040,2,0,L|88:288,1,41,2|0,0:0|0:0,0:0:0:0:
383,288,307140,2,0,L|424:288,1,41,2|0,0:0|0:0,0:0:0:0:
148,223,307240,6,0,L|107:223,1,41,10|0,0:2|0:0,0:0:0:0:
302,74,307340,2,0,L|366:74,1,41
210,74,307440,2,0,L|146:74,1,41
364,223,307540,6,0,L|405:223,1,41,10|0,0:2|0:0,0:0:0:0:
210,74,307640,2,0,L|146:74,1,41
302,74,307740,2,0,L|366:74,1,41
142,223,307840,6,0,L|101:223,1,41,10|0,0:2|0:0,0:0:0:0:
302,74,307940,2,0,L|343:74,1,41
210,74,308040,2,0,L|169:74,1,41
370,223,308140,6,0,L|411:223,1,41,10|0,0:2|0:0,0:0:0:0:
210,74,308240,2,0,L|169:74,1,41
302,74,308340,2,0,L|343:74,1,41
149,128,308440,6,0,L|85:128,1,41,10|0,0:2|0:2,0:0:0:0:
153,179,308540,2,0,L|217:179,1,41
56,264,308640,2,0,P|14:231|60:200,1,123,6|0,0:1|0:0,0:0:0:0:
256,192,308840,6,0,L|416:192,1,123,6|0,1:2|1:0,0:0:0:0:
174,192,309040,2,0,L|133:192,1,41,0|0,1:0|1:0,0:0:0:0:
379,192,309140,2,0,P|421:159|375:128,1,123,6|0,1:2|1:0,0:0:0:0:
174,128,309340,2,0,L|110:128,1,41,0|0,1:0|1:0,0:0:0:0:
338,128,309440,2,0,L|379:128,1,41,6|0,1:2|1:0,0:0:0:0:
133,21,309540,6,0,P|69:65|224:346,1,491.999984985352,6|2,1:2|0:0,0:0:0:0:
256,192,310240,12,0,312040,0:0:0:0:
