osu file format v14

[General]
AudioFilename: audio.mp3
AudioLeadIn: 0
PreviewTime: 210739
Countdown: 0
SampleSet: Soft
StackLeniency: 0.4
Mode: 0
LetterboxInBreaks: 0
WidescreenStoryboard: 1

[Editor]
Bookmarks: 21650,44050,63250,88850,104850,120039,136039,148839,168039,187239,211239,225639,242539,264639,277439,296039
DistanceSpacing: 1.4
BeatDivisor: 8
GridSize: 8
TimelineZoom: 3.92

[Metadata]
Title:Deadly force - Put an end
TitleUnicode:Deadly force - Put an end
Artist:Noah
ArtistUnicode:Noah
Creator:Keqing
Version:The beginning.
Source:SOUND VOLTEX IV HEAVENLY HAVEN
Tags:kudosu kowari shizuku- shikibe mayu kazato asa so0p metal video game sdvx 4 3 ExistRuth instrumental Revolt from the abyss gravity wars コナステ konasute konaste Ω omega dimension iljaaz
BeatmapID:2933892
BeatmapSetID:1390177

[Difficulty]
HPDrainRate:4
CircleSize:4
OverallDifficulty:9.5
ApproachRate:9.8
SliderMultiplier:1.65
SliderTickRate:1

[Events]
//Background and Video events
0,0,"noah.jpg",0,0
//Break Periods
2,296250,300371
//Storyboard Layer 0 (Background)
//Storyboard Layer 1 (Fail)
//Storyboard Layer 2 (Pass)
//Storyboard Layer 3 (Foreground)
//Storyboard Layer 4 (Overlay)
//Storyboard Sound Samples

[TimingPoints]
850,200,4,2,4,80,1,0
5650,-100,4,2,4,80,0,0
7250,-100,4,2,4,70,0,0
15250,-83.3333333333333,4,2,4,70,0,0
28050,-83.3333333333333,4,2,4,70,0,0
32750,-100,4,2,4,70,0,0
36850,200,6,2,4,70,1,0
36850,-86.9565217391304,3,2,4,70,0,0
39250,200,4,2,4,80,1,0
39250,-80,4,2,4,80,0,0
43650,-333.333333333333,4,2,4,60,0,0
44050,-83.3333333333333,4,2,5,95,0,0
44100,-83.3333333333333,4,2,4,95,0,0
44350,-90.9090909090909,4,2,4,95,0,0
48850,-76.9230769230769,4,2,4,95,0,0
49150,-90.9090909090909,4,2,4,95,0,0
49850,-76.9230769230769,4,2,4,95,0,0
50750,-90.9090909090909,4,2,4,95,0,0
56850,-100,4,2,4,85,0,0
59850,-83.3333333333333,4,2,4,85,0,0
60450,-100,4,2,4,85,0,0
63050,-76.9230769230769,4,2,4,85,0,0
63250,-90.9090909090909,4,2,4,85,0,0
75450,-71.4285714285714,4,2,4,85,0,0
76050,-142.857142857143,4,2,4,65,0,0
88850,-166.666666666667,4,2,4,65,0,0
104050,-103.092783505155,4,2,4,65,0,0
104850,-125,4,2,4,70,0,0
108127,-100,4,2,4,70,0,0
120039,-100,4,2,5,100,0,0
120089,-100,4,2,4,100,0,0
120839,-83.3333333333333,4,2,4,100,0,0
133239,-83.3333333333333,4,2,4,80,0,0
142439,-83.3333333333333,4,2,4,100,0,0
148839,-90.9090909090909,4,2,4,75,0,0
168039,-100,4,2,4,75,0,0
174439,-90.9090909090909,4,2,4,75,0,0
180239,-76.9230769230769,4,2,4,75,0,0
180639,-71.4285714285714,4,2,4,75,0,0
180839,-90.9090909090909,4,2,4,75,0,0
193439,-66.6666666666667,4,2,4,75,0,0
193639,-80,4,2,4,85,0,0
194239,-100,4,2,4,85,0,0
194639,-83.3333333333333,4,2,4,85,0,0
195839,-117.647058823529,4,2,4,85,0,0
196339,-83.3333333333333,4,2,4,85,0,0
200039,-83.3333333333333,4,2,4,75,0,0
210839,-333.333333333333,4,2,4,65,0,0
211239,-83.3333333333333,4,2,4,95,0,0
211539,-90.9090909090909,4,2,4,95,0,0
216039,-76.9230769230769,4,2,4,95,0,0
216339,-90.9090909090909,4,2,4,95,0,0
217039,-76.9230769230769,4,2,4,95,0,0
217939,-90.9090909090909,4,2,4,95,0,0
224039,-200,4,2,4,95,0,0
225050,-100,4,2,4,95,0,0
225639,-71.4285714285714,4,2,4,100,0,0
226439,-90.9090909090909,4,2,4,100,0,0
227039,-83.3333333333333,4,2,4,100,0,0
238450,200,6,2,4,100,1,0
238450,-76.9230769230769,3,2,4,90,0,0
239550,200,6,2,4,90,1,0
239550,-76.9230769230769,3,2,4,90,0,0
240839,-100,3,2,4,90,0,0
242539,-90.9090909090909,4,2,4,100,0,0
242550,200,4,2,4,90,1,0
242550,-90.9090909090909,3,2,4,90,0,0
255350,200,6,2,4,90,1,0
255350,-90.9090909090909,4,2,4,90,0,0
256450,200,6,2,4,90,1,0
256450,-90.9090909090909,4,2,4,90,0,0
258750,200,7,2,4,90,1,0
258750,-90.9090909090909,4,2,4,90,0,0
260150,200,6,2,4,90,1,0
260150,-90.9090909090909,4,2,4,90,0,0
262250,200,4,2,4,90,1,0
262250,-166.666666666667,4,2,4,90,0,0
263039,-125,6,2,4,90,0,0
264650,-100,6,2,4,90,0,0
268239,-100,4,2,4,90,0,0
271039,-90.9090909090909,4,2,4,90,0,0
277239,-133.333333333333,4,2,4,90,0,0
277439,-90.9090909090909,4,2,4,100,0,0
290239,-125,4,2,4,90,0,0
291850,200,5,2,4,90,1,0
291850,-100,4,2,4,90,0,0
292850,200,4,2,4,90,1,0
294539,-166.666666666667,4,2,4,90,0,0
296139,-125,4,2,4,50,0,0
300839,-125,4,2,4,100,0,0
302039,-100,4,2,4,100,0,0
302439,-90.9090909090909,4,2,4,90,0,0
307239,-76.9230769230769,4,2,4,90,0,0
309539,-76.9230769230769,4,2,4,100,0,0

[Colours]
Combo1 : 238,203,81
Combo2 : 236,89,89
Combo3 : 245,182,112

[HitObjects]
463,335,5650,5,12,3:2:0:0:
315,240,5750,1,0,3:2:0:0:
311,253,5800,1,0,3:2:0:0:
307,266,5850,1,0,3:2:0:0:
281,347,5950,5,12,3:2:0:0:
425,256,6050,2,0,L|414:212,2,41.25,0|0|0,3:2|3:2|3:2,0:0:0:0:
355,152,6250,5,12,3:2:0:0:
376,344,6350,1,0,3:2:0:0:
376,344,6400,1,0,3:2:0:0:
376,344,6450,1,0,3:2:0:0:
425,256,6550,5,12,3:2:0:0:
314,273,6650,1,0,3:2:0:0:
314,273,6700,1,0,3:2:0:0:
314,273,6750,1,0,3:2:0:0:
191,296,6850,6,0,L|135:307,2,41.25,8|0|0,3:2|3:2|3:2,0:0:0:0:
302,174,7050,2,0,L|358:185,2,41.25,0|0|0,3:2|3:2|3:2,0:0:0:0:
189,121,7250,6,0,P|176:63|173:28,1,82.5,4|0,3:1|0:0,0:0:0:0:
334,6,7450,2,0,P|328:46|318:86,1,82.5,0|0,3:2|0:0,0:0:0:0:
179,214,7650,2,0,P|116:205|86:196,1,82.5,0|0,3:2|0:0,0:0:0:0:
342,181,7850,2,0,P|405:190|435:199,1,82.5,0|0,3:2|0:0,0:0:0:0:
275,364,8050,5,0,3:2:0:0:
275,364,8250,1,2,3:2:0:0:
227,305,8350,1,2,0:0:0:0:
259,238,8450,1,2,3:2:0:0:
303,177,8550,1,2,0:0:0:0:
292,102,8650,1,2,3:2:0:0:
229,65,8750,1,2,0:0:0:0:
153,90,8850,6,0,B|93:113|93:113|71:147|71:147|0:173,1,165,2|2,3:2|3:2,0:0:0:0:
193,263,9150,2,0,P|168:203|153:181,1,82.5,0|0,0:0|3:2,0:0:0:0:
0,384,9350,1,0,0:0:0:0:
82,343,9450,2,0,P|95:288|98:248,1,82.5,0|0,3:2|0:0,0:0:0:0:
18,77,9650,5,2,3:2:0:0:
158,188,9750,2,0,L|174:135,2,41.25,0|0|0,3:2|3:2|3:2,0:0:0:0:
252,109,9950,5,0,3:2:0:0:
80,233,10050,2,0,L|68:193,2,41.25,0|0|0,3:2|3:2|3:2,0:0:0:0:
126,315,10250,5,0,3:2:0:0:
201,361,10350,1,0,3:2:0:0:
201,361,10400,1,0,3:2:0:0:
201,361,10450,1,0,3:2:0:0:
270,323,10550,1,0,3:2:0:0:
347,348,10650,6,0,P|398:364|439:371,1,82.5,0|0,3:2|0:0,0:0:0:0:
270,157,10850,2,0,P|229:165|190:178,1,82.5,0|0,3:2|0:0,0:0:0:0:
411,268,11050,2,0,P|470:242|502:219,1,82.5,0|0,3:2|0:0,0:0:0:0:
250,260,11250,2,0,P|229:295|214:333,1,82.5,0|0,3:2|0:0,0:0:0:0:
371,188,11450,5,2,3:2:0:0:
402,121,11550,1,2,3:2:0:0:
355,62,11650,1,2,3:2:0:0:
301,0,11750,5,2,3:2:0:0:
241,85,11850,1,2,3:2:0:0:
165,8,11950,1,2,3:2:0:0:
102,67,12050,6,0,L|12:60,1,82.5,2|2,3:2|3:2,0:0:0:0:
15,70,12200,1,0,3:2:0:0:
10,80,12250,1,0,3:2:0:0:
134,154,12350,5,0,3:2:0:0:
248,128,12450,2,0,L|259:185,2,41.25,0|0|0,3:2|3:2|3:2,0:0:0:0:
62,232,12650,6,0,L|41:331,1,82.5,0|0,3:2|3:2,0:0:0:0:
45,313,12800,1,0,3:2:0:0:
45,313,12850,1,0,3:2:0:0:
152,341,12950,6,0,L|173:242,1,82.5,0|0,3:2|3:2,0:0:0:0:
170,261,13100,1,0,3:2:0:0:
170,261,13150,1,0,3:2:0:0:
80,153,13250,6,0,L|32:142,2,41.25,10|0|0,3:2|3:2|3:2,0:0:0:0:
248,128,13450,2,0,L|288:118,2,41.25,2|0|0,3:2|3:2|3:2,0:0:0:0:
155,22,13650,5,0,3:2:0:0:
152,19,14750,1,0,3:2:0:0:
148,25,14800,1,0,3:2:0:0:
145,31,14850,1,12,0:2:0:0:
109,101,14950,1,0,3:2:0:0:
182,134,15050,1,0,3:2:0:0:
218,64,15150,1,0,3:2:0:0:
316,23,15250,6,0,P|377:27|415:157,2,197.99999395752,6|10|2,3:2|0:0|3:2,0:0:0:0:
241,79,15750,1,2,0:0:0:0:
317,176,15850,1,10,0:0:0:0:
224,252,15950,1,2,0:0:0:0:
274,325,16050,6,0,P|321:310|379:329,1,98.9999969787599,2|0,3:2|3:2,0:0:0:0:
407,243,16250,1,8,0:0:0:0:
358,164,16350,1,0,3:2:0:0:
268,168,16450,2,0,P|257:216|212:256,1,98.9999969787599,0|2,3:2|0:0,0:0:0:0:
274,325,16650,1,10,0:0:0:0:
367,321,16750,1,2,0:0:0:0:
407,243,16850,6,0,P|370:210|423:70,1,197.99999395752,0|8,3:2|0:0,0:0:0:0:
122,122,17250,1,0,3:2:0:0:
122,122,17300,1,0,3:2:0:0:
122,122,17350,2,0,P|138:177|106:238,1,98.9999969787599,2|10,3:2|0:0,0:0:0:0:
32,255,17550,1,2,0:0:0:0:
6,116,17650,6,0,L|227:91,1,197.99999395752,2|8,3:2|0:0,0:0:0:0:
359,161,17950,1,0,0:0:0:0:
414,102,18050,2,0,B|422:51|422:51|398:4,1,98.9999969787599,2|2,3:2|3:2,0:0:0:0:
264,171,18250,1,8,0:0:0:0:
413,234,18350,1,8,0:0:0:0:
359,161,18450,5,6,3:2:0:0:
359,161,18550,1,2,0:0:0:0:
374,314,18650,1,10,0:0:0:0:
374,314,18750,1,2,0:0:0:0:
413,234,18850,6,0,L|521:223,1,98.9999969787599,2|2,3:2|0:0,0:0:0:0:
300,350,19050,1,10,0:0:0:0:
232,377,19150,1,2,0:0:0:0:
159,347,19250,6,0,P|100:321|94:177,1,197.99999395752,2|8,3:2|0:0,0:0:0:0:
316,126,19550,2,0,P|314:221|235:273,1,197.99999395752,2|2,0:0|3:2,0:0:0:0:
180,220,19850,1,8,0:0:0:0:
233,99,19950,1,8,0:0:0:0:
138,15,20050,6,0,P|79:9|15:18,1,98.9999969787599,12|0,0:0|3:2,0:0:0:0:
316,126,20250,2,0,P|375:132|439:123,1,98.9999969787599,8|0,0:0|3:2,0:0:0:0:
136,208,20450,2,0,P|123:262|133:315,1,98.9999969787599,8|0,0:0|3:2,0:0:0:0:
343,374,20650,2,0,P|356:320|346:267,1,98.9999969787599,8|0,0:0|3:2,0:0:0:0:
257,75,20850,5,8,0:0:0:0:
216,199,20950,1,8,3:2:0:0:
342,177,21050,1,8,3:0:0:0:
201,125,21150,5,0,3:2:0:0:
286,227,21250,1,8,3:2:0:0:
327,103,21350,1,0,3:2:0:0:
273,156,21450,5,8,3:0:0:0:
273,156,21550,1,0,3:2:0:0:
369,188,21650,6,0,L|417:180,2,49.4999984893799,6|0|2,3:2|3:2|0:0,0:0:0:0:
193,282,21850,1,10,0:0:0:0:
275,346,21950,2,0,P|282:293|295:219,1,98.9999969787599,2|2,3:2|3:2,0:0:0:0:
197,129,22150,1,2,3:2:0:0:
126,192,22249,2,0,P|120:143|112:95,1,98.9999969787599,10|2,0:0|0:0,0:0:0:0:
231,32,22450,1,2,3:2:0:0:
323,72,22550,2,0,B|440:56|390:122|516:103,1,197.99999395752,2|2,0:0|3:2,0:0:0:0:
382,285,22850,2,0,P|377:236|361:158,1,98.9999969787599,0|0,3:2|3:2,0:0:0:0:
489,338,23050,2,0,P|494:289|509:211,1,98.9999969787599,8|0,0:0|3:2,0:0:0:0:
314,384,23250,6,0,P|272:358|224:363,1,98.9999969787599,2|2,3:2|3:2,0:0:0:0:
21,255,23450,1,10,0:0:0:0:
93,298,23550,2,0,P|141:302|182:277,1,98.9999969787599,2|2,0:0|3:2,0:0:0:0:
32,83,23750,1,2,3:2:0:0:
104,126,23850,2,0,B|135:161|135:161|123:211,1,98.9999969787599,10|2,0:0|0:0,0:0:0:0:
305,144,24050,1,2,3:2:0:0:
227,189,24150,1,2,3:2:0:0:
305,233,24250,1,10,0:0:0:0:
301,227,24350,1,8,0:0:0:0:
208,97,24450,6,0,P|217:49|223:0,1,98.9999969787599,8|0,0:0|3:2,0:0:0:0:
487,161,24650,1,8,0:0:0:0:
412,126,24750,1,0,3:2:0:0:
390,203,24850,6,0,P|401:252|405:300,1,98.9999969787599,6|2,3:2|0:0,0:0:0:0:
135,333,25050,1,10,0:0:0:0:
209,384,25150,2,0,P|216:337|224:286,1,98.9999969787599,2|2,3:2|3:2,0:0:0:0:
74,159,25350,1,2,3:2:0:0:
39,249,25450,2,0,P|90:240|136:233,1,98.9999969787599,10|2,0:0|3:2,0:0:0:0:
281,75,25650,1,2,3:2:0:0:
170,90,25750,2,0,P|258:92|250:180,1,197.99999395752,2|2,0:0|3:2,0:0:0:0:
416,346,26050,2,0,P|373:321|326:330,1,98.9999969787599,0|0,3:2|3:2,0:0:0:0:
224,369,26250,1,8,0:0:0:0:
226,384,26350,1,0,0:0:0:0:
0,230,26450,5,12,0:0:0:0:
108,212,26550,1,0,3:2:0:0:
126,320,26650,1,0,3:2:0:0:
18,338,26750,1,8,0:0:0:0:
62,267,26850,5,0,3:2:0:0:
64,282,26950,1,0,3:2:0:0:
46,124,27050,1,8,0:0:0:0:
46,124,27100,1,0,3:2:0:0:
46,124,27150,1,0,3:2:0:0:
46,124,27200,1,0,3:2:0:0:
46,124,27250,6,0,B|111:149|111:149|135:186|135:186|213:214,1,197.99999395752,0|0,3:2|3:2,0:2:0:0:
227,208,27550,1,0,3:2:0:0:
403,124,27650,5,8,0:0:0:0:
326,177,27750,1,8,3:2:0:0:
301,267,27850,1,8,3:0:0:0:
340,351,27950,1,0,3:2:0:0:
272,384,28050,6,0,B|364:398|326:348|415:361,1,148.49999546814,6|0,3:1|0:0,0:2:0:0:
491,369,28250,2,0,P|477:319|470:312,1,49.4999984893799,2|0,3:1|0:0,0:0:0:0:
413,280,28350,2,0,P|426:230|433:223,1,49.4999984893799,2|0,3:1|0:0,0:0:0:0:
500,45,28550,6,0,B|473:83|473:83|501:187,1,148.49999546814,2|0,3:1|0:0,0:0:0:0:
417,218,28750,2,0,B|376:182|329:184|329:184|322:190|322:190|294:235|237:213,1,197.99999395752,2|0,3:1|0:0,0:0:0:0:
227,202,29050,1,2,3:1:0:0:
69,160,29350,6,0,B|92:139|88:107|88:107|149:165|159:258|111:325,1,296.99999093628,6|0,3:1|0:0,0:0:0:0:
189,286,29750,6,0,P|238:299|245:306,1,49.4999984893799,14|0,0:1|0:0,0:0:0:0:
278,364,29850,2,0,P|327:350|334:343,1,49.4999984893799,2|0,3:1|0:0,0:0:0:0:
503,240,30150,6,0,P|440:250|458:315,1,148.49999546814,2|0,3:1|0:0,0:0:0:0:
416,384,30350,2,0,P|398:267|379:175,1,197.99999395752,2|0,3:1|0:0,0:0:0:0:
395,160,30650,1,2,3:1:0:0:
512,30,30850,5,0,3:2:0:0:
512,30,30900,1,8,0:2:0:0:
512,30,30950,2,0,P|502:80|496:129,2,98.9999969787599,4|0|0,0:0|3:2|3:2,0:0:0:0:
260,146,31250,2,0,P|269:196|275:251,2,98.9999969787599,12|0|0,0:0|3:2|3:2,0:0:0:0:
486,342,31550,2,0,B|509:294|509:294|471:228,1,98.9999969787599,12|0,0:0|3:2,0:0:0:0:
479,243,31700,1,0,3:2:0:0:
479,243,31750,1,0,3:2:0:0:
350,375,31850,2,0,B|312:342|312:342|264:350|264:350|232:400|179:384,1,197.99999395752,12|4,0:0|0:1,0:0:0:0:
27,216,32450,5,2,0:0:0:0:
50,202,32516,1,2,0:0:0:0:
78,203,32583,1,2,0:0:0:0:
101,218,32650,1,2,0:0:0:0:
111,244,32716,1,2,0:0:0:0:
108,271,32783,1,2,0:0:0:0:
90,292,32850,2,0,L|98:346,2,55,2|2|2,0:0|0:0|0:0,0:0:0:0:
201,384,33050,6,0,L|257:374,2,55,6|2|0,3:2|0:0|0:0,0:0:0:0:
339,327,33250,2,0,L|402:341,2,55,4|2|2,3:2|0:0|0:0,0:0:0:0:
512,293,33450,5,8,0:0:0:0:
507,323,33516,1,2,0:0:0:0:
502,354,33583,1,2,0:0:0:0:
497,384,33650,1,6,3:2:0:0:
407,130,33850,1,0,0:0:0:0:
495,166,33950,2,0,P|431:152|448:242,1,165,0|0,3:2|0:0,0:0:0:0:
430,35,34250,2,0,B|354:9|362:91|276:66,1,165,8|0,0:0|0:0,0:0:0:0:
177,125,34550,2,0,P|171:82|164:43,1,82.5,0|0,3:2|0:0,0:0:0:0:
303,162,34750,1,0,3:2:0:0:
222,235,34850,2,0,B|181:222|181:222|132:243,1,82.5,8|0,0:0|0:0,0:0:0:0:
66,159,35050,2,0,B|27:178|27:178|8:228,1,82.5,0|0,3:2|0:0,0:0:0:0:
192,334,35250,5,0,3:2:0:0:
286,318,35350,1,0,3:2:0:0:
381,303,35450,1,12,0:2:0:0:
507,115,35650,1,0,0:0:0:0:
436,156,35750,2,0,B|476:132|476:132|450:284,1,165,0|2,3:2|0:0,0:0:0:0:
383,93,36050,2,0,B|323:116|323:116|301:150|301:150|230:176,1,165,0|2,3:2|0:0,0:0:0:0:
226,157,36350,1,0,3:2:0:0:
126,121,36450,2,0,P|133:161|138:202,1,82.5,8|0,0:0|3:0,0:0:0:0:
315,14,36650,2,0,P|307:54|302:95,1,82.5,8|0,3:0|3:0,0:0:0:0:
511,218,36850,6,0,P|445:214|464:311,2,189.750003619194,4|2|8,3:2|3:2|0:0,0:0:0:0:
211,266,37450,1,2,3:2:0:0:
284,243,37550,1,8,0:0:0:0:
346,291,37650,2,0,P|338:336|329:393,1,94.8750018095971,2|0,3:2|0:0,0:0:0:0:
146,231,37850,2,0,P|154:276|162:333,1,94.8750018095971,8|0,0:2|0:0,0:2:0:0:
45,273,38050,6,0,B|74:185|-19:194|8:96,2,189.750003619194,2|2|8,3:2|3:2|0:0,0:0:0:0:
227,111,38650,5,4,3:2:0:0:
143,73,38750,1,8,3:2:0:0:
97,139,38850,5,8,3:0:0:0:
273,45,38950,1,8,3:0:0:0:
231,109,39050,5,8,3:0:0:0:
147,71,39150,1,8,3:0:0:0:
330,155,39250,6,0,P|318:217|312:266,1,103.125,6|2,3:2|0:0,0:0:0:0:
437,287,39450,1,8,0:0:0:0:
397,216,39550,1,2,0:0:0:0:
415,379,39650,2,0,P|462:359|511:342,1,103.125,8|0,0:0|0:0,0:0:0:0:
239,298,39850,2,0,P|191:278|142:261,1,103.125,8|0,0:0|0:0,0:0:0:0:
0,308,40050,5,8,0:0:0:0:
23,294,40100,1,8,3:2:0:0:
51,295,40150,1,0,3:0:0:0:
74,310,40200,1,8,0:3:0:0:
84,336,40250,1,8,3:0:0:0:
81,363,40300,1,8,3:0:0:0:
63,384,40350,6,0,L|42:257,1,103.125,12|8,0:0|3:2,0:0:0:0:
165,131,40550,1,2,3:2:0:0:
244,185,40650,2,0,P|232:236|225:303,1,103.125,14|8,0:0|0:0,0:0:0:0:
70,82,40850,5,6,3:2:0:0:
162,30,40950,1,0,3:0:0:0:
162,30,41000,1,0,3:0:0:0:
162,30,41050,2,0,B|194:75|194:75|158:143,1,103.125,8|0,0:0|3:0,0:0:0:0:
38,269,41250,2,0,B|7:222|7:222|45:156,1,103.125,0|8,3:0|0:0,0:0:0:0:
206,266,41450,1,2,3:2:0:0:
277,236,41550,1,2,3:2:0:0:
335,283,41650,6,0,P|327:328|318:385,1,103.125,12|0,0:0|3:2,0:0:0:0:
480,210,41850,2,0,B|456:205|438:185|438:185|464:340,1,206.25,8|0,0:0|3:2,0:0:0:0:
454,350,42150,1,0,3:2:0:0:
356,147,42250,2,0,P|399:91|450:108,1,103.125,8|8,0:0|0:0,0:0:0:0:
512,0,42450,6,0,L|503:50,3,51.5625,8|10|0|0,3:2|3:2|3:2|3:2,0:0:0:0:
417,41,42650,2,0,L|425:91,3,51.5625,8|8|0|0,3:3|3:3|3:2|3:2,0:0:0:0:
339,109,42850,2,0,L|362:154,1,51.5625,8|8,3:3|3:3,0:0:0:0:
226,205,42950,5,0,3:2:0:0:
249,191,43000,1,0,3:2:0:0:
277,192,43050,1,8,3:3:0:0:
300,207,43100,1,8,3:3:0:0:
310,233,43150,1,0,3:2:0:0:
307,260,43200,1,0,3:2:0:0:
289,281,43250,1,4,3:2:0:0:
289,281,43650,6,0,L|297:232,1,49.4999984893799,2|2,0:0|0:0,0:0:0:0:
458,34,44050,6,0,B|407:43|407:43|385:76|385:76|329:87,1,148.49999546814,4|0,3:1|0:0,0:0:0:0:
309,71,44250,1,8,0:0:0:0:
425,165,44350,6,0,B|465:183|475:227|475:227|475:169|428:145,1,181.500005538941,2|0,0:0|3:2,0:0:0:0:
249,191,44650,2,0,B|213:201|213:201|210:207|210:207|165:220,1,90.7500027694703,8|2,0:0|3:2,0:0:0:0:
32,68,44850,6,0,P|118:61|161:136,1,181.500005538941,2|8,3:2|0:0,0:0:0:0:
103,202,45150,1,0,3:2:0:0:
234,377,45250,5,2,3:2:0:0:
180,304,45350,1,0,3:2:0:0:
88,342,45450,2,0,P|42:336|0:322,1,90.7500027694703,10|0,0:0|0:0,0:0:0:0:
250,192,45650,6,0,B|316:178|316:178|341:140|341:140|408:127,1,181.500005538941,2|8,3:2|0:0,0:0:0:0:
282,17,45950,2,0,B|255:54|255:54|265:97,1,90.7500027694703,2|0,3:2|0:0,0:0:0:0:
413,260,46150,5,0,3:2:0:0:
342,373,46250,2,0,B|315:336|315:336|325:292,1,90.7500027694703,10|0,0:0|3:2,0:0:0:0:
172,133,46450,6,0,B|67:122|108:190|1:177,1,181.500005538941,2|8,3:2|0:2,0:0:0:0:
140,242,46750,1,0,3:2:0:0:
143,231,46800,1,0,3:2:0:0:
146,220,46850,1,2,3:2:0:0:
74,69,46950,1,0,3:2:0:0:
251,178,47050,6,0,B|289:170|289:170|299:157|299:157|333:148,1,90.7500027694703,10|0,0:0|3:2,0:0:0:0:
486,98,47250,6,0,P|456:66|412:59,1,90.7500027694703,6|0,3:2|3:2,0:0:0:0:
352,4,47450,1,8,0:0:0:0:
154,207,47550,6,0,B|67:216|108:177|23:187,1,136.125004154205,2|0,3:2|0:0,0:2:0:0:
4,202,47750,1,0,3:2:0:0:
104,40,47850,2,0,B|137:78|137:78|125:126,1,90.7500027694703,10|0,0:0|3:2,0:0:0:0:
118,315,48050,6,0,L|252:294,1,136.125004154205,2|0,3:2|0:0,0:0:0:0:
272,312,48250,2,0,P|294:273|291:228,1,90.7500027694703,8|2,0:0|3:2,0:0:0:0:
368,40,48450,5,2,3:2:0:0:
368,40,48550,1,0,3:2:0:0:
480,144,48650,2,0,L|389:133,1,90.7500027694703,10|0,0:0|3:2,0:0:0:0:
110,302,48850,6,0,B|181:309|204:254|204:254|206:256|206:256|171:307|196:347,1,214.49999018097,6|8,3:2|0:0,0:0:0:0:
350,325,49150,2,0,B|315:297|315:297|271:311,1,90.7500027694703,2|0,3:2|3:2,0:0:0:0:
104,132,49350,5,0,3:2:0:0:
198,100,49450,1,10,0:0:0:0:
256,180,49550,1,0,3:2:0:0:
428,104,49650,6,0,B|440:56|440:56|408:12,1,90.7500027694703,2|2,3:2|3:2,0:0:0:0:
256,180,49850,2,0,B|271:169|271:169|324:183|324:183|328:233|373:249,1,160.874992635727,12|0,0:0|0:0,0:0:0:0:
447,300,50050,1,0,3:2:0:0:
429,320,50100,1,0,3:2:0:0:
406,334,50150,1,0,3:2:0:0:
380,339,50200,1,0,3:2:0:0:
352,336,50250,6,0,B|308:342|308:342|301:353|301:353|239:362,1,107.249995090485,12|0,0:2|3:2,0:0:0:0:
41,259,50450,6,0,B|23:227|-5:212|-5:212|140:242,1,214.49999018097,4|8,3:1|0:0,0:0:0:0:
249,53,50750,6,0,B|224:54|208:35|208:35|226:50|231:76,1,90.7500027694703,2|0,3:2|3:2,0:0:0:0:
208,184,50950,1,0,3:2:0:0:
64,116,51050,2,0,L|153:102,1,90.7500027694703,10|0,0:0|3:2,0:0:0:0:
480,210,51250,6,0,B|383:194|423:275|314:256,1,181.500005538941,2|8,3:2|0:0,0:0:0:0:
245,157,51550,1,0,3:2:0:0:
240,150,51600,1,0,3:2:0:0:
235,142,51650,2,0,L|248:52,1,90.7500027694703,2|0,3:2|3:2,0:0:0:0:
80,256,51850,6,0,B|57:214|12:214|12:214|43:223|51:245,1,136.125004154205,10|0,0:0|0:0,0:0:0:0:
0,312,52050,6,0,L|179:282,1,181.500005538941,6|8,3:2|0:0,0:0:0:0:
344,304,52350,2,0,B|363:326|363:326|303:313,1,90.7500027694703,2|0,3:2|3:2,0:2:0:0:
248,176,52550,5,0,3:2:0:0:
179,281,52650,2,0,L|192:370,1,90.7500027694703,10|0,0:0|3:2,0:0:0:0:
480,176,52850,6,0,B|430:174|414:126|414:126|375:92|325:111,1,181.500005538941,2|8,3:2|0:0,0:0:0:0:
107,168,53150,2,0,B|98:145|79:136|79:136|107:136|121:152,1,90.7500027694703,0|0,3:2|3:2,0:0:0:0:
91,40,53350,5,0,3:2:0:0:
44,208,53450,1,8,0:0:0:0:
0,91,53550,1,8,0:0:0:0:
200,116,53650,6,0,B|267:130|267:130|293:172|293:172|355:182,1,181.500005538941,4|8,3:2|0:0,0:0:0:0:
241,372,53950,2,0,P|288:360|336:358,1,90.7500027694703,2|0,3:2|3:2,0:0:0:0:
496,224,54150,5,0,3:2:0:0:
416,248,54250,1,8,0:0:0:0:
355,182,54350,1,8,0:0:0:0:
200,304,54450,5,6,3:2:0:0:
168,136,54550,2,0,L|162:90,2,45.3750013847352,2|2|0,0:0|0:0|3:2,0:0:0:0:
96,193,54750,5,8,0:2:0:0:
248,160,54850,1,0,3:2:0:0:
259,157,54900,1,0,3:2:0:0:
270,155,54950,1,0,3:2:0:0:
115,278,55050,2,0,B|69:282|69:282|33:255,1,90.7500027694703,10|8,3:2|3:2,0:0:0:0:
156,46,55250,6,0,L|167:135,1,90.7500027694703,14|0,3:2|3:2,0:0:0:0:
398,355,55450,2,0,L|409:265,1,90.7500027694703,10|0,3:2|3:2,0:0:0:0:
368,128,55650,2,0,L|412:121,2,45.3750013847352,8|0|0,3:2|3:2|3:2,0:0:0:0:
240,224,55850,2,0,L|195:217,2,45.3750013847352,8|0|0,3:2|3:2|3:2,0:0:0:0:
280,344,56050,5,8,0:0:0:0:
249,357,56100,1,8,0:0:0:0:
215,353,56150,1,0,3:2:0:0:
189,332,56200,1,0,3:2:0:0:
177,301,56250,6,0,L|132:307,3,45.3750013847352,8|0|0|0,3:3|3:2|3:2|3:2,0:0:0:0:
64,216,56450,2,0,L|108:222,3,45.3750013847352,8|0|8|8,3:0|3:2|3:0|3:0,0:0:0:0:
194,132,56650,5,10,3:2:0:0:
211,129,56700,1,0,0:0:0:0:
228,126,56750,1,2,3:2:0:0:
244,124,56800,1,0,0:0:0:0:
261,123,56850,2,0,B|318:134|318:134|338:170|338:170|401:186,1,165,4|8,3:1|0:0,0:0:0:0:
491,335,57250,5,0,3:2:0:0:
425,362,57350,1,0,3:2:0:0:
356,334,57450,1,8,0:0:0:0:
317,265,57550,1,0,0:0:0:0:
242,243,57650,5,2,3:2:0:0:
160,275,57750,2,0,P|120:269|80:256,1,82.5,0|8,0:0|0:0,0:0:0:0:
52,351,57950,6,0,P|40:269|15:190,1,165,2|2,3:2|3:2,0:0:0:0:
106,94,58250,2,0,B|119:137|119:137|104:171,1,82.5,8|0,0:0|0:0,0:0:0:0:
247,362,58450,5,2,3:2:0:0:
326,333,58550,1,0,3:2:0:0:
232,334,58650,2,0,P|241:252|247:169,1,165,8|0,0:0|3:2,0:0:0:0:
178,117,58950,2,0,P|138:117|105:93,2,82.5,0|8|0,3:2|0:0|0:2,0:0:0:0:
298,29,59250,6,0,P|375:15|413:82,1,165,2|8,3:2|0:0,0:0:0:0:
344,176,59550,2,0,P|304:163|264:156,1,82.5,2|2,0:0|3:2,0:0:0:0:
407,98,59750,1,2,3:2:0:0:
464,224,59850,6,0,B|409:236|409:236|393:266|393:266|335:276,1,148.49999546814,8|0,0:0|0:0,0:0:0:0:
312,304,60050,1,2,3:2:0:0:
312,304,60150,1,2,3:2:0:0:
120,192,60250,6,0,B|104:147|49:147|49:147|80:158|89:185,1,148.49999546814,8|0,0:0|0:0,0:0:0:0:
17,222,60450,2,0,L|32:304,1,82.5,0|0,3:2|3:2,0:0:0:0:
213,207,60650,2,0,L|227:125,1,82.5,8|0,0:0|3:2,0:0:0:0:
312,304,60850,6,0,B|377:290|377:290|397:260|397:260|458:250,1,165,2|8,3:2|0:0,0:0:0:0:
344,176,61150,1,2,3:2:0:0:
425,284,61250,6,0,B|392:277|392:277|382:262|382:262|351:257,1,82.5,0|0,0:0|3:2,0:0:0:0:
131,346,61450,2,0,P|171:354|211:363,1,82.5,8|0,0:0|3:2,0:0:0:0:
80,200,61650,6,0,B|59:235|59:235|67:275,1,82.5,12|0,3:2|3:2,0:0:0:0:
272,120,61850,2,0,B|293:85|293:85|284:44,1,82.5,8|0,0:2|0:0,0:0:0:0:
102,101,62050,6,0,P|81:104|61:108,2,41.25,8|0|0,0:0|3:2|3:2,0:0:0:0:
204,245,62250,2,0,P|244:251|285:259,1,82.5,8|0,0:2|3:2,0:0:0:0:
407,190,62450,5,8,0:0:0:0:
425,179,62500,1,8,0:0:0:0:
444,177,62550,1,0,3:2:0:0:
465,181,62600,1,0,3:2:0:0:
481,193,62650,1,8,3:0:0:0:
493,209,62700,1,8,3:0:0:0:
499,229,62750,1,0,3:0:0:0:
497,249,62800,1,0,3:0:0:0:
487,265,62850,2,0,P|467:265|447:269,3,41.25,8|8|0|0,3:0|3:0|3:2|3:2,0:0:0:0:
424,296,63050,6,0,B|367:290|367:290|342:254|342:254|282:245,1,160.874992635727,8|0,0:2|0:0,0:0:0:0:
247,265,63250,6,0,P|194:282|139:268,1,90.7500027694703,4|2,3:1|0:0,0:0:0:0:
7,187,63450,1,8,0:0:0:0:
48,119,63550,1,2,0:0:0:0:
124,139,63650,2,0,L|233:126,1,90.7500027694703,0|0,3:2|3:2,0:0:0:0:
312,23,63850,2,0,L|421:10,1,90.7500027694703,8|2,0:0|0:2,0:0:0:0:
474,88,64050,5,2,3:2:0:0:
367,167,64150,1,2,0:2:0:0:
472,235,64250,1,8,0:0:0:0:
424,317,64350,6,0,P|346:334|277:247,1,181.500005538941,0|0,3:2|3:2,0:0:0:0:
251,172,64650,1,8,0:0:0:0:
251,172,64750,1,0,0:0:0:0:
339,58,64850,6,0,B|458:41|414:102|533:90,1,181.500005538941,2|8,3:2|0:0,0:0:0:0:
363,259,65150,2,0,P|266:284|143:5,1,453.750013847352,2|2,0:2|3:2,0:0:0:0:
128,25,65850,1,8,0:0:0:0:
216,0,65950,2,0,P|224:67|219:118,1,90.7500027694703,0|0,3:2|0:0,0:0:0:0:
100,200,66150,1,0,3:2:0:0:
11,181,66250,2,0,P|3:114|8:63,1,90.7500027694703,8|2,0:0|0:2,0:0:0:0:
107,303,66450,5,2,3:2:0:0:
118,301,66500,1,2,0:0:0:0:
129,299,66550,1,2,0:0:0:0:
140,297,66600,1,0,0:0:0:0:
155,294,66650,2,0,L|212:287,3,45.3750013847352,10|2|0|2,0:0|0:0|0:0|0:0,0:0:0:0:
269,212,66850,1,2,3:2:0:0:
280,213,66900,1,2,0:0:0:0:
291,215,66950,1,2,3:2:0:0:
302,217,67000,1,0,0:0:0:0:
317,220,67050,2,0,L|372:229,3,45.3750013847352,10|2|2|0,0:0|0:0|0:0|0:0,0:0:0:0:
447,280,67250,6,0,B|462:235|462:235|453:175,1,90.7500027694703,2|2,3:2|0:0,0:0:0:0:
309,53,67450,1,8,0:0:0:0:
221,104,67550,1,2,3:2:0:0:
275,192,67650,2,0,L|382:208,1,90.7500027694703,0|2,0:0|3:2,0:0:0:0:
142,33,67850,2,0,B|139:178,1,136.125004154205,10|0,0:0|0:0,0:0:0:0:
145,251,68050,6,0,P|69:234|21:117,1,181.500005538941,2|10,3:2|0:0,0:0:0:0:
307,63,68350,2,0,P|265:141|180:164,1,181.500005538941,2|2,0:0|3:2,0:0:0:0:
105,96,68650,1,10,0:0:0:0:
145,12,68750,1,2,3:2:0:0:
307,63,68850,6,0,B|408:50|378:111|485:98,1,181.500005538941,4|0,3:2|3:2,0:0:0:0:
208,209,69150,1,8,0:0:0:0:
208,209,69200,1,8,0:0:0:0:
208,209,69250,2,0,B|107:196|137:257|30:244,1,181.500005538941,0|8,3:2|0:0,0:0:0:0:
34,244,69550,1,0,0:0:0:0:
206,357,69650,6,0,L|300:360,1,90.7500027694703,4|0,3:1|0:0,0:0:0:0:
379,287,69850,2,0,L|469:289,1,90.7500027694703,8|0,0:0|0:0,0:0:0:0:
302,81,70050,1,2,3:2:0:0:
302,81,70150,2,0,P|224:127|216:235,1,181.500005538941,2|0,3:2|0:0,0:0:0:0:
483,94,70450,6,0,P|437:16|329:8,1,181.500005538941,2|10,3:2|0:2,0:0:0:0:
302,81,70750,2,0,B|295:128|295:128|311:186,1,90.7500027694703,2|2,3:2|0:0,0:0:0:0:
364,265,70950,1,2,3:2:0:0:
369,279,71000,1,2,0:0:0:0:
372,293,71050,1,10,0:0:0:0:
373,308,71100,1,2,0:0:0:0:
372,323,71150,1,2,0:0:0:0:
369,338,71200,1,2,0:0:0:0:
361,352,71250,6,0,B|292:346|292:346|252:370|252:370|168:366,1,181.500005538941,2|10,3:2|0:0,0:0:0:0:
20,211,71550,2,0,B|89:205|89:205|129:229|129:229|213:225,1,181.500005538941,2|0,0:0|3:2,0:0:0:0:
287,119,71850,2,0,P|295:73|285:26,1,90.7500027694703,10|2,0:0|0:0,0:0:0:0:
66,61,72050,6,0,P|123:216|320:208,1,363.000011077881,2|0,3:2|0:0,0:0:0:0:
300,223,72550,1,0,3:2:0:0:
287,119,72650,2,0,P|234:112|180:128,1,90.7500027694703,8|0,0:0|0:0,0:0:0:0:
11,211,72850,6,0,L|14:310,1,90.7500027694703,2|2,3:2|0:0,0:0:0:0:
125,384,73050,1,8,0:0:0:0:
239,304,73150,1,2,0:0:0:0:
317,350,73250,6,0,L|382:358,3,45.3750013847352,2|2|2|2,3:2|0:0|3:2|0:0,0:0:0:0:
435,298,73450,2,0,L|480:303,3,45.3750013847352,10|2|2|0,0:0|0:0|0:0|0:0,0:0:0:0:
345,198,73650,6,0,P|336:147|361:88,1,90.7500027694703,4|0,3:2|0:0,0:0:0:0:
512,75,73850,2,0,P|521:126|496:185,1,90.7500027694703,10|2,0:0|3:2,0:0:0:0:
394,259,74050,2,0,P|333:240|306:111,1,181.500005538941,2|10,0:0|0:0,0:0:0:0:
341,35,74350,1,2,0:0:0:0:
420,155,74450,6,0,L|510:162,1,90.7500027694703,12|0,0:0|0:0,0:0:0:0:
265,333,74650,2,0,L|355:340,1,90.7500027694703,8|0,0:0|3:2,0:0:0:0:
117,138,74850,2,0,L|207:145,1,90.7500027694703,8|2,0:0|3:2,0:0:0:0:
0,319,75050,2,0,L|90:326,1,90.7500027694703,8|0,0:0|3:2,0:0:0:0:
90,326,75200,1,8,0:0:0:0:
90,326,75250,1,8,0:0:0:0:
306,232,75450,6,0,L|385:236,3,57.7499982376099,8|8|0|0,3:0|3:0|3:0|3:0,0:0:0:0:
196,142,75650,2,0,L|117:146,3,57.7499982376099,8|8|0|0,3:0|3:0|3:0|3:0,0:0:0:0:
309,70,75850,2,0,L|388:74,3,57.7499982376099,12|0|0|0,0:0|0:0|0:0|0:0,0:0:0:0:
271,0,76050,6,0,B|280:145|211:84|226:248,1,230.99999295044,4|2,3:1|3:2,0:0:0:0:
224,221,76650,1,0,0:0:0:0:
319,364,76850,2,0,P|392:363|495:133,1,346.499989425659,10|0,0:0|3:2,0:0:0:0:
502,148,77650,5,2,3:2:0:0:
364,74,77950,1,2,0:0:0:0:
237,188,78221,1,2,3:2:0:0:
237,188,78278,1,0,3:2:0:0:
237,188,78335,1,0,3:2:0:0:
237,188,78392,1,0,3:2:0:0:
237,188,78450,2,0,B|136:167|165:243|50:215,2,173.24999471283,8|2|0,0:0|0:0|3:0,0:0:0:0:
335,226,79250,5,2,3:2:0:0:
178,305,79550,1,2,0:0:0:0:
332,376,79850,1,2,0:0:0:0:
168,203,80050,5,8,0:0:0:0:
325,124,80350,1,2,0:0:0:0:
171,53,80650,1,8,0:0:0:0:
4,174,80850,6,0,P|3:270|226:348,1,346.499989425659,4|8,3:2|3:0,0:0:0:0:
204,359,81550,1,0,3:0:0:0:
255,291,81650,5,8,0:0:0:0:
347,320,81775,1,0,3:0:0:0:
391,232,81900,1,8,3:0:0:0:
441,170,82050,5,0,3:2:0:0:
349,141,82175,1,0,3:2:0:0:
305,229,82300,1,8,3:0:0:0:
255,171,82450,6,0,B|138:147|153:227|9:194,1,230.99999295044,4|0,3:2|3:0,0:2:0:0:
0,105,83050,1,2,0:0:0:0:
66,41,83250,5,8,0:0:0:0:
213,113,83550,1,2,0:0:0:0:
352,43,83850,1,8,0:0:0:0:
414,106,84050,5,0,3:2:0:0:
489,122,84250,2,0,P|498:60|477:-3,1,115.49999647522,8|2,0:0|3:2,0:0:0:0:
344,152,84621,5,8,3:0:0:0:
344,152,84678,1,2,3:2:0:0:
344,152,84735,1,2,3:2:0:0:
344,152,84792,1,0,3:2:0:0:
344,152,84850,1,12,0:0:0:0:
306,220,84983,1,4,3:2:0:0:
330,295,85116,1,8,0:0:0:0:
414,367,85250,5,4,3:2:0:0:
484,300,85383,1,8,0:0:0:0:
415,230,85516,1,8,3:0:0:0:
330,295,85650,6,0,P|250:297|176:137,1,230.99999295044,4|0,3:2|3:2,0:0:0:0:
476,43,86250,2,0,P|482:188|186:313,1,461.999985900879,2|8,0:0|0:0,0:0:0:0:
233,330,87250,5,0,3:2:0:0:
112,231,87450,2,0,P|104:195|106:157,1,57.7499982376099,8|0,0:0|0:0,0:0:0:0:
196,127,87650,2,0,P|204:163|202:201,1,57.7499982376099,2|0,3:2|0:0,0:0:0:0:
52,79,87850,5,0,3:2:0:0:
52,79,87916,1,0,3:2:0:0:
52,79,87983,1,0,3:2:0:0:
52,79,88050,2,0,L|123:84,1,57.7499982376099,12|0,0:0|3:2,0:0:0:0:
192,9,88250,2,0,L|263:14,1,57.7499982376099,8|8,3:0|3:0,0:0:0:0:
341,18,88450,1,0,3:2:0:0:
442,149,88650,5,8,3:0:0:0:
512,110,88750,1,8,3:0:0:0:
442,70,88850,1,4,3:1:0:0:
512,236,89050,1,2,0:0:0:0:
356,384,89250,2,0,B|316:273|316:273|338:227|382:246,1,197.99999395752,8|0,0:0|3:2,0:0:0:0:
395,253,89850,1,0,3:2:0:0:
259,356,90050,1,10,0:0:0:0:
109,318,90250,1,2,3:2:0:0:
38,378,90450,6,0,B|76:243|76:243|20:281,1,197.99999395752,2|8,3:2|0:0,0:0:0:0:
172,384,91050,1,2,3:2:0:0:
297,264,91250,2,0,B|259:129|259:129|315:167,1,197.99999395752,2|8,3:2|0:0,0:0:0:0:
399,105,91850,1,2,3:2:0:0:
512,230,92050,6,0,P|464:221|401:212,1,98.9999969787599,2|0,3:2|0:0,0:0:0:0:
318,252,92350,2,0,B|296:285|296:285|349:393,1,148.49999546814,2|0,0:0|0:0,0:0:0:0:
439,318,92850,1,2,3:2:0:0:
439,318,93050,1,0,3:2:0:0:
335,146,93250,2,0,B|317:119|317:119|359:33,1,98.9999969787599,12|0,0:0|3:2,0:0:0:0:
485,134,93650,6,0,B|413:99|337:149|369:188|307:253|225:222,1,296.99999093628,2|0,3:2|0:0,0:0:0:0:
128,288,94450,2,0,P|120:229|110:177,1,98.9999969787599,0|0,3:2|3:2,0:0:0:0:
383,358,94850,1,10,0:0:0:0:
397,284,94950,1,2,3:2:0:0:
318,270,95050,1,8,3:0:0:0:
310,350,95150,1,8,3:0:0:0:
354,317,95250,6,0,P|330:172|307:23,1,296.99999093628,4|2,3:2|0:0,0:0:0:0:
317,13,96050,1,0,3:2:0:0:
449,10,96250,5,0,3:2:0:0:
447,17,96350,1,2,0:0:0:0:
381,62,96450,5,10,0:0:0:0:
384,74,96550,1,2,0:0:0:0:
448,122,96650,5,2,3:2:0:0:
442,143,96750,1,2,0:0:0:0:
509,181,96850,6,0,B|404:201|404:201|367:267|367:267|251:297,1,296.99999093628,2|0,0:0|3:2,0:0:0:0:
92,286,97650,2,0,P|159:298|156:366,2,148.49999546814,0|2|0,3:2|0:2|3:2,0:0:0:0:
86,293,98450,6,0,P|110:148|132:0,1,296.99999093628,4|0,3:2|3:2,0:0:0:0:
32,0,99250,2,0,B|20:21|20:21|37:115,1,98.9999969787599,2|0,3:2|3:2,0:0:0:0:
90,143,99550,2,0,L|69:269,1,98.9999969787599,2|0,0:0|0:0,0:0:0:0:
13,286,99850,1,2,3:2:0:0:
160,94,100050,6,0,B|232:59|308:109|276:148|338:213|420:182,1,296.99999093628,2|0,3:2|0:0,0:0:0:0:
488,286,100850,2,0,P|480:331|469:404,1,98.9999969787599,2|0,3:2|3:2,0:0:0:0:
387,367,101150,2,0,P|394:318|403:269,1,98.9999969787599,2|0,0:0|3:2,0:0:0:0:
504,192,101450,1,8,3:0:0:0:
504,192,101550,1,8,3:0:0:0:
465,118,101650,6,0,B|360:138|360:138|323:204|323:204|207:234,1,296.99999093628,4|8,3:2|0:0,0:0:0:0:
116,256,102350,1,8,0:0:0:0:
116,256,102450,6,0,P|121:223|126:190,1,65.9999979858399,4|8,3:2|0:0,0:0:0:0:
42,178,102716,2,0,P|36:210|31:243,1,65.9999979858399,8|0,0:0|3:0,0:0:0:0:
95,114,102983,2,0,P|89:81|84:48,1,65.9999979858399,2|8,3:2|3:0,0:0:0:0:
171,0,103250,2,0,L|165:31,3,32.9999989929199,4|8|8|8,3:2|3:0|3:3|3:3,0:0:0:0:
250,42,103516,2,0,L|255:9,3,32.9999989929199,8|8|8|8,3:3|3:0|3:3|3:3,0:0:0:0:
341,19,103783,2,0,L|335:51,3,32.9999989929199,8|8|8|8,3:3|3:0|3:0|3:0,0:0:0:0:
494,139,104050,6,0,B|446:117|412:130|426:158|393:181|348:166,1,160.050003785362,4|0,3:2|0:0,0:0:0:0:
275,125,104316,2,0,B|288:108|288:108|326:136|328:199|298:236,1,160.050003785362,8|0,0:0|0:0,0:0:0:0:
168,309,104583,2,0,B|194:278|238:279|238:279|259:319|305:311,1,160.050003785362,8|0,3:0|0:0,0:0:0:0:
375,349,104850,5,4,3:2:0:0:
378,333,104916,1,0,3:2:0:0:
381,317,104983,1,0,3:2:0:0:
301,228,105116,1,4,3:2:0:0:
472,112,105250,5,0,0:0:0:0:
497,228,105383,1,0,0:0:0:0:
384,187,105516,1,0,0:0:0:0:
237,314,105650,5,8,0:0:0:0:
130,340,105783,1,8,0:0:0:0:
23,366,105916,1,8,0:0:0:0:
94,229,106050,6,0,P|137:234|172:260,1,88,8|8,0:0|0:0,0:0:0:0:
275,138,106316,1,8,0:0:0:0:
321,358,106450,5,8,3:2:0:0:
352,365,106516,1,0,3:2:0:0:
388,355,106583,1,0,3:2:0:0:
406,329,106650,1,0,3:2:0:0:
403,296,106716,2,0,L|354:285,1,44,8|8,3:0|3:0,0:0:0:0:
275,138,106850,5,8,0:0:0:0:
287,92,106916,1,8,0:0:0:0:
322,64,106983,1,0,3:2:0:0:
359,59,107050,1,0,3:2:0:0:
398,77,107116,2,0,L|408:119,1,44,8|8,3:0|3:0,0:0:0:0:
489,200,107250,6,0,L|446:210,1,44,12|0,0:0|0:0,0:0:0:0:
275,248,107383,2,0,L|232:258,1,44,4|0,3:2|0:0,0:0:0:0:
165,354,107516,5,0,3:2:0:0:
141,314,107583,1,0,3:2:0:0:
91,302,107650,1,8,3:2:0:0:
39,319,107716,1,4,3:2:0:0:
39,319,108150,6,0,B|57:266|23:209|31:246|-26:200|16:120,1,192.499994125366,4|0,3:2|0:0,0:0:0:0:
95,66,108450,2,0,B|147:79|182:39|182:39|162:73|180:111,1,165,4|0,3:2|0:0,0:2:0:0:
380,159,108750,1,4,3:2:0:0:
259,80,108850,6,0,B|280:76|280:76|308:49|308:49|352:41,1,82.5,4|0,3:2|0:0,0:2:0:0:
456,121,109050,2,0,P|465:99|459:64,2,55,2|2|2,0:2|0:0|0:0,0:0:0:0:
306,200,109250,2,0,P|297:178|299:141,2,55,2|2|2,0:0|0:0|0:0,0:0:0:0:
400,312,109450,5,4,3:2:0:0:
484,260,109550,1,4,3:2:0:0:
488,256,109600,1,2,0:0:0:0:
492,252,109650,2,0,L|500:208,3,41.25,2|2|10|8,0:0|0:0|0:0|0:0,0:0:0:0:
400,312,109850,1,0,3:2:0:0:
389,310,109900,1,0,3:2:0:0:
379,308,109950,1,8,3:0:0:0:
369,306,110000,1,8,3:0:0:0:
359,305,110050,6,0,P|338:286|312:278,1,55,4|0,3:2|0:2,0:2:0:0:
216,372,110183,2,0,P|242:363|262:345,1,55,12|0,0:2|0:2,0:2:0:0:
229,214,110316,2,0,P|223:240|228:267,1,55,4|0,3:2|0:0,0:0:0:0:
145,305,110450,6,0,B|135:257|8:181|-110:239|-47:393|43:402|97:285|28:219,1,412.5,4|8,3:1|0:0,0:2:0:0:
96,128,111050,6,0,B|96:68|47:57|47:57|79:84|78:117,1,165,4|2,3:2|0:0,0:2:0:0:
0,119,111350,1,8,0:0:0:0:
170,66,111450,2,0,B|186:71|186:71|224:58|224:58|249:64,1,82.5,8|8,0:0|3:2,0:0:0:0:
220,190,111650,6,0,P|218:169|213:149,2,41.25,4|0|0,3:2|3:2|3:2,0:0:0:0:
209,326,111850,1,8,3:2:0:0:
198,323,111900,1,8,0:0:0:0:
188,321,111950,1,8,0:0:0:0:
53,256,112050,2,0,L|134:242,1,82.5,8|0,3:2|3:2,0:0:0:0:
308,366,112250,5,8,0:0:0:0:
388,384,112350,1,0,3:2:0:0:
449,330,112450,1,0,3:2:0:0:
422,205,112550,5,8,0:0:0:0:
348,230,112650,1,0,3:2:0:0:
286,176,112750,1,0,3:2:0:0:
351,75,112850,6,0,B|376:110|376:110|363:147,1,82.5,12|0,0:0|0:0,0:0:0:0:
219,232,113050,1,8,3:0:0:0:
208,229,113100,1,0,3:2:0:0:
198,227,113150,1,8,3:0:0:0:
188,225,113200,1,0,3:2:0:0:
178,222,113250,2,0,L|165:137,1,82.5,12|0,3:2|3:2,0:0:0:0:
32,80,113450,2,0,L|44:161,1,82.5,8|0,3:2|3:2,0:0:0:0:
2,340,113650,5,14,3:2:0:0:
43,370,113750,1,0,3:2:0:0:
101,377,113850,1,0,3:2:0:0:
156,355,113950,1,0,3:2:0:0:
231,280,114050,5,8,3:2:0:0:
219,232,114150,1,0,3:2:0:0:
229,188,114250,1,0,3:2:0:0:
270,158,114350,1,0,3:2:0:0:
366,186,114450,6,0,B|382:200|412:205|412:205|300:229,1,165,8|0,3:2|3:2,0:0:0:0:
300,229,114750,1,0,3:2:0:0:
333,368,114850,2,0,P|295:353|255:354,1,82.5,8|0,3:2|0:0,0:0:0:0:
72,280,115050,2,0,P|112:280|150:265,1,82.5,0|0,3:2|3:2,0:0:0:0:
233,80,115250,5,12,3:2:0:0:
208,36,115350,1,0,3:2:0:0:
160,8,115450,1,0,3:2:0:0:
110,23,115550,1,0,3:2:0:0:
20,127,115650,5,8,3:2:0:0:
67,145,115750,1,0,3:2:0:0:
122,135,115850,1,0,3:2:0:0:
150,92,115950,1,0,3:2:0:0:
275,126,116050,6,0,B|302:134|302:134|391:103|391:103|432:113,1,165,8|0,3:2|3:2,0:0:0:0:
352,32,116350,1,0,3:2:0:0:
433,114,116450,2,0,B|445:126|445:126|431:190,1,82.5,12|0,0:2|0:0,0:0:0:0:
496,336,116650,2,0,B|484:324|484:324|497:259,1,82.5,8|8,3:0|3:0,0:0:0:0:
345,231,116850,6,0,B|279:189|222:263|260:242|207:320|123:278,1,247.5,12|0,0:0|3:2,0:0:0:0:
32,326,117250,5,12,0:0:0:0:
0,254,117350,1,0,3:2:0:0:
25,183,117450,1,0,3:2:0:0:
101,162,117550,1,0,3:2:0:0:
169,203,117650,6,0,P|203:130|181:52,1,165,12|0,0:0|3:2,0:0:0:0:
108,33,117950,1,0,3:2:0:0:
227,125,118050,2,0,B|245:120|245:120|271:88|271:88|293:83,1,82.5,12|0,0:0|3:2,0:0:0:0:
361,219,118250,2,0,B|379:224|379:224|405:256|405:256|427:260,1,82.5,0|0,3:2|3:2,0:0:0:0:
508,166,118450,1,12,0:0:0:0:
508,166,118650,6,0,L|501:126,2,41.25,8|8|0,3:0|3:0|3:2,0:0:0:0:
427,260,118850,2,0,L|420:300,2,41.25,8|8|0,3:3|3:3|3:2,0:0:0:0:
279,208,119050,2,0,L|197:221,1,82.5,12|0,0:0|0:0,0:0:0:0:
38,358,119250,1,8,3:3:0:0:
58,361,119300,1,8,3:3:0:0:
78,364,119350,1,0,3:3:0:0:
98,368,119400,1,0,3:3:0:0:
118,370,119450,2,0,L|159:362,3,41.25,8|8|0|0,3:3|3:3|3:0|3:0,0:0:0:0:
169,365,119650,6,0,B|177:323|177:323|155:289,1,82.5,12|0,0:0|0:0,0:0:0:0:
265,132,119850,2,0,B|257:174|257:174|278:207,1,82.5,8|8,0:0|0:0,0:0:0:0:
376,357,120050,6,0,L|473:347,1,82.5,4|2,3:1|0:0,0:0:0:0:
185,232,120250,1,10,0:0:0:0:
210,303,120350,1,2,0:0:0:0:
147,345,120450,2,0,L|50:335,1,82.5,2|2,3:2|3:2,0:0:0:0:
307,215,120650,2,0,L|404:205,1,82.5,10|2,0:0|3:2,0:0:0:0:
212,15,120850,6,0,P|196:55|202:124,1,98.9999969787599,2|2,3:2|3:2,0:0:0:0:
306,131,121050,2,0,P|322:91|316:22,1,98.9999969787599,10|2,0:0|0:0,0:0:0:0:
105,61,121250,2,0,P|102:110|119:156,1,98.9999969787599,2|2,3:2|3:2,0:0:0:0:
419,95,121450,2,0,P|421:45|404:0,1,98.9999969787599,10|2,0:0|0:0,0:0:0:0:
235,0,121650,6,0,L|239:111,1,98.9999969787599,2|2,3:2|0:0,0:0:0:0:
329,269,121850,5,10,0:0:0:0:
424,269,121950,1,2,0:0:0:0:
329,107,122050,5,2,3:2:0:0:
284,188,122150,1,2,3:2:0:0:
470,188,122250,5,10,0:0:0:0:
424,107,122350,1,2,3:2:0:0:
329,267,122450,6,0,B|318:317|318:317|337:373,1,98.9999969787599,2|2,0:0|3:2,0:0:0:0:
146,210,122650,2,0,B|157:160|157:160|138:104,1,98.9999969787599,10|2,0:0|3:2,0:0:0:0:
8,265,122850,5,2,3:2:0:0:
163,334,122950,1,2,3:2:0:0:
235,275,123050,5,10,0:0:0:0:
346,234,123150,1,2,0:0:0:0:
441,286,123250,6,0,L|431:395,1,98.9999969787599,6|2,3:2|0:0,0:0:0:0:
276,169,123450,2,0,L|286:60,1,98.9999969787599,10|2,0:0|0:0,0:0:0:0:
499,229,123650,2,0,L|489:338,1,98.9999969787599,2|2,3:2|3:2,0:0:0:0:
218,219,123850,2,0,L|228:110,1,98.9999969787599,10|2,0:0|3:2,0:0:0:0:
390,7,124050,5,2,3:2:0:0:
390,7,124150,1,2,3:2:0:0:
390,7,124250,1,10,0:0:0:0:
434,90,124350,1,2,0:0:0:0:
378,170,124450,1,2,3:2:0:0:
284,162,124550,1,2,3:2:0:0:
228,242,124650,1,10,0:0:0:0:
272,325,124750,1,2,0:0:0:0:
369,332,124850,6,0,L|485:339,1,98.9999969787599,2|2,3:2|0:0,0:0:0:0:
512,196,125050,5,10,0:0:0:0:
435,81,125150,1,2,0:0:0:0:
357,40,125250,5,2,3:2:0:0:
276,182,125350,1,2,3:2:0:0:
195,219,125450,5,10,0:2:0:0:
121,123,125550,1,2,3:2:0:0:
30,147,125650,6,0,B|12:194|12:194|29:254,1,98.9999969787599,2|2,3:2|3:2,0:0:0:0:
247,384,125850,2,0,B|265:337|265:337|248:277,1,98.9999969787599,10|2,0:0|3:2,0:0:0:0:
270,26,126050,2,0,B|252:73|252:73|269:133,1,98.9999969787599,2|2,3:2|3:2,0:0:0:0:
487,263,126250,2,0,B|505:216|505:216|488:156,1,98.9999969787599,10|2,0:0|0:2,0:0:0:0:
417,31,126450,5,6,3:2:0:0:
344,78,126550,1,2,0:2:0:0:
270,30,126650,2,0,L|165:21,1,98.9999969787599,10|2,0:0|0:0,0:0:0:0:
25,240,126850,5,2,3:2:0:0:
98,287,126950,1,2,3:2:0:0:
172,239,127050,2,0,L|277:230,1,98.9999969787599,10|2,0:0|3:2,0:0:0:0:
440,34,127250,5,2,3:2:0:0:
349,107,127350,1,2,3:2:0:0:
254,43,127450,2,0,L|149:34,1,98.9999969787599,10|2,0:0|0:0,0:0:0:0:
6,249,127650,5,2,3:2:0:0:
97,322,127750,1,2,3:2:0:0:
192,258,127850,2,0,L|297:249,1,98.9999969787599,10|2,0:0|0:0,0:0:0:0:
473,219,128050,6,0,P|495:270|479:334,1,98.9999969787599,6|2,3:2|0:0,0:0:0:0:
356,368,128250,5,10,0:0:0:0:
310,280,128350,1,2,0:0:0:0:
365,199,128450,2,0,L|379:90,1,98.9999969787599,2|2,3:2|3:2,0:0:0:0:
160,0,128650,5,10,0:0:0:0:
206,88,128750,1,2,3:2:0:0:
151,169,128850,2,0,L|137:278,1,98.9999969787599,2|2,0:0|3:2,0:0:0:0:
0,103,129050,5,10,0:0:0:0:
34,12,129150,1,2,3:2:0:0:
151,169,129250,5,2,0:0:0:0:
55,185,129350,1,2,3:2:0:0:
160,0,129450,5,10,0:0:0:0:
206,88,129550,1,2,3:2:0:0:
286,22,129650,6,0,L|395:4,1,98.9999969787599,6|2,3:2|0:0,0:0:0:0:
512,141,129850,5,10,0:0:0:0:
461,199,129950,1,2,0:0:0:0:
383,166,130050,2,0,L|274:148,1,98.9999969787599,2|2,3:2|3:2,0:0:0:0:
121,265,130250,5,10,0:2:0:0:
185,347,130350,1,2,3:2:0:0:
275,317,130450,2,0,L|399:298,1,98.9999969787599,2|2,3:2|3:2,0:0:0:0:
512,112,130650,5,10,0:0:0:0:
452,226,130750,1,2,0:0:0:0:
359,122,130850,1,2,3:2:0:0:
359,122,130950,1,2,3:2:0:0:
273,153,131050,2,0,B|259:107|259:107|275:46,1,98.9999969787599,10|2,0:0|3:2,0:0:0:0:
143,127,131250,6,0,L|29:145,1,98.9999969787599,6|2,3:2|0:0,0:0:0:0:
371,158,131450,2,0,L|485:176,1,98.9999969787599,10|2,0:0|0:0,0:0:0:0:
118,284,131650,2,0,L|4:302,1,98.9999969787599,2|2,3:2|3:2,0:0:0:0:
402,316,131850,2,0,L|516:334,1,98.9999969787599,10|2,0:0|3:2,0:0:0:0:
252,384,132050,6,0,B|238:338|238:338|254:277,1,98.9999969787599,2|2,0:0|3:2,0:0:0:0:
355,162,132250,1,10,0:0:0:0:
355,162,132350,1,2,3:2:0:0:
209,45,132450,2,0,P|154:30|110:37,1,98.9999969787599,10|2,0:0|3:2,0:0:0:0:
42,226,132650,2,0,P|96:240|141:234,1,98.9999969787599,10|10,0:0|3:2,0:0:0:0:
394,68,132850,6,0,P|315:67|245:199,1,197.99999395752,12|0,0:0|3:2,0:0:0:0:
243,152,133150,1,0,3:2:0:0:
506,257,133250,2,0,P|450:178|355:172,1,197.99999395752,8|2,0:0|0:0,0:0:0:0:
355,171,133500,1,2,0:0:0:0:
355,171,133550,1,2,0:0:0:0:
355,171,133600,1,2,0:0:0:0:
355,171,133650,6,0,L|338:370,1,197.99999395752,2|0,3:2|3:2,0:0:0:0:
202,172,133950,1,2,3:2:0:0:
211,261,134050,2,0,L|221:365,1,98.9999969787599,8|0,0:0|3:2,0:0:0:0:
349,104,134250,2,0,L|339:208,1,98.9999969787599,2|0,3:2|0:2,0:0:0:0:
220,359,134450,5,2,3:2:0:0:
125,373,134550,1,8,0:0:0:0:
116,275,134650,1,0,3:2:0:0:
211,261,134750,1,0,3:2:0:0:
40,331,134850,6,0,P|30:267|42:229,1,98.9999969787599,8|0,0:0|3:2,0:0:0:0:
292,213,135050,2,0,P|302:277|290:315,1,98.9999969787599,8|8,0:0|0:0,0:0:0:0:
111,125,135250,2,0,L|50:119,3,49.4999984893799,8|8|0|0,3:3|3:3|3:2|3:2,0:0:0:0:
234,60,135450,2,0,L|295:54,3,49.4999984893799,8|8|0|0,3:3|3:3|3:2|3:2,0:0:0:0:
151,10,135650,6,0,B|97:161|236:132|172:312,1,296.99999093628,8|0,0:0|0:0,0:0:0:0:
116,370,136050,1,4,3:2:0:0:
401,19,138250,5,8,3:3:0:0:
401,19,138300,1,0,3:2:0:0:
401,19,138350,1,8,3:3:0:0:
472,67,138450,2,0,P|462:114|454:177,1,98.9999969787599,8|0,0:0|0:0,0:0:0:0:
388,226,138650,1,0,3:2:0:0:
388,226,138700,1,0,3:2:0:0:
388,226,138750,2,0,L|394:274,5,49.4999984893799,8|0|8|0|8|0,0:0|0:0|3:3|3:2|3:0|3:2,0:0:0:0:
467,319,139050,1,8,0:0:0:0:
266,384,139250,5,4,3:2:0:0:
175,73,140650,5,8,3:3:0:0:
175,73,140700,1,0,3:2:0:0:
175,73,140750,1,8,3:3:0:0:
68,33,140850,2,0,P|77:80|85:143,1,98.9999969787599,12|0,0:0|0:0,0:0:0:0:
163,201,141050,1,0,3:2:0:0:
61,232,141150,2,0,B|128:240|128:240|164:283|164:283|237:293,1,197.99999395752,12|0,0:0|3:2,0:0:0:0:
365,365,141450,6,0,P|373:308|379:267,1,98.9999969787599,12|0,0:0|0:0,0:0:0:0:
281,121,141650,1,0,3:2:0:0:
281,121,141750,2,0,P|288:169|295:218,1,98.9999969787599,8|8,0:0|3:3,0:0:0:0:
461,316,141950,2,0,P|472:237|439:211,1,98.9999969787599,0|8,3:2|0:0,0:0:0:0:
277,356,142150,1,0,3:2:0:0:
277,356,142250,2,0,P|227:349|179:341,1,98.9999969787599,12|0,0:0|0:0,0:0:0:0:
0,384,142450,5,4,3:1:0:0:
53,324,142550,2,0,P|35:215|22:128,1,197.99999395752,8|8,0:0|0:0,0:0:0:0:
132,60,142850,2,0,P|123:104|114:170,1,98.9999969787599,0|8,3:2|0:0,0:0:0:0:
241,78,143050,2,0,P|245:22|201:-14,1,98.9999969787599,0|8,3:2|0:0,0:0:0:0:
349,123,143250,5,4,3:2:0:0:
349,123,143300,1,0,3:2:0:0:
349,123,143350,2,0,B|400:100|447:136|421:171|464:212|513:195,1,197.99999395752,8|8,0:0|0:0,0:0:0:0:
347,304,143650,2,0,P|356:253|364:193,1,98.9999969787599,0|8,3:2|0:2,0:0:0:0:
239,272,143850,2,0,P|245:321|255:369,1,98.9999969787599,0|8,3:2|0:0,0:0:0:0:
136,271,144050,6,0,P|145:222|152:173,1,98.9999969787599,4|8,3:2|0:0,0:0:0:0:
37,99,144250,1,0,3:0:0:0:
37,99,144300,1,0,3:0:0:0:
37,99,144350,2,0,P|43:148|53:196,1,98.9999969787599,8|0,0:0|3:2,0:0:0:0:
220,114,144550,2,0,P|159:78|125:96,1,98.9999969787599,8|0,0:0|3:2,0:0:0:0:
307,161,144750,2,0,P|353:153|404:145,1,98.9999969787599,8|4,0:0|3:2,0:0:0:0:
512,119,144900,1,0,3:2:0:0:
512,119,144950,6,0,P|503:167|497:217,1,98.9999969787599,8|0,0:0|3:2,0:0:0:0:
360,368,145150,2,0,P|343:314|372:268,1,98.9999969787599,12|0,0:0|3:2,0:0:0:0:
512,296,145350,5,8,0:2:0:0:
440,338,145450,1,4,3:2:0:0:
512,383,145550,1,8,0:0:0:0:
349,373,145650,6,0,P|297:365|145:342,2,197.99999395752,4|0|0,3:1|3:2|3:2,0:0:0:0:
499,187,146250,1,0,3:2:0:0:
499,187,146350,1,8,0:0:0:0:
409,144,146450,6,0,L|426:254,1,98.9999969787599,4|8,3:2|0:2,0:0:0:0:
483,98,146650,2,0,P|492:37|467:6,1,98.9999969787599,0|8,3:2|0:0,0:0:0:0:
323,170,146850,2,0,L|212:152,1,98.9999969787599,0|12,3:2|0:0,0:0:0:0:
115,205,147050,2,0,L|104:141,3,49.4999984893799,0|0|0|0,3:2|3:2|0:0|3:2,0:0:0:0:
7,294,147250,5,4,3:2:0:0:
101,309,147350,1,0,3:2:0:0:
196,324,147450,1,0,3:2:0:0:
335,191,147550,5,12,0:0:0:0:
263,233,147650,1,0,3:2:0:0:
335,278,147750,1,0,3:2:0:0:
257,132,147850,5,8,0:0:0:0:
257,132,147950,1,0,3:2:0:0:
257,132,148050,1,0,3:2:0:0:
340,60,148150,6,0,L|403:70,5,49.4999984893799,12|0|0|0|0|0,0:0|3:2|3:2|3:2|3:2|3:2,0:0:0:0:
251,17,148450,2,0,L|187:27,3,49.4999984893799,8|0|0|8,3:2|3:2|3:2|0:0,0:0:0:0:
102,0,148650,2,0,L|38:10,3,49.4999984893799,12|0|0|0,0:2|3:2|3:2|3:2,0:0:0:0:
115,0,148850,6,0,P|95:39|104:82,1,90.7500027694703,4|2,3:1|0:0,0:0:0:0:
161,241,149050,2,0,P|181:201|172:158,1,90.7500027694703,8|2,0:0|0:0,0:0:0:0:
95,344,149250,5,2,3:2:0:0:
194,321,149350,1,2,3:2:0:0:
293,207,149450,5,10,0:0:0:0:
378,233,149550,1,2,3:2:0:0:
464,256,149650,2,0,B|425:232|381:262|381:262|362:312|312:316,1,181.500005538941,2|8,3:2|0:0,0:0:0:0:
216,171,149950,2,0,B|268:163|293:122|293:122|272:167|292:206,1,181.500005538941,0|2,3:2|3:2,0:0:0:0:
366,164,150250,1,8,0:0:0:0:
366,164,150350,1,2,0:0:0:0:
210,82,150450,6,0,B|112:95|165:146|55:166,2,181.500005538941,2|8|2,3:2|0:0|3:2,0:0:0:0:
292,206,150950,5,0,3:2:0:0:
228,260,151050,2,0,B|200:222|200:222|213:180,1,90.7500027694703,8|2,0:0|0:0,0:0:0:0:
392,15,151250,6,0,P|463:58|436:137,1,181.500005538941,2|8,3:2|0:0,0:0:0:0:
493,199,151550,1,0,0:0:0:0:
453,281,151650,2,0,P|410:266|366:256,1,90.7500027694703,2|0,3:2|3:2,0:0:0:0:
304,352,151850,1,8,0:0:0:0:
216,376,151950,1,8,0:0:0:0:
168,224,152050,5,4,3:2:0:0:
136,318,152150,1,0,0:0:0:0:
64,256,152250,1,8,0:0:0:0:
96,162,152350,1,0,0:0:0:0:
273,262,152450,5,2,3:2:0:0:
355,284,152550,1,0,3:2:0:0:
416,226,152650,2,0,P|425:177|438:119,1,90.7500027694703,8|0,0:0|3:2,0:0:0:0:
503,24,152850,6,0,P|449:92|364:77,1,181.500005538941,2|8,3:2|0:0,0:0:0:0:
196,146,153150,2,0,P|281:131|334:199,1,181.500005538941,2|0,3:2|3:2,0:0:0:0:
432,343,153450,2,0,B|404:348|404:348|386:364|386:364|348:370,1,90.7500027694703,8|8,0:0|0:0,0:0:0:0:
250,259,153650,6,0,P|206:246|162:237,1,90.7500027694703,12|0,0:0|0:0,0:0:0:0:
93,325,153850,2,0,P|136:337|180:346,1,90.7500027694703,8|0,0:0|3:2,0:0:0:0:
89,138,154050,6,0,P|76:181|67:225,1,90.7500027694703,8|0,0:0|3:2,0:0:0:0:
326,326,154250,2,0,P|338:282|347:238,1,90.7500027694703,8|0,0:0|3:2,0:0:0:0:
424,104,154450,5,8,0:0:0:0:
396,24,154550,1,8,0:0:0:0:
312,8,154650,1,8,3:2:0:0:
248,68,154750,1,8,3:2:0:0:
263,153,154850,5,8,3:0:0:0:
215,222,154950,1,8,3:0:0:0:
129,233,155050,1,8,3:0:0:0:
66,173,155150,1,8,3:0:0:0:
74,87,155250,6,0,P|118:97|143:134,1,90.7500027694703,4|0,3:2|0:0,0:0:0:0:
182,311,155450,1,10,0:0:0:0:
106,347,155550,6,0,P|136:315|181:310,1,90.7500027694703,2|2,0:2|3:2,0:0:0:0:
362,260,155750,5,2,3:2:0:0:
421,321,155850,2,0,P|336:339|279:274,1,181.500005538941,10|2,0:0|3:2,0:0:0:0:
378,162,156150,2,0,B|419:153|419:153|424:145|424:145|462:135,2,90.7500027694703,2|8|2,0:0|0:0|3:2,0:0:0:0:
316,47,156450,5,0,3:2:0:0:
230,10,156550,1,0,3:2:0:0:
169,119,156650,5,10,0:0:0:0:
92,152,156750,1,2,0:0:0:0:
16,88,156850,6,0,B|68:116|68:116|44:236,1,181.500005538941,2|10,3:2|0:2,0:0:0:0:
111,326,157150,2,0,B|70:336|70:336|68:341|68:341|2:358,1,90.7500027694703,2|2,0:2|3:2,0:0:0:0:
181,221,157350,5,2,3:2:0:0:
251,269,157450,2,0,P|337:275|370:197,1,181.500005538941,10|2,0:2|3:2,0:0:0:0:
398,109,157750,2,0,P|443:118|485:133,2,90.7500027694703,0|8|8,3:2|0:0|0:0,0:0:0:0:
255,54,158050,5,12,3:2:0:0:
246,144,158150,1,0,3:2:0:0:
155,246,158250,5,8,0:2:0:0:
176,335,158350,1,0,3:2:0:0:
251,269,158450,6,0,B|286:279|330:284|330:284|375:333|330:372,1,181.500005538941,12|8,0:0|0:0,0:0:0:0:
176,335,158750,2,0,P|168:290|155:246,1,90.7500027694703,2|0,0:0|3:2,0:0:0:0:
320,82,158950,5,2,3:2:0:0:
271,18,159050,2,0,P|199:67|214:151,1,181.500005538941,10|2,0:0|3:2,0:0:0:0:
366,232,159350,2,0,P|409:219|453:211,2,90.7500027694703,2|10|2,0:0|0:0|3:2,0:0:0:0:
290,377,159650,5,2,3:2:0:0:
157,268,159750,1,2,3:2:0:0:
245,248,159850,5,10,0:0:0:0:
128,360,159950,1,10,0:0:0:0:
15,258,160050,6,0,B|24:196|24:196|63:165|63:165|74:96,1,181.500005538941,12|0,0:0|3:2,0:0:0:0:
171,28,160350,2,0,B|142:2|142:2|154:52,1,90.7500027694703,8|0,0:0|3:2,0:0:0:0:
262,127,160550,5,0,3:2:0:0:
194,248,160650,2,0,P|169:210|174:166,1,90.7500027694703,12|8,0:0|3:3,0:0:0:0:
174,166,160800,1,8,3:3:0:0:
174,166,160850,1,0,3:2:0:0:
265,40,160950,6,0,B|299:91|355:88|355:88|379:51|410:41,1,181.500005538941,12|0,0:0|0:0,0:0:0:0:
501,146,161250,5,10,0:0:0:0:
351,237,161350,1,8,0:0:0:0:
442,252,161450,5,8,3:0:0:0:
287,180,161550,1,8,3:0:0:0:
240,331,161650,2,0,B|260:353|260:353|200:341,1,90.7500027694703,4|0,3:2|0:0,0:0:0:0:
38,384,161850,6,0,B|19:344|47:312|47:312|86:269|58:215,1,181.500005538941,10|0,0:0|0:0,0:0:0:0:
91,134,162150,1,2,3:2:0:0:
0,170,162250,2,0,P|34:142|78:142,1,90.7500027694703,10|0,0:0|0:0,0:0:0:0:
243,77,162450,5,4,3:2:0:0:
180,3,162550,2,0,P|199:91|213:181,1,181.500005538941,2|0,0:0|3:2,0:0:0:0:
297,246,162850,5,2,0:0:0:0:
289,284,162950,1,0,3:2:0:0:
198,379,163050,5,10,0:0:0:0:
163,260,163150,1,2,0:0:0:0:
289,284,163250,6,0,B|359:268|359:268|375:238|375:238|448:220,1,181.500005538941,4|10,3:2|0:0,0:0:0:0:
510,275,163550,2,0,P|477:305|432:304,2,90.7500027694703,2|2|2,0:0|3:2|3:2,0:0:0:0:
362,340,163850,6,0,B|330:244|408:265|370:165,1,181.500005538941,10|4,0:0|3:2,0:0:0:0:
298,210,164150,1,2,0:0:0:0:
217,174,164250,2,0,B|262:191|262:191|265:199|265:199|298:210,1,90.7500027694703,8|0,0:0|0:0,0:0:0:0:
435,84,164450,5,8,0:0:0:0:
379,15,164550,1,2,0:0:0:0:
247,91,164650,5,8,3:0:0:0:
217,174,164750,1,0,3:2:0:0:
148,117,164850,6,0,B|129:93|129:93|175:71|234:109|216:175,1,181.500005538941,4|8,3:2|0:0,0:0:0:0:
159,362,165250,6,0,B|122:352|122:352|117:346|117:346|73:336,1,90.7500027694703,10|0,3:2|3:2,0:0:0:0:
331,222,165450,2,0,B|368:212|368:212|373:206|373:206|416:196,1,90.7500027694703,8|0,0:2|3:2,0:0:0:0:
379,357,165650,5,12,0:0:0:0:
358,366,165700,1,8,0:0:0:0:
336,368,165750,1,0,3:2:0:0:
314,361,165800,1,0,3:2:0:0:
297,347,165850,2,0,L|287:302,3,45.3750013847352,8|8|0|0,0:0|0:0|3:2|3:2,0:0:0:0:
216,173,166050,5,8,0:0:0:0:
195,164,166100,1,8,0:0:0:0:
173,162,166150,1,0,3:2:0:0:
151,169,166200,1,0,3:2:0:0:
134,183,166250,2,0,L|124:227,3,45.3750013847352,8|0|8|0,3:2|3:2|3:2|3:2,0:0:0:0:
100,302,166450,6,0,P|76:214|52:126,2,181.500005538941,12|8|8,0:2|0:0|0:2,0:0:0:0:
246,91,167050,2,0,P|290:105|334:113,1,90.7500027694703,8|0,0:2|3:2,0:0:0:0:
459,231,167250,5,8,0:0:0:0:
440,258,167300,1,8,0:0:0:0:
410,275,167350,1,0,3:2:0:0:
377,278,167400,1,0,3:2:0:0:
346,265,167450,2,0,P|342:243|337:221,3,45.3750013847352,8|8|0|0,3:0|3:0|3:2|3:2,0:0:0:0:
246,91,167650,5,8,3:0:0:0:
223,95,167700,1,8,3:0:0:0:
201,100,167750,1,0,3:2:0:0:
179,105,167800,1,0,3:2:0:0:
157,110,167850,2,0,P|112:100|68:91,1,90.7500027694703,8|2,0:0|0:0,0:0:0:0:
0,322,168050,6,0,P|80:348|423:-11,1,660,4|0,3:1|3:2,0:0:0:0:
425,0,169050,5,8,0:0:0:0:
321,0,169150,2,0,P|304:62|312:181,1,165,0|0,3:2|3:2,0:2:0:0:
497,192,169450,2,0,P|507:137|498:93,1,82.5,10|2,0:0|3:2,0:0:0:0:
390,237,169650,5,4,3:2:0:0:
430,336,169750,1,2,0:0:0:0:
430,336,169800,1,2,0:0:0:0:
430,336,169850,2,0,L|519:332,1,82.5,10|0,0:0|0:0,0:0:0:0:
390,237,170050,5,0,3:2:0:0:
305,196,170150,1,0,3:2:0:0:
220,239,170250,1,10,0:0:0:0:
206,332,170350,1,0,0:0:0:0:
120,371,170450,5,2,3:2:0:0:
120,371,170550,1,2,0:0:0:0:
29,282,170650,1,10,0:0:0:0:
29,282,170750,1,2,3:2:0:0:
130,200,170850,1,2,0:0:0:0:
130,200,170950,1,2,3:2:0:0:
84,120,171050,2,0,B|43:108|43:108|-4:120,1,82.5,10|2,0:0|0:0,0:0:0:0:
201,5,171250,6,0,P|187:62|195:103,1,82.5,2|0,3:2|0:0,0:0:0:0:
328,172,171450,2,0,P|342:115|334:74,1,82.5,8|2,0:0|0:0,0:0:0:0:
223,199,171650,1,0,3:2:0:0:
295,263,171750,1,0,3:2:0:0:
211,308,171850,2,0,B|197:348|197:348|213:386,1,82.5,8|0,0:0|0:0,0:0:0:0:
447,280,172050,6,0,P|358:288|294:362,1,165,0|8,3:2|0:2,0:0:0:0:
120,156,172350,2,0,P|181:209|262:213,1,165,0|0,3:2|3:2,0:0:0:0:
333,138,172650,2,0,P|337:84|333:43,1,82.5,8|2,0:0|0:0,0:0:0:0:
149,46,172850,6,0,B|113:84|113:84|121:170,1,123.75,0|2,3:2|0:0,0:0:0:0:
210,180,173050,2,0,L|204:131,3,41.25,10|2|2|2,0:0|0:0|0:0|0:0,0:0:0:0:
16,95,173250,2,0,L|22:46,3,41.25,2|2|2|2,3:2|0:0|3:2|0:0,0:0:0:0:
119,155,173450,2,0,B|126:202|126:202|104:241,1,82.5,10|2,0:0|0:0,0:0:0:0:
0,357,173650,5,2,3:2:0:0:
17,345,173700,1,2,0:0:0:0:
36,338,173750,1,2,0:0:0:0:
56,335,173800,1,2,0:0:0:0:
79,336,173850,2,0,P|110:348|131:360,3,41.25,8|2|2|2,0:0|0:0|3:2|0:0,0:0:0:0:
203,287,174050,5,2,0:0:0:0:
247,273,174100,1,2,0:0:0:0:
290,293,174150,1,2,3:2:0:0:
332,318,174200,1,2,0:0:0:0:
375,306,174250,2,0,L|428:299,3,41.25,10|0|2|0,0:0|0:0|0:0|0:0,0:0:0:0:
512,262,174450,6,0,P|465:280|354:184,1,181.500005538941,6|10,3:1|0:1,0:0:0:0:
272,72,174750,2,0,P|266:120|252:175,1,90.7500027694703,2|0,0:1|0:0,0:0:0:0:
171,91,174950,1,2,3:2:0:0:
125,278,175050,2,0,P|131:230|145:175,1,90.7500027694703,10|0,0:1|0:0,0:0:0:0:
63,356,175250,6,0,P|106:328|207:335,1,136.125004154205,2|2,3:1|0:1,0:0:0:0:
258,380,175450,2,0,B|281:341|281:341|268:295,1,90.7500027694703,8|2,0:0|3:1,0:0:0:0:
154,126,175650,5,2,0:1:0:0:
293,92,175750,1,0,3:2:0:0:
253,213,175850,1,8,0:0:0:0:
154,126,175950,1,2,0:0:0:0:
260,19,176050,6,0,B|330:28|330:28|366:64|366:64|451:74,1,181.500005538941,0|8,3:2|0:0,0:0:0:0:
425,71,176350,1,2,0:0:0:0:
266,206,176450,2,0,P|265:152|279:111,1,90.7500027694703,0|0,3:2|3:3,0:0:0:0:
512,12,176650,2,0,P|513:66|486:154,1,136.125004154205,10|0,0:0|0:0,0:0:0:0:
432,191,176850,2,0,L|333:167,1,90.7500027694703,2|0,3:2|0:0,0:0:0:0:
182,77,177050,6,0,L|129:66,3,45.3750013847352,8|2|2|2,0:0|0:0|3:2|0:0,0:0:0:0:
59,102,177250,2,0,B|53:57|53:57|73:16,1,90.7500027694703,0|0,0:0|3:2,0:0:0:0:
269,107,177450,1,10,0:0:0:0:
199,169,177550,1,2,0:0:0:0:
255,257,177650,6,0,P|341:252|424:183,1,181.500005538941,2|10,3:2|0:0,0:0:0:0:
77,315,177950,2,0,P|163:320|246:389,1,181.500005538941,2|0,0:0|3:2,0:0:0:0:
20,160,178250,2,0,P|7:215|5:255,1,90.7500027694703,8|2,0:0|0:0,0:0:0:0:
199,228,178450,5,2,3:2:0:0:
213,134,178550,1,2,0:0:0:0:
117,123,178650,1,10,0:0:0:0:
103,217,178750,1,2,0:0:0:0:
206,246,178850,5,2,3:2:0:0:
206,246,178950,1,2,3:2:0:0:
111,106,179050,1,10,0:0:0:0:
111,106,179150,1,2,0:0:0:0:
258,18,179250,6,0,B|372:20|318:91|444:85,2,181.500005538941,2|8|0,3:2|0:0|3:2,0:0:0:0:
258,18,179750,1,2,3:2:0:0:
111,106,179850,6,0,P|69:117|7:119,1,90.7500027694703,8|0,0:0|0:0,0:0:0:0:
4,30,180050,2,0,P|47:18|93:15,1,90.7500027694703,0|0,3:2|0:0,0:0:0:0:
258,193,180250,6,0,P|304:206|371:212,1,107.249995090485,10|2,0:0|3:2,0:0:0:0:
389,116,180450,2,0,P|343:103|276:97,1,107.249995090485,2|2,0:0|3:2,0:0:0:0:
154,338,180650,6,0,P|108:351|41:357,1,115.49999647522,10|0,0:0|0:0,0:0:0:0:
0,200,180850,2,0,P|91:182|172:259,2,181.500005538941,14|10|0,3:1|0:1|0:0,0:0:0:0:
67,272,181350,1,2,3:1:0:0:
180,117,181450,2,0,P|191:58|188:16,1,90.7500027694703,10|0,0:1|0:0,0:0:0:0:
339,209,181650,6,0,B|189:220|137:235,1,181.500005538941,2|8,3:1|0:0,0:0:0:0:
9,48,181950,2,0,B|159:37|211:22,1,181.500005538941,2|0,3:1|3:2,0:0:0:0:
230,115,182250,2,0,B|186:134|186:134|142:122,1,90.7500027694703,10|0,0:1|0:0,0:0:0:0:
360,17,182450,6,0,P|384:86|10:302,1,635.250019386292,4|0,3:2|0:0,0:0:0:0:
9,301,183250,5,2,3:2:0:0:
79,236,183350,1,2,0:0:0:0:
159,284,183450,2,0,L|261:305,1,90.7500027694703,10|2,0:0|3:2,0:0:0:0:
487,200,183650,5,2,0:0:0:0:
422,106,183750,1,2,3:2:0:0:
331,181,183850,2,0,L|229:202,1,90.7500027694703,10|2,0:0|0:0,0:0:0:0:
154,140,184050,6,0,P|135:72|163:0,1,136.125004154205,6|2,3:2|0:0,0:2:0:0:
154,11,184250,5,10,0:0:0:0:
256,74,184350,1,2,0:0:0:0:
353,11,184450,2,0,P|401:10|460:16,1,90.7500027694703,2|2,3:2|3:2,0:0:0:0:
325,207,184650,5,10,0:0:0:0:
250,166,184750,1,2,0:0:0:0:
174,211,184850,2,0,P|126:212|67:206,1,90.7500027694703,2|0,3:2|0:0,0:0:0:0:
185,329,185050,5,10,0:0:0:0:
253,371,185150,1,2,3:2:0:0:
314,324,185250,2,0,P|362:323|421:329,1,90.7500027694703,2|2,0:0|3:2,0:0:0:0:
512,167,185450,2,0,P|464:168|405:162,1,90.7500027694703,8|2,0:0|0:0,0:0:0:0:
512,338,185650,6,0,P|460:267|353:245,1,181.500005538941,2|10,3:2|0:0,0:2:0:0:
373,242,186050,1,0,3:2:0:0:
283,365,186150,2,0,P|267:285|258:177,1,181.500005538941,0|0,3:2|0:0,0:0:0:0:
89,255,186450,2,0,P|99:305|98:353,1,90.7500027694703,2|0,3:2|0:0,0:0:0:0:
9,296,186650,5,10,0:0:0:0:
172,227,186750,1,2,0:0:0:0:
106,148,186850,2,0,P|58:138|12:151,1,90.7500027694703,2|2,3:2|3:2,0:0:0:0:
219,308,187050,5,10,0:0:0:0:
77,234,187150,1,2,3:2:0:0:
223,141,187250,6,0,L|212:77,3,45.3750013847352,4|2|2|2,3:1|0:0|0:0|0:0,0:0:0:0:
316,82,187450,2,0,L|326:145,3,45.3750013847352,10|2|2|2,0:0|0:0|0:0|0:0,0:0:0:0:
254,15,187650,1,2,3:2:0:0:
413,86,187750,1,2,3:2:0:0:
281,206,187850,2,0,L|291:269,3,45.3750013847352,10|2|2|2,0:0|0:0|0:0|0:0,0:0:0:0:
483,194,188050,5,2,3:2:0:0:
460,180,188100,1,2,0:0:0:0:
432,181,188150,1,2,0:0:0:0:
409,196,188200,1,2,0:0:0:0:
394,217,188250,1,10,0:2:0:0:
402,249,188300,1,2,0:0:0:0:
420,270,188350,2,0,L|413:324,1,45.3750013847352,2|0,3:2|0:0,0:0:0:0:
460,379,188450,6,0,L|523:368,3,45.3750013847352,2|2|2|2,0:0|0:0|3:2|0:0,0:0:0:0:
366,384,188650,2,0,L|302:373,3,45.3750013847352,10|2|2|0,0:0|0:0|0:0|0:0,0:0:0:0:
244,330,188850,5,6,3:2:0:0:
230,333,188950,1,2,0:0:0:0:
156,359,189050,5,10,0:0:0:0:
142,356,189150,1,0,0:0:0:0:
67,383,189250,5,2,3:2:0:0:
53,380,189350,1,2,3:2:0:0:
168,274,189450,2,0,P|159:221|152:179,1,90.7500027694703,10|2,0:0|0:0,0:0:0:0:
324,172,189650,5,2,3:2:0:0:
252,214,189750,1,0,0:0:0:0:
324,259,189850,1,8,0:0:0:0:
299,215,189950,1,0,3:2:0:0:
157,284,190050,6,0,P|113:272|68:265,1,90.7500027694703,2|0,0:0|3:2,0:0:0:0:
161,94,190250,2,0,P|117:105|72:112,1,90.7500027694703,10|2,0:0|0:0,0:0:0:0:
278,42,190450,6,0,B|377:19|347:93|457:68,1,181.500005538941,4|8,3:2|0:0,0:0:0:0:
502,2,190750,1,2,0:0:0:0:
502,2,190800,1,2,0:0:0:0:
502,2,190850,2,0,P|480:98|462:189,1,181.500005538941,0|10,3:2|0:0,0:0:0:0:
440,178,191250,6,0,P|447:218|459:271,1,90.7500027694703,2|2,3:2|0:0,0:0:0:0:
338,346,191450,2,0,P|348:301|356:257,1,90.7500027694703,10|2,0:0|3:2,0:0:0:0:
436,353,191650,1,2,0:2:0:0:
436,353,191750,1,2,3:2:0:0:
255,284,191850,2,0,P|210:294|166:302,1,90.7500027694703,10|2,0:0|0:2,0:0:0:0:
0,207,192050,5,6,3:2:0:0:
19,113,192150,1,2,0:2:0:0:
113,133,192250,1,10,0:0:0:0:
93,226,192350,1,2,0:0:0:0:
56,170,192450,6,0,L|36:76,1,90.7500027694703,0|0,3:2|3:2,0:0:0:0:
203,0,192650,2,0,L|184:88,1,90.7500027694703,10|10,0:0|0:0,0:0:0:0:
425,161,192850,6,0,P|344:172|358:266,1,181.500005538941,12|0,0:0|3:2,0:0:0:0:
497,349,193150,5,8,0:0:0:0:
417,301,193250,1,8,3:0:0:0:
494,258,193350,1,8,3:0:0:0:
335,348,193450,6,0,B|236:371|266:297|156:322,1,185.625007081032,8|0,0:0|0:0,0:0:0:0:
152,329,193650,6,0,P|142:278|125:203,1,103.125,4|2,3:2|0:0,0:0:0:0:
306,167,193850,1,2,0:0:0:0:
237,91,193950,2,0,P|226:141|216:191,2,103.125,6|2|2,3:2|0:0|0:0,0:0:0:0:
353,43,194250,6,0,B|281:8|205:58|237:97|175:162|93:131,1,288.75,4|0,3:1|0:0,0:0:0:0:
96,141,194650,6,0,L|125:0,1,98.9999969787599,8|0,3:0|3:2,0:0:0:0:
9,183,194850,2,0,L|29:279,1,98.9999969787599,12|0,0:0|3:2,0:0:0:0:
231,347,195050,2,0,P|177:316|132:326,1,98.9999969787599,8|0,3:3|3:2,0:0:0:0:
392,267,195250,5,6,3:2:0:0:
315,310,195350,1,2,0:0:0:0:
395,358,195450,1,2,0:0:0:0:
310,192,195550,5,4,3:2:0:0:
327,111,195650,1,2,0:0:0:0:
344,30,195750,1,2,0:0:0:0:
457,132,195850,6,0,B|352:152|352:152|315:218|315:218|220:242,1,280.500005350113,4|8,3:1|3:0,0:0:0:0:
214,230,196350,5,0,3:0:0:0:
191,216,196400,1,0,3:0:0:0:
163,217,196450,1,8,3:0:0:0:
140,232,196500,1,8,3:0:0:0:
130,258,196550,1,0,3:2:0:0:
133,285,196600,1,0,3:2:0:0:
151,306,196650,1,10,0:0:0:0:
119,379,196850,6,0,P|94:263|72:159,1,197.99999395752,12|0,0:0|3:2,0:0:0:0:
165,44,197150,1,12,0:0:0:0:
165,44,197200,1,0,3:2:0:0:
165,44,197250,2,0,P|155:87|138:169,1,98.9999969787599,8|8,3:3|3:3,0:0:0:0:
263,323,197450,6,0,P|278:185|415:166,1,296.99999093628,4|8,3:1|0:0,0:0:0:0:
459,108,197850,5,8,3:0:0:0:
459,108,197900,1,0,3:0:0:0:
459,108,197950,2,0,P|468:151|485:233,1,98.9999969787599,8|8,3:0|0:0,0:0:0:0:
337,113,198150,1,0,3:2:0:0:
337,113,198250,2,0,P|347:64|357:16,1,98.9999969787599,8|8,3:0|3:0,0:0:0:0:
232,55,198450,6,0,B|183:31|131:65|153:91|111:135|55:114,1,197.99999395752,12|8,0:0|0:0,0:0:0:0:
173,246,198750,1,2,0:0:0:0:
88,308,198850,2,0,P|77:250|61:182,1,98.9999969787599,8|0,0:0|3:2,0:0:0:0:
184,359,199050,2,0,P|195:301|210:233,1,98.9999969787599,8|0,0:2|3:2,0:0:0:0:
411,229,199250,5,8,0:0:0:0:
388,215,199300,1,8,0:0:0:0:
360,216,199350,1,0,3:0:0:0:
337,231,199400,1,0,3:0:0:0:
327,257,199450,1,8,3:0:0:0:
330,284,199500,1,8,3:0:0:0:
348,305,199550,2,0,L|340:353,5,49.4999984893799,8|8|0|0|0|0,3:0|3:0|3:0|3:0|3:2|3:2,0:0:0:0:
260,335,199850,2,0,L|267:383,3,49.4999984893799,8|0|8|0,0:0|3:2|0:0|3:2,0:0:0:0:
189,264,200050,5,4,3:2:0:0:
189,264,200150,1,2,0:0:0:0:
189,264,200250,1,8,0:0:0:0:
93,284,200350,5,2,3:2:0:0:
93,284,200450,1,2,0:0:0:0:
93,284,200550,1,2,3:2:0:0:
62,363,200650,6,0,P|31:213|-4:49,1,296.99999093628,12|0,0:1|0:0,0:0:0:0:
193,49,201050,1,8,0:0:0:0:
115,0,201150,2,0,P|104:46|88:125,1,98.9999969787599,0|2,3:2|0:0,0:0:0:0:
272,156,201350,1,0,3:2:0:0:
195,223,201450,2,0,P|184:174|173:126,1,98.9999969787599,10|0,0:0|0:0,0:0:0:0:
280,163,201650,5,2,3:2:0:0:
360,147,201750,1,2,0:0:0:0:
441,132,201850,1,8,0:0:0:0:
512,283,201950,5,2,3:2:0:0:
432,234,202050,1,2,0:0:0:0:
509,191,202150,1,2,3:2:0:0:
434,340,202250,2,0,P|470:166|500:26,1,296.99999093628,12|0,0:1|3:2,0:0:0:0:
509,191,202650,5,8,0:0:0:0:
350,142,202750,2,0,B|228:130|278:222|146:196,1,197.99999395752,0|0,3:2|3:2,0:0:0:0:
67,67,203050,2,0,P|157:88|188:94,1,98.9999969787599,8|0,0:0|0:0,0:0:0:0:
251,265,203250,5,4,3:2:0:0:
159,306,203350,1,0,0:0:0:0:
169,199,203450,1,8,0:0:0:0:
235,371,203550,6,0,P|140:317|27:355,1,197.99999395752,0|0,3:2|3:2,0:0:0:0:
251,265,203850,2,0,P|270:193|280:156,1,98.9999969787599,12|0,0:1|0:0,0:0:0:0:
83,215,204050,2,0,P|64:143|54:106,1,98.9999969787599,0|0,3:2|3:2,0:0:0:0:
177,136,204250,5,8,0:0:0:0:
183,120,204350,1,0,3:2:0:0:
194,21,204450,2,0,P|145:-8|39:17,1,148.49999546814,8|0,3:2|0:0,0:0:0:0:
0,93,204650,2,0,B|90:75|62:130|160:114,1,148.49999546814,8|0,3:0|0:0,0:0:0:0:
228,248,204850,6,0,P|250:142|278:18,1,197.99999395752,4|0,3:2|0:0,0:0:0:0:
275,41,205150,1,2,0:2:0:0:
349,184,205250,2,0,P|401:199|458:194,1,98.9999969787599,8|0,0:2|0:0,0:0:0:0:
466,93,205450,2,0,P|414:78|357:83,1,98.9999969787599,0|0,0:0|3:2,0:0:0:0:
294,276,205650,5,2,3:2:0:0:
317,371,205750,1,8,0:0:0:0:
381,309,205850,2,0,B|328:317|328:317|295:346|295:346|204:359,1,148.49999546814,0|0,3:2|0:0,0:2:0:0:
158,384,206050,6,0,P|210:338|87:337,1,296.99999093628,8|2,0:0|0:0,0:0:0:0:
57,194,206450,6,0,P|135:211|266:239,1,197.99999395752,4|0,3:2|3:2,0:0:0:0:
250,235,206750,1,0,0:0:0:0:
178,124,206850,2,0,P|194:72|207:10,1,98.9999969787599,8|0,0:0|0:0,0:0:0:0:
414,204,207050,2,0,P|398:152|385:90,1,98.9999969787599,2|0,0:0|3:2,0:0:0:0:
322,1,207250,5,8,3:3:0:0:
280,89,207350,1,8,0:2:0:0:
307,189,207450,2,0,B|322:262|262:257|286:347,1,148.49999546814,0|0,3:2|0:0,0:0:0:0:
379,297,207650,6,0,P|431:285|497:277,1,98.9999969787599,8|0,0:0|3:2,0:0:0:0:
485,281,207800,1,8,3:0:0:0:
494,283,207850,1,0,3:2:0:0:
148,64,208050,5,4,3:2:0:0:
120,160,208150,1,0,3:2:0:0:
217,127,208250,2,0,P|119:110|22:88,1,197.99999395752,8|0,0:0|3:2,0:0:0:0:
86,302,208550,2,0,B|107:216|117:183,2,98.9999969787599,8|0|0,0:0|3:2|3:2,0:0:0:0:
209,235,208850,5,4,3:2:0:0:
215,239,208900,1,0,3:2:0:0:
222,242,208950,1,0,3:2:0:0:
301,318,209050,2,0,P|359:334|408:356,1,98.9999969787599,8|0,0:0|0:0,0:0:0:0:
336,145,209250,2,0,P|394:129|443:107,1,98.9999969787599,0|0,3:2|3:2,0:0:0:0:
507,250,209450,5,8,0:0:0:0:
414,240,209550,1,8,3:0:0:0:
336,145,209650,5,8,0:0:0:0:
339,120,209700,1,8,0:0:0:0:
343,96,209750,1,0,3:2:0:0:
347,71,209800,1,0,3:2:0:0:
350,50,209850,2,0,L|359:-9,3,49.4999984893799,8|8|0|0,3:0|3:0|3:2|3:2,0:0:0:0:
219,238,210050,5,8,3:0:0:0:
222,263,210100,1,8,3:0:0:0:
226,287,210150,1,0,3:2:0:0:
230,312,210200,1,0,3:2:0:0:
233,333,210250,2,0,L|242:392,3,49.4999984893799,8|8|0|0,3:0|3:0|3:2|3:2,0:0:0:0:
54,199,210450,5,4,3:2:0:0:
54,199,210850,6,0,L|102:189,1,49.4999984893799,2|2,0:0|0:0,0:0:0:0:
207,47,211250,6,0,B|267:58|267:58|281:86|281:86|336:96,1,148.49999546814,4|0,3:1|0:2,0:0:0:0:
351,102,211450,1,8,0:0:0:0:
466,74,211550,6,0,B|426:85|385:93|385:93|400:138|410:188,1,181.500005538941,2|0,3:2|3:2,0:0:0:0:
474,368,211850,2,0,P|499:331|493:287,1,90.7500027694703,8|0,0:0|3:2,0:0:0:0:
284,183,212050,6,0,B|186:166|218:230|110:218,1,181.500005538941,2|8,3:2|0:0,0:0:0:0:
238,315,212350,1,0,3:2:0:0:
178,380,212450,2,0,P|135:365|90:360,1,90.7500027694703,2|0,3:2|3:2,0:0:0:0:
111,218,212650,2,0,P|153:232|198:237,1,90.7500027694703,10|0,0:0|3:2,0:0:0:0:
324,59,212850,6,0,P|279:64|237:81,1,90.7500027694703,2|0,3:2|3:2,0:0:0:0:
161,49,213050,1,8,0:0:0:0:
15,182,213150,2,0,P|86:128|172:145,1,181.500005538941,2|0,3:2|3:2,0:0:0:0:
279,239,213450,2,0,P|322:228|367:219,1,90.7500027694703,10|0,0:0|3:2,0:0:0:0:
483,321,213650,6,0,B|516:363|516:363|390:338,1,181.500005538941,2|8,3:2|0:0,0:0:0:0:
177,222,213950,1,0,3:2:0:0:
177,222,214000,1,0,3:2:0:0:
177,222,214050,2,0,B|135:233|135:233|131:237|131:237|87:248,1,90.7500027694703,2|0,3:2|3:2,0:0:0:0:
197,335,214250,2,0,B|239:346|239:346|243:350|243:350|287:361,1,90.7500027694703,10|0,0:0|3:2,0:0:0:0:
388,158,214450,6,0,P|394:106|366:61,1,90.7500027694703,4|0,3:2|3:2,0:0:0:0:
449,27,214650,1,8,0:0:0:0:
440,240,214750,2,0,P|371:185|282:189,1,181.500005538941,2|0,3:2|3:2,0:0:0:0:
231,128,215050,1,10,0:0:0:0:
209,235,215150,1,0,3:2:0:0:
65,111,215250,6,0,P|109:101|152:88,1,90.7500027694703,2|0,3:2|3:2,0:0:0:0:
263,366,215450,6,0,P|227:310|162:296,1,136.125004154205,10|0,0:0|0:0,0:0:0:0:
151,301,215650,2,0,B|162:344|162:344|137:383,1,90.7500027694703,2|0,3:2|3:2,0:0:0:0:
30,201,215850,2,0,P|74:211|118:218,1,90.7500027694703,10|0,0:0|3:2,0:0:0:0:
280,59,216050,6,0,B|278:39|301:14|301:14|228:16|203:83|230:127,1,214.49999018097,4|8,3:2|0:0,0:0:0:0:
347,229,216350,2,0,P|380:197|424:189,1,90.7500027694703,0|2,3:2|3:2,0:0:0:0:
474,128,216550,1,0,3:2:0:0:
501,292,216650,2,0,L|413:268,1,90.7500027694703,8|0,0:0|3:2,0:0:0:0:
274,347,216850,6,0,P|229:356|186:370,1,90.7500027694703,0|0,3:2|3:2,0:0:0:0:
32,245,217050,2,0,B|65:227|65:227|100:240|100:240|120:289|167:281,1,160.874992635727,12|0,0:2|0:0,0:0:0:0:
239,227,217250,5,8,3:3:0:0:
235,205,217300,1,0,3:0:0:0:
231,184,217350,1,8,3:0:0:0:
227,163,217400,1,0,3:0:0:0:
221,140,217450,6,0,B|245:29|245:29|267:70,1,160.874992635727,12|0,0:0|0:0,0:0:0:0:
267,70,217650,6,0,B|220:77|220:77|216:83|216:83|154:92,1,107.249995090485,4|0,3:1|3:2,0:0:0:0:
102,19,217850,1,8,0:0:0:0:
32,144,217950,2,0,B|18:194|61:219|61:219|151:195,1,181.500005538941,2|0,3:2|3:2,0:0:0:0:
232,338,218250,2,0,B|175:357|175:357|207:323,1,90.7500027694703,10|0,0:0|3:2,0:0:0:0:
261,158,218450,6,0,B|314:179|314:179|326:207|326:207|371:224,1,136.125004154205,2|0,3:2|0:0,0:0:0:0:
441,191,218650,2,0,P|452:148|435:102,1,90.7500027694703,8|0,0:0|0:0,0:0:0:0:
277,12,218850,5,2,3:2:0:0:
353,0,218950,1,0,3:2:0:0:
247,84,219050,2,0,L|157:69,1,90.7500027694703,10|0,0:0|3:2,0:0:0:0:
18,243,219250,6,0,B|-12:286|-12:286|132:250,1,181.500005538941,2|8,3:2|0:0,0:0:0:0:
176,309,219550,1,2,3:2:0:0:
261,170,219650,2,0,P|262:125|246:83,1,90.7500027694703,0|0,3:2|3:2,0:0:0:0:
156,103,219850,2,0,P|154:148|170:190,1,90.7500027694703,10|0,0:0|3:2,0:0:0:0:
320,360,220050,6,0,B|358:293|435:308|435:308|391:317|372:346,1,181.500005538941,2|8,3:2|0:0,0:0:0:0:
336,247,220350,1,2,3:2:0:0:
336,247,220400,1,0,3:2:0:0:
336,247,220450,2,0,B|341:207|341:207|344:205|344:205|349:158,1,90.7500027694703,0|0,3:2|3:2,0:0:0:0:
188,28,220650,5,10,0:0:0:0:
237,196,220750,1,8,0:0:0:0:
381,72,220850,6,0,B|496:94|496:94|426:143,1,181.500005538941,6|8,3:2|0:0,0:0:0:0:
258,286,221150,6,0,B|207:297|207:297|197:315|197:315|101:340,1,136.125004154205,2|0,3:2|0:0,0:0:0:0:
123,335,221350,1,0,3:2:0:0:
60,210,221450,2,0,P|104:216|136:246,1,90.7500027694703,8|8,0:0|0:0,0:0:0:0:
296,63,221650,5,4,3:2:0:0:
204,43,221750,1,0,3:2:0:0:
147,111,221850,1,0,3:2:0:0:
312,148,221950,6,0,L|403:127,1,90.7500027694703,8|0,0:0|3:2,0:0:0:0:
409,125,222100,1,0,3:2:0:0:
417,122,222150,1,0,3:2:0:0:
458,239,222250,2,0,B|415:250|415:250|379:220,1,90.7500027694703,8|8,0:0|0:0,0:0:0:0:
267,313,222450,6,0,L|223:324,3,45.3750013847352,12|0|0|0,0:1|3:2|3:0|3:0,0:0:0:0:
159,383,222650,1,8,0:0:0:0:
148,380,222700,1,0,3:0:0:0:
137,377,222750,1,0,3:0:0:0:
126,374,222800,1,0,3:0:0:0:
115,371,222850,2,0,L|103:327,3,45.3750013847352,8|0|0|0,0:0|3:0|3:0|3:0,0:0:0:0:
40,270,223050,2,0,L|51:226,3,45.3750013847352,8|0|0|0,0:0|3:0|3:0|3:0,0:0:0:0:
19,145,223250,5,12,0:2:0:0:
39,136,223300,1,0,3:3:0:0:
62,135,223350,1,0,3:3:0:0:
83,143,223400,1,0,3:3:0:0:
99,159,223450,1,8,3:0:0:0:
115,174,223500,1,8,3:0:0:0:
136,182,223550,1,0,3:0:0:0:
158,182,223600,1,0,3:0:0:0:
179,171,223650,6,0,L|193:81,1,90.7500027694703,8|0,3:0|3:0,0:0:0:0:
308,20,223850,5,12,0:0:0:0:
383,0,223950,1,0,0:0:0:0:
457,139,224050,6,0,B|481:105|530:112|530:112|360:78,1,247.5,4|0,3:1|0:0,0:0:0:0:
283,119,224750,5,0,3:0:0:0:
283,119,224800,1,0,3:0:0:0:
283,119,224850,1,8,3:0:0:0:
371,205,225050,2,0,L|411:192,2,41.25,0|8|8,3:0|3:0|3:0,0:0:0:0:
276,343,225350,5,0,3:0:0:0:
196,327,225450,1,8,3:0:0:0:
116,311,225550,1,8,3:0:0:0:
31,348,225650,6,0,L|17:271,1,57.7499982376099,4|0,3:1|0:0,0:0:0:0:
13,339,225750,2,0,L|-1:262,1,57.7499982376099,8|0,0:0|0:0,0:0:0:0:
104,227,225850,6,0,L|118:150,1,57.7499982376099,0|0,3:2|0:0,0:0:0:0:
122,218,225950,2,0,L|136:141,1,57.7499982376099,8|0,0:0|0:0,0:0:0:0:
44,108,226050,6,0,B|32:50|32:50|58:0,1,115.49999647522,0|8,3:2|0:0,0:0:0:0:
141,67,226250,1,0,3:2:0:0:
141,67,226300,1,0,0:0:0:0:
141,67,226350,1,8,0:0:0:0:
275,12,226450,5,4,3:2:0:0:
275,12,226550,2,0,L|401:4,1,90.7500027694703,8|0,0:0|3:2,0:0:0:0:
509,103,226750,1,8,0:0:0:0:
462,189,226850,2,0,L|336:181,1,90.7500027694703,0|8,3:2|0:0,0:0:0:0:
232,285,227050,1,0,3:2:0:0:
372,364,227150,1,8,0:0:0:0:
327,273,227250,1,4,3:2:0:0:
225,365,227350,5,8,0:0:0:0:
225,365,227450,2,0,P|164:362|131:333,1,98.9999969787599,0|8,3:2|0:0,0:0:0:0:
218,178,227650,1,0,3:2:0:0:
218,178,227750,2,0,P|245:232|237:275,1,98.9999969787599,8|0,0:0|3:2,0:0:0:0:
57,272,227950,2,0,P|90:220|131:206,1,98.9999969787599,8|4,0:0|3:2,0:0:0:0:
218,89,228150,6,0,L|281:99,3,49.4999984893799,8|0|0|0,0:0|0:0|3:2|3:2,0:0:0:0:
319,186,228350,2,0,L|368:194,3,49.4999984893799,8|0|0|0,0:0|3:2|3:2|3:2,0:0:0:0:
461,143,228550,2,0,B|475:94|475:94|466:31,1,98.9999969787599,8|0,0:0|3:2,0:0:0:0:
512,307,228750,6,0,P|452:288|335:390,1,197.99999395752,8|8,0:0|0:0,0:0:0:0:
344,355,229050,1,0,3:2:0:0:
253,169,229150,2,0,P|318:197|376:194,1,98.9999969787599,8|0,0:0|3:2,0:0:0:0:
345,198,229350,1,8,0:0:0:0:
227,278,229450,1,0,3:2:0:0:
151,220,229550,6,0,L|32:206,1,98.9999969787599,8|4,0:0|3:2,0:0:0:0:
139,359,229750,2,0,L|40:370,1,98.9999969787599,8|0,0:0|3:2,0:0:0:0:
40,370,229900,1,0,3:2:0:0:
40,370,229950,1,8,0:0:0:0:
0,293,230050,1,0,3:2:0:0:
52,208,230150,1,8,0:0:0:0:
13,124,230250,1,0,3:2:0:0:
83,57,230350,6,0,L|146:57,3,49.4999984893799,10|2|4|0,0:0|0:0|3:2|0:0,0:0:0:0:
198,128,230550,2,0,L|247:128,3,49.4999984893799,10|0|2|2,0:0|0:0|3:2|0:0,0:0:0:0:
335,171,230750,2,0,B|347:120|347:120|328:56,1,98.9999969787599,10|2,0:0|3:2,0:0:0:0:
135,204,230950,2,0,B|123:255|123:255|142:319,1,98.9999969787599,10|2,0:0|3:2,0:0:0:0:
183,384,231150,2,0,L|244:380,1,49.4999984893799,8|0,0:0|0:0,0:0:0:0:
303,299,231250,5,4,3:2:0:0:
324,286,231300,1,0,3:2:0:0:
348,282,231350,1,8,0:0:0:0:
373,284,231400,1,0,3:2:0:0:
395,294,231450,1,0,3:2:0:0:
483,368,231550,6,0,L|491:248,1,98.9999969787599,12|0,0:0|3:2,0:0:0:0:
340,195,231700,1,0,3:2:0:0:
340,195,231750,2,0,L|332:75,1,98.9999969787599,12|0,0:0|3:2,0:0:0:0:
386,6,231950,5,12,0:0:0:0:
429,103,232050,2,0,B|380:110|380:110|320:92,1,98.9999969787599,4|8,3:1|0:0,0:0:0:0:
364,283,232250,5,2,3:2:0:0:
272,272,232350,2,0,B|290:226|290:226|336:183,1,98.9999969787599,8|0,0:0|3:2,0:0:0:0:
160,138,232550,5,8,0:0:0:0:
215,51,232650,2,0,B|245:89|245:89|259:150,1,98.9999969787599,2|10,3:2|0:0,0:0:0:0:
268,364,232850,5,6,3:2:0:0:
185,311,232950,2,0,L|75:298,1,98.9999969787599,8|0,0:0|3:2,0:0:0:0:
86,299,233100,1,0,3:2:0:0:
86,299,233150,1,10,0:0:0:0:
24,241,233250,1,0,3:2:0:0:
107,204,233350,1,10,0:0:0:0:
2,142,233450,5,2,3:2:0:0:
121,96,233550,2,0,L|231:109,1,98.9999969787599,8|4,0:0|3:2,0:0:0:0:
368,117,233750,6,0,P|390:54|378:1,1,98.9999969787599,8|0,0:0|3:2,0:0:0:0:
345,212,233950,2,0,P|279:224|239:261,1,98.9999969787599,8|0,0:0|3:2,0:0:0:0:
436,183,234150,1,8,0:0:0:0:
436,183,234250,2,0,P|479:233|531:249,1,98.9999969787599,0|8,3:2|0:0,0:0:0:0:
386,384,234450,5,4,3:2:0:0:
329,309,234550,2,0,L|346:205,1,98.9999969787599,8|0,0:0|3:2,0:0:0:0:
344,211,234700,1,0,3:2:0:0:
344,211,234750,1,8,0:0:0:0:
219,39,234850,1,0,3:2:0:0:
219,39,234900,1,0,3:2:0:0:
219,39,234950,2,0,L|202:143,1,98.9999969787599,10|2,0:0|3:2,0:0:0:0:
131,289,235150,5,10,0:0:0:0:
49,350,235250,1,4,3:2:0:0:
0,265,235350,2,0,P|-6:205|16:153,1,98.9999969787599,8|0,0:0|3:2,0:0:0:0:
136,62,235550,1,10,0:0:0:0:
203,136,235650,2,0,L|316:154,1,98.9999969787599,0|10,3:2|0:0,0:0:0:0:
309,248,235850,2,0,L|196:230,1,98.9999969787599,0|8,3:2|0:0,0:0:0:0:
403,22,236050,5,6,3:2:0:0:
452,107,236150,2,0,P|458:167|436:219,1,98.9999969787599,8|2,0:0|3:2,0:0:0:0:
446,202,236300,1,0,3:2:0:0:
446,202,236350,1,8,0:0:0:0:
356,248,236450,1,2,3:2:0:0:
429,320,236550,1,10,0:0:0:0:
429,320,236650,1,2,3:2:0:0:
316,367,236750,6,0,L|242:358,3,49.4999984893799,12|0|0|0,0:0|3:2|3:2|3:2,0:0:0:0:
199,285,236950,2,0,L|149:279,3,49.4999984893799,8|0|0|0,0:0|3:2|3:2|3:2,0:0:0:0:
344,234,237150,2,0,L|270:225,3,49.4999984893799,8|0|0|0,0:0|3:2|3:2|3:2,0:0:0:0:
227,152,237350,2,0,L|177:146,3,49.4999984893799,8|0|0|0,0:0|3:2|3:2|3:2,0:0:0:0:
334,153,237550,5,8,0:0:0:0:
347,134,237600,1,0,3:2:0:0:
350,110,237650,1,0,3:2:0:0:
344,86,237700,1,0,3:2:0:0:
329,70,237750,6,0,L|226:54,1,98.9999969787599,8|0,0:0|3:2,0:0:0:0:
139,6,237950,1,8,0:0:0:0:
128,30,238000,1,0,3:2:0:0:
123,55,238050,1,0,3:2:0:0:
126,80,238100,1,0,3:2:0:0:
133,104,238150,2,0,P|142:132|156:157,3,49.4999984893799,8|0|8|0,0:0|3:2|3:0|3:0,0:0:0:0:
233,56,238350,6,0,L|229:-15,1,49.4999984893799,8|0,3:0|3:0,0:0:0:0:
43,153,238450,6,0,B|172:127|128:219|264:185,1,214.49999018097,4|0,3:1|3:2,0:0:0:0:
489,344,238750,2,0,B|360:318|404:410|268:376,1,214.49999018097,10|0,0:0|3:2,0:0:0:0:
300,81,239050,6,0,P|365:90|430:235,1,214.49999018097,8|0,0:0|3:2,0:0:0:0:
82,279,239350,2,0,P|118:181|217:150,1,214.49999018097,8|2,0:0|3:2,0:0:0:0:
276,227,239650,5,0,3:1:0:0:
219,314,239850,1,12,0:0:0:0:
285,379,240050,1,12,0:0:0:0:
233,9,240250,5,4,3:2:0:0:
233,9,240300,1,0,3:2:0:0:
233,9,240350,2,2,B|195:178|311:131|274:343,1,321.749985271455,12|2,0:0|0:0,0:1:0:0:
187,368,240750,5,0,3:2:0:0:
187,368,240850,2,0,L|84:353,1,82.5,4|0,3:2|0:0,0:0:0:0:
18,209,241050,1,8,0:0:0:0:
18,209,241100,1,0,3:2:0:0:
18,209,241150,2,0,L|121:194,1,82.5,8|0,3:0|3:0,0:0:0:0:
248,43,241350,2,0,L|145:28,1,82.5,12|0,0:0|3:2,0:0:0:0:
0,124,241550,5,8,0:0:0:0:
61,187,241650,1,0,3:0:0:0:
81,184,241700,1,0,3:0:0:0:
101,181,241750,1,0,3:0:0:0:
122,179,241800,1,0,3:0:0:0:
142,176,241850,1,8,3:0:0:0:
204,352,241950,2,0,L|147:339,3,41.25,0|0|8|8,3:0|3:0|3:0|3:0,0:0:0:0:
79,367,242150,2,0,L|22:354,3,41.25,0|0|8|8,3:0|3:0|3:0|3:0,0:0:0:0:
0,279,242350,6,0,B|-9:237|-9:237|11:186,1,82.5,4|0,3:2|0:0,0:0:0:0:
235,73,242550,5,4,3:1:0:0:
107,3,242650,2,0,L|127:118,1,90.7500027694703,8|0,0:0|3:2,0:0:0:0:
259,244,242850,2,0,L|279:129,1,90.7500027694703,8|0,0:2|3:2,0:0:0:0:
373,24,243050,6,0,B|486:-7|486:-7|444:65,1,181.500005538941,8|8,0:0|0:0,0:0:0:0:
387,257,243350,5,4,3:2:0:0:
505,204,243450,2,0,P|457:177|415:183,1,90.7500027694703,8|0,0:0|3:2,0:0:0:0:
422,179,243600,1,0,3:2:0:0:
422,179,243650,1,8,0:0:0:0:
274,154,243750,5,0,3:2:0:0:
311,308,243850,2,0,B|256:360|180:332|180:332|220:276,1,181.500005538941,8|8,0:0|0:0,0:0:0:0:
67,168,244150,6,0,L|20:158,2,45.3750013847352,6|0|8,3:2|3:2|0:0,0:0:0:0:
135,107,244350,1,0,3:2:0:0:
46,261,244450,6,0,P|92:213|158:199,1,136.125004154205,8|0,0:0|0:0,0:0:0:0:
168,209,244650,2,0,L|263:183,1,90.7500027694703,8|0,0:0|3:2,0:0:0:0:
437,219,244850,6,0,P|458:180|454:127,1,90.7500027694703,8|4,0:0|3:2,0:0:0:0:
456,134,245000,1,0,3:2:0:0:
456,134,245050,1,8,0:0:0:0:
349,68,245150,2,0,L|369:172,1,90.7500027694703,0|8,3:2|0:0,0:0:0:0:
345,259,245350,2,0,L|355:311,2,45.3750013847352,0|0|8,3:2|3:2|0:0,0:0:0:0:
437,219,245550,1,0,3:2:0:0:
487,384,245650,6,0,L|385:367,1,90.7500027694703,8|4,0:0|3:1,0:0:0:0:
261,203,245850,6,0,B|198:216|198:216|169:254|169:254|69:274,2,181.500005538941,8|8|10,0:0|0:0|0:0,0:0:0:0:
274,361,246350,2,0,P|232:346|184:349,1,90.7500027694703,0|8,0:0|0:0,0:0:0:0:
186,348,246500,1,0,3:2:0:0:
186,348,246550,1,4,3:2:0:0:
19,315,246650,2,0,P|30:214|110:183,1,181.500005538941,8|8,0:2|0:0,0:0:0:0:
122,192,246900,1,0,3:2:0:0:
122,192,246950,2,0,L|104:83,1,90.7500027694703,0|8,3:2|0:2,0:2:0:0:
263,37,247150,1,0,3:2:0:0:
184,11,247250,5,12,0:0:0:0:
184,11,247300,1,0,3:0:0:0:
184,11,247350,2,0,P|178:40|186:69,3,45.3750013847352,0|0|8|0,3:0|3:0|0:0|3:0,0:0:0:0:
227,121,247550,2,0,L|275:132,3,45.3750013847352,0|0|8|0,3:0|3:0|0:0|3:0,0:0:0:0:
329,189,247750,2,0,L|377:178,3,45.3750013847352,0|0|8|0,3:0|3:0|0:0|3:0,0:0:0:0:
445,227,247950,2,0,P|451:256|443:285,1,45.3750013847352,0|0,3:0|3:0,0:0:0:0:
499,332,248050,5,8,0:0:0:0:
499,332,248100,1,0,3:0:0:0:
499,332,248150,1,0,3:0:0:0:
376,383,248250,2,0,P|358:335|370:290,1,90.7500027694703,8|0,0:0|3:0,0:0:0:0:
227,121,248450,6,0,B|215:189|215:189|212:191|212:191|198:285,1,136.125004154205,8|8,0:0|3:0,0:0:0:0:
201,264,248650,1,0,3:0:0:0:
141,343,248750,5,8,3:0:0:0:
129,345,248800,1,8,3:0:0:0:
118,347,248850,1,0,3:0:0:0:
107,349,248900,1,0,3:0:0:0:
96,351,248950,2,0,B|67:231|116:266|83:160,1,181.500005538941,12|8,0:1|3:2,0:0:0:0:
227,121,249250,6,0,P|215:169|208:213,1,90.7500027694703,8|8,3:2|3:2,0:0:0:0:
141,90,249450,2,0,P|152:46|159:1,1,90.7500027694703,8|8,3:2|3:2,0:0:0:0:
313,158,249650,5,8,3:2:0:0:
372,80,249750,1,12,3:2:0:0:
470,107,249850,2,0,P|459:157|453:209,1,90.7500027694703,8|8,3:2|3:2,0:0:0:0:
453,196,250000,1,0,3:2:0:0:
453,196,250050,1,8,3:2:0:0:
483,339,250150,5,8,3:2:0:0:
461,312,250200,1,0,3:2:0:0:
431,297,250250,1,8,3:2:0:0:
397,295,250300,1,0,3:2:0:0:
365,306,250350,2,0,P|343:311|320:320,3,45.3750013847352,8|0|8|0,3:2|3:2|3:2|3:2,0:0:0:0:
255,260,250550,5,12,3:2:0:0:
265,244,250600,1,0,3:2:0:0:
268,226,250650,1,8,3:2:0:0:
262,210,250700,1,0,3:2:0:0:
251,200,250750,2,0,L|205:190,3,45.3750013847352,8|0|8|0,3:2|3:2|3:2|3:2,0:0:0:0:
147,120,250950,6,0,P|114:128|91:134,3,45.3750013847352,8|0|8|0,3:2|3:2|3:2|3:2,0:0:0:0:
57,207,251150,2,0,P|90:215|113:221,3,45.3750013847352,8|0|8|0,3:2|3:2|3:2|3:2,0:0:0:0:
232,111,251350,5,8,3:0:0:0:
234,99,251400,1,8,3:0:0:0:
236,88,251450,1,0,3:0:0:0:
238,77,251500,1,0,3:0:0:0:
241,66,251550,2,0,L|232:19,3,45.3750013847352,8|8|0|0,3:0|3:0|3:0|3:0,0:0:0:0:
327,124,251750,5,8,3:0:0:0:
329,135,251800,1,8,3:0:0:0:
331,146,251850,1,0,3:0:0:0:
333,157,251900,1,0,3:0:0:0:
336,169,251950,2,0,L|327:216,3,45.3750013847352,8|0|8|0,0:0|3:2|0:0|0:0,0:0:0:0:
389,277,252150,5,4,3:1:0:0:
503,186,252250,2,0,P|458:178|409:210,1,90.7500027694703,8|0,0:0|3:2,0:0:0:0:
314,355,252450,6,0,B|251:337|251:337|200:357|200:357|127:342,2,181.500005538941,8|8|8,0:0|0:0|0:0,0:0:0:0:
209,171,252950,5,2,3:2:0:0:
271,243,253050,2,0,P|213:254|166:269,1,90.7500027694703,8|0,0:0|3:2,0:0:0:0:
182,263,253200,1,0,3:2:0:0:
182,263,253250,1,8,0:0:0:0:
36,175,253350,2,0,P|34:82|120:41,1,181.500005538941,0|0,3:2|3:2,0:0:0:0:
178,8,253650,1,8,0:0:0:0:
277,130,253750,6,0,P|220:117|179:113,1,90.7500027694703,0|8,3:2|3:2,0:0:0:0:
187,113,253900,1,0,3:2:0:0:
187,113,253950,1,0,3:2:0:0:
299,18,254050,6,0,P|337:36|396:33,1,90.7500027694703,8|0,3:2|3:2,0:0:0:0:
498,159,254250,2,0,P|429:149|353:232,1,181.500005538941,8|8,3:2|3:2,0:0:0:0:
413,326,254550,1,0,3:2:0:0:
413,326,254600,1,0,3:2:0:0:
413,326,254650,2,0,B|352:336|352:336|329:366|329:366|248:379,1,181.500005538941,8|8,3:2|3:2,0:0:0:0:
169,313,254950,1,0,3:2:0:0:
169,313,255000,1,0,3:2:0:0:
169,313,255050,2,0,P|176:258|191:206,1,90.7500027694703,8|8,3:2|3:2,0:0:0:0:
56,106,255250,5,8,3:0:0:0:
56,106,255300,1,0,3:0:0:0:
56,106,255350,2,0,P|98:36|201:60,1,181.500005538941,4|0,3:1|3:2,0:0:0:0:
325,163,255650,6,0,P|256:147|213:140,1,90.7500027694703,8|0,0:0|0:0,0:0:0:0:
90,253,255850,1,0,3:2:0:0:
90,253,255900,1,0,3:2:0:0:
90,253,255950,2,0,P|159:237|202:230,1,90.7500027694703,8|0,0:0|0:0,0:0:0:0:
346,332,256150,5,0,3:2:0:0:
287,384,256250,2,0,B|268:303|314:323|284:219,1,136.125004154205,8|0,0:0|0:0,0:0:0:0:
287,243,256450,2,0,P|338:228|402:212,1,90.7500027694703,12|0,0:0|3:2,0:0:0:0:
472,92,256750,5,12,0:0:0:0:
470,78,256950,5,8,0:0:0:0:
468,61,257150,5,0,3:2:0:0:
386,129,257250,6,0,L|317:115,2,45.3750013847352,12|0|0,0:0|0:0|0:0,0:0:0:0:
265,32,257450,2,0,L|309:22,2,45.3750013847352
193,180,257650,5,0,3:2:0:0:
153,97,257750,2,0,B|71:75|71:75|38:127,1,136.125004154205,0|0,3:2|0:0,0:0:0:0:
35,131,257950,2,0,B|46:173|46:173|45:177|45:177|57:225,1,90.7500027694703,12|0,0:0|0:0,0:0:0:0:
13,352,258150,1,0,3:2:0:0:
13,352,258200,1,0,3:2:0:0:
13,352,258250,2,0,B|41:284|111:284|111:284|81:298|65:327,1,181.500005538941,12|8,0:2|0:0,0:0:0:0:
193,180,258550,2,0,B|228:238|289:227|289:227|308:195|348:180,1,181.500005538941,0|8,3:2|0:0,0:2:0:0:
459,266,258850,5,8,0:0:0:0:
376,288,258950,1,8,0:0:0:0:
322,362,259050,5,8,0:0:0:0:
231,335,259150,1,8,0:0:0:0:
151,384,259250,1,8,0:0:0:0:
74,334,259350,5,8,3:3:0:0:
55,308,259416,1,8,3:3:0:0:
57,276,259483,1,8,3:0:0:0:
106,250,259550,5,8,3:3:0:0:
122,219,259617,1,8,3:3:0:0:
110,189,259684,1,8,3:0:0:0:
45,151,259750,5,8,3:3:0:0:
31,163,259816,1,8,3:3:0:0:
25,180,259883,1,8,3:0:0:0:
34,207,259950,5,12,0:0:0:0:
162,63,260150,6,0,L|207:71,1,45.3750013847352,4|0,3:2|0:0,0:0:0:0:
216,73,260250,1,0,3:2:0:0:
296,49,260450,1,8,0:0:0:0:
512,302,260650,5,4,3:2:0:0:
395,198,260750,2,0,B|381:242|381:242|406:287,1,90.7500027694703,0|0,3:2|3:2,0:0:0:0:
481,149,260950,1,8,0:0:0:0:
329,368,261150,5,8,3:0:0:0:
311,365,261217,1,8,3:0:0:0:
294,361,261284,1,8,3:0:0:0:
259,352,261350,6,0,B|264:310|264:310|239:264,1,90.7500027694703,12|0,3:2|0:0,0:0:0:0:
143,292,261550,2,0,B|138:334|138:334|163:380,1,90.7500027694703,8|0,0:0|0:0,0:0:0:0:
218,146,261750,5,2,3:2:0:0:
218,146,261825,1,10,0:2:0:0:
150,65,261975,1,2,3:1:0:0:
58,101,262100,1,8,3:3:0:0:
91,207,262250,6,0,L|383:158,1,296.99999093628,4|8,3:1|0:0,0:0:0:0:
409,164,262916,1,8,0:0:0:0:
409,164,262983,1,8,0:0:0:0:
409,164,263050,2,0,L|419:76,1,88,4|0,3:2|0:2,0:2:0:0:
330,20,263316,1,8,0:0:0:0:
330,20,263450,1,0,0:0:0:0:
223,96,263583,6,0,P|268:96|311:118,1,88,0|0,3:2|3:2,0:0:0:0:
399,76,263850,1,8,0:0:0:0:
477,133,263983,1,8,3:0:0:0:
417,337,264116,5,8,3:0:0:0:
498,274,264250,2,0,B|443:245|390:292|424:297|375:342|321:317,1,198,4|0,3:2|0:0,0:0:0:0:
248,384,264650,6,0,P|240:269|422:163,1,330,4|0,3:1|0:0,0:0:0:0:
406,162,265850,1,0,0:0:0:0:
0,138,266250,6,0,P|103:188|104:399,1,330,2|0,0:0|0:0,0:0:0:0:
352,28,267050,6,0,P|256:92|73:-12,1,330,2|4,0:0|3:2,0:0:0:0:
248,384,268250,5,4,3:2:0:0:
0,138,269050,1,4,3:2:0:0:
352,28,269850,5,4,3:2:0:0:
248,384,270250,1,4,3:2:0:0:
0,138,270650,1,4,3:2:0:0:
157,190,271050,6,0,L|88:194,2,60.5000018463135,4|0|8,3:3|3:0|3:3,0:0:0:0:
199,187,271250,1,8,0:0:0:0:
229,87,271350,2,0,L|347:78,1,90.7500027694703,2|0,0:0|3:2,0:0:0:0:
500,218,271550,1,0,3:2:0:0:
426,325,271650,2,0,L|308:316,1,90.7500027694703,10|0,0:0|0:0,0:0:0:0:
221,363,271850,6,0,P|217:269|360:169,1,272.250008308411,2|0,3:2|3:2,0:0:0:0:
432,119,272250,2,0,B|439:164|439:164|428:217,1,90.7500027694703,2|0,0:0|3:2,0:0:0:0:
219,118,272450,2,0,B|212:73|212:73|223:20,1,90.7500027694703,10|0,0:0|0:0,0:0:0:0:
320,261,272650,5,0,3:2:0:0:
240,321,272750,1,0,0:0:0:0:
176,244,272850,1,8,0:0:0:0:
176,244,272950,2,0,L|70:227,1,90.7500027694703,2|0,0:0|3:2,0:0:0:0:
3,66,273150,1,0,3:2:0:0:
124,43,273250,2,0,L|230:26,1,90.7500027694703,8|0,0:0|0:0,0:0:0:0:
402,0,273450,6,0,B|437:155|329:106|372:278,1,272.250008308411,2|0,3:2|3:2,0:0:0:0:
469,304,273850,2,0,P|477:246|469:207,1,90.7500027694703,2|0,3:2|3:2,0:0:0:0:
273,148,274050,2,0,P|265:206|273:245,1,90.7500027694703,10|0,0:0|3:2,0:0:0:0:
480,90,274250,6,0,P|414:21|307:32,1,181.500005538941,6|8,3:2|0:0,0:0:0:0:
319,319,274550,2,0,P|388:253|377:146,1,181.500005538941,2|0,0:0|3:2,0:0:0:0:
276,130,274850,2,0,L|168:138,1,90.7500027694703,8|0,0:0|0:0,0:0:0:0:
139,384,275050,6,0,P|165:328|204:303,1,90.7500027694703,2|0,3:2|0:0,0:0:0:0:
0,300,275250,2,0,P|35:350|37:396,1,90.7500027694703,10|0,0:0|3:2,0:0:0:0:
154,222,275450,2,0,P|92:227|51:206,1,90.7500027694703,2|0,0:0|3:2,0:0:0:0:
20,62,275650,1,12,0:0:0:0:
94,0,275750,1,8,0:0:0:0:
177,50,275850,6,0,L|168:158,1,90.7500027694703,12|0,0:0|3:2,0:0:0:0:
375,348,276050,2,0,L|368:258,1,90.7500027694703,12|0,0:0|3:2,0:0:0:0:
335,50,276250,6,0,L|344:158,1,90.7500027694703,12|0,0:0|3:2,0:0:0:0:
136,348,276450,2,0,L|144:258,1,90.7500027694703,12|0,0:0|3:2,0:0:0:0:
249,10,276650,5,10,3:0:0:0:
264,56,276716,1,8,3:0:0:0:
255,107,276783,1,8,3:0:0:0:
224,140,276850,5,10,3:0:0:0:
211,174,276916,1,8,3:0:0:0:
220,214,276983,1,8,3:0:0:0:
244,239,277050,5,10,3:0:0:0:
254,262,277116,1,8,3:0:0:0:
252,287,277183,1,8,3:0:0:0:
240,310,277250,6,0,P|233:341|230:378,1,61.875002360344,8|8,0:0|0:0,0:0:0:0:
502,253,277450,6,0,P|450:189|346:202,1,181.500005538941,4|8,3:1|0:0,0:0:0:0:
264,42,277750,2,0,P|317:32|370:12,1,90.7500027694703,0|0,3:2|3:2,0:0:0:0:
278,142,277950,1,0,3:2:0:0:
169,0,278050,2,0,P|167:53|153:109,1,90.7500027694703,8|0,0:0|3:2,0:0:0:0:
0,248,278250,6,0,B|99:231|66:311|202:286,1,181.500005538941,6|10,3:2|0:0,0:0:0:0:
232,349,278550,1,0,3:2:0:0:
422,315,278650,6,0,P|425:257|441:204,1,90.7500027694703,2|0,3:2|3:2,0:0:0:0:
339,157,278850,2,0,P|336:215|320:268,1,90.7500027694703,10|0,0:0|3:2,0:0:0:0:
509,115,279050,6,0,P|442:53|346:81,1,181.500005538941,6|8,3:2|0:0,0:0:0:0:
196,4,279350,2,0,P|221:94|232:191,1,181.500005538941,2|0,3:2|3:2,0:0:0:0:
66,375,279650,2,0,P|46:325|38:268,1,90.7500027694703,10|0,0:0|3:2,0:0:0:0:
127,198,279850,6,0,B|202:216|202:216|219:253|219:253|300:274,1,181.500005538941,2|10,3:2|0:0,0:0:0:0:
334,341,280150,1,2,3:2:0:0:
453,230,280250,6,0,L|342:258,1,90.7500027694703,2|2,3:2|3:2,0:0:0:0:
365,252,280400,1,2,3:2:0:0:
365,252,280450,2,0,L|337:141,1,90.7500027694703,10|0,0:0|3:2,0:0:0:0:
144,25,280650,6,0,P|40:37|-11:126,1,181.500005538941,2|8,3:2|0:0,0:0:0:0:
109,161,280950,1,2,3:2:0:0:
31,270,281050,2,0,P|24:206|4:145,1,90.7500027694703,0|0,3:2|3:2,0:0:0:0:
224,93,281250,2,0,P|231:29|251:-32,1,90.7500027694703,10|0,0:2|3:2,0:0:0:0:
154,276,281450,6,0,P|257:291|347:329,1,181.500005538941,2|10,3:2|0:0,0:0:0:0:
428,291,281750,1,0,3:2:0:0:
408,368,281850,1,2,3:2:0:0:
369,237,281950,1,0,3:2:0:0:
507,264,282050,2,0,P|512:209|475:156,1,90.7500027694703,10|0,0:0|3:2,0:0:0:0:
446,0,282250,6,0,P|393:40|403:161,1,181.500005538941,2|8,3:2|0:0,0:0:0:0:
392,147,282550,1,2,3:2:0:0:
243,243,282650,2,0,P|159:258|42:290,1,181.500005538941,0|10,3:2|0:0,0:0:0:0:
25,348,282950,1,0,0:0:0:0:
57,183,283050,6,0,P|108:194|168:222,1,90.7500027694703,4|0,3:2|3:2,0:0:0:0:
247,73,283250,2,0,P|314:67|374:37,1,136.125004154205,8|0,0:2|0:0,0:0:0:0:
486,93,283450,5,4,3:2:0:0:
500,109,283500,1,0,3:2:0:0:
509,129,283550,1,0,3:2:0:0:
512,151,283600,1,0,3:2:0:0:
506,174,283650,2,0,P|461:182|417:193,1,90.7500027694703,8|0,0:0|3:2,0:0:0:0:
330,359,283850,6,0,P|275:297|173:306,1,181.500005538941,4|8,3:1|0:0,0:0:0:0:
0,199,284150,2,0,P|55:137|157:146,1,181.500005538941,2|0,3:2|3:2,0:0:0:0:
225,98,284450,2,0,P|230:148|242:195,1,90.7500027694703,10|0,0:0|3:2,0:0:0:0:
228,369,284650,6,0,P|159:323|105:329,1,136.125004154205,2|0,3:2|0:0,0:0:0:0:
109,336,284850,2,0,L|11:353,1,90.7500027694703,8|0,0:0|3:2,0:0:0:0:
310,240,285050,5,2,3:2:0:0:
377,304,285150,1,0,3:2:0:0:
464,274,285250,2,0,P|453:222|447:173,1,90.7500027694703,10|2,0:0|0:0,0:0:0:0:
512,107,285450,6,0,P|448:46|362:59,1,181.500005538941,2|8,3:2|0:0,0:0:0:0:
191,195,285750,2,0,P|254:134|340:147,1,181.500005538941,2|0,3:2|3:2,0:0:0:0:
448,184,286050,1,10,0:0:0:0:
448,184,286150,1,0,3:2:0:0:
365,253,286250,6,0,P|386:157|393:66,1,181.500005538941,2|8,3:2|0:0,0:2:0:0:
221,1,286550,2,0,P|231:49|235:94,1,90.7500027694703,2|2,3:2|3:2,0:0:0:0:
108,235,286750,5,0,3:2:0:0:
11,210,286850,1,10,0:0:0:0:
79,151,286950,1,10,0:0:0:0:
46,333,287050,6,0,P|122:287|211:293,1,181.500005538941,4|8,3:2|0:0,0:0:0:0:
277,371,287350,1,2,3:2:0:0:
392,260,287450,6,0,P|341:270|285:286,1,90.7500027694703,0|0,3:2|3:2,0:0:0:0:
178,145,287650,2,0,P|229:155|285:171,1,90.7500027694703,10|8,0:0|0:0,0:0:0:0:
402,9,287850,6,0,P|380:53|390:105,1,90.7500027694703,12|0,0:0|0:0,0:0:0:0:
384,93,288000,1,0,3:2:0:0:
384,93,288050,1,0,3:2:0:0:
484,245,288150,2,0,P|506:201|496:149,1,90.7500027694703,12|0,0:0|3:2,0:0:0:0:
501,160,288300,1,0,3:2:0:0:
501,160,288350,1,0,3:2:0:0:
384,93,288450,2,0,P|337:103|276:116,1,90.7500027694703,8|8,0:0|0:0,0:0:0:0:
125,78,288650,5,12,0:0:0:0:
113,88,288700,1,8,0:0:0:0:
102,103,288750,1,0,3:0:0:0:
98,118,288800,1,0,3:0:0:0:
104,138,288850,2,0,L|148:145,3,45.3750013847352,8|0|0|0,0:0|3:2|3:2|3:2,0:0:0:0:
134,273,289050,2,0,L|118:230,3,45.3750013847352,12|0|0|0,0:0|3:2|3:2|3:2,0:0:0:0:
236,180,289250,2,0,L|206:214,3,45.3750013847352,8|0|0|0,0:2|3:2|3:2|3:2,0:0:0:0:
261,321,289450,5,12,0:0:0:0:
278,300,289500,1,0,3:2:0:0:
302,287,289550,1,8,3:0:0:0:
329,284,289600,1,0,3:2:0:0:
354,289,289650,2,0,L|361:333,3,45.3750013847352,8|0|8|8,3:2|3:2|3:0|3:0,0:0:0:0:
461,366,289850,5,8,0:0:0:0:
465,333,289900,1,0,3:2:0:0:
470,299,289950,1,8,3:0:0:0:
474,265,290000,1,0,3:2:0:0:
479,232,290050,1,8,0:0:0:0:
456,80,290250,6,0,B|468:36|511:17|511:17|422:24|414:80|410:105|410:105|406:136|356:194|256:157|299:55|370:81,1,462,4|0,3:2|3:2,0:0:0:0:
370,81,291000,1,8,0:2:0:0:
370,81,291050,5,8,0:0:0:0:
341,230,291183,1,10,0:2:0:0:
224,139,291316,1,8,3:0:0:0:
187,282,291450,5,8,3:2:0:0:
256,219,291583,1,2,3:2:0:0:
154,190,291716,1,8,3:3:0:0:
133,379,291850,6,0,B|211:362|184:394|270:377,1,123.75,4|0,3:2|0:0,0:0:0:0:
264,384,292050,2,0,P|307:373|352:364,1,82.5,8|0,0:0|0:0,0:0:0:0:
437,382,292250,1,0,3:2:0:0:
471,290,292350,1,8,0:0:0:0:
432,14,292550,6,0,B|399:26|358:31|358:31|371:80|382:134,1,165,8|8,3:0|3:3,0:0:0:0:
475,152,292850,2,0,B|290:125|350:259|168:230,1,330,4|0,3:2|0:0,0:0:0:0:
52,157,293450,6,0,L|41:102,2,55,2|2|2,0:0|0:0|0:0,0:0:0:0:
7,251,293650,5,2,0:0:0:0:
42,248,293716,1,2,0:0:0:0:
80,262,293783,1,2,0:0:0:0:
100,295,293850,2,0,L|153:282,2,55,2|2|2,0:0|0:0|0:0,0:0:0:0:
220,336,294050,5,2,0:0:0:0:
241,343,294116,1,2,0:0:0:0:
260,351,294183,1,2,0:0:0:0:
278,359,294250,5,8,3:0:0:0:
314,334,294316,1,8,3:0:0:0:
356,324,294383,1,8,3:0:0:0:
402,343,294450,5,12,0:0:0:0:
512,281,294550,2,0,P|386:23|136:166,1,643.499980361939,4|8,3:2|3:0,0:0:0:0:
136,166,295916,1,8,3:0:0:0:
136,166,295983,1,8,3:0:0:0:
136,166,296050,1,2,3:2:0:0:
456,218,300850,5,4,3:2:0:0:
298,166,300950,1,8,0:0:0:0:
298,166,301000,1,8,0:0:0:0:
298,166,301050,1,8,0:0:0:0:
383,160,301150,5,4,3:2:0:0:
246,239,301250,2,0,L|196:235,2,33,8|8|8,0:0|0:0|0:0,0:0:0:0:
327,237,301450,5,4,3:2:0:0:
184,155,301550,1,8,0:0:0:0:
184,155,301600,1,8,0:0:0:0:
184,155,301650,1,8,0:0:0:0:
241,78,301750,5,4,3:2:0:0:
139,235,301850,2,0,L|89:231,2,33,8|8|8,0:0|0:0|0:0,0:0:0:0:
0,89,302050,6,0,L|52:84,3,41.25,8|8|8|8,0:0|0:0|0:0|0:0,0:0:0:0:
113,15,302250,2,0,L|154:11,3,41.25,8|0|8|0,0:0|0:0|0:0|0:0,0:0:0:0:
233,8,302450,5,12,3:2:0:0:
233,16,302500,1,8,3:2:0:0:
234,24,302550,1,8,3:2:0:0:
234,32,302600,1,8,3:2:0:0:
235,40,302650,1,8,3:2:0:0:
235,49,302700,1,8,3:2:0:0:
236,57,302750,1,8,3:2:0:0:
236,65,302800,1,8,3:2:0:0:
237,74,302850,2,0,L|242:128,7,45.3750013847352,8|8|8|8|8|8|8|8,3:2|3:2|3:2|3:2|3:2|3:2|3:2|3:2,0:0:0:0:
337,147,303250,5,8,3:2:0:0:
337,155,303300,1,8,3:2:0:0:
336,163,303350,1,8,3:2:0:0:
336,171,303400,1,8,3:2:0:0:
335,179,303450,1,8,3:2:0:0:
335,188,303500,1,8,3:2:0:0:
334,196,303550,1,8,3:2:0:0:
334,204,303600,1,8,3:2:0:0:
333,213,303650,2,0,L|328:267,7,45.3750013847352,8|8|8|8|8|8|8|8,3:2|3:2|3:2|3:2|3:2|3:2|3:2|3:2,0:0:0:0:
240,273,304050,5,8,3:2:0:0:
240,281,304100,1,8,3:2:0:0:
241,289,304150,1,8,3:2:0:0:
241,297,304200,1,8,3:2:0:0:
242,305,304250,1,8,3:2:0:0:
242,314,304300,1,8,3:2:0:0:
243,322,304350,1,8,3:2:0:0:
243,330,304400,1,8,3:2:0:0:
244,339,304450,2,0,L|249:393,7,45.3750013847352,8|8|8|8|8|8|8|8,3:2|3:2|3:2|3:2|3:2|3:2|3:2|3:2,0:0:0:0:
338,349,304850,6,0,B|381:341|381:341|441:356,1,90.7500027694703,8|0,0:0|3:2,0:0:0:0:
496,267,305050,1,8,3:0:0:0:
496,267,305100,1,8,3:0:0:0:
496,267,305150,1,0,3:2:0:0:
301,218,305250,5,8,3:0:0:0:
301,218,305300,1,8,3:0:0:0:
301,218,305350,1,0,3:2:0:0:
361,133,305450,2,0,B|406:144|406:144|449:136,1,90.7500027694703,12|0,0:0|0:0,0:0:0:0:
291,12,305650,5,8,3:2:0:0:
285,18,305700,1,8,3:2:0:0:
280,24,305750,1,8,3:2:0:0:
275,31,305800,1,8,3:2:0:0:
271,38,305850,1,8,3:2:0:0:
267,45,305900,1,8,3:2:0:0:
264,53,305950,1,8,3:2:0:0:
261,61,306000,1,8,3:2:0:0:
259,71,306050,2,0,P|259:113|270:149,7,45.3750013847352,8|8|8|8|8|8|8|8,3:2|3:2|3:2|3:2|3:2|3:2|3:2|3:2,0:0:0:0:
170,176,306450,5,8,3:2:0:0:
175,182,306500,1,8,3:2:0:0:
180,188,306550,1,8,3:2:0:0:
185,195,306600,1,8,3:2:0:0:
189,202,306650,1,8,3:2:0:0:
193,209,306700,1,8,3:2:0:0:
196,217,306750,1,8,3:2:0:0:
199,225,306800,1,8,3:2:0:0:
202,235,306850,2,0,P|202:277|191:313,7,45.3750013847352,8|8|8|8|8|8|8|8,3:2|3:2|3:2|3:2|3:2|3:2|3:2|3:2,0:0:0:0:
4,383,307250,6,0,B|-8:333|-8:333|10:280,1,107.249995090485,12|8,3:2|3:0,0:0:0:0:
87,337,307401,2,0,L|140:347,1,53.6249975452424,0|0,3:2|3:2,0:0:0:0:
340,296,307550,6,0,B|352:246|352:246|333:193,1,107.249995090485,12|8,3:2|3:0,0:0:0:0:
256,249,307700,2,0,L|204:259,1,53.6249975452424,0|0,3:2|3:0,0:0:0:0:
0,198,307850,6,0,B|-10:142|-10:142|7:94,1,107.249995090485,12|8,3:2|3:0,0:0:0:0:
83,151,308001,2,0,L|136:161,1,53.6249975452424,0|0,3:2|3:0,0:0:0:0:
329,106,308150,6,0,B|341:56|341:56|322:3,1,107.249995090485,12|8,3:2|3:0,0:0:0:0:
245,59,308301,2,0,L|193:69,1,53.6249975452424,0|0,3:2|3:2,0:0:0:0:
148,230,308450,6,0,L|159:290,1,53.6249975452424,12|0,0:0|3:0,0:0:0:0:
169,239,308550,2,0,L|180:299,1,53.6249975452424,8|0,3:0|3:0,0:0:0:0:
125,383,308650,2,0,L|235:365,1,107.249995090485,8|0,0:0|3:2,0:0:0:0:
453,352,308850,6,0,P|467:286|443:228,1,107.249995090485,4|0,3:1|0:0,0:0:0:0:
456,248,309000,1,0,3:2:0:0:
456,248,309050,1,8,3:0:0:0:
192,211,309150,2,0,P|178:145|202:87,1,107.249995090485,4|0,3:1|0:0,0:0:0:0:
188,107,309300,1,0,3:2:0:0:
188,107,309350,1,8,3:0:0:0:
379,0,309450,5,12,0:0:0:0:
313,77,309550,2,0,B|288:253|408:204|367:409,1,321.749985271455,4|0,3:1|0:2,0:2:0:0:
