osu file format v14

[General]
AudioFilename: audio.mp3
AudioLeadIn: 0
PreviewTime: 43532
Countdown: 0
SampleSet: Drum
StackLeniency: 0.7
Mode: 3
LetterboxInBreaks: 0
SpecialStyle: 0
WidescreenStoryboard: 0

[Editor]
Bookmarks: 7034,13434,15034,21434,27834,33434,36634,56634,58234,64634,71034,73334,75634,77934,80334,86734,93134,105934,110234,110434
DistanceSpacing: 0.8
BeatDivisor: 4
GridSize: 32
TimelineZoom: 3.399999

[Metadata]
Title:Deadly force
TitleUnicode:Deadly force
Artist:Noah
ArtistUnicode:Noah
Creator:Noch Einen
Version:BASIC
Source:SOUND VOLTEX IV HEAVENLY HAVEN
Tags:metal video game sdvx 4 four 3 III three ExistRuth instrumental Revolt from the abyss gravity wars コナステ konasute konaste Ω omega dimension Syrion- ryu sei
BeatmapID:3692469
BeatmapSetID:1800930

[Difficulty]
HPDrainRate:6
CircleSize:4
OverallDifficulty:6
ApproachRate:5
SliderMultiplier:1.4
SliderTickRate:1

[Events]
//Background and Video events
0,0,"8035341.jpg",0,0
//Break Periods
//Storyboard Layer 0 (Background)
//Storyboard Layer 1 (Fail)
//Storyboard Layer 2 (Pass)
//Storyboard Layer 3 (Foreground)
//Storyboard Layer 4 (Overlay)
//Storyboard Sound Samples

[TimingPoints]
832,200,4,3,5,40,1,0
36832,200,3,3,5,40,1,0
39232,200,4,3,5,40,1,0
44032,-100,3,3,5,40,0,1
56832,-100,3,3,5,40,0,0
71232,200,3,3,5,40,1,0
72332,200,3,3,5,40,1,0
73532,200,4,3,5,40,1,0
74632,200,6,3,5,40,1,0
75832,200,4,3,5,40,1,0
76032,200,4,3,5,40,1,0
76532,200,4,3,5,40,1,0
77032,200,4,3,5,40,1,0
77232,200,4,3,5,40,1,0
77732,200,4,3,5,40,1,0
78132,200,4,3,5,40,1,0
84132,-100,4,3,5,40,0,1
84332,-100,4,3,5,40,0,0
84932,-100,4,3,5,40,0,1
85132,-100,4,3,5,40,0,0
85732,-100,4,3,5,40,0,1
85932,-100,4,3,5,40,0,0
87132,-100,4,3,5,40,0,1
87332,-100,4,3,5,40,0,0
93332,-100,4,3,5,40,0,1
106132,-100,4,3,5,40,0,0
107732,200,5,3,5,40,1,0
108732,200,4,3,5,40,1,0

[HitObjects]
64,192,832,128,0,1232:0:0:0:0:
320,192,1232,128,0,1632:0:0:0:0:
192,192,1632,128,0,2032:0:0:0:0:
64,192,2032,1,0,0:0:0:0:
448,192,2232,128,0,2632:0:0:0:0:
64,192,2632,128,0,3232:0:0:0:0:
320,192,3232,1,0,0:0:0:0:
192,192,3532,1,0,0:0:0:0:
64,192,3832,128,0,4232:0:0:0:0:
448,192,4232,128,0,4632:0:0:0:0:
192,192,4632,128,0,5032:0:0:0:0:
320,192,5032,128,0,5432:0:0:0:0:
64,192,5432,1,0,0:0:0:0:
448,192,5632,1,0,0:0:0:0:
320,192,5932,1,0,0:0:0:0:
192,192,6232,1,0,0:0:0:0:
64,192,6532,1,0,0:0:0:0:
320,192,6832,1,0,0:0:0:0:
192,192,7032,1,0,0:0:0:0:
64,192,7232,1,0,0:0:0:0:
448,192,7232,1,0,0:0:0:0:
64,192,7632,1,0,0:0:0:0:
320,192,8032,1,0,0:0:0:0:
320,192,8432,1,0,0:0:0:0:
192,192,8832,1,0,0:0:0:0:
192,192,9232,1,0,0:0:0:0:
320,192,9632,1,0,0:0:0:0:
192,192,9932,1,0,0:0:0:0:
64,192,10232,128,0,10632:0:0:0:0:
320,192,10632,1,0,0:0:0:0:
320,192,11032,1,0,0:0:0:0:
448,192,11432,1,0,0:0:0:0:
448,192,11732,1,0,0:0:0:0:
64,192,12032,1,0,0:0:0:0:
320,192,12332,1,0,0:0:0:0:
64,192,12632,1,0,0:0:0:0:
192,192,12932,1,0,0:0:0:0:
320,192,13232,128,0,13632:0:0:0:0:
64,192,13632,1,0,0:0:0:0:
192,192,13632,1,0,0:0:0:0:
448,192,14832,1,0,0:0:0:0:
320,192,14832,1,0,0:0:0:0:
192,192,15232,1,0,0:0:0:0:
64,192,15232,1,0,0:0:0:0:
448,192,15432,1,0,0:0:0:0:
448,192,15832,1,0,0:0:0:0:
320,192,16032,1,0,0:0:0:0:
192,192,16232,1,0,0:0:0:0:
192,192,16632,1,0,0:0:0:0:
320,192,16832,1,0,0:0:0:0:
64,192,17032,1,0,0:0:0:0:
64,192,17432,1,0,0:0:0:0:
192,192,17632,1,0,0:0:0:0:
448,192,17832,1,0,0:0:0:0:
448,192,18232,1,0,0:0:0:0:
64,192,18432,1,0,0:0:0:0:
320,192,18632,1,0,0:0:0:0:
320,192,19032,1,0,0:0:0:0:
448,192,19232,1,0,0:0:0:0:
192,192,19432,1,0,0:0:0:0:
192,192,19832,1,0,0:0:0:0:
448,192,20032,1,0,0:0:0:0:
320,192,20032,128,0,20432:0:0:0:0:
192,192,20432,1,0,0:0:0:0:
320,192,20632,1,0,0:0:0:0:
64,192,20832,1,0,0:0:0:0:
448,192,20832,128,0,21632:0:0:0:0:
320,192,21232,128,0,21632:0:0:0:0:
192,192,21632,1,0,0:0:0:0:
64,192,21632,1,0,0:0:0:0:
320,192,21932,1,0,0:0:0:0:
192,192,22232,1,0,0:0:0:0:
448,192,22532,1,0,0:0:0:0:
64,192,22832,1,0,0:0:0:0:
192,192,23032,1,0,0:0:0:0:
320,192,23232,1,0,0:0:0:0:
192,192,23532,1,0,0:0:0:0:
320,192,23832,1,0,0:0:0:0:
64,192,24132,1,0,0:0:0:0:
448,192,24432,1,0,0:0:0:0:
320,192,24632,1,0,0:0:0:0:
192,192,24832,1,0,0:0:0:0:
64,192,24832,1,0,0:0:0:0:
448,192,25132,1,0,0:0:0:0:
64,192,25432,1,0,0:0:0:0:
320,192,25732,1,0,0:0:0:0:
192,192,26032,1,0,0:0:0:0:
64,192,26232,1,0,0:0:0:0:
448,192,26432,1,0,0:0:0:0:
320,192,26732,1,0,0:0:0:0:
192,192,27032,1,0,0:0:0:0:
64,192,27332,1,0,0:0:0:0:
448,192,27632,1,0,0:0:0:0:
320,192,27832,1,0,0:0:0:0:
192,192,28032,1,0,0:0:0:0:
64,192,28032,1,0,0:0:0:0:
320,192,28232,1,0,0:0:0:0:
64,192,28532,1,0,0:0:0:0:
192,192,28732,1,0,0:0:0:0:
320,192,29032,1,0,0:0:0:0:
448,192,29332,1,0,0:0:0:0:
64,192,29332,1,0,0:0:0:0:
192,192,29732,1,0,0:0:0:0:
320,192,29732,1,0,0:0:0:0:
320,192,30132,1,0,0:0:0:0:
448,192,30332,1,0,0:0:0:0:
192,192,30632,1,0,0:0:0:0:
64,192,30932,1,0,0:0:0:0:
320,192,31232,1,0,0:0:0:0:
448,192,31232,1,0,0:0:0:0:
192,192,31532,1,0,0:0:0:0:
64,192,31832,1,0,0:0:0:0:
448,192,31832,1,0,0:0:0:0:
320,192,32032,1,0,0:0:0:0:
192,192,32032,1,0,0:0:0:0:
448,192,32432,128,0,32832:0:0:0:0:
320,192,32832,1,0,0:0:0:0:
64,192,33032,1,0,0:0:0:0:
448,192,33232,1,0,0:0:0:0:
192,192,33432,1,0,0:0:0:0:
64,192,33632,1,0,0:0:0:0:
448,192,33632,1,0,0:0:0:0:
192,192,33932,1,0,0:0:0:0:
64,192,34232,1,0,0:0:0:0:
320,192,34532,1,0,0:0:0:0:
192,192,34832,1,0,0:0:0:0:
64,192,35032,1,0,0:0:0:0:
192,192,35232,1,0,0:0:0:0:
320,192,35432,1,0,0:0:0:0:
448,192,35432,1,0,0:0:0:0:
192,192,35732,1,0,0:0:0:0:
448,192,36032,1,0,0:0:0:0:
320,192,36332,1,0,0:0:0:0:
64,192,36432,128,0,36832:0:0:0:0:
448,192,36832,1,0,0:0:0:0:
320,192,36832,128,0,37232:0:0:0:0:
192,192,37232,1,0,0:0:0:0:
64,192,37432,128,0,37832:0:0:0:0:
448,192,37832,1,0,0:0:0:0:
320,192,38032,128,0,38432:0:0:0:0:
64,192,38432,1,0,0:0:0:0:
448,192,38632,1,0,0:0:0:0:
320,192,38632,128,0,39032:0:0:0:0:
192,192,39032,1,0,0:0:0:0:
64,192,39232,128,0,40032:0:0:0:0:
448,192,39232,1,0,0:0:0:0:
320,192,40032,128,0,40332:0:0:0:0:
64,192,40332,1,0,0:0:0:0:
448,192,40332,128,0,40632:0:0:0:0:
192,192,40632,1,0,0:0:0:0:
64,192,40632,1,0,0:0:0:0:
448,192,40832,1,0,0:0:0:0:
320,192,40832,128,0,41432:0:0:0:0:
192,192,41432,1,0,0:0:0:0:
448,192,41632,1,0,0:0:0:0:
64,192,41632,128,0,42232:0:0:0:0:
320,192,42232,1,0,0:0:0:0:
448,192,42432,128,0,42832:0:0:0:0:
320,192,42832,1,0,0:0:0:0:
192,192,43032,1,0,0:0:0:0:
448,192,43232,1,0,0:0:0:0:
64,192,43232,1,0,0:0:0:0:
192,192,43632,1,0,0:0:0:0:
320,192,43832,1,0,0:0:0:0:
448,192,44032,128,0,44332:0:0:0:0:
64,192,44032,1,0,0:0:0:0:
192,192,44332,128,0,44632:0:0:0:0:
320,192,44632,1,0,0:0:0:0:
64,192,44832,128,0,45232:0:0:0:0:
448,192,45232,1,0,0:0:0:0:
320,192,45432,1,0,0:0:0:0:
192,192,45632,128,0,45932:0:0:0:0:
64,192,45932,128,0,46232:0:0:0:0:
320,192,46232,1,0,0:0:0:0:
192,192,46432,128,0,46832:0:0:0:0:
64,192,46832,1,0,0:0:0:0:
448,192,47032,1,0,0:0:0:0:
320,192,47232,128,0,47532:0:0:0:0:
64,192,47532,128,0,47832:0:0:0:0:
448,192,47832,1,0,0:0:0:0:
192,192,48032,1,0,0:0:0:0:
64,192,48432,1,0,0:0:0:0:
192,192,48632,1,0,0:0:0:0:
320,192,48832,128,0,49132:0:0:0:0:
64,192,49132,128,0,49432:0:0:0:0:
448,192,49432,1,0,0:0:0:0:
192,192,49632,128,0,49932:0:0:0:0:
64,192,49932,128,0,50232:0:0:0:0:
192,192,50232,1,0,0:0:0:0:
320,192,50432,1,0,0:0:0:0:
448,192,50432,128,0,50732:0:0:0:0:
64,192,50732,128,0,51032:0:0:0:0:
192,192,51032,1,0,0:0:0:0:
320,192,51232,128,0,51632:0:0:0:0:
64,192,51632,1,0,0:0:0:0:
448,192,51832,1,0,0:0:0:0:
192,192,52032,128,0,52332:0:0:0:0:
448,192,52332,128,0,52632:0:0:0:0:
64,192,52632,1,0,0:0:0:0:
320,192,52832,128,0,53132:0:0:0:0:
64,192,53132,128,0,53432:0:0:0:0:
448,192,53432,1,0,0:0:0:0:
64,192,53632,1,0,0:0:0:0:
192,192,53632,128,0,53932:0:0:0:0:
320,192,53932,128,0,54232:0:0:0:0:
192,192,54232,1,0,0:0:0:0:
448,192,54432,1,0,0:0:0:0:
64,192,54432,128,0,55032:0:0:0:0:
320,192,54732,1,0,0:0:0:0:
448,192,55032,1,0,0:0:0:0:
64,192,55232,1,0,0:0:0:0:
192,192,55232,128,0,55632:0:0:0:0:
448,192,55632,128,0,56032:0:0:0:0:
320,192,56032,128,0,56432:0:0:0:0:
192,192,56432,1,0,0:0:0:0:
320,192,56632,1,0,0:0:0:0:
64,192,56832,128,0,57632:0:0:0:0:
448,192,56832,1,0,0:0:0:0:
192,192,57632,1,0,0:0:0:0:
448,192,57832,1,0,0:0:0:0:
320,192,58132,1,0,0:0:0:0:
64,192,58432,128,0,59332:0:0:0:0:
448,192,58932,1,0,0:0:0:0:
320,192,59332,1,0,0:0:0:0:
192,192,59532,1,0,0:0:0:0:
64,192,59732,1,0,0:0:0:0:
448,192,59932,128,0,60332:0:0:0:0:
192,192,60332,1,0,0:0:0:0:
320,192,60532,1,0,0:0:0:0:
64,192,60732,1,0,0:0:0:0:
320,192,60932,128,0,61332:0:0:0:0:
192,192,61332,1,0,0:0:0:0:
64,192,61532,1,0,0:0:0:0:
320,192,61632,1,0,0:0:0:0:
448,192,61632,1,0,0:0:0:0:
192,192,61932,1,0,0:0:0:0:
64,192,62232,1,0,0:0:0:0:
448,192,62532,128,0,63132:0:0:0:0:
320,192,63132,128,0,63432:0:0:0:0:
192,192,63432,128,0,63732:0:0:0:0:
64,192,63732,128,0,64032:0:0:0:0:
448,192,64032,1,0,0:0:0:0:
192,192,64332,1,0,0:0:0:0:
320,192,64332,1,0,0:0:0:0:
192,192,64532,1,0,0:0:0:0:
320,192,64532,1,0,0:0:0:0:
448,192,64732,1,0,0:0:0:0:
64,192,64732,128,0,65132:0:0:0:0:
320,192,65132,128,0,65532:0:0:0:0:
64,192,65532,128,0,65932:0:0:0:0:
320,192,65932,128,0,66332:0:0:0:0:
64,192,66332,1,0,0:0:0:0:
448,192,66532,128,0,66932:0:0:0:0:
320,192,66932,1,0,0:0:0:0:
192,192,67132,1,0,0:0:0:0:
64,192,67332,128,0,67732:0:0:0:0:
192,192,67732,1,0,0:0:0:0:
320,192,67932,1,0,0:0:0:0:
448,192,67932,128,0,68332:0:0:0:0:
192,192,68332,128,0,68732:0:0:0:0:
448,192,68732,128,0,69632:0:0:0:0:
192,192,69132,128,0,69632:0:0:0:0:
64,192,69632,128,0,69932:0:0:0:0:
192,192,69932,128,0,70232:0:0:0:0:
320,192,70232,128,0,70532:0:0:0:0:
448,192,70532,128,0,71232:0:0:0:0:
320,192,70832,128,0,71232:0:0:0:0:
64,192,71232,1,0,0:0:0:0:
192,192,71232,1,0,0:0:0:0:
320,192,71532,1,0,0:0:0:0:
448,192,71832,1,0,0:0:0:0:
192,192,72132,1,0,0:0:0:0:
64,192,72332,1,0,0:0:0:0:
320,192,72632,1,0,0:0:0:0:
192,192,72832,1,0,0:0:0:0:
448,192,73132,1,0,0:0:0:0:
64,192,73132,128,0,73532:0:0:0:0:
320,192,73532,1,0,0:0:0:0:
448,192,73832,1,0,0:0:0:0:
192,192,74132,1,0,0:0:0:0:
320,192,74432,1,0,0:0:0:0:
448,192,74632,1,0,0:0:0:0:
192,192,74632,128,0,75032:0:0:0:0:
64,192,75032,128,0,75832:0:0:0:0:
320,192,75365,128,0,75832:0:0:0:0:
448,192,75832,1,0,0:0:0:0:
192,192,75832,1,0,0:0:0:0:
320,192,76332,1,0,0:0:0:0:
64,192,76532,1,0,0:0:0:0:
192,192,76832,1,0,0:0:0:0:
320,192,77032,1,0,0:0:0:0:
64,192,77232,1,0,0:0:0:0:
448,192,77232,1,0,0:0:0:0:
192,192,77432,1,0,0:0:0:0:
320,192,77732,128,0,78132:0:0:0:0:
448,192,78132,1,0,0:0:0:0:
64,192,78132,128,0,78932:0:0:0:0:
448,192,78932,1,0,0:0:0:0:
192,192,78932,1,0,0:0:0:0:
320,192,79198,1,0,0:0:0:0:
192,192,79465,1,0,0:0:0:0:
64,192,79732,1,0,0:0:0:0:
192,192,79998,1,0,0:0:0:0:
320,192,80132,1,0,0:0:0:0:
448,192,80132,1,0,0:0:0:0:
448,192,80532,1,0,0:0:0:0:
64,192,80532,128,0,80832:0:0:0:0:
192,192,80832,128,0,81132:0:0:0:0:
320,192,81132,1,0,0:0:0:0:
64,192,81332,128,0,81732:0:0:0:0:
448,192,81732,1,0,0:0:0:0:
320,192,81932,1,0,0:0:0:0:
192,192,82132,128,0,82398:0:0:0:0:
320,192,82398,128,0,82732:0:0:0:0:
64,192,82732,1,0,0:0:0:0:
448,192,82932,128,0,83332:0:0:0:0:
320,192,83332,1,0,0:0:0:0:
64,192,83332,1,0,0:0:0:0:
192,192,83532,1,0,0:0:0:0:
64,192,83732,1,0,0:0:0:0:
64,192,84132,1,0,0:0:0:0:
192,192,84132,128,0,84532:0:0:0:0:
320,192,84532,128,0,84932:0:0:0:0:
448,192,84932,1,0,0:0:0:0:
64,192,84932,1,0,0:0:0:0:
192,192,85132,1,0,0:0:0:0:
320,192,85332,128,0,85732:0:0:0:0:
192,192,85732,1,0,0:0:0:0:
64,192,85732,1,0,0:0:0:0:
320,192,85932,1,0,0:0:0:0:
64,192,86132,1,0,0:0:0:0:
448,192,86132,128,0,86532:0:0:0:0:
320,192,86532,1,0,0:0:0:0:
192,192,86532,128,0,86932:0:0:0:0:
64,192,86932,128,0,87232:0:0:0:0:
320,192,87232,128,0,87532:0:0:0:0:
192,192,87532,1,0,0:0:0:0:
448,192,87732,128,0,88132:0:0:0:0:
320,192,88132,1,0,0:0:0:0:
192,192,88332,1,0,0:0:0:0:
64,192,88532,128,0,88832:0:0:0:0:
448,192,88832,128,0,89132:0:0:0:0:
192,192,89132,1,0,0:0:0:0:
320,192,89332,128,0,89732:0:0:0:0:
64,192,89732,1,0,0:0:0:0:
192,192,89932,1,0,0:0:0:0:
320,192,90132,128,0,90432:0:0:0:0:
64,192,90432,128,0,90732:0:0:0:0:
448,192,90732,1,0,0:0:0:0:
192,192,90932,1,0,0:0:0:0:
64,192,91332,1,0,0:0:0:0:
192,192,91532,1,0,0:0:0:0:
320,192,91532,1,0,0:0:0:0:
64,192,91732,1,0,0:0:0:0:
448,192,91732,128,0,92032:0:0:0:0:
320,192,92032,128,0,92332:0:0:0:0:
192,192,92332,1,0,0:0:0:0:
64,192,92532,128,0,93332:0:0:0:0:
448,192,92932,128,0,93332:0:0:0:0:
192,192,93332,1,0,0:0:0:0:
320,192,93332,128,0,93932:0:0:0:0:
448,192,93632,128,0,93932:0:0:0:0:
64,192,93932,1,0,0:0:0:0:
192,192,94132,128,0,94532:0:0:0:0:
448,192,94532,1,0,0:0:0:0:
320,192,94732,1,0,0:0:0:0:
192,192,94932,128,0,95532:0:0:0:0:
64,192,95232,128,0,95532:0:0:0:0:
448,192,95532,1,0,0:0:0:0:
320,192,95732,128,0,96132:0:0:0:0:
64,192,96132,1,0,0:0:0:0:
192,192,96332,1,0,0:0:0:0:
448,192,96532,128,0,96932:0:0:0:0:
64,192,96932,1,0,0:0:0:0:
192,192,97132,1,0,0:0:0:0:
320,192,97332,128,0,97732:0:0:0:0:
192,192,97732,1,0,0:0:0:0:
320,192,97932,1,0,0:0:0:0:
64,192,98132,128,0,98732:0:0:0:0:
448,192,98432,128,0,98732:0:0:0:0:
320,192,98732,1,0,0:0:0:0:
192,192,98932,1,0,0:0:0:0:
64,192,99132,1,0,0:0:0:0:
448,192,99132,1,0,0:0:0:0:
192,192,99532,1,0,0:0:0:0:
64,192,99532,1,0,0:0:0:0:
448,192,99732,128,0,100332:0:0:0:0:
320,192,99732,1,0,0:0:0:0:
64,192,100032,128,0,100332:0:0:0:0:
320,192,100332,1,0,0:0:0:0:
192,192,100532,128,0,100932:0:0:0:0:
320,192,100932,1,0,0:0:0:0:
448,192,101132,1,0,0:0:0:0:
64,192,101332,128,0,101932:0:0:0:0:
448,192,101632,128,0,101932:0:0:0:0:
192,192,101932,1,0,0:0:0:0:
448,192,102132,128,0,102732:0:0:0:0:
64,192,102432,128,0,102732:0:0:0:0:
320,192,102732,1,0,0:0:0:0:
64,192,102932,1,0,0:0:0:0:
192,192,102932,128,0,103532:0:0:0:0:
320,192,103232,128,0,103532:0:0:0:0:
448,192,103532,1,0,0:0:0:0:
64,192,103732,1,0,0:0:0:0:
320,192,103732,128,0,104332:0:0:0:0:
192,192,104032,128,0,104332:0:0:0:0:
64,192,104332,1,0,0:0:0:0:
448,192,104532,128,0,104932:0:0:0:0:
320,192,104532,1,0,0:0:0:0:
64,192,104932,1,0,0:0:0:0:
192,192,105132,1,0,0:0:0:0:
320,192,105132,1,0,0:0:0:0:
448,192,105332,128,0,106132:0:0:0:0:
320,192,105732,128,0,106132:0:0:0:0:
64,192,106132,128,0,106932:0:0:0:0:
192,192,106132,128,0,106932:0:0:0:0:
320,192,106932,128,0,107732:0:0:0:0:
448,192,106932,128,0,107732:0:0:0:0:
192,192,107732,1,0,0:0:0:0:
64,192,107732,1,0,0:0:0:0:
320,192,107932,1,0,0:0:0:0:
64,192,108132,1,0,0:0:0:0:
448,192,108232,1,0,0:0:0:0:
192,192,108432,1,0,0:0:0:0:
64,192,108632,1,0,0:0:0:0:
320,192,108732,1,0,0:0:0:0:
448,192,108732,128,0,109332:0:0:0:0:
64,192,109332,1,0,0:0:0:0:
192,192,109532,1,0,0:0:0:0:
448,192,109732,1,0,0:0:0:0:
320,192,109932,1,0,0:0:0:0:
192,192,110132,1,0,0:0:0:0:
64,192,110332,1,0,0:0:0:0:
320,192,110432,1,0,0:0:0:0:
448,192,110432,1,0,0:0:0:0:
