osu file format v14

[General]
AudioFilename: audio.mp3
AudioLeadIn: 0
PreviewTime: 10029
Countdown: 0
SampleSet: None
StackLeniency: 0.7
Mode: 0
LetterboxInBreaks: 0
WidescreenStoryboard: 1

[Editor]
DistanceSpacing: 1.8
BeatDivisor: 4
GridSize: 4
TimelineZoom: 2.2

[Metadata]
Title:Chicken all chicken
TitleUnicode:雞 全部都係雞
Artist:Noah
ArtistUnicode:Noah
Creator:gundammango
Version:Extra
Source:Hong Kong Goodmorning
Tags:
BeatmapID:1988550
BeatmapSetID:952115

[Difficulty]
HPDrainRate:5
CircleSize:4
OverallDifficulty:9
ApproachRate:9.4
SliderMultiplier:2
SliderTickRate:1

[Events]
//Background and Video events
0,0,"wallpaper.jpg",0,0
//Break Periods
//Storyboard Layer 0 (Background)
//Storyboard Layer 1 (Fail)
//Storyboard Layer 2 (Pass)
//Storyboard Layer 3 (Foreground)
//Storyboard Sound Samples

[TimingPoints]
80,301.507537688442,3,3,1,50,1,0
80,-50,3,3,1,50,0,0
230,-100,3,3,1,50,0,0
984,-50,3,3,1,50,0,0
1135,-100,3,3,1,50,0,0
1889,-50,3,3,1,50,0,0
2039,-100,3,3,1,50,0,0
3698,-66.6666666666667,3,3,1,50,0,0
10029,-66.6666666666667,3,3,1,50,0,1
16361,-66.6666666666667,3,3,1,50,0,0
28889,500,4,3,1,50,1,0
28889,-200,4,3,1,50,0,0
44889,-333.333333333333,4,3,1,50,0,0

[Colours]
Combo1 : 255,128,0
Combo2 : 180,180,180
Combo3 : 56,56,56
Combo4 : 218,59,59

[HitObjects]
11,256,80,6,0,P|12:303|43:345,1,100,8|8,0:0|0:0,0:0:0:0:
132,281,230,1,0,0:0:0:0:
136,273,306,1,0,0:0:0:0:
141,263,381,2,0,L|201:256,3,50
274,350,683,2,0,L|345:355,3,50
479,288,984,6,0,P|436:264|387:267,1,100,8|8,0:0|0:0,0:0:0:0:
324,210,1135,1,0,0:0:0:0:
323,199,1210,1,0,0:0:0:0:
321,188,1286,2,0,L|314:121,1,50
508,93,1436,1,8,0:0:0:0:
487,57,1512,1,8,0:0:0:0:
449,45,1587,1,0,0:0:0:0:
408,53,1662,1,0,0:0:0:0:
389,70,1738,1,0,0:0:0:0:
367,67,1813,1,0,0:0:0:0:
350,55,1889,6,0,P|395:21|446:39,1,100,8|8,0:0|0:0,0:0:0:0:
465,187,2039,1,0,0:0:0:0:
462,200,2115,1,0,0:0:0:0:
458,214,2190,2,0,L|400:219,3,50
288,271,2492,2,0,L|222:265,3,50
38,354,2793,5,8,0:0:0:0:
25,312,2868,1,8,0:0:0:0:
13,273,2944,2,0,L|-2:213,1,50
110,36,3095,1,8,0:0:0:0:
97,78,3170,1,8,0:0:0:0:
85,117,3245,2,0,L|70:177,1,50
148,299,3396,5,8,0:0:0:0:
173,235,3471,1,8,0:0:0:0:
198,172,3547,1,8,0:0:0:0:
266,167,3622,1,8,0:0:0:0:
335,174,3698,6,0,B|384:178|384:178|412:171|412:171|444:183|444:183|502:181,1,150.000005722046,12|0,0:0|0:0,0:0:0:0:
370,298,3999,1,0,0:0:0:0:
294,79,4150,1,0,0:0:0:0:
372,313,4301,1,0,0:0:0:0:
404,40,4451,1,0,0:0:0:0:
278,314,4602,6,0,B|229:310|229:310|201:317|201:317|169:305|169:305|111:307,1,150.000005722046,8|0,0:0|0:0,0:0:0:0:
17,100,4904,1,0,0:0:0:0:
8,348,5054,1,0,0:0:0:0:
106,72,5205,1,0,0:0:0:0:
120,316,5356,1,0,0:0:0:0:
192,17,5507,6,0,B|200:58|200:58|197:69|197:69|209:121|209:121|206:133|206:133|219:188,1,150.000005722046,8|0,0:0|0:0,0:0:0:0:
464,285,5808,1,0,0:0:0:0:
473,37,5959,1,0,0:0:0:0:
375,313,6110,1,0,0:0:0:0:
361,69,6260,1,0,0:0:0:0:
271,344,6411,6,0,B|279:303|279:303|276:292|276:292|288:240|288:240|285:228|285:228|298:173,1,150.000005722046,8|0,0:0|0:0,0:0:0:0:
107,263,6713,1,0,0:0:0:0:
380,231,6863,1,0,0:0:0:0:
79,177,7014,1,0,0:0:0:0:
376,144,7165,1,0,0:0:0:0:
53,92,7316,6,0,B|101:83|101:83|109:76|109:76|147:68|147:68|158:72|158:72|197:65,1,150.000005722046,8|0,0:0|0:0,0:0:0:0:
512,192,7617,1,0,0:0:0:0:
234,153,7768,1,0,0:0:0:0:
481,293,7919,1,0,0:0:0:0:
239,246,8069,1,0,0:0:0:0:
429,381,8220,6,0,B|390:374|390:374|379:378|379:378|341:370|341:370|333:363|333:363|285:354,1,150.000005722046,8|0,0:0|0:0,0:0:0:0:
166,68,8522,1,0,0:0:0:0:
136,301,8672,1,0,0:0:0:0:
310,70,8823,1,0,0:0:0:0:
336,295,8974,1,0,0:0:0:0:
158,81,9125,6,0,L|77:73,3,75.0000028610231,0|0|0|0,0:0|0:0|0:0|0:0,0:0:0:0:
318,81,9426,2,0,L|399:73,3,75.0000028610231,0|0|0|0,0:0|0:0|0:0|0:0,0:0:0:0:
506,199,9728,6,0,L|404:187,1,75.0000028610231,8|8,0:0|0:0,0:0:0:0:
305,384,9878,2,0,L|403:375,1,75.0000028610231,8|8,0:0|0:0,0:0:0:0:
229,163,10029,5,8,0:0:0:0:
203,190,10105,1,0,0:0:0:0:
190,225,10180,1,0,0:0:0:0:
191,262,10255,1,0,0:0:0:0:
205,296,10331,1,8,0:0:0:0:
231,323,10406,1,0,0:0:0:0:
265,338,10482,1,0,0:0:0:0:
302,339,10557,1,0,0:0:0:0:
337,327,10632,1,8,0:0:0:0:
371,308,10708,1,0,0:0:0:0:
407,308,10783,1,0,0:0:0:0:
435,330,10858,1,0,0:0:0:0:
451,362,10934,5,8,0:0:0:0:
426,334,11009,1,0,0:0:0:0:
409,300,11085,1,0,0:0:0:0:
402,263,11160,1,0,0:0:0:0:
404,226,11235,1,8,0:0:0:0:
417,191,11311,1,0,0:0:0:0:
438,160,11386,1,0,0:0:0:0:
446,122,11461,1,0,0:0:0:0:
438,85,11537,1,8,0:0:0:0:
411,62,11612,1,0,0:0:0:0:
375,57,11688,1,0,0:0:0:0:
344,76,11763,1,0,0:0:0:0:
324,110,11838,5,8,0:0:0:0:
305,141,11914,1,0,0:0:0:0:
272,159,11989,1,0,0:0:0:0:
235,157,12064,1,0,0:0:0:0:
205,136,12140,1,8,0:0:0:0:
190,102,12215,1,0,0:0:0:0:
194,66,12291,1,0,0:0:0:0:
217,37,12366,1,0,0:0:0:0:
252,24,12441,1,8,0:0:0:0:
288,30,12517,1,0,0:0:0:0:
316,54,12592,1,0,0:0:0:0:
323,91,12667,1,0,0:0:0:0:
317,128,12743,5,8,0:0:0:0:
311,165,12818,1,0,0:0:0:0:
305,202,12894,1,0,0:0:0:0:
299,239,12969,1,0,0:0:0:0:
293,276,13044,1,8,0:0:0:0:
282,312,13120,1,0,0:0:0:0:
261,350,13195,1,0,0:0:0:0:
221,369,13270,1,0,0:0:0:0:
177,360,13346,1,8,0:0:0:0:
148,327,13421,1,0,0:0:0:0:
144,283,13497,1,0,0:0:0:0:
161,250,13572,1,0,0:0:0:0:
188,222,13647,5,8,0:0:0:0:
211,192,13723,1,0,0:0:0:0:
221,157,13798,1,0,0:0:0:0:
218,119,13873,1,0,0:0:0:0:
201,86,13949,1,8,0:0:0:0:
173,61,14024,1,0,0:0:0:0:
138,49,14100,1,0,0:0:0:0:
101,50,14175,1,0,0:0:0:0:
67,65,14250,1,8,0:0:0:0:
41,91,14326,1,0,0:0:0:0:
26,126,14401,1,0,0:0:0:0:
25,163,14476,1,0,0:0:0:0:
38,199,14552,5,8,0:0:0:0:
69,179,14627,1,0,0:0:0:0:
104,166,14703,1,0,0:0:0:0:
142,165,14778,1,0,0:0:0:0:
178,174,14853,1,8,0:0:0:0:
211,192,14929,1,0,0:0:0:0:
240,215,15004,1,0,0:0:0:0:
273,234,15079,1,0,0:0:0:0:
309,242,15155,1,8,0:0:0:0:
346,236,15230,1,0,0:0:0:0:
378,217,15306,1,0,0:0:0:0:
401,185,15381,1,0,0:0:0:0:
407,154,15456,5,8,0:0:0:0:
399,153,15532,1,0,0:0:0:0:
392,152,15607,1,0,0:0:0:0:
384,152,15683,1,0,0:0:0:0:
377,151,15758,1,8,0:0:0:0:
369,150,15833,1,0,0:0:0:0:
362,150,15909,1,0,0:0:0:0:
354,149,15984,1,0,0:0:0:0:
347,148,16059,1,8,0:0:0:0:
339,148,16135,1,8,0:0:0:0:
332,147,16210,1,8,0:0:0:0:
325,147,16286,1,8,0:0:0:0:
317,146,16361,6,0,B|271:138|248:78|248:78|226:145|164:140|164:140|156:95|109:69,1,300.000011444092,12|0,0:0|0:0,0:0:0:0:
84,231,16738,1,0,0:0:0:0:
37,242,16813,1,0,0:0:0:0:
8,281,16889,1,0,0:0:0:0:
5,329,16964,1,0,0:0:0:0:
38,368,17039,1,0,0:0:0:0:
85,379,17115,1,0,0:0:0:0:
133,355,17190,1,0,0:0:0:0:
150,307,17265,6,0,B|204:275|257:320|257:320|254:292|254:292|306:312|370:288|370:288|346:319,1,300.000011444092,8|0,0:0|0:0,0:0:0:0:
288,186,17642,1,0,0:0:0:0:
275,145,17718,1,0,0:0:0:0:
269,105,17793,1,0,0:0:0:0:
305,89,17868,1,0,0:0:0:0:
345,77,17944,1,0,0:0:0:0:
386,66,18019,1,0,0:0:0:0:
428,56,18095,1,0,0:0:0:0:
470,47,18170,6,0,B|455:21|480:6|480:6|499:47|469:99|469:99|423:179|495:247,1,300.000011444092,8|0,0:0|0:0,0:0:0:0:
391,260,18547,1,0,0:0:0:0:
354,221,18622,1,0,0:0:0:0:
311,213,18698,1,0,0:0:0:0:
266,235,18773,1,0,0:0:0:0:
238,279,18848,1,0,0:0:0:0:
211,321,18924,1,0,0:0:0:0:
158,343,18999,1,0,0:0:0:0:
110,328,19074,6,0,B|38:304|17:216|84:170|84:170|47:116|82:70|82:70,1,300.000011444092,8|0,0:0|0:0,0:0:0:0:
307,57,19451,1,0,0:0:0:0:
341,21,19527,1,0,0:0:0:0:
390,9,19602,1,0,0:0:0:0:
439,24,19677,1,0,0:0:0:0:
472,60,19753,1,0,0:0:0:0:
484,108,19828,1,0,0:0:0:0:
470,154,19904,1,0,0:0:0:0:
433,186,19979,6,0,B|435:157|479:136|479:136|416:111|362:147|362:147|320:172|242:140,1,300.000011444092,8|0,0:0|0:0,0:0:0:0:
83,48,20356,1,0,0:0:0:0:
52,81,20431,1,0,0:0:0:0:
49,130,20507,1,0,0:0:0:0:
78,169,20582,1,0,0:0:0:0:
90,214,20657,1,0,0:0:0:0:
77,258,20733,1,0,0:0:0:0:
46,294,20808,1,0,0:0:0:0:
0,312,20884,6,0,B|67:316|67:316|84:335|84:335|190:342|190:342|207:363|207:363|281:366,1,300.000011444092,8|0,0:0|0:0,0:0:0:0:
182,249,21260,1,0,0:0:0:0:
211,211,21336,1,0,0:0:0:0:
248,197,21411,1,0,0:0:0:0:
294,208,21487,1,0,0:0:0:0:
331,238,21562,1,0,0:0:0:0:
355,276,21637,1,0,0:0:0:0:
397,292,21713,1,0,0:0:0:0:
439,278,21788,6,0,P|484:204|369:253,1,300.000011444092,12|0,0:0|0:0,0:0:0:0:
356,325,22165,1,0,0:0:0:0:
341,329,22240,1,0,0:0:0:0:
330,334,22316,1,0,0:0:0:0:
315,339,22391,1,0,0:0:0:0:
302,346,22466,1,0,0:0:0:0:
289,352,22542,1,0,0:0:0:0:
276,358,22617,1,0,0:0:0:0:
264,366,22693,6,0,P|210:248|181:351,1,300.000011444092,8|8,0:0|0:0,0:0:0:0:
8,304,23069,1,0,0:0:0:0:
14,234,23145,1,0,0:0:0:0:
62,184,23220,1,0,0:0:0:0:
130,178,23296,1,8,0:0:0:0:
187,213,23371,1,0,0:0:0:0:
208,279,23446,1,0,0:0:0:0:
187,341,23522,1,0,0:0:0:0:
124,364,23597,6,0,P|24:315|155:233,1,300.000011444092,8|0,0:0|0:0,0:0:0:0:
325,304,23974,1,0,0:0:0:0:
365,301,24049,1,0,0:0:0:0:
400,317,24125,1,0,0:0:0:0:
428,344,24200,1,0,0:0:0:0:
439,284,24275,1,0,0:0:0:0:
450,226,24351,1,0,0:0:0:0:
461,170,24426,1,0,0:0:0:0:
468,110,24502,6,0,B|509:82|509:82|403:92|403:92|383:112|383:112|255:125,1,300.000011444092,8|0,0:0|0:0,0:0:0:0:
215,221,24878,1,0,0:0:0:0:
220,261,24954,1,0,0:0:0:0:
226,305,25029,1,0,0:0:0:0:
236,346,25105,1,0,0:0:0:0:
190,310,25180,1,0,0:0:0:0:
136,305,25255,1,0,0:0:0:0:
91,331,25331,1,0,0:0:0:0:
58,375,25406,6,0,B|40:344|6:331|6:331|62:348|108:305|108:305|155:249|238:273,1,300.000011444092,8|0,0:0|0:0,0:0:0:0:
201,112,25783,1,0,0:0:0:0:
221,78,25858,1,0,0:0:0:0:
216,41,25934,1,0,0:0:0:0:
186,10,26009,1,0,0:0:0:0:
168,63,26085,1,0,0:0:0:0:
178,120,26160,1,0,0:0:0:0:
226,162,26235,1,0,0:0:0:0:
286,160,26311,6,0,B|331:166|355:127|355:127|371:234|482:221|482:221|463:238|456:268,1,300.000011444092,8|0,0:0|0:0,0:0:0:0:
161,246,26688,1,0,0:0:0:0:
124,243,26763,1,0,0:0:0:0:
92,262,26838,1,0,0:0:0:0:
76,297,26914,1,0,0:0:0:0:
65,248,26989,1,0,0:0:0:0:
54,201,27064,1,0,0:0:0:0:
45,148,27140,1,0,0:0:0:0:
39,100,27215,6,0,B|67:88|91:41|91:41|58:273,1,300.000011444092,8|0,0:0|0:0,0:0:0:0:
51,380,27592,1,0,0:0:0:0:
96,333,27667,1,0,0:0:0:0:
167,313,27742,1,0,0:0:0:0:
240,319,27817,1,0,0:0:0:0:
310,352,27893,1,0,0:0:0:0:
381,384,27968,1,0,0:0:0:0:
458,375,28043,1,0,0:0:0:0:
501,315,28120,6,0,B|454:307|454:307|415:105|415:105|356:97|356:97,1,300.000011444092,8|0,0:0|0:0,0:0:0:0:
226,116,28497,1,0,0:0:0:0:
184,111,28572,1,0,0:0:0:0:
144,112,28648,1,0,0:0:0:0:
109,129,28723,1,0,0:0:0:0:
81,151,28798,1,0,0:0:0:0:
118,284,28889,6,0,P|80:169|9:268,1,300,4|0,0:0|0:0,0:0:0:0:
22,276,30889,5,8,0:0:0:0:
305,238,31055,1,0,0:0:0:0:
133,361,31222,1,0,0:0:0:0:
230,140,31389,1,0,0:0:0:0:
352,335,31555,1,0,0:0:0:0:
213,247,31722,1,0,0:0:0:0:
465,116,31889,5,12,0:0:0:0:
458,351,32055,1,0,0:0:0:0:
388,166,32222,1,0,0:0:0:0:
286,384,32389,1,0,0:0:0:0:
477,271,32555,1,0,0:0:0:0:
305,238,32722,1,0,0:0:0:0:
489,25,32889,6,0,B|419:21|431:73|328:63,1,150,12|0,0:0|0:0,0:0:0:0:
110,26,33889,5,8,0:0:0:0:
311,122,34055,1,0,0:0:0:0:
105,110,34222,1,0,0:0:0:0:
326,239,34389,1,0,0:0:0:0:
110,221,34555,1,0,0:0:0:0:
226,143,34722,1,0,0:0:0:0:
198,366,34889,5,12,0:0:0:0:
181,362,34972,1,0,0:0:0:0:
163,362,35055,1,0,0:0:0:0:
222,219,35222,1,0,0:0:0:0:
344,363,35389,1,0,0:0:0:0:
68,299,35555,1,0,0:0:0:0:
280,294,35722,1,0,0:0:0:0:
42,215,35889,6,0,B|13:200|13:200|144:187,1,150,12|0,0:0|0:0,0:0:0:0:
246,18,36889,5,12,0:0:0:0:
212,258,37055,1,0,0:0:0:0:
296,84,37222,1,0,0:0:0:0:
324,314,37389,1,0,0:0:0:0:
397,166,37555,1,0,0:0:0:0:
477,293,37722,1,0,0:0:0:0:
248,155,37889,5,12,0:0:0:0:
475,111,38055,1,0,0:0:0:0:
321,196,38222,1,0,0:0:0:0:
512,8,38389,1,0,0:0:0:0:
477,218,38555,1,0,0:0:0:0:
419,49,38722,1,0,0:0:0:0:
410,335,38889,6,0,B|360:320|348:267|348:267|336:311|309:324,1,150,12|0,0:0|0:0,0:0:0:0:
16,313,39889,5,12,0:0:0:0:
291,205,40055,1,0,0:0:0:0:
110,356,40222,1,0,0:0:0:0:
391,211,40389,1,0,0:0:0:0:
97,160,40555,1,0,0:0:0:0:
256,278,40722,1,0,0:0:0:0:
364,58,40889,5,12,0:0:0:0:
349,58,40972,1,0,0:0:0:0:
335,59,41055,1,0,0:0:0:0:
113,40,41222,1,0,0:0:0:0:
325,143,41389,1,0,0:0:0:0:
49,100,41555,1,0,0:0:0:0:
231,58,41722,1,0,0:0:0:0:
16,313,41889,6,0,B|-5:278|-5:278|10:153,1,150,12|0,0:0|0:0,0:0:0:0:
166,322,42889,5,12,0:0:0:0:
203,127,43055,1,0,0:0:0:0:
241,281,43222,1,0,0:0:0:0:
357,143,43389,1,0,0:0:0:0:
246,202,43555,1,0,0:0:0:0:
352,232,43722,1,0,0:0:0:0:
311,64,43889,5,12,0:0:0:0:
422,76,44055,1,0,0:0:0:0:
376,3,44222,1,0,0:0:0:0:
469,147,44389,1,0,0:0:0:0:
449,218,44555,1,0,0:0:0:0:
433,288,44722,1,0,0:0:0:0:
411,378,44889,6,0,L|285:365,1,119.999996337891,12|0,0:0|0:0,0:0:0:0:
