osu file format v14

[General]
AudioFilename: audio.mp3
AudioLeadIn: 0
PreviewTime: 137632
Countdown: 1
SampleSet: Normal
StackLeniency: 0.7
Mode: 0
LetterboxInBreaks: 0
WidescreenStoryboard: 0

[Editor]
Bookmarks: 169940
DistanceSpacing: 1
BeatDivisor: 4
GridSize: 8
TimelineZoom: 2.5

[Metadata]
Title:Blaze and determination
TitleUnicode:Blaze and determination
Artist:Noah
ArtistUnicode:Noah
Creator:Critality
Version:* * * * * * * *
Source:
Tags:
BeatmapID:1989679
BeatmapSetID:952901

[Difficulty]
HPDrainRate:6
CircleSize:4
OverallDifficulty:9.2
ApproachRate:9.8
SliderMultiplier:2
SliderTickRate:1

[Events]
//Background and Video events
0,0,"760528_7023470.jpg",0,0
//Break Periods
//Storyboard Layer 0 (Background)
//Storyboard Layer 1 (Fail)
//Storyboard Layer 2 (Pass)
//Storyboard Layer 3 (Foreground)
//Storyboard Sound Samples

[TimingPoints]
1222.17805805404,256.410256410256,4,1,0,70,1,0
47376,-117.647058823529,4,1,0,70,0,0
47888,-95.2380952380951,4,1,0,70,0,0
48401,-74.074074074074,4,1,0,70,0,0
53529,-100,4,1,0,70,0,0
71991,-83.3333333333333,4,1,0,70,0,0
119683,-71.4285714285714,4,1,0,70,0,0
120196,-83.3333333333333,4,1,0,70,0,0
127632,-43.4782608695652,4,1,0,70,0,0
127888,-83.3333333333333,4,1,0,70,0,0
131478,-62.5,4,1,0,70,0,0
132376,-71.4285714285714,4,1,0,70,0,0
137632,-100,4,1,0,70,0,0
170452,-83.3333333333333,4,1,0,70,0,0
174555,-71.4285714285714,4,1,0,70,0,0
175068,-76.9230769230769,4,1,0,70,0,0
180709,-250,4,1,0,70,0,0
181222,-76.9230769230769,4,1,0,70,0,0
184811,-71.4285714285714,4,1,0,70,0,0
185837,-76.9230769230769,4,1,0,70,0,0
205324,-100,4,1,0,70,0,0
221734,-83.3333333333333,4,1,0,70,0,0
262632,-80,4,1,0,70,0,0
270965,-71.4285714285714,4,1,0,70,0,0

[HitObjects]
137,54,1222,6,0,L|90:69,3,50,0|0|0|0,0:0|0:0|0:0|0:0,0:0:0:0:
255,96,1478,6,0,L|217:128,3,50,0|0|0|0,0:0|0:0|0:0|0:0,0:0:0:0:
376,114,1734,6,0,L|353:158,3,50,0|0|0|0,0:0|0:0|0:0|0:0,0:0:0:0:
441,212,1991,6,0,B|439:239|454:257|454:257|441:328,1,100,0|0,0:0|0:0,0:0:0:0:
357,338,2247,5,4,0:0:0:0:
332,331,2311,1,0,0:0:0:0:
307,326,2376,1,0,0:0:0:0:
282,324,2440,1,0,0:0:0:0:
257,323,2504,2,0,P|249:323|207:329,1,50,0|0,0:0|0:0,0:0:0:0:
96,354,2632,5,4,0:0:0:0:
88,330,2696,1,0,0:0:0:0:
85,305,2760,1,0,0:0:0:0:
87,280,2824,1,0,0:0:0:0:
93,255,2888,2,0,P|118:239|152:233,1,50,0|0,0:0|0:0,0:0:0:0:
240,248,3017,5,4,0:0:0:0:
264,248,3081,1,0,0:0:0:0:
288,244,3145,1,0,0:0:0:0:
311,237,3209,1,0,0:0:0:0:
334,227,3273,2,0,P|328:202|331:166,1,50,0|0,0:0|0:0,0:0:0:0:
384,94,3401,5,4,0:0:0:0:
369,74,3465,1,0,0:0:0:0:
348,59,3529,1,0,0:0:0:0:
325,47,3593,1,0,0:0:0:0:
300,38,3658,1,0,0:0:0:0:
275,33,3722,1,0,0:0:0:0:
250,31,3786,6,0,L|193:40,3,50,4|0|0|0,0:0|0:0|0:0|0:0,0:0:0:0:
194,179,4042,2,0,L|144:186,3,50,4|0|0|0,0:0|0:0|0:0|0:0,0:0:0:0:
79,115,4299,5,4,0:0:0:0:
86,85,4363,1,0,0:0:0:0:
104,61,4427,1,0,0:0:0:0:
129,45,4491,1,0,0:0:0:0:
158,38,4555,1,0,0:0:0:0:
187,43,4619,2,0,L|242:68,1,50,0|0,0:0|0:0,0:0:0:0:
419,173,4747,5,4,0:0:0:0:
423,202,4811,1,0,0:0:0:0:
415,231,4876,1,0,0:0:0:0:
401,257,4940,1,0,0:0:0:0:
376,274,5004,1,0,0:0:0:0:
348,284,5068,6,0,L|291:263,1,50,0|0,0:0|0:0,0:0:0:0:
224,130,5196,5,0,0:0:0:0:
77,201,5324,6,0,L|126:177,1,50
347,96,5452,2,0,P|325:126|290:150,1,50
50,141,5581,2,0,P|62:116|76:90,1,50
317,26,5709,2,0,P|287:33|259:45,1,50
224,130,5837,5,0,0:0:0:0:
246,161,5901,1,0,0:0:0:0:
276,187,5965,1,0,0:0:0:0:
311,205,6029,1,0,0:0:0:0:
350,214,6093,6,0,P|386:214|413:210,3,50,0|0|0|0,0:0|0:0|0:0|0:0,0:0:0:0:
409,104,6350,5,0,0:0:0:0:
391,86,6414,1,0,0:0:0:0:
368,74,6478,1,0,0:0:0:0:
343,68,6542,1,0,0:0:0:0:
308,69,6606,2,0,P|294:124|294:145,1,50,0|0,0:0|0:0,0:0:0:0:
307,267,6734,2,0,P|308:240|302:202,1,50,0|0,0:0|0:0,0:0:0:0:
246,77,6863,5,0,0:0:0:0:
221,78,6927,1,0,0:0:0:0:
196,80,6991,1,0,0:0:0:0:
172,88,7055,1,0,0:0:0:0:
146,111,7119,2,0,P|190:147|201:150,1,50,0|0,0:0|0:0,0:0:0:0:
298,288,7247,2,0,P|273:301|247:298,1,50,0|0,0:0|0:0,0:0:0:0:
97,199,7376,6,0,P|92:230|94:257,3,50,0|0|0|0,0:0|0:0|0:0|0:0,0:0:0:0:
125,308,7632,1,0,0:0:0:0:
162,322,7696,1,0,0:0:0:0:
195,300,7760,1,0,0:0:0:0:
214,265,7824,1,0,0:0:0:0:
241,235,7888,1,0,0:0:0:0:
280,232,7952,1,0,0:0:0:0:
317,246,8017,1,0,0:0:0:0:
356,239,8081,1,0,0:0:0:0:
391,220,8145,5,0,0:0:0:0:
371,28,8273,1,0,0:0:0:0:
371,28,8401,2,0,L|303:46,1,50,0|0,0:0|0:0,0:0:0:0:
110,101,8529,1,0,0:0:0:0:
110,101,8593,1,0,0:0:0:0:
110,101,8658,1,0,0:0:0:0:
110,101,8722,1,0,0:0:0:0:
110,101,8786,2,0,L|167:118,1,50,0|0,0:0|0:0,0:0:0:0:
402,186,8914,1,0,0:0:0:0:
402,186,8978,1,0,0:0:0:0:
402,186,9042,1,0,0:0:0:0:
402,186,9106,1,0,0:0:0:0:
402,186,9170,6,0,L|343:211,1,50,0|0,0:0|0:0,0:0:0:0:
92,308,9299,2,0,B|127:278|117:228|91:250|91:250|66:271|187:331|246:239|201:169|201:169|176:125|92:81|182:-15|250:63|250:63|240:103|213:48|330:47|321:115,1,650,0|0,0:0|0:0,0:0:0:0:
336,131,10196,2,0,L|333:191,1,50,0|0,0:0|0:0,0:0:0:0:
321,351,10324,6,0,B|333:325|333:325|414:316|442:231|399:163,1,200,0|0,0:0|0:0,0:0:0:0:
306,60,10709,1,0,0:0:0:0:
217,264,10837,1,0,0:0:0:0:
153,93,10965,1,0,0:0:0:0:
328,231,11093,1,0,0:0:0:0:
420,59,11222,1,0,0:0:0:0:
189,5,11350,6,0,B|112:-13|122:-8|122:-8|66:5|55:94|91:124,1,200
188,299,11734,1,0,0:0:0:0:
307,130,11863,1,0,0:0:0:0:
303,110,11927,1,0,0:0:0:0:
295,94,11991,1,0,0:0:0:0:
97,69,12119,1,0,0:0:0:0:
229,234,12247,1,0,0:0:0:0:
360,75,12376,6,0,B|372:101|372:101|453:110|497:193|474:264,1,200
307,341,12761,1,0,0:0:0:0:
302,149,12889,1,0,0:0:0:0:
424,292,13017,1,0,0:0:0:0:
192,173,13145,1,0,0:0:0:0:
424,182,13274,1,0,0:0:0:0:
118,326,13402,6,0,B|195:344|185:339|185:339|241:326,1,100
348,154,13658,1,0,0:0:0:0:
109,87,13786,1,0,0:0:0:0:
177,300,13915,1,0,0:0:0:0:
391,93,14043,1,0,0:0:0:0:
76,200,14171,1,0,0:0:0:0:
373,7,14299,1,0,0:0:0:0:
14,26,14427,6,0,P|61:67|203:67,1,200,0|0,0:0|0:0,0:0:0:0:
348,23,14811,1,0,0:0:0:0:
339,263,14939,1,0,0:0:0:0:
465,102,15067,1,0,0:0:0:0:
217,197,15195,1,0,0:0:0:0:
473,221,15324,1,0,0:0:0:0:
254,48,15452,6,0,B|192:39|192:39|129:71|118:160|154:190,1,200
231,337,15836,1,0,0:0:0:0:
214,130,15965,1,0,0:0:0:0:
237,139,16029,1,0,0:0:0:0:
261,145,16093,1,0,0:0:0:0:
512,106,16221,1,0,0:0:0:0:
294,1,16349,1,0,0:0:0:0:
428,209,16478,6,0,B|402:221|402:221|393:302|312:342|259:323,1,200
181,98,16863,1,0,0:0:0:0:
246,263,16991,1,0,0:0:0:0:
340,158,17119,1,0,0:0:0:0:
103,180,17247,1,0,0:0:0:0:
221,11,17376,1,0,0:0:0:0:
243,344,17504,6,0,B|320:362|310:357|310:357|366:344,1,100
407,163,17760,1,0,0:0:0:0:
179,296,17888,2,0,B|194:270|194:270|222:263,1,50,0|0,0:0|0:0,0:0:0:0:
410,243,18016,2,0,B|386:249|386:249|359:245,1,50,0|0,0:0|0:0,0:0:0:0:
92,165,18144,2,0,B|118:160|118:160|144:169,1,50,0|0,0:0|0:0,0:0:0:0:
303,319,18272,2,0,B|280:301|280:301|277:279,1,50,0|0,0:0|0:0,0:0:0:0:
360,18,18400,2,0,B|359:58|359:58|343:89|343:89|309:62|231:76,1,150,0|0,0:0|0:0,0:0:0:0:
58,106,18658,6,0,B|64:168|64:168|99:204|99:204|133:171|178:172|206:187,1,200,0|0,0:0|0:0,0:0:0:0:
316,333,19042,2,0,L|302:215,1,100,0|0,0:0|0:0,0:0:0:0:
470,222,19299,2,0,L|488:114,1,100,0|0,0:0|0:0,0:0:0:0:
372,34,19555,2,0,B|345:64|345:64|301:75|301:75|280:48|220:42|180:58,1,200,0|0,0:0|0:0,0:0:0:0:
47,176,19940,2,0,B|105:194|105:194|171:179,1,100,0|0,0:0|0:0,0:0:0:0:
267,124,20196,1,0,0:0:0:0:
124,121,20324,1,0,0:0:0:0:
274,225,20452,1,0,0:0:0:0:
104,12,20581,1,0,0:0:0:0:
347,0,20709,6,0,B|383:17|383:17|402:47|402:47|406:97,1,100,0|0,0:0|0:0,0:0:0:0:
351,243,20965,1,0,0:0:0:0:
145,185,21093,2,0,P|188:133|236:117,1,100,0|0,0:0|0:0,0:0:0:0:
387,326,21350,2,0,P|296:326|284:319,1,100,0|0,0:0|0:0,0:0:0:0:
324,126,21606,2,0,B|373:119|373:119|403:142|403:142|373:162|392:217|315:215,1,200,0|0,0:0|0:0,0:0:0:0:
79,262,21991,1,0,0:0:0:0:
123,252,22055,2,0,P|152:199|153:171,1,50,0|0,0:0|0:0,0:0:0:0:
106,41,22247,2,0,L|214:59,1,100,0|0,0:0|0:0,0:0:0:0:
420,106,22504,2,0,L|320:132,1,100,0|0,0:0|0:0,0:0:0:0:
100,194,22760,6,0,P|160:193|217:204,1,100,0|0,0:0|0:0,0:0:0:0:
286,343,23017,1,0,0:0:0:0:
463,214,23145,2,0,L|335:196,1,100,0|0,0:0|0:0,0:0:0:0:
109,124,23401,2,0,L|216:111,1,100,0|0,0:0|0:0,0:0:0:0:
471,69,23658,2,0,B|420:44|420:44|377:48|377:48|325:16|254:53,1,200,0|0,0:0|0:0,0:0:0:0:
172,192,24042,1,0,0:0:0:0:
332,192,24170,1,0,0:0:0:0:
198,66,24299,5,0,0:0:0:0:
283,295,24427,2,0,P|298:275|326:203,1,100,0|0,0:0|0:0,0:0:0:0:
326,81,24683,1,0,0:0:0:0:
151,305,24811,5,0,0:0:0:0:
92,96,24940,1,0,0:0:0:0:
284,248,25068,2,0,L|411:276,1,100,0|0,0:0|0:0,0:0:0:0:
412,44,25324,2,0,L|297:68,1,100,0|0,0:0|0:0,0:0:0:0:
62,100,25581,1,0,0:0:0:0:
73,328,25709,6,0,B|87:296|87:296|109:319|109:319|157:237|262:258,1,200,0|0,0:0|0:0,0:0:0:0:
424,295,26093,6,0,L|370:262,1,50,0|0,0:0|0:0,0:0:0:0:
207,139,26222,1,0,0:0:0:0:
207,139,26286,1,0,0:0:0:0:
207,139,26350,2,0,L|274:131,1,50,0|0,0:0|0:0,0:0:0:0:
482,103,26478,1,0,0:0:0:0:
183,57,26606,5,0,0:0:0:0:
479,20,26734,1,0,0:0:0:0:
464,228,26863,6,0,B|458:290|458:290|423:326|423:326|389:293|344:294|316:309,1,200,0|0,0:0|0:0,0:0:0:0:
179,333,27247,2,0,L|193:215,1,100,0|0,0:0|0:0,0:0:0:0:
42,222,27504,2,0,L|24:114,1,100,0|0,0:0|0:0,0:0:0:0:
140,34,27760,2,0,B|167:64|167:64|211:75|211:75|232:48|292:42|332:58,1,200,0|0,0:0|0:0,0:0:0:0:
465,176,28145,2,0,B|407:194|407:194|341:179,1,100,0|0,0:0|0:0,0:0:0:0:
245,124,28401,1,0,0:0:0:0:
388,121,28529,1,0,0:0:0:0:
238,225,28657,1,0,0:0:0:0:
408,12,28786,1,0,0:0:0:0:
165,0,28914,6,0,B|129:17|129:17|110:47|110:47|106:97,1,100,0|0,0:0|0:0,0:0:0:0:
161,243,29170,1,0,0:0:0:0:
367,185,29298,2,0,P|324:133|276:117,1,100,0|0,0:0|0:0,0:0:0:0:
125,326,29555,2,0,P|216:326|228:319,1,100,0|0,0:0|0:0,0:0:0:0:
188,126,29811,2,0,B|139:119|139:119|109:142|109:142|139:162|120:217|197:215,1,200,0|0,0:0|0:0,0:0:0:0:
433,262,30196,1,0,0:0:0:0:
389,252,30260,2,0,P|360:199|359:171,1,50,0|0,0:0|0:0,0:0:0:0:
406,41,30452,2,0,L|298:59,1,100,0|0,0:0|0:0,0:0:0:0:
92,106,30709,2,0,L|192:132,1,100,0|0,0:0|0:0,0:0:0:0:
412,194,30965,6,0,P|352:193|295:204,1,100,0|0,0:0|0:0,0:0:0:0:
226,343,31222,1,0,0:0:0:0:
49,214,31350,2,0,L|177:196,1,100,0|0,0:0|0:0,0:0:0:0:
403,124,31606,2,0,L|296:111,1,100,0|0,0:0|0:0,0:0:0:0:
41,69,31863,2,0,B|92:44|92:44|134:48|134:48|187:16|258:53,1,200,0|0,0:0|0:0,0:0:0:0:
270,231,32247,2,0,P|271:188|298:128,1,100,0|0,0:0|0:0,0:0:0:0:
479,38,32504,5,0,0:0:0:0:
483,86,32568,2,0,P|451:141|434:159,1,50,0|0,0:0|0:0,0:0:0:0:
229,295,32760,2,0,P|214:275|186:203,1,100,0|0,0:0|0:0,0:0:0:0:
361,305,33016,5,0,0:0:0:0:
420,96,33145,1,0,0:0:0:0:
180,267,33273,1,0,0:0:0:0:
247,68,33401,1,0,0:0:0:0:
410,236,33529,1,0,0:0:0:0:
106,135,33658,1,0,0:0:0:0:
399,45,33786,1,0,0:0:0:0:
439,328,33914,6,0,B|425:296|425:296|403:319|403:319|355:237|250:258,1,200,0|0,0:0|0:0,0:0:0:0:
88,295,34298,6,0,L|142:262,1,50,0|0,0:0|0:0,0:0:0:0:
305,139,34427,1,0,0:0:0:0:
305,139,34491,1,0,0:0:0:0:
305,139,34555,2,0,L|238:131,1,50,0|0,0:0|0:0,0:0:0:0:
30,103,34683,1,0,0:0:0:0:
329,57,34811,5,0,0:0:0:0:
33,20,34939,1,0,0:0:0:0:
44,259,35068,6,0,P|104:268|157:250,1,100,0|0,0:0|0:0,0:0:0:0:
269,34,35324,2,0,P|220:75|199:116,1,100,0|0,0:0|0:0,0:0:0:0:
234,322,35581,1,0,0:0:0:0:
437,217,35709,1,0,0:0:0:0:
262,121,35837,1,0,0:0:0:0:
438,350,35965,6,0,P|484:317|496:184,1,200,0|0,0:0|0:0,0:0:0:0:
389,71,36350,1,0,0:0:0:0:
375,115,36414,2,0,P|336:178|319:192,1,50,0|0,0:0|0:0,0:0:0:0:
106,84,36606,2,0,P|156:44|201:44,1,100,0|0,0:0|0:0,0:0:0:0:
180,301,36863,1,0,0:0:0:0:
21,104,36991,2,0,P|59:57|206:51,1,200,0|0,0:0|0:0,0:0:0:0:
208,312,37376,6,0,P|169:278|149:223,1,100,0|0,0:0|0:0,0:0:0:0:
303,49,37632,2,0,P|302:114|287:152,1,100,0|0,0:0|0:0,0:0:0:0:
91,112,37888,1,0,0:0:0:0:
141,308,38017,2,0,P|203:329|349:266,1,200,0|0,0:0|0:0,0:0:0:0:
408,44,38401,6,0,P|348:61|314:94,1,100,0|0,0:0|0:0,0:0:0:0:
256,233,38658,1,0,0:0:0:0:
173,101,38786,1,0,0:0:0:0:
446,213,38914,1,0,0:0:0:0:
161,346,39042,1,0,0:0:0:0:
452,331,39170,6,0,P|409:276|267:256,1,200,0|0,0:0|0:0,0:0:0:0:
37,301,39555,1,0,0:0:0:0:
81,323,39619,1,0,0:0:0:0:
130,332,39683,2,0,P|186:300|200:252,1,100,0|0,0:0|0:0,0:0:0:0:
29,125,39940,1,0,0:0:0:0:
263,0,40068,2,0,P|336:34|387:180,1,200,0|0,0:0|0:0,0:0:0:0:
384,337,40452,6,0,P|326:310|288:271,1,100,0|0,0:0|0:0,0:0:0:0:
263,65,40709,2,0,P|278:121|268:181,1,100,0|0,0:0|0:0,0:0:0:0:
118,309,40965,1,0,0:0:0:0:
75,53,41093,2,0,P|140:43|271:127,1,200,0|0,0:0|0:0,0:0:0:0:
324,324,41478,5,0,0:0:0:0:
512,143,41606,1,0,0:0:0:0:
417,344,41734,1,0,0:0:0:0:
330,92,41863,1,0,0:0:0:0:
302,330,41991,1,0,0:0:0:0:
428,63,42119,2,0,P|363:136|263:141,1,200,0|0,0:0|0:0,0:0:0:0:
204,26,42504,6,0,L|197:82,1,50,0|0,0:0|0:0,0:0:0:0:
69,97,42632,1,0,0:0:0:0:
69,97,42696,1,0,0:0:0:0:
69,97,42760,2,0,L|54:162,1,50,0|0,0:0|0:0,0:0:0:0:
180,219,42888,1,0,0:0:0:0:
180,219,42952,1,0,0:0:0:0:
180,219,43016,2,0,L|171:282,1,50,0|0,0:0|0:0,0:0:0:0:
45,338,43145,2,0,L|58:278,1,50,0|0,0:0|0:0,0:0:0:0:
151,105,43273,6,0,P|210:133|302:125,1,150,0|0,0:0|0:0,0:0:0:0:
399,69,43529,1,0,0:0:0:0:
380,115,43593,1,0,0:0:0:0:
380,165,43658,1,0,0:0:0:0:
402,209,43722,1,0,0:0:0:0:
435,245,43786,2,0,P|333:216|256:243,1,150,0|0,0:0|0:0,0:0:0:0:
225,312,44042,1,0,0:0:0:0:
47,199,44170,2,0,B|86:210|119:195|131:148|131:148|174:119|174:119,1,150
238,78,44427,1,0,0:0:0:0:
166,276,44555,1,0,0:0:0:0:
39,88,44683,1,0,0:0:0:0:
145,311,44811,6,0,P|208:310|241:284,1,100
286,91,45068,1,0,0:0:0:0:
88,144,45196,2,0,P|113:199|228:235,1,150
239,242,45452,1,0,0:0:0:0:
232,36,45581,1,0,0:0:0:0:
46,273,45709,1,0,0:0:0:0:
310,241,45837,1,0,0:0:0:0:
32,132,45965,1,0,0:0:0:0:
331,40,46093,1,0,0:0:0:0:
234,331,46222,6,0,B|225:281|279:255|320:278|320:278|362:260,1,150
404,225,46478,1,0,0:0:0:0:
229,47,46606,1,0,0:0:0:0:
184,292,46734,1,0,0:0:0:0:
408,103,46863,1,0,0:0:0:0:
373,104,46927,1,0,0:0:0:0:
338,109,46991,1,0,0:0:0:0:
303,115,47055,1,0,0:0:0:0:
296,149,47119,5,0,0:0:0:0:
271,145,47183,1,0,0:0:0:0:
246,141,47247,1,0,0:0:0:0:
221,137,47311,1,0,0:0:0:0:
235,256,47376,6,0,B|195:273|148:261|148:261|138:248|139:241|139:241|152:249|155:267|155:267|150:293|131:318|131:318|117:333|115:363|115:363|151:344|186:347,1,297.500005674362
270,246,47888,6,0,B|329:213|373:225|373:225|371:230|251:201|282:5|430:34,1,367.49998878479
512,140,48401,6,0,P|481:213|411:230,1,135.000000514984
156,110,48658,1,0,0:0:0:0:
439,41,48914,1,0,0:0:0:0:
50,4,49170,5,0,0:0:0:0:
60,63,49234,1,0,0:0:0:0:
71,123,49299,1,0,0:0:0:0:
82,182,49363,1,0,0:0:0:0:
92,241,49427,5,0,0:0:0:0:
274,144,49555,1,0,0:0:0:0:
157,23,49683,2,0,L|177:172,1,135.000000514984
288,315,49940,5,0,0:0:0:0:
431,193,50068,1,0,0:0:0:0:
304,49,50196,5,0,0:0:0:0:
297,82,50260,1,0,0:0:0:0:
288,114,50324,1,0,0:0:0:0:
280,146,50388,1,0,0:0:0:0:
272,178,50452,6,0,P|290:241|359:280,1,135.000000514984
404,107,50709,1,0,0:0:0:0:
158,68,50837,2,0,P|176:101|150:163,1,67.5000002574921
101,226,50965,1,0,0:0:0:0:
118,254,51029,1,0,0:0:0:0:
139,279,51093,1,0,0:0:0:0:
162,304,51158,1,0,0:0:0:0:
185,328,51222,2,0,B|225:294|225:294|252:312|313:304,1,135.000000514984
412,249,51478,5,0,0:0:0:0:
307,53,51606,1,0,0:0:0:0:
189,241,51734,1,0,0:0:0:0:
433,202,51863,5,0,0:0:0:0:
260,68,51991,1,0,0:0:0:0:
223,282,52119,1,0,0:0:0:0:
434,168,52247,5,0,0:0:0:0:
237,88,52376,1,0,0:0:0:0:
266,310,52504,1,0,0:0:0:0:
414,126,52632,5,0,0:0:0:0:
211,119,52760,1,0,0:0:0:0:
298,321,52888,1,0,0:0:0:0:
383,70,53017,5,0,0:0:0:0:
240,349,53145,1,0,0:0:0:0:
210,84,53273,5,0,0:0:0:0:
382,346,53401,1,0,0:0:0:0:
284,84,53530,5,0,0:0:0:0:
260,40,53594,1,0,0:0:0:0:
217,17,53658,1,0,0:0:0:0:
171,32,53722,1,0,0:0:0:0:
142,72,53786,1,0,0:0:0:0:
144,122,53850,1,0,0:0:0:0:
155,170,53914,1,0,0:0:0:0:
134,213,53978,1,0,0:0:0:0:
99,191,54042,5,0,0:0:0:0:
123,150,54106,1,0,0:0:0:0:
169,132,54170,1,0,0:0:0:0:
217,143,54235,1,0,0:0:0:0:
244,185,54299,1,0,0:0:0:0:
254,233,54363,1,0,0:0:0:0:
273,279,54427,1,0,0:0:0:0:
319,295,54491,1,0,0:0:0:0:
365,278,54555,5,0,0:0:0:0:
365,278,54619,1,0,0:0:0:0:
365,278,54683,2,0,L|415:242,1,50,0|0,0:0|0:0,0:0:0:0:
434,106,54811,5,0,0:0:0:0:
434,106,54876,1,0,0:0:0:0:
434,106,54940,2,0,L|388:140,1,50,0|0,0:0|0:0,0:0:0:0:
214,174,55068,5,0,0:0:0:0:
214,174,55132,1,0,0:0:0:0:
214,174,55196,2,0,L|262:146,1,50,0|0,0:0|0:0,0:0:0:0:
402,28,55324,6,0,P|384:54|440:29,1,150
512,135,55581,6,0,B|465:172|465:172|392:183,1,100,0|0,0:0|0:0,0:0:0:0:
212,143,55837,1,0,0:0:0:0:
327,247,55965,1,0,0:0:0:0:
370,44,56093,6,0,B|336:82|336:82|283:92,1,100
88,171,56350,1,0,0:0:0:0:
214,58,56478,1,0,0:0:0:0:
364,177,56606,6,0,B|385:229|385:229|368:281,1,100,0|0,0:0|0:0,0:0:0:0:
154,335,56863,1,0,0:0:0:0:
274,357,56991,1,0,0:0:0:0:
122,198,57119,6,0,B|136:151|136:151|192:123,1,100
401,260,57376,2,0,B|356:288|356:288|287:279,1,100
108,0,57632,6,0,B|127:49|127:49|104:103,1,100,0|0,0:0|0:0,0:0:0:0:
98,307,57888,1,0,0:0:0:0:
176,155,58017,1,0,0:0:0:0:
372,138,58145,6,0,B|363:189|363:189|317:225,1,100
76,211,58401,1,0,0:0:0:0:
199,91,58530,1,0,0:0:0:0:
237,262,58658,5,0,0:0:0:0:
272,16,58786,1,0,0:0:0:0:
401,243,58914,1,0,0:0:0:0:
160,125,59042,1,0,0:0:0:0:
418,89,59170,6,0,B|387:131|387:131|336:128,1,100,0|0,0:0|0:0,0:0:0:0:
70,62,59427,2,0,B|106:21|106:21|165:25,1,100,0|0,0:0|0:0,0:0:0:0:
371,239,59683,5,0,0:0:0:0:
138,110,59811,1,0,0:0:0:0:
369,259,59940,1,0,0:0:0:0:
149,89,60068,1,0,0:0:0:0:
358,43,60196,6,0,B|355:97|355:97|321:137,1,100
123,319,60452,1,0,0:0:0:0:
217,161,60581,1,0,0:0:0:0:
439,142,60709,6,0,B|409:187|409:187|359:204,1,100,0|0,0:0|0:0,0:0:0:0:
127,182,60965,1,0,0:0:0:0:
421,269,61093,2,0,B|372:293|372:293|321:283,1,100,0|0,0:0|0:0,0:0:0:0:
210,97,61349,1,0,0:0:0:0:
213,312,61478,1,0,0:0:0:0:
354,136,61606,1,0,0:0:0:0:
0,112,61734,6,0,B|26:156|26:156|80:170,1,100,0|0,0:0|0:0,0:0:0:0:
355,241,61991,1,0,0:0:0:0:
199,114,62119,1,0,0:0:0:0:
0,250,62247,6,0,B|38:275|38:275|92:260,1,100,0|0,0:0|0:0,0:0:0:0:
394,118,62504,1,0,0:0:0:0:
132,84,62632,2,0,B|130:108|130:108|138:141,1,50,0|0,0:0|0:0,0:0:0:0:
231,308,62760,5,0,0:0:0:0:
324,73,62888,1,0,0:0:0:0:
262,309,63145,1,0,0:0:0:0:
155,108,63401,1,0,0:0:0:0:
292,306,63529,1,0,0:0:0:0:
364,79,63658,1,0,0:0:0:0:
214,246,63786,5,0,0:0:0:0:
305,28,63914,1,0,0:0:0:0:
342,254,64042,1,0,0:0:0:0:
282,91,64170,1,0,0:0:0:0:
74,110,64298,2,0,B|108:148|108:148|161:158,1,100
478,121,64555,1,0,0:0:0:0:
311,79,64683,1,0,0:0:0:0:
148,178,64811,6,0,B|127:230|127:230|144:282,1,100,0|0,0:0|0:0,0:0:0:0:
306,353,65068,1,0,0:0:0:0:
390,199,65196,2,0,B|376:152|376:152|320:124,1,100,0|0,0:0|0:0,0:0:0:0:
109,125,65452,1,0,0:0:0:0:
166,347,65581,2,0,B|192:302|192:302|184:245,1,100,0|0,0:0|0:0,0:0:0:0:
404,1,65837,6,0,B|385:50|385:50|408:104,1,100,0|0,0:0|0:0,0:0:0:0:
342,331,66093,1,0,0:0:0:0:
103,81,66222,6,0,B|111:132|111:132|157:168,1,100
311,206,66478,1,0,0:0:0:0:
366,29,66606,2,0,B|302:21|302:21|258:60,1,100
275,263,66863,5,0,0:0:0:0:
240,17,66991,1,0,0:0:0:0:
111,244,67119,1,0,0:0:0:0:
352,126,67247,1,0,0:0:0:0:
94,90,67375,6,0,B|125:132|125:132|176:129,1,100,0|0,0:0|0:0,0:0:0:0:
470,97,67568,1,0,0:0:0:0:
442,63,67632,2,0,B|406:22|406:22|347:26,1,100,0|0,0:0|0:0,0:0:0:0:
141,240,67888,5,0,0:0:0:0:
374,111,68016,1,0,0:0:0:0:
168,318,68145,1,0,0:0:0:0:
86,72,68273,2,0,B|89:126|89:126|123:166,1,100
317,62,68529,1,0,0:0:0:0:
445,260,68657,1,0,0:0:0:0:
293,116,68786,1,0,0:0:0:0:
73,143,68914,6,0,B|102:188|102:188|152:205,1,100,0|0,0:0|0:0,0:0:0:0:
410,165,69170,1,0,0:0:0:0:
91,270,69298,2,0,B|139:294|139:294|190:284,1,100,0|0,0:0|0:0,0:0:0:0:
320,147,69554,1,0,0:0:0:0:
325,123,69618,1,0,0:0:0:0:
328,98,69683,1,0,0:0:0:0:
133,104,69811,1,0,0:0:0:0:
399,19,69939,6,0,B|373:63|373:63|319:77,1,100
142,44,70196,6,0,B|181:19|181:19|235:34,1,100
387,143,70452,2,0,B|389:167|389:167|381:200,1,50
225,312,70581,5,0,0:0:0:0:
195,31,70837,5,0,0:0:0:0:
300,323,71093,5,0,0:0:0:0:
340,39,71222,1,0,0:0:0:0:
71,155,71350,1,0,0:0:0:0:
269,373,71606,6,0,P|318:369|363:347,2,100,0|0|0,0:0|0:0|0:0,0:0:0:0:
146,350,71991,6,0,P|105:289|184:152,1,239.999992675781
400,157,72376,1,0,0:0:0:0:
196,28,72504,1,0,0:0:0:0:
267,229,72632,2,0,P|345:248|402:229,1,119.999996337891
506,67,72888,6,0,P|460:138|503:311,1,239.999992675781
504,370,73273,2,0,P|439:361|376:325,1,119.999996337891
245,89,73529,2,0,P|308:112|350:153,1,119.999996337891
236,341,73786,2,0,P|158:325|112:276,1,119.999996337891
41,72,74042,6,0,P|102:57|167:68,1,119.999996337891
148,275,74299,1,0,0:0:0:0:
345,230,74427,2,0,P|328:172|286:130,1,119.999996337891
51,188,74683,1,0,0:0:0:0:
297,60,74811,1,0,0:0:0:0:
388,307,74940,2,0,P|351:251|383:86,1,239.999992675781
461,55,75324,5,0,0:0:0:0:
277,230,75452,1,0,0:0:0:0:
489,112,75581,1,0,0:0:0:0:
266,234,75709,1,0,0:0:0:0:
184,51,75837,5,0,0:0:0:0:
430,110,75965,1,0,0:0:0:0:
102,233,76093,5,0,0:0:0:0:
121,187,76158,2,0,P|183:146|210:140,1,59.9999981689454
357,232,76350,2,0,P|349:296|311:342,1,119.999996337891
116,220,76606,2,0,P|144:154|188:126,1,119.999996337891
258,357,76863,1,0,0:0:0:0:
256,53,76991,2,0,P|305:102|239:267,1,239.999992675781
73,161,77376,6,0,P|135:141|197:154,1,119.999996337891
367,305,77632,2,0,P|320:236|319:180,1,119.999996337891
482,16,77888,2,0,P|463:86|424:124,1,119.999996337891
210,57,78145,2,0,P|112:78|126:233,1,239.999992675781
337,345,78658,5,0,0:0:0:0:
335,137,78786,1,0,0:0:0:0:
145,293,78914,1,0,0:0:0:0:
301,57,79042,2,0,P|399:78|385:233,1,239.999992675781
211,318,79427,6,0,P|212:302|225:254,1,59.9999981689454
331,139,79555,1,0,0:0:0:0:
331,139,79619,1,0,0:0:0:0:
331,139,79683,6,0,P|344:147|379:183,1,59.9999981689454
426,332,79811,1,0,0:0:0:0:
426,332,79875,1,0,0:0:0:0:
426,332,79940,6,0,P|411:339|363:351,1,59.9999981689454
210,317,80068,2,0,P|236:335|274:349,1,59.9999981689454
426,332,80196,6,0,P|467:271|388:134,1,239.999992675781
112,157,80581,1,0,0:0:0:0:
316,28,80709,1,0,0:0:0:0:
245,229,80837,2,0,P|167:248|110:229,1,119.999996337891
6,67,81093,6,0,P|52:138|9:311,1,239.999992675781
8,370,81478,2,0,P|73:361|136:325,1,119.999996337891
267,89,81734,2,0,P|204:112|162:153,1,119.999996337891
276,341,81991,2,0,P|354:325|400:276,1,119.999996337891
471,72,82247,6,0,P|410:57|345:68,1,119.999996337891
364,275,82504,1,0,0:0:0:0:
167,230,82632,2,0,P|184:172|226:130,1,119.999996337891
461,188,82888,2,0,P|427:130|334:110,1,119.999996337891
213,374,83145,2,0,P|250:318|218:153,1,239.999992675781
51,55,83529,5,0,0:0:0:0:
235,230,83657,1,0,0:0:0:0:
23,112,83786,1,0,0:0:0:0:
246,234,83914,1,0,0:0:0:0:
328,51,84042,5,0,0:0:0:0:
82,110,84170,1,0,0:0:0:0:
410,233,84298,5,0,0:0:0:0:
391,187,84363,2,0,P|329:146|302:140,1,59.9999981689454
155,232,84555,2,0,P|163:296|201:342,1,119.999996337891
396,220,84811,2,0,P|368:154|324:126,1,119.999996337891
254,357,85068,1,0,0:0:0:0:
256,53,85196,2,0,P|207:102|273:267,1,239.999992675781
439,161,85581,6,0,P|377:141|315:154,1,119.999996337891
145,305,85837,2,0,P|192:236|193:180,1,119.999996337891
30,16,86093,2,0,P|49:86|88:124,1,119.999996337891
302,57,86350,2,0,P|400:78|386:233,1,239.999992675781
175,345,86863,5,0,0:0:0:0:
177,137,86991,1,0,0:0:0:0:
367,293,87119,1,0,0:0:0:0:
211,57,87247,2,0,P|113:78|127:233,1,239.999992675781
301,318,87632,6,0,P|300:302|287:254,1,59.9999981689454
181,139,87760,1,0,0:0:0:0:
181,139,87824,1,0,0:0:0:0:
181,139,87888,6,0,P|167:147|132:183,1,59.9999981689454
86,332,88016,1,0,0:0:0:0:
86,332,88080,1,0,0:0:0:0:
86,332,88145,6,0,P|100:339|148:351,1,59.9999981689454
302,317,88273,2,0,P|275:335|237:349,1,59.9999981689454
25,247,88401,6,0,B|42:188|42:188|99:156,1,119.999996337891
175,41,88658,2,0,B|217:85|217:85|216:150,1,119.999996337891
257,237,88914,1,0,0:0:0:0:
487,137,89042,6,0,B|470:196|470:196|413:228,1,119.999996337891
152,122,89299,6,0,B|169:63|169:63|226:31,1,119.999996337891
283,221,89555,1,0,0:0:0:0:
200,384,89683,2,0,B|157:339|157:339|158:274,1,119.999996337891
42,106,89939,2,0,B|101:91|101:91|157:124,1,119.999996337891
364,294,90196,2,0,B|422:294|422:294|466:252,1,119.999996337891
424,58,90452,6,0,B|377:97|377:97|311:85,1,119.999996337891
155,32,90709,1,0,0:0:0:0:
36,185,90837,2,0,B|21:254|21:254|76:313,1,119.999996337891
341,315,91093,1,0,0:0:0:0:
234,209,91222,1,0,0:0:0:0:
261,30,91350,6,0,B|202:41|202:41|160:103,1,119.999996337891
145,268,91606,1,0,0:0:0:0:
361,274,91734,1,0,0:0:0:0:
223,146,91863,1,0,0:0:0:0:
261,295,91991,5,0,0:0:0:0:
400,151,92119,1,0,0:0:0:0:
261,30,92247,2,0,B|202:41|202:41|160:103,1,119.999996337891
26,181,92504,6,0,B|67:225|67:225|135:211,1,119.999996337891
282,83,92760,2,0,B|339:65|339:65|398:117,1,119.999996337891
398,300,93017,1,0,0:0:0:0:
172,309,93145,1,0,0:0:0:0:
308,166,93273,1,0,0:0:0:0:
137,55,93401,2,0,B|91:93|91:93|97:152|97:152|153:177|153:177|211:133,1,239.999992675781
305,25,93786,6,0,B|303:82|303:82|343:142,1,119.999996337891
450,296,94042,2,0,B|411:239|411:239|345:222,1,119.999996337891
110,163,94299,2,0,B|173:179|173:179|242:159,1,119.999996337891
375,55,94555,6,0,B|421:93|421:93|415:156|415:156,1,119.999996337891
183,232,94811,1,0,0:0:0:0:
407,269,94940,1,0,0:0:0:0:
314,48,95068,5,0,0:0:0:0:
298,339,95196,1,0,0:0:0:0:
108,171,95324,1,0,0:0:0:0:
422,98,95452,6,0,B|468:136|468:136|462:195|462:195|404:220|404:220,1,179.999994506836
238,289,95709,1,0,0:0:0:0:
238,289,95773,1,0,0:0:0:0:
238,289,95837,2,0,P|270:270|274:223,1,59.9999981689454
180,127,95965,1,0,0:0:0:0:
180,127,96029,1,0,0:0:0:0:
180,127,96093,2,0,P|181:165|220:192,1,59.9999981689454
359,233,96222,1,0,0:0:0:0:
262,22,96350,1,0,0:0:0:0:
131,225,96478,1,0,0:0:0:0:
487,247,96606,6,0,B|470:188|470:188|413:156,1,119.999996337891
212,90,96863,1,0,0:0:0:0:
132,292,96991,1,0,0:0:0:0:
338,370,97119,1,0,0:0:0:0:
119,116,97247,6,0,B|136:175|136:175|193:207,1,119.999996337891
445,111,97504,6,0,B|428:52|428:52|371:20,1,119.999996337891
192,129,97760,1,0,0:0:0:0:
312,335,97888,2,0,B|354:290|354:290|353:225,1,119.999996337891
177,18,98144,2,0,B|162:78|162:78|195:134,1,119.999996337891
190,340,98401,2,0,B|131:340|131:340|87:298,1,119.999996337891
114,88,98657,6,0,B|161:127|161:127|227:115,1,119.999996337891
420,57,98914,1,0,0:0:0:0:
512,227,99042,2,0,B|527:296|527:296|472:355,1,119.999996337891
251,30,99299,6,0,B|310:41|310:41|352:103,1,119.999996337891
50,197,99555,2,0,B|99:150|99:150|161:139,1,119.999996337891
367,268,99811,1,0,0:0:0:0:
205,84,99940,1,0,0:0:0:0:
407,179,100068,1,0,0:0:0:0:
150,177,100196,1,0,0:0:0:0:
355,278,100324,1,0,0:0:0:0:
251,30,100452,6,0,B|310:41|310:41|352:103,1,119.999996337891
486,181,100709,6,0,B|445:225|445:225|377:211,1,119.999996337891
230,83,100965,2,0,B|173:65|173:65|114:117,1,119.999996337891
82,318,101222,2,0,B|140:339|140:339|191:297,1,119.999996337891
204,166,101478,1,0,0:0:0:0:
375,55,101606,2,0,B|421:93|421:93|415:152|415:152|359:177|359:177|301:133,1,239.999992675781
207,25,101991,6,0,B|209:82|209:82|169:142,1,119.999996337891
62,296,102247,2,0,B|101:239|101:239|167:222,1,119.999996337891
402,163,102504,2,0,B|339:179|339:179|270:159,1,119.999996337891
137,55,102760,2,0,B|91:93|91:93|97:156|97:156,1,119.999996337891
289,273,103016,1,0,0:0:0:0:
118,355,103145,1,0,0:0:0:0:
207,172,103273,5,0,0:0:0:0:
473,234,103401,2,0,B|460:173|460:173|403:153,1,119.999996337891
90,98,103657,2,0,B|44:136|44:136|50:195|50:195|108:220|108:220,1,179.999994506836
274,289,103914,1,0,0:0:0:0:
274,289,103978,1,0,0:0:0:0:
274,289,104042,2,0,P|242:270|238:223,1,59.9999981689454
205,100,104170,1,0,0:0:0:0:
375,149,104298,2,0,P|369:181|330:208,1,59.9999981689454
153,233,104427,5,0,0:0:0:0:
250,22,104555,1,0,0:0:0:0:
381,225,104683,1,0,0:0:0:0:
15,35,104811,6,0,P|37:68|40:102,1,59.9999981689454
24,225,104940,1,0,0:0:0:0:
48,242,105004,1,0,0:0:0:0:
76,250,105068,1,0,0:0:0:0:
105,253,105132,1,0,0:0:0:0:
133,245,105196,6,0,P|148:203|134:173,1,59.9999981689454
76,99,105324,1,0,0:0:0:0:
99,80,105388,1,0,0:0:0:0:
128,73,105452,1,0,0:0:0:0:
158,69,105517,1,0,0:0:0:0:
185,79,105581,6,0,P|203:109|199:147,1,59.9999981689454
129,266,105709,1,0,0:0:0:0:
150,287,105773,1,0,0:0:0:0:
177,299,105837,1,0,0:0:0:0:
206,302,105901,1,0,0:0:0:0:
233,289,105965,6,0,P|250:255|241:216,1,59.9999981689454
205,132,106093,1,0,0:0:0:0:
235,133,106158,1,0,0:0:0:0:
260,128,106222,5,0,0:0:0:0:
275,119,106286,1,0,0:0:0:0:
318,77,106350,1,0,0:0:0:0:
377,70,106414,1,0,0:0:0:0:
423,108,106478,1,0,0:0:0:0:
424,167,106542,1,0,0:0:0:0:
383,211,106606,1,0,0:0:0:0:
335,214,106670,1,0,0:0:0:0:
292,192,106734,1,0,0:0:0:0:
243,185,106799,1,0,0:0:0:0:
213,187,106863,6,0,P|176:202|155:217,1,59.9999981689454
136,359,106991,2,0,P|173:344|194:329,1,59.9999981689454
96,178,107119,2,0,P|89:217|101:257,1,59.9999981689454
253,368,107247,2,0,P|260:329|248:289,1,59.9999981689454
20,260,107376,5,0,0:0:0:0:
323,352,107504,1,0,0:0:0:0:
34,316,107632,1,0,0:0:0:0:
360,309,107760,1,0,0:0:0:0:
59,361,107888,5,0,0:0:0:0:
106,357,107952,1,0,0:0:0:0:
151,338,108017,1,0,0:0:0:0:
185,305,108081,1,0,0:0:0:0:
205,261,108145,5,0,0:0:0:0:
41,81,108273,1,0,0:0:0:0:
286,131,108401,1,0,0:0:0:0:
51,232,108529,1,0,0:0:0:0:
175,21,108658,1,0,0:0:0:0:
330,193,108786,2,0,L|297:133,1,59.9999981689454
132,133,108914,6,0,P|220:162|274:150,1,119.999996337891
333,0,109170,1,0,0:0:0:0:
125,9,109299,1,0,0:0:0:0:
82,31,109363,1,0,0:0:0:0:
52,68,109427,1,0,0:0:0:0:
95,297,109555,1,0,0:0:0:0:
153,93,109683,1,0,0:0:0:0:
0,268,109811,1,0,0:0:0:0:
223,152,109940,5,0,0:0:0:0:
347,294,110068,1,0,0:0:0:0:
368,88,110196,1,0,0:0:0:0:
206,280,110324,2,0,P|188:249|180:215,1,59.9999981689454
167,90,110452,5,0,0:0:0:0:
268,320,110581,1,0,0:0:0:0:
51,148,110709,1,0,0:0:0:0:
309,219,110837,1,0,0:0:0:0:
156,11,110965,5,0,0:0:0:0:
198,33,111029,1,0,0:0:0:0:
240,55,111093,2,0,L|300:88,1,59.9999981689454
464,160,111222,2,0,P|382:139|298:160,1,119.999996337891
48,287,111414,1,0,0:0:0:0:
79,322,111478,2,0,P|142:342|193:325,1,119.999996337891
292,123,111734,1,0,0:0:0:0:
136,244,111863,1,0,0:0:0:0:
279,24,111991,6,0,P|337:32|383:70,1,119.999996337891
512,275,112247,2,0,P|456:297|397:295,1,119.999996337891
317,307,112440,2,0,P|269:360|132:351,1,179.999994506836
41,194,112760,1,0,0:0:0:0:
252,109,112888,1,0,0:0:0:0:
497,35,113017,6,0,P|475:68|472:102,1,59.9999981689454
355,227,113146,1,0,0:0:0:0:
331,244,113210,1,0,0:0:0:0:
303,252,113274,1,0,0:0:0:0:
274,255,113338,1,0,0:0:0:0:
246,247,113402,6,0,P|231:205|245:175,1,59.9999981689454
441,165,113530,1,0,0:0:0:0:
468,175,113594,1,0,0:0:0:0:
489,197,113658,1,0,0:0:0:0:
507,221,113723,1,0,0:0:0:0:
512,249,113787,6,0,P|495:279|460:295,1,59.9999981689454
354,164,113914,1,0,0:0:0:0:
349,135,113978,1,0,0:0:0:0:
357,106,114042,1,0,0:0:0:0:
369,78,114107,1,0,0:0:0:0:
391,61,114171,6,0,P|425:60|456:82,1,59.9999981689454
355,227,114299,1,0,0:0:0:0:
332,245,114363,1,0,0:0:0:0:
303,253,114427,1,0,0:0:0:0:
273,257,114492,1,0,0:0:0:0:
247,246,114556,6,0,P|229:215|233:178,1,59.9999981689454
92,192,114684,1,0,0:0:0:0:
91,251,114748,1,0,0:0:0:0:
132,295,114812,1,0,0:0:0:0:
180,298,114876,1,0,0:0:0:0:
223,276,114940,1,0,0:0:0:0:
272,269,115005,1,0,0:0:0:0:
302,271,115069,6,0,P|339:286|360:301,1,59.9999981689454
509,364,115197,2,0,P|472:349|451:334,1,59.9999981689454
304,170,115324,2,0,P|341:185|362:200,1,59.9999981689454
511,263,115452,2,0,P|474:248|453:233,1,59.9999981689454
512,170,115582,5,0,0:0:0:0:
291,258,115710,1,0,0:0:0:0:
461,342,115838,1,0,0:0:0:0:
354,109,115966,1,0,0:0:0:0:
294,357,116094,5,0,0:0:0:0:
264,318,116158,1,0,0:0:0:0:
223,293,116223,1,0,0:0:0:0:
175,284,116287,1,0,0:0:0:0:
131,302,116350,6,0,P|181:335|196:331,1,59.9999981689454
289,164,116479,1,0,0:0:0:0:
271,133,116542,2,0,P|223:110|158:201,1,179.999994506836
351,263,116863,1,0,0:0:0:0:
374,37,116991,1,0,0:0:0:0:
71,165,117119,5,0,0:0:0:0:
112,169,117183,2,0,P|177:143|206:91,1,119.999996337891
103,46,117376,1,0,0:0:0:0:
262,225,117504,5,0,0:0:0:0:
303,249,117568,1,0,0:0:0:0:
350,251,117632,2,0,P|363:247|400:218,1,59.9999981689454
360,22,117760,2,0,P|366:94|465:158,1,179.999994506836
427,340,118017,6,0,P|398:357|248:335,1,179.999994506836
221,280,118273,1,0,0:0:0:0:
321,84,118401,2,0,P|395:137|409:214,1,119.999996337891
196,357,118658,1,0,0:0:0:0:
149,344,118722,1,0,0:0:0:0:
113,311,118786,1,0,0:0:0:0:
166,48,118914,1,0,0:0:0:0:
280,201,119042,1,0,0:0:0:0:
56,236,119170,6,0,B|32:250|3:241|-12:212|-12:212|-25:181|-13:146|23:139|23:139|5:165|60:187|122:144|128:92|128:92|134:28|185:18|223:32,1,419.999987182618
254,35,119683,6,0,B|279:57|119:85|186:224|289:212|289:212|277:169|277:169|375:195|342:86|449:138,1,489.999985046387
504,162,120196,5,0,0:0:0:0:
498,191,120260,1,0,0:0:0:0:
493,220,120324,2,0,L|483:300,1,59.9999981689454
389,257,120452,5,0,0:0:0:0:
383,286,120516,1,0,0:0:0:0:
378,315,120580,2,0,L|368:395,1,59.9999981689454
261,337,120709,5,0,0:0:0:0:
20,349,120837,1,0,0:0:0:0:
180,254,120965,1,0,0:0:0:0:
67,189,121093,1,0,0:0:0:0:
123,32,121222,6,0,P|207:71|331:32,1,179.999994506836
349,16,121478,1,0,0:0:0:0:
403,140,121606,2,0,P|372:207|308:254,2,119.999996337891
236,0,121991,1,0,0:0:0:0:
179,168,122119,1,0,0:0:0:0:
325,301,122247,5,0,0:0:0:0:
325,301,122376,1,0,0:0:0:0:
409,89,122504,2,0,P|361:32|308:-5,1,119.999996337891
153,271,122760,2,0,P|222:271|278:253,1,119.999996337891
23,61,123017,2,0,P|79:24|161:7,1,119.999996337891
434,87,123273,6,0,P|350:126|226:87,1,179.999994506836
198,88,123529,1,0,0:0:0:0:
64,211,123657,2,0,P|67:284|109:352,2,119.999996337891
291,48,124042,1,0,0:0:0:0:
321,296,124170,1,0,0:0:0:0:
404,116,124298,5,0,0:0:0:0:
187,301,124427,1,0,0:0:0:0:
103,89,124555,2,0,P|151:32|204:-5,1,119.999996337891
324,327,124811,1,0,0:0:0:0:
324,327,124939,1,0,0:0:0:0:
326,51,125068,2,0,P|265:60|168:147,1,179.999994506836
157,187,125324,5,0,0:0:0:0:
443,332,125452,1,0,0:0:0:0:
404,54,125581,1,0,0:0:0:0:
128,131,125709,2,0,P|201:109|347:195,1,239.999992675781
208,265,126093,1,0,0:0:0:0:
190,75,126222,6,0,P|244:75|308:108,1,119.999996337891
161,295,126478,1,0,0:0:0:0:
267,47,126606,2,0,P|320:77|361:127,1,119.999996337891
100,294,126863,1,0,0:0:0:0:
348,59,126991,2,0,P|378:96|401:180,1,119.999996337891
53,254,127247,1,0,0:0:0:0:
422,117,127376,6,0,P|432:165|343:301,1,179.999994506836
336,324,127632,2,0,B|365:302|365:302|391:326|391:326|475:281|498:155|448:61,1,345.000006580353
408,27,127888,6,0,P|337:9|239:35,1,119.999996337891
244,233,128145,1,0,0:0:0:0:
76,78,128273,2,0,B|17:106|19:169|46:201|46:201|96:172|166:201|170:281,1,299.999990844727
173,337,128658,5,0,0:0:0:0:
184,335,128722,1,0,0:0:0:0:
195,333,128786,1,0,0:0:0:0:
206,331,128850,1,0,0:0:0:0:
254,315,128914,5,0,0:0:0:0:
231,305,128978,1,0,0:0:0:0:
208,295,129042,1,0,0:0:0:0:
185,285,129106,1,0,0:0:0:0:
164,245,129170,5,0,0:0:0:0:
198,236,129234,1,0,0:0:0:0:
233,227,129299,1,0,0:0:0:0:
267,218,129363,1,0,0:0:0:0:
344,199,129427,6,0,B|384:191|424:191|455:209|455:209|442:206|432:193|433:177|433:177|429:153|407:133|375:120|375:120|320:143|230:137|187:96|187:96,1,419.999987182618
144,54,129940,5,0,0:0:0:0:
215,311,130068,1,0,0:0:0:0:
328,41,130196,1,0,0:0:0:0:
61,169,130324,2,0,B|104:157|139:124|139:124|172:169|176:227|176:227|234:198|313:237,1,299.999990844727
390,359,130709,6,0,P|348:309|335:249,1,119.999996337891
499,128,130965,2,0,B|441:154|370:126,1,119.999996337891
190,0,131222,2,0,P|241:27|275:81,1,119.999996337891
123,235,131478,6,0,B|83:227|43:227|12:245|12:245|25:242|35:229|34:213|34:213|66:199|83:173|99:126|99:126|147:179|237:173|282:102|282:102|304:135|353:161|353:161,1,560
461,141,131991,5,0,0:0:0:0:
255,259,132119,1,0,0:0:0:0:
174,31,132247,1,0,0:0:0:0:
41,274,132376,6,0,B|99:296|154:333|176:390|176:390|161:375|169:337|198:322|198:322|230:349|297:350|334:327,1,349.999989318848
373,343,132760,6,0,P|348:265|369:200,1,139.999995727539
220,22,133017,2,0,P|188:93|121:137,1,139.999995727539
114,342,133273,2,0,P|200:316|259:335,1,139.999995727539
357,355,133529,6,0,B|341:323|422:270|369:202|369:202|402:191|402:191|366:184|366:184|314:212|253:183|238:138|238:138|252:142|252:142|239:133|239:133|290:132|326:97,1,489.999985046387
350,62,134042,5,0,0:0:0:0:
41,85,134170,1,0,0:0:0:0:
249,291,134299,1,0,0:0:0:0:
184,23,134427,6,0,B|198:99|159:161|79:179|79:179|99:168|141:174|159:191|159:191,1,279.999991455078
339,333,134811,1,0,0:0:0:0:
388,350,135068,5,0,0:0:0:0:
415,126,135196,1,0,0:0:0:0:
148,300,135324,1,0,0:0:0:0:
176,96,135452,1,0,0:0:0:0:
360,105,135581,6,0,L|341:248,1,139.999995727539
104,102,135837,2,0,L|133:259,1,139.999995727539
200,322,136029,1,0,0:0:0:0:
266,244,136093,2,0,L|290:66,1,139.999995727539
498,79,136350,1,0,0:0:0:0:
447,384,136478,1,0,0:0:0:0:
260,136,136734,5,0,0:0:0:0:
244,137,136798,1,0,0:0:0:0:
228,140,136863,1,0,0:0:0:0:
212,144,136927,1,4,0:0:0:0:
158,140,136990,5,4,0:0:0:0:
150,155,137054,1,0,0:0:0:0:
141,168,137119,1,0,0:0:0:0:
130,180,137183,1,0,0:0:0:0:
105,238,137247,5,4,0:0:0:0:
119,245,137311,1,0,0:0:0:0:
132,254,137376,1,0,0:0:0:0:
144,265,137440,1,0,0:0:0:0:
156,275,137504,1,0,0:0:0:0:
164,287,137568,1,0,0:0:0:0:
155,338,137632,5,4,0:0:0:0:
180,331,137696,1,0,0:0:0:0:
205,326,137761,1,0,0:0:0:0:
230,324,137825,1,0,0:0:0:0:
255,323,137889,2,0,P|263:323|305:329,1,50,0|0,0:0|0:0,0:0:0:0:
407,235,138017,5,4,0:0:0:0:
382,242,138081,1,0,0:0:0:0:
357,247,138146,1,0,0:0:0:0:
332,249,138210,1,0,0:0:0:0:
306,250,138274,2,0,P|281:248|256:244,1,50,0|0,0:0|0:0,0:0:0:0:
149,173,138401,5,4,0:0:0:0:
174,166,138465,1,0,0:0:0:0:
199,161,138530,1,0,0:0:0:0:
224,159,138594,1,0,0:0:0:0:
249,158,138658,2,0,P|257:158|299:164,1,50,0|0,0:0|0:0,0:0:0:0:
442,126,138786,5,4,0:0:0:0:
427,106,138850,1,0,0:0:0:0:
406,91,138914,1,0,0:0:0:0:
383,79,138978,1,0,0:0:0:0:
358,70,139043,1,0,0:0:0:0:
333,65,139107,1,0,0:0:0:0:
308,63,139171,6,0,L|251:72,3,50,4|0|0|0,0:0|0:0|0:0|0:0,0:0:0:0:
246,191,139427,2,0,L|215:231,3,50,4|0|0|0,0:0|0:0|0:0|0:0,0:0:0:0:
226,358,139684,5,4,0:0:0:0:
255,355,139748,1,0,0:0:0:0:
284,352,139812,1,0,0:0:0:0:
313,347,139876,1,0,0:0:0:0:
342,344,139940,1,0,0:0:0:0:
371,339,140004,2,0,L|395:284,1,50
489,121,140132,5,4,0:0:0:0:
460,124,140196,1,0,0:0:0:0:
431,127,140260,1,0,0:0:0:0:
402,132,140324,1,0,0:0:0:0:
373,135,140388,1,0,0:0:0:0:
344,140,140452,2,0,L|320:195,1,50
259,319,140581,5,0,0:0:0:0:
259,55,140709,6,0,L|210:31,1,50
94,187,140837,2,0,L|157:220,1,50
318,54,140966,2,0,L|272:33,1,50
154,191,141094,2,0,L|209:218,1,50
372,54,141222,5,0,0:0:0:0:
372,93,141286,1,0,0:0:0:0:
384,131,141350,1,0,0:0:0:0:
408,162,141414,1,0,0:0:0:0:
439,186,141478,5,0,0:0:0:0:
410,214,141542,1,0,0:0:0:0:
371,224,141606,2,0,P|348:226|311:225,1,50
79,198,141735,5,0,0:0:0:0:
98,163,141799,1,0,0:0:0:0:
125,134,141863,1,0,0:0:0:0:
160,115,141927,1,0,0:0:0:0:
199,113,141991,2,0,P|213:168|213:189,1,50
143,304,142119,2,0,P|142:277|148:239,1,50
289,193,142248,5,0,0:0:0:0:
326,207,142312,1,0,0:0:0:0:
365,203,142376,1,0,0:0:0:0:
400,184,142440,1,0,0:0:0:0:
412,146,142504,2,0,P|396:128|374:115,1,50
285,264,142632,2,0,P|310:277|336:274,1,50
478,114,142761,6,0,P|483:145|481:172,3,50
387,308,143017,1,0,0:0:0:0:
350,322,143081,1,0,0:0:0:0:
317,300,143145,1,0,0:0:0:0:
298,265,143209,1,0,0:0:0:0:
271,235,143273,1,0,0:0:0:0:
232,232,143337,1,0,0:0:0:0:
195,246,143402,1,0,0:0:0:0:
156,239,143466,1,0,0:0:0:0:
121,220,143530,5,0,0:0:0:0:
141,28,143658,1,0,0:0:0:0:
141,28,143786,2,0,L|209:46,1,50,0|0,0:0|0:0,0:0:0:0:
402,101,143914,1,0,0:0:0:0:
402,101,143978,1,0,0:0:0:0:
402,101,144043,1,0,0:0:0:0:
402,101,144107,1,0,0:0:0:0:
402,101,144171,2,0,L|345:118,1,50,0|0,0:0|0:0,0:0:0:0:
110,186,144299,1,0,0:0:0:0:
110,186,144363,1,0,0:0:0:0:
110,186,144427,1,0,0:0:0:0:
110,186,144491,1,0,0:0:0:0:
110,186,144555,6,0,L|169:211,1,50,0|0,0:0|0:0,0:0:0:0:
420,308,144684,2,0,B|385:278|395:228|421:250|421:250|446:271|325:331|266:239|311:169|311:169|336:125|420:81|330:-15|262:63|262:63|272:103|299:48|182:47|191:115,1,650,0|0,0:0|0:0,0:0:0:0:
176,131,145581,2,0,L|179:191,1,50,0|0,0:0|0:0,0:0:0:0:
148,363,145709,6,0,B|136:337|136:337|55:328|27:243|70:175,1,200
145,83,146094,1,0,0:0:0:0:
272,258,146222,1,0,0:0:0:0:
316,64,146350,1,0,0:0:0:0:
146,237,146478,1,0,0:0:0:0:
123,47,146607,1,0,0:0:0:0:
308,15,146735,6,0,B|385:-3|375:2|375:2|431:15|442:104|406:134,1,200
324,299,147119,1,0,0:0:0:0:
205,130,147248,1,0,0:0:0:0:
209,110,147312,1,0,0:0:0:0:
217,94,147376,1,0,0:0:0:0:
438,77,147504,1,0,0:0:0:0:
301,195,147632,1,0,0:0:0:0:
336,378,147761,6,0,B|348:352|348:352|429:343|473:260|450:189,1,200,0|0,0:0|0:0,0:0:0:0:
331,98,148146,1,0,0:0:0:0:
266,263,148274,1,0,0:0:0:0:
236,78,148402,1,0,0:0:0:0:
352,289,148530,1,0,0:0:0:0:
409,85,148659,1,0,0:0:0:0:
252,318,148787,6,0,B|175:336|185:331|185:331|129:318,1,100,0|0,0:0|0:0,0:0:0:0:
117,206,149043,1,0,0:0:0:0:
312,70,149171,1,0,0:0:0:0:
335,300,149300,1,0,0:0:0:0:
121,93,149428,1,0,0:0:0:0:
436,200,149556,1,0,0:0:0:0:
139,7,149684,1,0,0:0:0:0:
498,26,149812,6,0,P|451:67|309:67,1,200,0|0,0:0|0:0,0:0:0:0:
164,23,150196,1,0,0:0:0:0:
173,263,150324,1,0,0:0:0:0:
47,102,150452,1,0,0:0:0:0:
295,197,150580,1,0,0:0:0:0:
39,221,150709,1,0,0:0:0:0:
258,48,150837,6,0,B|320:39|320:39|383:71|394:160|358:190,1,200
281,337,151221,1,0,0:0:0:0:
264,166,151350,1,0,0:0:0:0:
261,141,151414,1,0,0:0:0:0:
253,117,151478,1,0,0:0:0:0:
53,122,151606,1,0,0:0:0:0:
246,273,151734,1,0,0:0:0:0:
471,159,151863,6,0,B|445:147|445:147|436:66|355:26|302:45,1,200
331,98,152248,1,0,0:0:0:0:
266,263,152376,1,0,0:0:0:0:
172,158,152504,1,0,0:0:0:0:
409,180,152632,1,0,0:0:0:0:
291,11,152761,1,0,0:0:0:0:
269,344,152889,6,0,B|192:362|202:357|202:357|146:344,1,100
105,163,153145,1,0,0:0:0:0:
333,296,153273,2,0,B|318:270|318:270|290:263,1,50,0|0,0:0|0:0,0:0:0:0:
102,243,153401,2,0,B|126:249|126:249|153:245,1,50,0|0,0:0|0:0,0:0:0:0:
420,165,153529,2,0,B|394:160|394:160|368:169,1,50,0|0,0:0|0:0,0:0:0:0:
209,319,153657,6,0,B|232:301|232:301|235:279,1,50,0|0,0:0|0:0,0:0:0:0:
152,18,153785,2,0,B|153:58|153:58|169:89|169:89|203:62|281:76,1,150,0|0,0:0|0:0,0:0:0:0:
346,94,154042,5,0,0:0:0:0:
442,225,154170,1,0,0:0:0:0:
180,292,154299,1,0,0:0:0:0:
188,138,154427,1,0,0:0:0:0:
338,59,154555,5,0,0:0:0:0:
355,220,154683,1,0,0:0:0:0:
95,147,154812,1,0,0:0:0:0:
179,18,154940,1,0,0:0:0:0:
249,256,155068,5,0,0:0:0:0:
322,17,155196,1,0,0:0:0:0:
232,252,155324,5,0,0:0:0:0:
355,46,155452,1,0,0:0:0:0:
217,243,155581,5,0,0:0:0:0:
384,85,155709,1,0,0:0:0:0:
205,232,155837,5,0,0:0:0:0:
398,127,155965,1,0,0:0:0:0:
364,332,156093,5,0,0:0:0:0:
163,263,156222,1,0,0:0:0:0:
234,91,156350,1,0,0:0:0:0:
282,361,156478,2,0,P|262:332|252:314,1,50,0|0,0:0|0:0,0:0:0:0:
102,115,156606,5,0,0:0:0:0:
86,322,156734,1,0,0:0:0:0:
176,90,156863,1,0,0:0:0:0:
73,330,156991,1,0,0:0:0:0:
85,75,157119,5,0,0:0:0:0:
155,214,157247,1,0,0:0:0:0:
290,30,157376,5,0,0:0:0:0:
219,326,157504,1,0,0:0:0:0:
185,42,157632,5,0,0:0:0:0:
245,264,157760,1,0,0:0:0:0:
392,69,157888,5,0,0:0:0:0:
352,278,158016,1,0,0:0:0:0:
425,133,158145,5,0,0:0:0:0:
188,129,158273,1,0,0:0:0:0:
412,170,158401,1,0,0:0:0:0:
164,97,158529,1,0,0:0:0:0:
369,31,158658,5,0,0:0:0:0:
185,223,158786,1,0,0:0:0:0:
340,54,158914,1,0,0:0:0:0:
194,277,159042,1,0,0:0:0:0:
392,226,159170,5,0,0:0:0:0:
300,71,159299,1,0,0:0:0:0:
145,168,159427,1,0,0:0:0:0:
237,322,159555,1,0,0:0:0:0:
363,161,159683,5,0,0:0:0:0:
238,90,159812,1,0,0:0:0:0:
169,219,159940,1,0,0:0:0:0:
294,289,160068,1,0,0:0:0:0:
333,111,160196,5,0,0:0:0:0:
425,300,160324,1,0,0:0:0:0:
351,117,160452,5,0,0:0:0:0:
150,186,160581,1,0,0:0:0:0:
350,118,160709,5,0,0:0:0:0:
389,324,160837,1,0,0:0:0:0:
365,128,160965,5,0,0:0:0:0:
153,143,161094,1,0,0:0:0:0:
400,178,161222,5,0,0:0:0:0:
140,276,161350,1,0,0:0:0:0:
300,56,161478,5,0,0:0:0:0:
300,327,161606,1,0,0:0:0:0:
153,143,161734,5,0,0:0:0:0:
418,86,161863,1,0,0:0:0:0:
237,288,161991,5,0,0:0:0:0:
265,18,162119,1,0,0:0:0:0:
178,151,162248,5,0,0:0:0:0:
93,307,162376,1,0,0:0:0:0:
334,233,162504,5,0,0:0:0:0:
419,77,162632,1,0,0:0:0:0:
181,239,162760,5,0,0:0:0:0:
274,390,162888,1,0,0:0:0:0:
330,144,163016,5,0,0:0:0:0:
237,0,163144,1,0,0:0:0:0:
263,256,163274,5,0,0:0:0:0:
190,17,163402,1,0,0:0:0:0:
280,252,163530,5,0,0:0:0:0:
157,46,163658,1,0,0:0:0:0:
295,243,163787,5,0,0:0:0:0:
128,85,163915,1,0,0:0:0:0:
307,232,164043,5,0,0:0:0:0:
114,127,164171,1,0,0:0:0:0:
276,345,164299,5,0,0:0:0:0:
265,114,164428,1,0,0:0:0:0:
271,337,164555,5,0,0:0:0:0:
450,239,164684,1,0,0:0:0:0:
242,331,164811,5,0,0:0:0:0:
192,105,164940,1,0,0:0:0:0:
244,321,165067,5,0,0:0:0:0:
46,273,165196,1,0,0:0:0:0:
410,177,165325,5,0,0:0:0:0:
100,192,165453,1,0,0:0:0:0:
404,291,165582,1,0,0:0:0:0:
96,88,165710,1,0,0:0:0:0:
395,92,165838,5,0,0:0:0:0:
93,307,165966,1,0,0:0:0:0:
400,184,166094,1,0,0:0:0:0:
92,202,166222,1,0,0:0:0:0:
334,158,166350,5,0,0:0:0:0:
87,133,166478,1,0,0:0:0:0:
348,97,166606,1,0,0:0:0:0:
132,246,166734,1,0,0:0:0:0:
143,31,166864,5,0,0:0:0:0:
327,223,166992,1,0,0:0:0:0:
172,54,167120,1,0,0:0:0:0:
318,277,167248,1,0,0:0:0:0:
120,226,167376,5,0,0:0:0:0:
212,71,167505,1,0,0:0:0:0:
367,168,167633,1,0,0:0:0:0:
275,322,167761,1,0,0:0:0:0:
148,161,167889,5,0,0:0:0:0:
273,90,168018,1,0,0:0:0:0:
342,219,168146,1,0,0:0:0:0:
217,289,168274,1,0,0:0:0:0:
178,111,168402,5,0,0:0:0:0:
353,311,168530,1,0,0:0:0:0:
97,199,168658,5,0,0:0:0:0:
428,184,168787,1,0,0:0:0:0:
165,95,168915,5,0,0:0:0:0:
391,340,169043,1,0,0:0:0:0:
77,215,169171,5,0,0:0:0:0:
429,185,169300,1,0,0:0:0:0:
167,81,169427,5,0,0:0:0:0:
167,81,169491,1,0,0:0:0:0:
167,81,169555,2,0,P|193:104|223:114,1,59.9999981689454
164,186,169683,5,0,0:0:0:0:
164,186,169747,1,0,0:0:0:0:
164,186,169811,2,0,P|131:197|107:217,1,59.9999981689454
82,93,169940,5,0,0:0:0:0:
82,93,170004,1,0,0:0:0:0:
82,93,170068,2,0,P|88:58|82:28,1,59.9999981689454
0,163,170196,5,0,0:0:0:0:
0,163,170260,1,0,0:0:0:0:
0,163,170324,2,0,P|-11:195|-8:227,1,59.9999981689454
62,238,170452,6,0,B|69:198|92:169|134:162|134:162|159:190|150:240|108:292|108:292|207:216|220:351|372:314|334:217|334:217|276:233|236:191|239:143|239:143|176:139|162:77|162:77|110:108|66:97,1,899.999972534181
40,85,171478,5,0,0:0:0:0:
88,50,171542,1,0,0:0:0:0:
144,29,171606,1,0,0:0:0:0:
203,19,171670,1,0,0:0:0:0:
221,89,171734,1,0,0:0:0:0:
281,79,171799,1,0,0:0:0:0:
336,56,171863,1,0,0:0:0:0:
378,13,171927,1,0,0:0:0:0:
385,85,171991,5,0,0:0:0:0:
395,112,172055,1,0,0:0:0:0:
411,129,172119,1,0,0:0:0:0:
417,145,172183,1,0,0:0:0:0:
418,156,172247,1,0,0:0:0:0:
416,161,172311,1,0,0:0:0:0:
412,166,172376,1,0,0:0:0:0:
407,170,172440,1,0,0:0:0:0:
401,172,172504,6,0,B|344:209|344:209|304:175|255:176,1,119.999996337891
101,127,172760,1,0,0:0:0:0:
42,208,172888,6,0,B|99:245|99:245|139:211|188:212,1,119.999996337891
381,135,173144,1,0,0:0:0:0:
439,220,173273,6,0,B|382:257|382:257|342:223|293:224,1,119.999996337891
60,81,173529,1,0,0:0:0:0:
9,241,173657,6,0,B|66:278|66:278|106:244|155:245,1,119.999996337891
420,95,173913,1,0,0:0:0:0:
465,255,174042,6,0,B|408:292|408:292|368:258|319:259,1,119.999996337891
27,79,174298,1,0,0:0:0:0:
236,15,174427,1,0,0:0:0:0:
442,24,174555,6,0,B|350:30|353:124|412:156|412:156|481:196|480:278|480:278|411:228|360:225|321:268,1,489.999985046387
224,322,175068,2,0,P|150:341|94:323,2,129.999994049073
306,133,175452,1,0,0:0:0:0:
33,114,175581,6,0,P|45:189|121:244,1,129.999994049073
289,122,175837,1,0,0:0:0:0:
20,174,175966,6,0,P|51:243|139:277,1,129.999994049073
271,116,176222,1,0,0:0:0:0:
60,83,176350,1,0,0:0:0:0:
250,313,176478,1,0,0:0:0:0:
360,101,176606,6,0,P|315:47|235:36,2,129.999994049073
176,310,176991,1,0,0:0:0:0:
166,98,177119,2,0,B|215:97|236:56|236:56|190:66|189:150|189:150|189:200|238:222|276:181|276:181|289:162|378:182|400:265,1,454.999979171754
348,305,177632,6,0,L|288:277,1,64.9999970245363
180,331,177761,2,0,L|244:327,1,64.9999970245363
356,290,177889,2,0,L|297:261,1,64.9999970245363
181,351,178017,6,0,L|245:346,1,64.9999970245363
348,224,178145,6,0,L|310:171,1,64.9999970245363
190,163,178273,2,0,L|247:192,1,64.9999970245363
363,215,178401,2,0,L|326:160,1,64.9999970245363
181,181,178529,6,0,L|239:209,1,64.9999970245363
396,137,178658,5,0,0:0:0:0:
351,89,178722,1,0,0:0:0:0:
288,72,178786,1,0,0:0:0:0:
239,109,178850,1,0,0:0:0:0:
239,109,178914,1,0,0:0:0:0:
239,109,178978,1,0,0:0:0:0:
239,109,179042,5,0,0:0:0:0:
215,169,179106,1,0,0:0:0:0:
162,207,179170,1,0,0:0:0:0:
109,224,179234,1,0,0:0:0:0:
109,224,179299,1,0,0:0:0:0:
109,224,179363,1,0,0:0:0:0:
109,224,179427,5,0,0:0:0:0:
110,159,179491,1,0,0:0:0:0:
139,101,179555,1,0,0:0:0:0:
191,63,179619,1,0,0:0:0:0:
252,43,179683,5,0,0:0:0:0:
290,51,179747,1,0,0:0:0:0:
315,80,179811,1,0,0:0:0:0:
345,105,179876,1,0,0:0:0:0:
383,108,179940,1,0,0:0:0:0:
415,86,180004,1,0,0:0:0:0:
453,77,180068,1,0,0:0:0:0:
488,93,180132,1,0,0:0:0:0:
506,119,180196,5,0,0:0:0:0:
508,151,180260,1,0,0:0:0:0:
498,175,180324,1,0,0:0:0:0:
476,190,180388,1,0,0:0:0:0:
450,192,180452,1,0,0:0:0:0:
430,186,180517,1,0,0:0:0:0:
410,185,180581,1,0,0:0:0:0:
391,191,180645,1,0,0:0:0:0:
382,200,180709,6,0,B|363:253|296:185|279:251,1,120
216,366,181222,6,0,P|214:325|152:250,1,129.999994049073
0,176,181414,2,0,P|74:178|159:111,1,129.999994049073
192,36,181606,1,0,0:0:0:0:
442,194,181734,6,0,P|399:117|338:84,1,129.999994049073
160,178,181991,1,0,0:0:0:0:
341,296,182119,1,0,0:0:0:0:
437,56,182247,6,0,P|362:19|278:30,1,129.999994049073
188,276,182504,1,0,0:0:0:0:
479,294,182632,1,0,0:0:0:0:
240,34,182760,6,0,P|193:103|200:196,1,129.999994049073
357,336,183017,2,0,P|356:254|309:184,1,129.999994049073
27,245,183273,1,0,0:0:0:0:
191,326,183401,1,0,0:0:0:0:
1,70,183529,2,0,P|96:80|155:41,1,129.999994049073
312,3,183786,5,0,0:0:0:0:
147,201,183914,1,0,0:0:0:0:
417,330,184042,2,0,P|399:258|351:210,1,129.999994049073
96,318,184299,2,0,P|126:237|179:189,1,129.999994049073
246,231,184491,2,0,P|275:155|259:76,1,129.999994049073
201,0,184683,1,0,0:0:0:0:
41,103,184811,6,0,B|53:175|125:215|192:182|192:182|153:150|157:97|192:71|192:71|242:40|293:67|306:122|306:122|328:89|333:57|333:57|339:82|337:108|337:108|350:81|350:57|350:57|394:75|411:130|385:171|385:171|284:159|246:245|280:342|398:324,1,1049.99996795654
414,337,185837,6,0,B|445:280|445:280|451:206,1,129.999994049073
125,110,186093,2,0,B|85:172|85:172|74:242,1,129.999994049073
307,355,186350,1,0,0:0:0:0:
341,82,186478,1,0,0:0:0:0:
296,55,186542,1,0,0:0:0:0:
244,56,186606,1,0,0:0:0:0:
130,320,186734,1,0,0:0:0:0:
54,118,186863,6,0,P|81:79|179:37,1,129.999994049073
393,168,187119,1,0,0:0:0:0:
183,223,187247,1,0,0:0:0:0:
371,16,187376,2,0,P|425:37|479:90,1,129.999994049073
440,347,187632,2,0,P|377:309|329:244,1,129.999994049073
255,34,187888,6,0,P|262:115|241:174,1,129.999994049073
54,310,188145,2,0,P|129:272|269:283,1,194.999991073609
329,319,188401,1,0,0:0:0:0:
383,71,188529,1,0,0:0:0:0:
461,278,188658,1,0,0:0:0:0:
264,95,188786,1,0,0:0:0:0:
319,333,188914,6,0,P|237:322|172:279,1,129.999994049073
187,55,189170,1,0,0:0:0:0:
308,223,189299,1,0,0:0:0:0:
44,154,189427,2,0,P|50:84|87:17,1,129.999994049073
372,62,189683,2,0,P|369:118|338:200,1,129.999994049073
276,322,189940,6,0,P|245:246|172:188,1,129.999994049073
1,108,190196,2,0,P|77:131|228:116,1,194.999991073609
286,89,190452,1,0,0:0:0:0:
389,302,190581,1,0,0:0:0:0:
398,90,190709,1,0,0:0:0:0:
272,296,190837,1,0,0:0:0:0:
231,4,190965,6,0,P|302:20|355:63,1,129.999994049073
360,301,191222,1,0,0:0:0:0:
202,180,191350,1,0,0:0:0:0:
467,182,191478,2,0,P|469:254|451:313,1,129.999994049073
178,273,191734,2,0,P|188:195|216:139,1,129.999994049073
466,87,191991,6,0,P|386:106|327:97,1,129.999994049073
87,29,192247,2,0,P|113:104|95:238,1,194.999991073609
58,300,192504,1,0,0:0:0:0:
330,200,192632,1,0,0:0:0:0:
179,384,192760,1,0,0:0:0:0:
212,127,192888,1,0,0:0:0:0:
274,358,193017,6,0,P|295:283|404:203,1,194.999991073609
477,208,193273,1,0,0:0:0:0:
396,319,193401,2,0,P|354:248|186:216,1,259.999988098145
51,274,193786,5,0,0:0:0:0:
93,244,193850,1,0,0:0:0:0:
123,202,193914,1,0,0:0:0:0:
135,151,193978,1,0,0:0:0:0:
120,101,194042,5,0,0:0:0:0:
170,50,194106,1,0,0:0:0:0:
235,21,194170,1,0,0:0:0:0:
233,92,194234,5,0,0:0:0:0:
304,81,194299,1,0,0:0:0:0:
360,37,194363,1,0,0:0:0:0:
427,61,194427,5,0,0:0:0:0:
437,111,194491,1,0,0:0:0:0:
414,157,194555,1,0,0:0:0:0:
364,173,194619,1,0,0:0:0:0:
316,152,194683,1,0,0:0:0:0:
267,170,194747,1,0,0:0:0:0:
240,214,194811,5,0,0:0:0:0:
254,264,194876,1,0,0:0:0:0:
299,289,194940,1,0,0:0:0:0:
348,272,195004,1,0,0:0:0:0:
367,223,195068,6,0,P|340:184|242:142,1,129.999994049073
0,279,195324,1,0,0:0:0:0:
272,337,195452,1,0,0:0:0:0:
105,118,195581,2,0,P|51:139|-3:192,1,129.999994049073
184,384,195837,2,0,P|247:346|295:281,1,129.999994049073
257,34,196093,6,0,P|250:115|271:174,1,129.999994049073
458,310,196350,2,0,P|383:272|243:283,1,194.999991073609
183,319,196606,1,0,0:0:0:0:
129,71,196734,1,0,0:0:0:0:
51,278,196863,1,0,0:0:0:0:
248,95,196991,1,0,0:0:0:0:
193,333,197119,6,0,P|275:322|340:279,1,129.999994049073
325,55,197375,1,0,0:0:0:0:
204,223,197504,1,0,0:0:0:0:
468,154,197632,2,0,P|462:84|425:17,1,129.999994049073
140,62,197888,2,0,P|143:118|174:200,1,129.999994049073
236,322,198145,6,0,P|267:246|340:188,1,129.999994049073
511,108,198401,2,0,P|435:131|284:116,1,194.999991073609
226,89,198657,1,0,0:0:0:0:
370,308,198786,1,0,0:0:0:0:
142,184,198914,1,0,0:0:0:0:
432,212,199042,1,0,0:0:0:0:
281,4,199170,6,0,P|210:20|157:63,1,129.999994049073
152,301,199427,1,0,0:0:0:0:
310,180,199555,1,0,0:0:0:0:
45,182,199683,2,0,P|43:254|61:313,1,129.999994049073
334,273,199939,2,0,P|324:195|296:139,1,129.999994049073
46,87,200196,6,0,P|126:106|185:97,1,129.999994049073
425,29,200452,5,0,0:0:0:0:
430,308,200581,2,0,B|409:297|388:275|388:275|407:278|407:278|407:205|384:160,1,194.999991073609
340,114,200837,1,0,0:0:0:0:
96,246,200965,1,0,0:0:0:0:
327,362,201093,1,0,0:0:0:0:
166,85,201222,6,0,B|134:83|102:62|89:22|89:22|117:41|131:72|125:115|125:115|119:148|92:171|92:171|68:189|64:225|64:225|61:269|82:301|118:315|118:315|136:321|145:296|130:290|130:290|116:285|98:315|117:323|117:323|207:351|262:341|302:257,1,714.999967269899
303,238,201991,1,0,0:0:0:0:
232,67,202119,1,0,0:0:0:0:
472,77,202247,6,0,B|494:167|447:231|367:234,1,194.999991073609
323,216,202504,1,0,0:0:0:0:
334,32,202632,2,0,P|244:51|202:84,1,129.999994049073
177,303,202888,1,0,0:0:0:0:
207,291,202952,1,0,0:0:0:0:
232,269,203017,2,0,P|273:209|279:146,1,129.999994049073
90,48,203273,5,0,0:0:0:0:
68,95,203337,1,0,0:0:0:0:
76,146,203401,1,0,0:0:0:0:
115,179,203465,1,0,0:0:0:0:
166,173,203529,5,0,0:0:0:0:
202,136,203593,1,0,0:0:0:0:
251,116,203658,1,0,0:0:0:0:
300,131,203722,1,0,0:0:0:0:
322,177,203786,5,0,0:0:0:0:
316,228,203850,1,0,0:0:0:0:
271,254,203914,1,0,0:0:0:0:
223,232,203978,1,0,0:0:0:0:
232,180,204042,5,0,0:0:0:0:
283,171,204106,1,0,0:0:0:0:
322,204,204170,1,0,0:0:0:0:
334,254,204234,1,0,0:0:0:0:
372,290,204299,5,0,0:0:0:0:
361,57,204427,1,0,0:0:0:0:
278,336,204555,5,0,0:0:0:0:
409,97,204683,1,0,0:0:0:0:
203,303,204811,5,0,0:0:0:0:
432,147,204940,1,0,0:0:0:0:
146,268,205068,5,0,0:0:0:0:
453,199,205196,1,0,0:0:0:0:
0,135,205324,6,0,B|47:172|47:172|120:183,1,100,0|0,0:0|0:0,0:0:0:0:
300,143,205580,1,0,0:0:0:0:
185,247,205708,1,0,0:0:0:0:
142,44,205836,6,0,B|176:82|176:82|229:92,1,100
424,171,206093,1,0,0:0:0:0:
298,58,206221,1,0,0:0:0:0:
148,177,206349,6,0,B|127:229|127:229|144:281,1,100,0|0,0:0|0:0,0:0:0:0:
358,335,206606,1,0,0:0:0:0:
238,357,206734,1,0,0:0:0:0:
390,198,206862,6,0,B|376:151|376:151|320:123,1,100
111,260,207119,2,0,B|156:288|156:288|225:279,1,100
404,0,207375,6,0,B|385:49|385:49|408:103,1,100,0|0,0:0|0:0,0:0:0:0:
414,307,207631,1,0,0:0:0:0:
336,155,207760,1,0,0:0:0:0:
140,138,207888,6,0,B|149:189|149:189|195:225,1,100
436,211,208144,1,0,0:0:0:0:
313,91,208273,1,0,0:0:0:0:
275,262,208401,5,0,0:0:0:0:
240,16,208529,1,0,0:0:0:0:
111,243,208657,1,0,0:0:0:0:
352,125,208785,1,0,0:0:0:0:
94,89,208913,6,0,B|125:131|125:131|176:128,1,100,0|0,0:0|0:0,0:0:0:0:
442,62,209170,2,0,B|406:21|406:21|347:25,1,100,0|0,0:0|0:0,0:0:0:0:
141,239,209426,5,0,0:0:0:0:
374,110,209554,1,0,0:0:0:0:
143,259,209683,1,0,0:0:0:0:
363,89,209811,1,0,0:0:0:0:
154,43,209939,6,0,B|157:97|157:97|191:137,1,100
389,319,210195,1,0,0:0:0:0:
295,161,210324,1,0,0:0:0:0:
73,142,210452,6,0,B|103:187|103:187|153:204,1,100,0|0,0:0|0:0,0:0:0:0:
385,182,210708,1,0,0:0:0:0:
91,269,210836,2,0,B|140:293|140:293|191:283,1,100,0|0,0:0|0:0,0:0:0:0:
302,97,211092,1,0,0:0:0:0:
299,312,211221,1,0,0:0:0:0:
158,136,211349,1,0,0:0:0:0:
512,112,211477,6,0,B|486:156|486:156|432:170,1,100,0|0,0:0|0:0,0:0:0:0:
157,241,211734,1,0,0:0:0:0:
313,114,211862,1,0,0:0:0:0:
512,250,211990,6,0,B|474:275|474:275|420:260,1,100,0|0,0:0|0:0,0:0:0:0:
118,118,212247,1,0,0:0:0:0:
380,84,212375,2,0,B|382:108|382:108|374:141,1,50,0|0,0:0|0:0,0:0:0:0:
281,308,212503,5,0,0:0:0:0:
188,73,212631,1,0,0:0:0:0:
250,309,212888,1,0,0:0:0:0:
357,108,213144,1,0,0:0:0:0:
220,306,213272,1,0,0:0:0:0:
148,79,213401,1,0,0:0:0:0:
298,246,213529,5,0,0:0:0:0:
207,28,213657,1,0,0:0:0:0:
170,254,213785,1,0,0:0:0:0:
230,91,213913,1,0,0:0:0:0:
438,110,214041,2,0,B|404:148|404:148|351:158,1,100
34,121,214298,1,0,0:0:0:0:
201,79,214426,1,0,0:0:0:0:
364,178,214554,6,0,B|385:230|385:230|368:282,1,100,0|0,0:0|0:0,0:0:0:0:
206,353,214811,1,0,0:0:0:0:
122,199,214939,2,0,B|136:152|136:152|192:124,1,100,0|0,0:0|0:0,0:0:0:0:
403,125,215195,1,0,0:0:0:0:
346,347,215324,2,0,B|320:302|320:302|328:245,1,100,0|0,0:0|0:0,0:0:0:0:
108,1,215580,6,0,B|127:50|127:50|104:104,1,100,0|0,0:0|0:0,0:0:0:0:
170,331,215836,1,0,0:0:0:0:
409,81,215965,6,0,B|401:132|401:132|355:168,1,100
201,206,216221,1,0,0:0:0:0:
146,29,216349,2,0,B|210:21|210:21|254:60,1,100
237,263,216606,5,0,0:0:0:0:
272,17,216734,1,0,0:0:0:0:
401,244,216862,1,0,0:0:0:0:
160,126,216990,1,0,0:0:0:0:
418,90,217118,6,0,B|387:132|387:132|336:129,1,100,0|0,0:0|0:0,0:0:0:0:
42,97,217311,1,0,0:0:0:0:
70,63,217375,2,0,B|106:22|106:22|165:26,1,100,0|0,0:0|0:0,0:0:0:0:
371,240,217631,5,0,0:0:0:0:
138,111,217759,1,0,0:0:0:0:
344,318,217888,1,0,0:0:0:0:
426,72,218016,2,0,B|423:126|423:126|389:166,1,100
195,62,218272,1,0,0:0:0:0:
67,260,218400,1,0,0:0:0:0:
219,116,218529,1,0,0:0:0:0:
439,143,218657,6,0,B|410:188|410:188|360:205,1,100,0|0,0:0|0:0,0:0:0:0:
102,165,218913,1,0,0:0:0:0:
421,270,219041,2,0,B|373:294|373:294|322:284,1,100,0|0,0:0|0:0,0:0:0:0:
192,147,219297,1,0,0:0:0:0:
187,123,219361,1,0,0:0:0:0:
184,98,219426,1,0,0:0:0:0:
379,104,219554,1,0,0:0:0:0:
113,19,219682,6,0,B|139:63|139:63|193:77,1,100
370,44,219939,6,0,B|331:19|331:19|277:34,1,100
125,143,220195,2,0,B|123:167|123:167|131:200,1,50
287,312,220324,5,0,0:0:0:0:
317,31,220580,5,0,0:0:0:0:
212,323,220836,5,0,0:0:0:0:
172,39,220965,1,0,0:0:0:0:
441,155,221093,1,0,0:0:0:0:
243,373,221349,6,0,P|194:369|149:347,2,100,0|0|0,0:0|0:0|0:0,0:0:0:0:
366,350,221734,6,0,P|407:289|328:152,1,239.999992675781
112,157,222119,1,0,0:0:0:0:
316,28,222247,1,0,0:0:0:0:
245,229,222375,2,0,P|167:248|110:229,1,119.999996337891
6,67,222631,6,0,P|52:138|9:311,1,239.999992675781
8,370,223016,2,0,P|73:361|136:325,1,119.999996337891
267,89,223272,2,0,P|204:112|162:153,1,119.999996337891
276,341,223529,2,0,P|354:325|400:276,1,119.999996337891
471,72,223785,6,0,P|410:57|345:68,1,119.999996337891
364,275,224042,1,0,0:0:0:0:
167,230,224170,2,0,P|184:172|226:130,1,119.999996337891
461,188,224426,1,0,0:0:0:0:
215,60,224554,1,0,0:0:0:0:
124,307,224683,2,0,P|161:251|129:86,1,239.999992675781
51,55,225067,5,0,0:0:0:0:
235,230,225195,1,0,0:0:0:0:
23,112,225324,1,0,0:0:0:0:
246,234,225452,1,0,0:0:0:0:
328,51,225580,5,0,0:0:0:0:
82,110,225708,1,0,0:0:0:0:
410,233,225836,5,0,0:0:0:0:
391,187,225901,2,0,P|329:146|302:140,1,59.9999981689454
155,232,226093,2,0,P|163:296|201:342,1,119.999996337891
396,220,226349,2,0,P|368:154|324:126,1,119.999996337891
254,357,226606,1,0,0:0:0:0:
256,53,226734,2,0,P|207:102|273:267,1,239.999992675781
439,161,227119,6,0,P|377:141|315:154,1,119.999996337891
145,305,227375,2,0,P|192:236|193:180,1,119.999996337891
30,16,227631,2,0,P|49:86|88:124,1,119.999996337891
302,57,227888,2,0,P|400:78|386:233,1,239.999992675781
175,345,228401,5,0,0:0:0:0:
177,137,228529,1,0,0:0:0:0:
367,293,228657,1,0,0:0:0:0:
211,57,228785,2,0,P|113:78|127:233,1,239.999992675781
301,318,229170,6,0,P|300:302|287:254,1,59.9999981689454
181,139,229298,1,0,0:0:0:0:
181,139,229362,1,0,0:0:0:0:
181,139,229426,6,0,P|168:147|133:183,1,59.9999981689454
86,332,229554,1,0,0:0:0:0:
86,332,229618,1,0,0:0:0:0:
86,332,229683,6,0,P|101:339|149:351,1,59.9999981689454
302,317,229811,2,0,P|276:335|238:349,1,59.9999981689454
86,332,229939,6,0,P|45:271|124:134,1,239.999992675781
400,157,230324,1,0,0:0:0:0:
196,28,230452,1,0,0:0:0:0:
267,229,230580,2,0,P|345:248|402:229,1,119.999996337891
506,67,230836,6,0,P|460:138|503:311,1,239.999992675781
504,370,231221,2,0,P|439:361|376:325,1,119.999996337891
245,89,231477,2,0,P|308:112|350:153,1,119.999996337891
236,341,231734,2,0,P|158:325|112:276,1,119.999996337891
41,72,231990,6,0,P|102:57|167:68,1,119.999996337891
148,275,232247,1,0,0:0:0:0:
345,230,232375,2,0,P|328:172|286:130,1,119.999996337891
51,188,232631,2,0,P|85:130|178:110,1,119.999996337891
299,374,232888,2,0,P|262:318|294:153,1,239.999992675781
461,55,233272,5,0,0:0:0:0:
277,230,233400,1,0,0:0:0:0:
489,112,233529,1,0,0:0:0:0:
266,234,233657,1,0,0:0:0:0:
184,51,233785,5,0,0:0:0:0:
430,110,233913,1,0,0:0:0:0:
102,233,234041,5,0,0:0:0:0:
121,187,234106,2,0,P|183:146|210:140,1,59.9999981689454
357,232,234298,2,0,P|349:296|311:342,1,119.999996337891
116,220,234554,2,0,P|144:154|188:126,1,119.999996337891
258,357,234811,1,0,0:0:0:0:
256,53,234939,2,0,P|305:102|239:267,1,239.999992675781
73,161,235324,6,0,P|135:141|197:154,1,119.999996337891
367,305,235580,2,0,P|320:236|319:180,1,119.999996337891
482,16,235836,2,0,P|463:86|424:124,1,119.999996337891
210,57,236093,2,0,P|112:78|126:233,1,239.999992675781
337,345,236606,5,0,0:0:0:0:
335,137,236734,1,0,0:0:0:0:
145,293,236862,1,0,0:0:0:0:
301,57,236990,2,0,P|399:78|385:233,1,239.999992675781
211,318,237375,6,0,P|212:302|225:254,1,59.9999981689454
331,139,237503,1,0,0:0:0:0:
331,139,237567,1,0,0:0:0:0:
331,139,237631,6,0,P|345:147|380:183,1,59.9999981689454
426,332,237759,1,0,0:0:0:0:
426,332,237823,1,0,0:0:0:0:
426,332,237888,6,0,P|412:339|364:351,1,59.9999981689454
210,317,238016,2,0,P|237:335|275:349,1,59.9999981689454
487,247,238144,6,0,B|470:188|470:188|413:156,1,119.999996337891
337,41,238401,2,0,B|295:85|295:85|296:150,1,119.999996337891
255,237,238657,1,0,0:0:0:0:
25,137,238785,6,0,B|42:196|42:196|99:228,1,119.999996337891
360,122,239042,6,0,B|343:63|343:63|286:31,1,119.999996337891
229,221,239298,1,0,0:0:0:0:
312,384,239426,2,0,B|355:339|355:339|354:274,1,119.999996337891
470,106,239682,2,0,B|411:91|411:91|355:124,1,119.999996337891
148,294,239939,2,0,B|90:294|90:294|46:252,1,119.999996337891
88,58,240195,6,0,B|135:97|135:97|201:85,1,119.999996337891
357,32,240452,1,0,0:0:0:0:
476,185,240580,2,0,B|491:254|491:254|436:313,1,119.999996337891
171,315,240836,1,0,0:0:0:0:
278,209,240965,1,0,0:0:0:0:
251,30,241093,6,0,B|310:41|310:41|352:103,1,119.999996337891
367,268,241349,1,0,0:0:0:0:
151,274,241477,1,0,0:0:0:0:
289,146,241606,1,0,0:0:0:0:
251,295,241734,5,0,0:0:0:0:
112,151,241862,1,0,0:0:0:0:
251,30,241990,2,0,B|310:41|310:41|352:103,1,119.999996337891
486,181,242247,6,0,B|445:225|445:225|377:211,1,119.999996337891
230,83,242503,2,0,B|173:65|173:65|114:117,1,119.999996337891
114,300,242760,1,0,0:0:0:0:
340,309,242888,1,0,0:0:0:0:
204,166,243016,1,0,0:0:0:0:
375,55,243144,2,0,B|421:93|421:93|415:152|415:152|359:177|359:177|301:133,1,239.999992675781
207,25,243529,6,0,B|209:82|209:82|169:142,1,119.999996337891
62,296,243785,2,0,B|101:239|101:239|167:222,1,119.999996337891
402,163,244042,2,0,B|339:179|339:179|270:159,1,119.999996337891
137,55,244298,6,0,B|91:93|91:93|97:156|97:156,1,119.999996337891
329,232,244554,1,0,0:0:0:0:
105,269,244683,1,0,0:0:0:0:
198,48,244811,5,0,0:0:0:0:
214,339,244939,1,0,0:0:0:0:
404,171,245067,1,0,0:0:0:0:
90,98,245195,6,0,B|44:136|44:136|50:195|50:195|108:220|108:220,1,179.999994506836
274,289,245452,1,0,0:0:0:0:
274,289,245516,1,0,0:0:0:0:
274,289,245580,2,0,P|242:270|238:223,1,59.9999981689454
332,127,245708,1,0,0:0:0:0:
332,127,245772,1,0,0:0:0:0:
332,127,245836,2,0,P|331:165|292:192,1,59.9999981689454
153,233,245965,1,0,0:0:0:0:
250,22,246093,1,0,0:0:0:0:
381,225,246221,1,0,0:0:0:0:
25,247,246349,6,0,B|42:188|42:188|99:156,1,119.999996337891
300,90,246606,1,0,0:0:0:0:
380,292,246734,1,0,0:0:0:0:
174,370,246862,1,0,0:0:0:0:
393,116,246990,6,0,B|376:175|376:175|319:207,1,119.999996337891
67,111,247247,6,0,B|84:52|84:52|141:20,1,119.999996337891
320,129,247503,1,0,0:0:0:0:
200,335,247631,2,0,B|158:290|158:290|159:225,1,119.999996337891
335,18,247887,2,0,B|350:78|350:78|317:134,1,119.999996337891
322,340,248144,2,0,B|381:340|381:340|425:298,1,119.999996337891
398,88,248400,6,0,B|351:127|351:127|285:115,1,119.999996337891
92,57,248657,1,0,0:0:0:0:
0,227,248785,2,0,B|-15:296|-15:296|40:355,1,119.999996337891
261,30,249042,6,0,B|202:41|202:41|160:103,1,119.999996337891
462,197,249298,2,0,B|413:150|413:150|351:139,1,119.999996337891
145,268,249554,1,0,0:0:0:0:
307,84,249683,1,0,0:0:0:0:
105,179,249811,1,0,0:0:0:0:
362,177,249939,1,0,0:0:0:0:
157,278,250067,1,0,0:0:0:0:
261,30,250195,6,0,B|202:41|202:41|160:103,1,119.999996337891
26,181,250452,6,0,B|67:225|67:225|135:211,1,119.999996337891
282,83,250708,2,0,B|339:65|339:65|398:117,1,119.999996337891
430,318,250965,2,0,B|372:339|372:339|321:297,1,119.999996337891
308,166,251221,1,0,0:0:0:0:
137,55,251349,2,0,B|91:93|91:93|97:152|97:152|153:177|153:177|211:133,1,239.999992675781
305,25,251734,6,0,B|303:82|303:82|343:142,1,119.999996337891
450,296,251990,2,0,B|411:239|411:239|345:222,1,119.999996337891
110,163,252247,2,0,B|173:179|173:179|242:159,1,119.999996337891
375,55,252503,2,0,B|421:93|421:93|415:156|415:156,1,119.999996337891
223,273,252759,1,0,0:0:0:0:
394,355,252888,1,0,0:0:0:0:
305,172,253016,5,0,0:0:0:0:
39,234,253144,2,0,B|52:173|52:173|109:153,1,119.999996337891
422,98,253400,2,0,B|468:136|468:136|462:195|462:195|404:220|404:220,1,179.999994506836
238,289,253657,1,0,0:0:0:0:
238,289,253721,1,0,0:0:0:0:
238,289,253785,2,0,P|270:270|274:223,1,59.9999981689454
307,100,253913,1,0,0:0:0:0:
137,149,254041,2,0,P|143:181|182:208,1,59.9999981689454
359,233,254170,5,0,0:0:0:0:
262,22,254298,1,0,0:0:0:0:
131,225,254426,1,0,0:0:0:0:
353,91,254555,5,0,0:0:0:0:
381,82,254619,1,0,0:0:0:0:
409,73,254683,1,0,0:0:0:0:
437,64,254747,1,0,0:0:0:0:
465,56,254811,2,0,L|462:120,1,59.9999981689454
378,234,254940,5,0,0:0:0:0:
350,225,255004,1,0,0:0:0:0:
322,216,255068,1,0,0:0:0:0:
294,207,255132,1,0,0:0:0:0:
266,199,255196,2,0,L|269:263,1,59.9999981689454
167,355,255324,5,0,0:0:0:0:
156,314,255388,1,0,0:0:0:0:
145,273,255452,1,0,0:0:0:0:
132,232,255517,1,0,0:0:0:0:
119,191,255581,2,0,L|193:187,1,59.9999981689454
322,216,255709,5,0,0:0:0:0:
333,175,255773,1,0,0:0:0:0:
344,134,255837,1,0,0:0:0:0:
357,93,255902,1,0,0:0:0:0:
370,52,255966,2,0,L|296:48,1,59.9999981689454
87,39,256093,5,0,0:0:0:0:
88,57,256158,1,0,0:0:0:0:
89,74,256222,2,0,L|93:147,1,59.9999981689454
240,125,256350,5,0,0:0:0:0:
241,143,256415,1,0,0:0:0:0:
242,160,256479,2,0,L|246:233,1,59.9999981689454
261,371,256606,6,0,B|277:344|277:344|309:309,5,59.9999981689454
411,281,256991,6,0,B|402:246|402:246|381:211,5,59.9999981689454
348,174,257376,5,0,0:0:0:0:
188,321,257504,1,0,0:0:0:0:
200,117,257632,1,0,0:0:0:0:
207,100,257696,1,0,0:0:0:0:
215,84,257760,1,0,0:0:0:0:
398,11,257888,1,0,0:0:0:0:
307,189,258017,1,0,0:0:0:0:
296,203,258081,1,0,0:0:0:0:
286,218,258145,6,0,B|305:241|305:241|318:277,3,59.9999981689454
442,297,258401,2,0,B|472:284|472:284|494:265,3,59.9999981689454
468,140,258658,5,0,0:0:0:0:
446,97,258722,1,0,0:0:0:0:
407,68,258786,1,0,0:0:0:0:
360,54,258850,1,0,0:0:0:0:
313,66,258914,5,0,0:0:0:0:
308,113,258978,1,0,0:0:0:0:
317,159,259042,1,0,0:0:0:0:
350,192,259106,1,0,0:0:0:0:
397,199,259170,5,0,0:0:0:0:
383,153,259234,1,0,0:0:0:0:
343,124,259299,1,0,0:0:0:0:
295,125,259363,1,0,0:0:0:0:
256,153,259427,5,0,0:0:0:0:
259,200,259491,1,0,0:0:0:0:
280,243,259555,1,0,0:0:0:0:
319,270,259619,1,0,0:0:0:0:
365,280,259683,5,0,0:0:0:0:
350,306,259747,1,0,0:0:0:0:
325,323,259811,1,0,0:0:0:0:
296,333,259876,1,0,0:0:0:0:
266,331,259940,1,0,0:0:0:0:
237,321,260004,1,0,0:0:0:0:
218,297,260068,1,0,0:0:0:0:
201,272,260132,1,0,0:0:0:0:
177,253,260196,1,0,0:0:0:0:
147,249,260260,1,0,0:0:0:0:
118,257,260324,1,0,0:0:0:0:
97,278,260388,1,0,0:0:0:0:
89,306,260452,5,0,0:0:0:0:
45,65,260581,1,0,0:0:0:0:
226,196,260709,5,0,0:0:0:0:
254,205,260773,1,0,0:0:0:0:
282,214,260837,1,0,0:0:0:0:
310,223,260901,1,0,0:0:0:0:
338,231,260965,2,0,L|392:204,1,59.9999981689454
495,91,261093,5,0,0:0:0:0:
467,82,261157,1,0,0:0:0:0:
439,73,261221,1,0,0:0:0:0:
411,64,261285,1,0,0:0:0:0:
383,56,261349,2,0,L|328:82,1,59.9999981689454
343,306,261478,6,0,B|379:308|380:340|380:340|374:326|385:297|411:280|411:280|458:252|478:203|443:159|443:159|423:137|394:131|368:141|368:141|298:174|298:174|207:114|255:61|255:61|229:251|229:251|283:201|147:142,1,899.999972534181
50,122,262504,5,0,0:0:0:0:
53,193,262568,1,0,0:0:0:0:
58,264,262632,6,0,P|96:328|284:297,1,250
458,94,263017,1,0,0:0:0:0:
378,335,263145,1,0,0:0:0:0:
199,183,263273,1,0,0:0:0:0:
471,306,263401,1,0,0:0:0:0:
425,79,263529,1,0,0:0:0:0:
352,361,263658,6,0,P|273:335|196:165,1,250
280,1,264042,1,0,0:0:0:0:
429,265,264170,1,0,0:0:0:0:
379,302,264234,1,0,0:0:0:0:
317,315,264299,1,0,0:0:0:0:
110,215,264427,1,0,0:0:0:0:
395,157,264555,1,0,0:0:0:0:
171,324,264683,6,0,P|171:229|300:113,1,250
393,247,265068,1,0,0:0:0:0:
82,242,265196,1,0,0:0:0:0:
281,53,265324,1,0,0:0:0:0:
200,324,265452,1,0,0:0:0:0:
114,37,265581,1,0,0:0:0:0:
43,230,265709,1,0,0:0:0:0:
217,345,265837,6,0,P|240:278|246:196,1,125
206,15,266093,2,0,P|211:86|232:146,1,125
399,342,266350,1,0,0:0:0:0:
297,70,266478,1,0,0:0:0:0:
265,336,266606,1,0,0:0:0:0:
454,264,266734,6,0,P|416:328|228:297,1,250
8,69,267119,1,0,0:0:0:0:
134,335,267247,1,0,0:0:0:0:
269,125,267375,1,0,0:0:0:0:
41,306,267503,1,0,0:0:0:0:
61,44,267631,1,0,0:0:0:0:
160,361,267760,6,0,P|239:335|316:165,1,250
139,34,268144,1,0,0:0:0:0:
83,265,268272,1,0,0:0:0:0:
131,304,268336,1,0,0:0:0:0:
189,328,268401,1,0,0:0:0:0:
422,217,268529,1,0,0:0:0:0:
165,113,268657,1,0,0:0:0:0:
347,326,268785,6,0,P|347:231|218:115,1,250
150,277,269170,1,0,0:0:0:0:
413,276,269298,1,0,0:0:0:0:
272,52,269426,1,0,0:0:0:0:
286,310,269554,1,0,0:0:0:0:
411,41,269683,1,0,0:0:0:0:
469,230,269811,1,0,0:0:0:0:
295,345,269939,6,0,P|272:278|266:196,1,125
361,35,270196,1,0,0:0:0:0:
320,50,270260,1,0,0:0:0:0:
279,65,270324,2,0,L|252:128,1,62.5
171,295,270452,1,0,0:0:0:0:
212,279,270517,1,0,0:0:0:0:
251,260,270581,2,0,L|278:193,1,62.5
192,61,270709,2,0,L|123:249,1,187.5
88,384,270965,6,0,P|181:294|361:314,1,279.999991455078
290,31,271350,2,0,B|215:38|186:112|223:170|223:170|137:191,1,209.999993591309
60,226,271606,1,0,0:0:0:0:
60,226,271670,1,0,0:0:0:0:
60,226,271734,2,0,P|107:328|243:369,1,209.999993591309
266,367,271991,1,0,0:0:0:0:
444,212,272119,6,0,B|389:167|389:167|426:94|360:11|277:33,1,279.999991455078
154,171,272504,6,0,P|160:205|179:241,1,69.9999978637696
330,317,272632,1,0,0:0:0:0:
344,322,272696,1,0,0:0:0:0:
362,328,272760,2,0,P|372:309|373:255,1,69.9999978637696
238,131,272888,2,0,P|335:171|450:73,1,209.999993591309
462,51,273145,1,0,0:0:0:0:
197,31,273273,6,0,P|171:103|172:178,1,139.999995727539
233,257,273465,1,0,0:0:0:0:
336,248,273529,2,0,P|319:144|281:93,1,139.999995727539
335,40,273722,1,0,0:0:0:0:
358,45,273786,1,0,0:0:0:0:
379,45,273850,1,0,0:0:0:0:
404,41,273914,6,0,P|402:122|424:210,1,139.999995727539
434,344,274170,5,0,0:0:0:0:
413,338,274234,1,0,0:0:0:0:
392,331,274299,1,0,0:0:0:0:
76,215,274427,6,0,B|167:252|167:252|156:248|156:248|194:262|194:262|184:259|184:259|225:273|225:273|211:269|211:269|237:279|237:279|219:272|219:273|243:280|243:280|231:276|231:276|261:288|261:288|242:281|242:281|281:296|281:296|245:283|245:283|270:293|270:293|260:288|260:288|272:293|272:293|263:290|263:291|277:293|277:293|268:291|268:291|280:292|280:292,1,489.999985046387
