osu file format v14

[General]
AudioFilename: audio.mp3
AudioLeadIn: 0
PreviewTime: 89498
Countdown: 0
SampleSet: Soft
StackLeniency: 0.2
Mode: 0
LetterboxInBreaks: 0
WidescreenStoryboard: 0

[Editor]
Bookmarks: 1375,9374,12374,23040,35040,45707,56373,68373,79040,89707,100373,111040,119623,121707,123040,133707,139040,144373,153707,156373,177707,188373,199040,200373,200457,200540,200623,200707,211040,221707,222873,231040,232373,243040,251040,252373,255040,265707,276373,288373,299707,307040,309707,320207
DistanceSpacing: 0.5
BeatDivisor: 4
GridSize: 32
TimelineZoom: 2.599999

[Metadata]
Title:JuDGMENT/SHADoW ~T06481T0~
TitleUnicode:JuDGMENT/SHΛDoW ~T06481T0~
Artist:No:R
ArtistUnicode:No:R
Creator:Lasse
Version:RESoLVE/PeTAL ~T89661T3~
Source:白刃きらめく恋しらべ
Tags:Shiraha Kirameku Koi Shirabe opening eroge visual novel japanese electronic full version めくらべ Mekurabe togabito crystalia nor alnear judgement
BeatmapID:2442646
BeatmapSetID:1170955

[Difficulty]
HPDrainRate:6
CircleSize:4.2
OverallDifficulty:8.7
ApproachRate:9.2
SliderMultiplier:2
SliderTickRate:1

[Events]
//Background and Video events
0,0,"a.jpg",0,0
//Break Periods
2,223073,230470
//Storyboard Layer 0 (Background)
//Storyboard Layer 1 (Fail)
//Storyboard Layer 2 (Pass)
//Storyboard Layer 3 (Foreground)
//Storyboard Layer 4 (Overlay)
//Storyboard Sound Samples

[TimingPoints]
-3959,333.333333333333,4,2,1,40,1,0
1235,-100,4,2,1,42,0,0
1374,-185.185185185185,4,2,3,46,0,0
1540,-185.185185185185,4,2,3,20,0,0
3874,-200,4,2,3,46,0,0
4124,-200,4,2,3,20,0,0
6707,-161.290322580645,4,2,3,50,0,0
6957,-161.290322580645,4,2,3,20,0,0
7040,-161.290322580645,4,2,1,50,0,0
9040,-200,4,2,3,50,0,0
9374,-133.333333333333,4,2,1,50,0,0
10708,333.333333333333,5,2,1,55,1,0
10708,-133.333333333333,5,2,1,55,0,0
12041,-133.333333333333,5,2,1,60,0,0
12374,333.333333333333,4,2,2,74,1,0
12374,-76.9230769230769,4,2,2,74,0,1
12707,-100,4,2,1,74,0,1
17707,-66.6666666666667,4,2,1,74,0,1
18040,-100,4,2,1,74,0,1
20373,-76.9230769230769,4,2,3,74,0,1
20707,-76.9230769230769,4,2,1,74,0,1
21373,-71.4285714285714,4,2,1,74,0,1
22373,-66.6666666666667,4,2,1,74,0,1
22623,-66.6666666666667,4,2,1,64,0,1
22707,-100,4,2,1,72,0,1
23040,-83.3333333333333,4,2,2,68,0,0
23373,-111.111111111111,4,2,1,68,0,0
31040,-83.3333333333333,4,2,3,68,0,0
31373,-83.3333333333333,4,2,1,68,0,0
32040,-76.9230769230769,4,2,1,68,0,0
33040,-71.4285714285714,4,2,1,68,0,0
33290,-71.4285714285714,4,2,1,58,0,0
33373,-111.111111111111,4,2,1,68,0,0
33707,-111.111111111111,4,2,1,40,0,0
34707,-249.999999999999,4,2,1,50,0,0
35040,-125,4,2,3,58,0,0
35207,-125,4,2,1,58,0,0
40373,-83.3333333333333,4,2,1,58,0,0
40707,-111.111111111111,4,2,1,58,0,0
44373,-83.3333333333333,4,2,1,60,0,0
44873,-76.9230769230769,4,2,1,62,0,0
45207,-71.4285714285714,4,2,1,64,0,0
45373,-71.4285714285714,4,2,1,60,0,0
45707,-100,4,2,2,65,0,0
45873,-100,4,2,1,65,0,0
46873,-200,4,2,1,65,0,0
47040,-200,4,2,1,30,0,0
48207,-200,4,2,1,50,0,0
48373,-100,4,2,1,65,0,0
49540,-133.333333333333,4,2,1,65,0,0
49873,-133.333333333333,4,2,1,50,0,0
50457,-133.333333333333,4,2,1,20,0,0
50540,-133.333333333333,4,2,1,50,0,0
51040,-100,4,2,2,65,0,0
51207,-100,4,2,1,65,0,0
52040,-200,4,2,1,65,0,0
52373,-200,4,2,1,30,0,0
53540,-200,4,2,1,50,0,0
53707,-100,4,2,1,65,0,0
54873,-133.333333333333,4,2,1,65,0,0
55123,-133.333333333333,4,2,1,30,0,0
55207,-156.25,4,2,1,50,0,0
55290,-156.25,4,2,1,30,0,0
56040,-156.25,4,2,1,40,0,0
56235,-156.25,4,2,1,44,0,0
56373,-188.679245283019,4,2,3,48,0,0
56485,-188.679245283019,4,2,3,24,0,0
58707,-188.679245283019,4,2,3,40,0,0
58873,-188.679245283019,4,2,3,48,0,0
59123,-188.679245283019,4,2,3,24,0,0
61540,-188.679245283019,4,2,3,40,0,0
61707,-200,4,2,3,46,0,0
61873,-200,4,2,1,20,0,0
62207,-200,4,2,1,28,0,0
62373,-200,4,2,1,46,0,0
62457,-200,4,2,1,20,0,0
62873,-200,4,2,1,30,0,0
63040,-200,4,2,1,48,0,0
64040,-133.333333333333,4,2,1,50,0,0
64373,-100,4,2,1,52,0,0
64707,-100,4,2,1,54,0,0
65040,-100,4,2,1,56,0,0
65373,-100,4,2,1,58,0,0
65540,-83.3333333333333,4,2,1,60,0,0
65707,-250,4,2,1,62,0,0
65873,-100,4,2,1,64,0,0
66207,-83.3333333333333,4,2,1,68,0,0
66540,-71.4285714285714,4,2,1,70,0,0
66873,-62.5,4,2,1,72,0,0
67707,-200,4,2,1,48,0,0
68040,-133.333333333333,4,2,1,50,0,0
68290,-133.333333333333,4,2,1,20,0,0
68373,-90.9090909090909,4,2,2,72,0,1
68540,-90.9090909090909,4,2,1,72,0,1
73707,-66.6666666666667,4,2,1,72,0,1
74040,-90.9090909090909,4,2,1,72,0,1
76373,-66.6666666666667,4,2,1,72,0,1
76707,-90.9090909090909,4,2,1,72,0,1
77540,-66.6666666666667,4,2,1,72,0,1
78540,-66.6666666666667,4,2,1,72,0,0
79040,-90.9090909090909,4,2,3,72,0,1
79207,-90.9090909090909,4,2,1,72,0,1
88373,-90.9090909090909,4,2,1,72,0,0
89707,-66.6666666666667,4,2,2,74,0,1
90040,-83.3333333333333,4,2,1,74,0,1
95040,-62.5,4,2,1,74,0,1
95373,-83.3333333333333,4,2,1,74,0,1
97707,-76.9230769230769,4,2,3,74,0,1
98040,-76.9230769230769,4,2,1,74,0,1
98707,-71.4285714285714,4,2,1,74,0,1
99707,-66.6666666666667,4,2,1,74,0,1
99957,-66.6666666666667,4,2,1,64,0,1
100040,-66.6666666666667,4,2,1,72,0,1
100207,-66.6666666666667,4,2,1,68,0,1
100373,-83.3333333333333,4,2,2,70,0,0
100540,-83.3333333333333,4,2,1,70,0,0
101540,-133.333333333333,4,2,1,70,0,0
101707,-133.333333333333,4,2,1,50,0,0
102707,-133.333333333333,4,2,3,54,0,0
103040,-83.3333333333333,4,2,1,70,0,0
104207,-133.333333333333,4,2,1,70,0,0
104373,-133.333333333333,4,2,1,50,0,0
105707,-83.3333333333333,4,2,2,70,0,0
105873,-83.3333333333333,4,2,1,70,0,0
106873,-133.333333333333,4,2,1,70,0,0
107040,-133.333333333333,4,2,1,50,0,0
108040,-133.333333333333,4,2,3,54,0,0
108373,-83.3333333333333,4,2,1,70,0,0
109540,-133.333333333333,4,2,1,70,0,0
109707,-133.333333333333,4,2,1,50,0,0
110707,-133.333333333333,4,2,1,62,0,0
111040,-142.857142857143,4,2,3,64,0,0
111207,-142.857142857143,4,2,1,60,0,0
116373,-133.333333333333,4,2,1,60,0,0
119040,-83.3333333333333,4,2,3,64,0,0
119373,-83.3333333333333,4,2,1,64,0,0
120040,-76.9230769230769,4,2,1,64,0,0
121040,-71.4285714285714,4,2,1,64,0,0
121290,-71.4285714285714,4,2,1,54,0,0
121373,-100,4,2,1,60,0,0
121457,-100,4,2,1,50,0,0
121540,-100,4,2,1,58,0,0
121623,-100,4,2,1,50,0,0
121707,-1000,4,2,3,58,0,0
121748,-200,4,2,1,20,0,0
122207,-200,4,2,1,20,0,0
122540,-200,4,2,1,20,0,0
123040,-125,4,2,3,58,0,0
123207,-125,4,2,1,58,0,0
128373,-83.3333333333333,4,2,1,58,0,0
128707,-111.111111111111,4,2,1,58,0,0
132373,-111.111111111111,4,2,1,60,0,0
132540,-83.3333333333333,4,2,1,60,0,0
132873,-76.9230769230769,4,2,1,62,0,0
133207,-71.4285714285714,4,2,1,64,0,0
133373,-71.4285714285714,4,2,1,60,0,0
133707,-100,4,2,2,65,0,0
133873,-100,4,2,1,65,0,0
134873,-200,4,2,1,65,0,0
135040,-200,4,2,1,30,0,0
136207,-200,4,2,1,50,0,0
136373,-100,4,2,1,65,0,0
137539,-133.333333333333,4,2,1,65,0,0
137873,-133.333333333333,4,2,1,50,0,0
138457,-133.333333333333,4,2,1,20,0,0
138540,-133.333333333333,4,2,1,50,0,0
139040,-100,4,2,2,65,0,0
139207,-100,4,2,1,65,0,0
140207,-200,4,2,1,65,0,0
140373,-200,4,2,1,30,0,0
141540,-200,4,2,1,50,0,0
141707,-100,4,2,1,65,0,0
142873,-133.333333333333,4,2,1,65,0,0
143123,-133.333333333333,4,2,1,30,0,0
143207,-142.857142857143,4,2,1,50,0,0
143290,-142.857142857143,4,2,1,30,0,0
144040,-142.857142857143,4,2,1,40,0,0
144235,-142.857142857143,4,2,1,44,0,0
144373,-188.679245283019,4,2,3,48,0,0
144485,-188.679245283019,4,2,3,24,0,0
146707,-188.679245283019,4,2,3,40,0,0
146873,-188.679245283019,4,2,3,48,0,0
147123,-188.679245283019,4,2,3,24,0,0
149540,-188.679245283019,4,2,3,40,0,0
149707,-200,4,2,3,46,0,0
149873,-200,4,2,1,20,0,0
150207,-200,4,2,1,28,0,0
150373,-200,4,2,1,46,0,0
150457,-200,4,2,1,20,0,0
150873,-200,4,2,1,30,0,0
151040,-200,4,2,1,48,0,0
152040,-133.333333333333,4,2,1,50,0,0
152373,-100,4,2,1,52,0,0
152707,-100,4,2,1,54,0,0
153040,-100,4,2,1,56,0,0
153373,-100,4,2,1,58,0,0
153540,-83.3333333333333,4,2,1,60,0,0
153707,-83.3333333333333,4,2,1,62,0,0
153873,-83.3333333333333,4,2,1,64,0,0
154207,-71.4285714285714,4,2,1,68,0,0
154540,-62.5,4,2,1,70,0,0
154873,-55.5555555555556,4,2,1,72,0,0
155707,-200,4,2,1,48,0,0
156040,-133.333333333333,4,2,1,50,0,0
156290,-133.333333333333,4,2,1,20,0,0
156373,-90.9090909090909,4,2,2,72,0,1
156540,-90.9090909090909,4,2,1,72,0,1
161707,-66.6666666666667,4,2,1,72,0,1
162040,-90.9090909090909,4,2,1,72,0,1
164373,-62.5,4,2,1,72,0,1
164707,-90.9090909090909,4,2,1,72,0,1
165540,-66.6666666666667,4,2,1,72,0,1
166540,-66.6666666666667,4,2,1,72,0,0
167040,-90.9090909090909,4,2,3,72,0,1
167207,-90.9090909090909,4,2,1,72,0,1
176373,-90.9090909090909,4,2,1,72,0,0
177707,-66.6666666666667,4,2,2,74,0,1
178040,-83.3333333333333,4,2,1,74,0,1
183040,-62.5,4,2,1,74,0,1
183373,-83.3333333333333,4,2,1,74,0,1
185707,-76.9230769230769,4,2,3,74,0,1
186040,-76.9230769230769,4,2,1,74,0,1
186707,-71.4285714285714,4,2,1,74,0,1
187707,-66.6666666666667,4,2,1,74,0,1
187957,-66.6666666666667,4,2,1,64,0,1
188040,-66.6666666666667,4,2,1,72,0,1
188207,-66.6666666666667,4,2,1,68,0,1
188373,-83.3333333333333,4,2,2,70,0,0
188540,-83.3333333333333,4,2,1,70,0,0
189540,-133.333333333333,4,2,1,70,0,0
189707,-133.333333333333,4,2,1,50,0,0
190707,-133.333333333333,4,2,3,54,0,0
191040,-83.3333333333333,4,2,1,70,0,0
192207,-133.333333333333,4,2,1,70,0,0
192373,-133.333333333333,4,2,1,50,0,0
193707,-83.3333333333333,4,2,2,70,0,0
193873,-83.3333333333333,4,2,1,70,0,0
194873,-133.333333333333,4,2,1,70,0,0
195040,-133.333333333333,4,2,1,50,0,0
196040,-133.333333333333,4,2,3,54,0,0
196373,-83.3333333333333,4,2,1,70,0,0
197540,-133.333333333333,4,2,1,70,0,0
197707,-133.333333333333,4,2,1,50,0,0
198707,-133.333333333333,4,2,1,62,0,0
199040,-133.333333333333,4,2,1,48,0,0
200373,-83.3333333333333,4,2,2,72,0,0
200540,-83.3333333333333,4,2,1,72,0,0
202873,-66.6666666666667,4,2,1,72,0,0
203207,-83.3333333333333,4,2,1,72,0,0
208373,-66.6666666666667,4,2,1,72,0,0
208707,-83.3333333333333,4,2,1,72,0,0
211040,-83.3333333333333,4,2,3,72,0,0
211207,-83.3333333333333,4,2,1,72,0,0
213540,-66.6666666666667,4,2,1,72,0,0
213873,-83.3333333333333,4,2,1,72,0,0
219040,-71.4285714285714,4,2,1,72,0,0
221540,-83.3333333333333,4,2,1,72,0,0
221707,-153.846153846154,4,2,3,54,0,0
221873,-153.846153846154,4,2,3,20,0,0
222873,-153.846153846154,4,2,2,28,0,0
231040,-153.846153846154,4,2,1,50,0,0
231623,-153.846153846154,4,2,1,55,0,0
232040,-153.846153846154,4,2,1,60,0,0
232373,-100,4,2,2,65,0,0
232540,-100,4,2,1,65,0,0
233540,-200,4,2,1,65,0,0
233707,-200,4,2,1,30,0,0
234873,-200,4,2,1,50,0,0
235040,-100,4,2,1,65,0,0
236207,-133.333333333333,4,2,1,65,0,0
236540,-133.333333333333,4,2,1,50,0,0
237123,-133.333333333333,4,2,1,20,0,0
237207,-133.333333333333,4,2,1,50,0,0
237707,-100,4,2,2,65,0,0
237873,-100,4,2,1,65,0,0
238873,-200,4,2,1,65,0,0
239040,-200,4,2,1,30,0,0
240207,-200,4,2,1,50,0,0
240373,-100,4,2,1,65,0,0
241540,-133.333333333333,4,2,1,65,0,0
241790,-133.333333333333,4,2,1,30,0,0
241873,-142.857142857143,4,2,1,50,0,0
241957,-142.857142857143,4,2,1,30,0,0
242707,-142.857142857143,4,2,1,40,0,0
242901,-142.857142857143,4,2,1,44,0,0
243040,-188.679245283019,4,2,3,48,0,0
243152,-188.679245283019,4,2,3,24,0,0
245373,-188.679245283019,4,2,3,40,0,0
245540,-188.679245283019,4,2,3,48,0,0
245790,-188.679245283019,4,2,3,24,0,0
248207,-188.679245283019,4,2,3,40,0,0
248373,-200,4,2,3,46,0,0
248540,-200,4,2,1,20,0,0
248873,-200,4,2,1,28,0,0
249040,-200,4,2,1,46,0,0
249123,-200,4,2,1,20,0,0
249540,-200,4,2,1,30,0,0
249707,-200,4,2,1,48,0,0
250707,-133.333333333333,4,2,1,50,0,0
251040,-100,4,2,1,52,0,0
251373,-100,4,2,1,54,0,0
251707,-100,4,2,1,56,0,0
252040,-100,4,2,1,58,0,0
252207,-83.3333333333333,4,2,1,60,0,0
252373,-76.9230769230769,4,2,1,62,0,0
252540,-76.9230769230769,4,2,1,64,0,0
252873,-66.6666666666667,4,2,1,68,0,0
253207,-58.8235294117647,4,2,1,70,0,0
253540,-52.6315789473684,4,2,1,72,0,0
254373,-200,4,2,1,48,0,0
254707,-133.333333333333,4,2,1,50,0,0
254957,-133.333333333333,4,2,1,20,0,0
255040,-90.9090909090909,4,2,2,72,0,1
255207,-90.9090909090909,4,2,1,72,0,1
260373,-66.6666666666667,4,2,1,72,0,1
260707,-90.9090909090909,4,2,1,72,0,1
263040,-62.5,4,2,1,72,0,1
263373,-90.9090909090909,4,2,1,72,0,1
264207,-66.6666666666667,4,2,1,72,0,1
265207,-66.6666666666667,4,2,1,72,0,0
265707,-90.9090909090909,4,2,3,72,0,1
265873,-90.9090909090909,4,2,1,72,0,1
275040,-90.9090909090909,4,2,1,72,0,0
276373,-66.6666666666667,4,2,2,74,0,1
276707,-83.3333333333333,4,2,1,74,0,1
281707,-62.5,4,2,1,74,0,1
282040,-83.3333333333333,4,2,1,74,0,1
284373,-76.9230769230769,4,2,3,74,0,1
284707,-76.9230769230769,4,2,1,74,0,1
285373,-71.4285714285714,4,2,1,74,0,1
286373,-66.6666666666667,4,2,1,74,0,1
286624,-66.6666666666667,4,2,1,64,0,1
286707,-66.6666666666667,4,2,1,72,0,1
286874,-66.6666666666667,4,2,1,68,0,1
287040,-117.647058823529,4,2,3,50,0,0
287207,-117.647058823529,4,2,3,20,0,0
288207,-117.647058823529,4,2,3,30,0,0
288373,-83.3333333333333,4,2,2,72,0,0
288540,-83.3333333333333,4,2,1,72,0,0
290873,-66.6666666666667,4,2,1,72,0,0
291207,-83.3333333333333,4,2,1,72,0,0
296373,-66.6666666666667,4,2,1,72,0,0
297040,-83.3333333333333,4,2,1,72,0,0
299040,-83.3333333333333,4,2,1,68,0,0
299373,-83.3333333333333,4,2,1,66,0,0
299707,-71.4285714285714,4,2,3,72,0,0
300040,-71.4285714285714,4,2,1,72,0,0
300207,-83.3333333333333,4,2,1,72,0,0
301540,-66.6666666666667,4,2,1,72,0,0
301873,-83.3333333333333,4,2,1,72,0,0
307040,-71.4285714285714,4,2,1,74,0,0
308373,-66.6666666666667,4,2,1,74,0,0
309540,-66.6666666666667,4,2,1,72,0,0
309707,-83.3333333333333,4,2,2,70,0,0
309873,-83.3333333333333,4,2,1,70,0,0
310707,-133.333333333333,4,2,1,70,0,0
311040,-133.333333333333,4,2,1,50,0,0
312040,-133.333333333333,4,2,3,54,0,0
312373,-83.3333333333333,4,2,1,70,0,0
313373,-133.333333333333,4,2,1,70,0,0
313707,-133.333333333333,4,2,1,50,0,0
315040,-83.3333333333333,4,2,2,70,0,0
315207,-83.3333333333333,4,2,1,70,0,0
316040,-133.333333333333,4,2,1,70,0,0
316373,-133.333333333333,4,2,1,50,0,0
317373,-133.333333333333,4,2,3,54,0,0
317707,-83.3333333333333,4,2,1,70,0,0
318707,-133.333333333333,4,2,1,70,0,0
319040,-133.333333333333,4,2,1,50,0,0
320040,-133.333333333333,4,2,1,62,0,0

[Colours]
Combo1 : 250,180,240
Combo2 : 120,200,230
Combo3 : 255,230,130
Combo4 : 160,230,150

[HitObjects]
322,25,1235,5,2,0:0:0:0:
325,28,1374,2,0,B|378:20|413:38|437:86|439:123|439:123|424:176|377:192|377:192|388:141|439:123|439:123|474:115|501:134|501:134|521:154|488:246|410:286|346:265|346:265|362:309|336:351,1,756.000018457032,6|0,0:1|0:0,0:0:0:0:
272,303,3874,5,8,0:0:0:0:
272,303,3957,1,8,0:0:0:0:
272,303,4040,2,0,B|183:250|98:287|46:383|46:383|75:320|38:269|38:269|-6:215|42:151|42:151|93:87|87:14|-37:1|-31:101|50:103,1,750,4|0,0:0|0:0,0:0:0:0:
155,66,6707,6,0,B|228:73|228:73|200:52,1,92.999996310425,6|0,0:1|0:0,0:0:0:0:
212,61,7040,2,0,P|202:94|211:135,1,61.9999975402833,2|0,0:0|0:0,0:0:0:0:
298,236,7374,2,0,P|308:203|299:162,1,61.9999975402833,2|0,0:0|0:0,0:0:0:0:
193,303,7707,5,2,0:0:0:0:
287,355,7874,2,0,P|354:366|420:329,1,123.999995080567,2|0,0:0|0:0,0:0:0:0:
512,270,8374,2,0,L|424:261,1,61.9999975402833,2|0,0:0|0:0,0:0:0:0:
355,185,8707,1,2,0:0:0:0:
347,81,8874,1,2,0:0:0:0:
438,0,9040,5,8,0:0:0:0:
438,0,9207,1,8,0:0:0:0:
512,140,9374,6,0,P|476:127|439:127,1,75.0000028610231,2|0,0:0|0:0,0:0:0:0:
307,241,9707,2,0,P|335:216|354:184,1,75.0000028610231,2|0,0:0|0:0,0:0:0:0:
322,12,10040,2,0,P|328:48|347:81,1,75.0000028610231,2|0,0:0|0:0,0:0:0:0:
379,130,10374,5,2,0:0:0:0:
379,130,10540,2,0,L|216:110,1,150.000005722046,2|0,0:0|0:0,0:0:0:0:
131,71,11041,2,0,P|141:35|134:-3,1,75.0000028610231,2|0,0:0|0:0,0:0:0:0:
35,114,11374,5,8,0:0:0:0:
15,136,11458,1,8,0:0:0:0:
9,165,11541,1,8,0:0:0:0:
14,194,11624,1,8,0:0:0:0:
33,216,11707,1,8,0:1:0:0:
157,155,11874,1,8,0:1:0:0:
234,270,12041,5,8,0:0:0:0:
260,295,12124,1,8,0:0:0:0:
297,302,12207,1,8,0:0:0:0:
331,288,12291,1,8,0:0:0:0:
410,253,12374,6,0,B|371:230|315:249|315:249|345:153,1,194.999991073609,14|0,0:1|0:0,0:0:0:0:
408,109,12707,2,0,P|454:125|504:115,1,100,10|0,0:0|0:0,0:0:0:0:
308,29,13040,2,0,P|259:19|212:35,1,100,2|8,0:0|0:1,0:0:0:0:
15,98,13373,5,10,0:0:0:0:
95,26,13540,1,2,0:0:0:0:
95,26,13623,1,2,0:0:0:0:
95,26,13707,2,0,L|112:138,1,100,8|0,0:1|0:0,0:0:0:0:
198,298,14040,2,0,P|119:228|20:278,1,200,10|0,0:0|0:0,0:0:0:0:
245,202,14540,5,8,0:1:0:0:
105,321,14707,1,8,0:0:0:0:
279,383,14873,1,8,0:0:0:0:
304,299,15040,6,0,B|331:271|331:271|213:296,1,150,10|0,0:1|0:0,0:0:0:0:
198,298,15373,1,10,0:0:0:0:
244,166,15540,1,2,0:0:0:0:
377,207,15707,2,0,P|405:246|394:320,1,100,2|8,0:0|0:1,0:0:0:0:
244,166,16040,5,10,0:0:0:0:
356,101,16207,1,2,0:0:0:0:
356,101,16290,1,2,0:0:0:0:
356,101,16373,2,0,P|372:56|343:-12,1,100,8|0,0:1|0:0,0:0:0:0:
244,166,16707,2,0,P|195:165|155:137,1,100,10|0,0:0|0:0,0:0:0:0:
103,84,16957,1,10,0:0:0:0:
103,84,17040,1,8,0:0:0:0:
166,242,17207,5,10,0:1:0:0:
264,80,17373,1,8,0:0:0:0:
379,231,17540,1,8,0:0:0:0:
486,118,17707,6,0,B|498:156|489:187|489:187|449:134|474:36,1,225.000008583069,14|0,0:1|0:0,0:0:0:0:
485,24,18040,2,0,P|500:71|486:119,1,100,10|0,0:0|0:0,0:0:0:0:
379,231,18373,5,2,0:0:0:0:
510,322,18540,1,8,0:1:0:0:
361,383,18707,1,8,0:0:0:0:
230,292,18873,5,2,0:0:0:0:
230,292,18957,1,2,0:0:0:0:
230,292,19040,1,8,0:1:0:0:
288,349,19207,2,0,P|309:307|302:251,1,100,2|8,0:0|0:0,0:0:0:0:
190,214,19540,1,10,0:1:0:0:
190,214,19623,2,0,P|143:270|158:342,1,150,8|8,0:0|0:1,0:0:0:0:
303,255,20040,5,8,0:0:0:0:
303,255,20207,1,8,0:0:0:0:
230,291,20373,6,0,P|120:266|142:140,1,259.999988098145,14|0,0:1|0:0,0:0:0:0:
323,242,20873,6,0,P|433:216|411:90,1,259.999988098145,14|0,0:1|0:0,0:0:0:0:
190,214,21373,6,0,P|74:211|79:76,1,279.999991455078,14|0,0:1|0:0,0:0:0:0:
363,165,21873,6,0,P|479:162|474:27,1,279.999991455078,14|0,0:1|0:0,0:0:0:0:
211,3,22373,6,0,B|186:81|186:81|215:141|215:141|190:214,1,225.000008583069,10|0,0:1|0:0,0:0:0:0:
180,232,22707,6,0,L|122:238,1,50,10|0,0:1|0:0,0:0:0:0:
53,210,22873,6,0,P|46:185|46:160,1,50,2|0,0:0|0:0,0:0:0:0:
87,76,23040,6,0,B|231:42|192:137|341:91,1,239.999992675781,14|8,0:1|0:0,0:0:0:0:
319,97,23540,1,0,0:0:0:0:
276,219,23707,2,0,P|314:196|357:187,1,89.9999972534181,2|8,0:0|0:1,0:0:0:0:
512,259,24040,1,8,0:0:0:0:
368,384,24207,5,2,0:0:0:0:
368,384,24290,1,2,0:0:0:0:
368,384,24373,2,0,L|355:282,1,89.9999972534181,10|0,0:1|0:0,0:0:0:0:
492,168,24707,2,0,L|503:78,1,89.9999972534181,10|0,0:0|0:0,0:0:0:0:
344,2,25040,5,2,0:0:0:0:
307,143,25207,1,8,0:1:0:0:
275,57,25373,5,10,0:0:0:0:
389,196,25540,1,8,0:0:0:0:
259,307,25707,6,0,P|273:264|270:220,1,89.9999972534181,10|0,0:1|0:0,0:0:0:0:
174,250,26040,2,0,P|126:244|81:254,1,89.9999972534181,10|0,0:0|0:0,0:0:0:0:
363,291,26373,2,0,P|411:297|456:287,1,89.9999972534181,2|8,0:0|0:1,0:0:0:0:
270,220,26707,1,8,0:0:0:0:
398,147,26873,5,2,0:0:0:0:
398,147,26957,1,2,0:0:0:0:
398,147,27040,2,0,L|405:52,1,89.9999972534181,10|0,0:1|0:0,0:0:0:0:
164,95,27373,2,0,L|157:5,1,89.9999972534181,10|0,0:0|0:0,0:0:0:0:
83,37,27623,5,10,0:0:0:0:
83,37,27707,1,8,0:0:0:0:
243,97,27873,1,8,0:1:0:0:
60,116,28040,5,10,0:0:0:0:
262,20,28207,1,8,0:0:0:0:
325,141,28373,6,0,P|314:185|320:229,1,89.9999972534181,14|0,0:1|0:0,0:0:0:0:
508,353,28707,2,0,P|518:309|512:265,1,89.9999972534181,10|0,0:0|0:0,0:0:0:0:
325,142,29040,1,2,0:0:0:0:
248,182,29207,1,8,0:1:0:0:
248,182,29290,1,8,0:1:0:0:
248,182,29373,2,0,P|237:225|243:269,1,89.9999972534181,10|0,0:0|0:0,0:0:0:0:
410,100,29707,6,0,P|421:57|415:13,1,89.9999972534181,10|0,0:1|0:0,0:0:0:0:
248,182,30040,1,10,0:0:0:0:
248,182,30207,1,0,0:0:0:0:
346,230,30373,5,2,0:0:0:0:
306,88,30540,1,8,0:1:0:0:
200,100,30707,5,10,0:0:0:0:
431,188,30873,1,8,0:0:0:0:
350,365,31040,6,0,B|321:319|343:268|364:288|391:226|371:190|329:179|291:221|301:253|335:262,1,239.999992675781,14|0,0:1|0:0,0:0:0:0:
116,60,31540,6,0,B|144:106|122:157|101:137|74:199|94:235|136:246|174:204|164:172|130:163,1,239.999992675781,14|0,0:1|0:0,0:0:0:0:
411,295,32040,6,0,B|380:245|403:190|426:212|455:144|434:106|389:94|348:139|358:174|395:183,1,259.999988098145,14|0,0:1|0:0,0:0:0:0:
53,119,32540,6,0,B|83:169|60:224|37:202|8:270|29:308|74:320|115:275|105:240|68:231,1,259.999988098145,14|0,0:1|0:0,0:0:0:0:
471,194,33040,6,0,B|446:155|465:111|483:129|505:76|489:46|453:37|421:72|429:99|458:106,1,209.999993591309,10|0,0:1|0:0,0:0:0:0:
467,121,33373,6,0,B|479:158|466:190|451:175|432:220|446:246|476:254|504:224|497:200|472:194,1,179.999994506836,10|2,0:1|0:0,0:0:0:0:
74,87,34707,2,2,L|57:83,6,10,0|0|0|0|0|0|0,0:0|0:0|0:0|0:0|0:0|0:0|0:0,0:1:0:0:
74,87,35040,6,0,P|69:47|82:10,1,80,14|0,0:1|0:0,0:0:0:0:
254,72,35373,2,0,B|198:80|160:34|160:34|137:53|149:82,1,160,10|0,0:0|0:0,0:0:0:0:
149,82,35873,1,8,0:1:0:0:
30,171,36040,5,10,0:0:0:0:
30,171,36207,1,0,0:0:0:0:
72,247,36373,5,10,0:1:0:0:
138,299,36540,2,0,P|153:262|151:223,1,80,2|8,0:0|0:0,0:0:0:0:
30,171,36873,2,0,P|-11:236|13:310,1,160,2|8,0:0|0:1,0:0:0:0:
151,223,37373,5,8,0:0:0:0:
168,384,37540,1,8,0:0:0:0:
306,330,37707,6,0,P|292:293|299:255,1,80,10|0,0:1|0:0,0:0:0:0:
427,213,38040,2,0,P|462:281|431:352,1,160,8|0,0:0|0:0,0:0:0:0:
378,285,38540,1,8,0:1:0:0:
507,178,38707,1,8,0:0:0:0:
359,139,38873,5,2,0:0:0:0:
359,139,39040,2,0,L|463:128,1,80,8|0,0:1|0:0,0:0:0:0:
285,76,39373,2,0,P|289:37|270:-2,1,80,10|0,0:0|0:0,0:0:0:0:
189,21,39623,5,10,0:0:0:0:
189,21,39707,1,8,0:0:0:0:
285,76,39873,1,8,0:1:0:0:
151,204,40040,5,10,0:0:0:0:
205,100,40207,1,8,0:0:0:0:
306,250,40373,6,2,B|352:216|405:240|405:240|411:233|411:233|428:262|464:275,1,179.999994506836,14|0,0:1|0:0,0:1:0:0:
487,197,40707,6,0,P|502:166|482:94,1,89.9999972534181,10|0,0:0|0:0,0:0:0:0:
393,208,41040,1,2,0:0:0:0:
463,294,41207,1,8,0:1:0:0:
384,384,41373,1,10,0:0:0:0:
94,280,41707,5,10,0:1:0:0:
151,330,41873,2,0,L|271:320,1,89.9999972534181,2|8,0:0|0:0,0:0:0:0:
393,208,42207,2,0,L|273:198,1,89.9999972534181,2|0,0:0|0:0,0:0:0:0:
196,89,42540,1,10,0:1:0:0:
281,46,42707,5,8,0:0:0:0:
216,229,42873,1,8,0:0:0:0:
119,127,43040,6,0,P|110:84|124:42,1,89.9999972534181,10|0,0:1|0:0,0:0:0:0:
303,200,43373,2,0,P|345:213|375:246,1,89.9999972534181,10|0,0:0|0:0,0:0:0:0:
147,322,43707,2,0,P|115:351|71:361,1,89.9999972534181,2|8,0:0|0:1,0:0:0:0:
190,216,44040,5,10,0:0:0:0:
190,216,44207,1,8,0:0:0:0:
343,367,44373,5,14,0:3:0:0:
414,337,44540,2,0,B|432:304|432:304|404:274|414:226,1,119.999996337891,8|0,0:3|0:0,0:0:0:0:
104,253,44873,6,0,B|85:226|85:226|114:190|98:127,1,129.999994049073,10|0,0:3|0:0,0:0:0:0:
490,250,45207,6,0,B|509:223|509:223|472:187|491:117,1,139.999995727539,10|0,0:3|0:0,0:0:0:0:
428,0,45540,5,8,0:1:0:0:
364,48,45707,2,0,L|216:38,1,100,14|0,0:3|0:0,0:0:0:0:
0,140,46040,2,0,L|99:133,1,100,10|0,0:3|0:0,0:0:0:0:
360,236,46373,2,0,L|212:226,1,100,10|0,0:3|0:0,0:0:0:0:
96,299,46707,5,10,0:3:0:0:
96,299,46873,2,0,P|248:252|439:383,1,400,10|0,0:3|0:0,0:0:0:0:
505,298,48373,6,0,L|513:197,1,100,10|0,0:3|0:0,0:0:0:0:
256,224,48707,2,0,L|256:96,1,100,10|0,0:3|0:0,0:0:0:0:
7,298,49040,2,0,L|-1:197,1,100,10|0,0:3|0:0,0:0:0:0:
39,44,49373,5,10,0:3:0:0:
39,44,49540,2,0,B|110:68|110:68|176:32,1,150.000005722046,10|0,0:3|0:0,0:0:0:0:
358,114,50207,2,0,P|295:101|245:137,1,112.500004291535
255,123,50540,2,0,L|246:207,1,75.0000028610231
11,134,51040,6,0,P|16:86|49:46,1,100,14|0,0:3|0:0,0:0:0:0:
116,281,51373,2,0,P|146:318|151:370,1,100,10|0,0:3|0:0,0:0:0:0:
202,111,51707,2,0,P|239:80|291:75,1,100,10|0,0:3|0:0,0:0:0:0:
507,150,52040,5,10,0:3:0:0:
507,150,52207,2,0,B|441:177|383:120|383:120|442:179|465:276|396:358,1,400,10|0,0:3|0:0,0:0:0:0:
235,384,53707,6,0,B|240:346|240:346|237:332|237:332|244:286,1,100,10|0,0:3|0:0,0:0:0:0:
462,251,54040,2,0,B|457:213|457:213|460:199|460:199|453:153,1,100,10|0,0:3|0:0,0:0:0:0:
117,216,54373,2,0,B|122:178|122:178|119:164|119:164|126:118,1,100,10|0,0:3|0:0,0:0:0:0:
244,18,54707,5,10,0:3:0:0:
294,75,54873,2,0,B|314:100|347:96|347:96|322:86|310:57,1,112.500004291535,10|0,0:3|0:0,0:0:0:0:
244,18,55207,6,0,B|202:63|220:116|246:138|246:138|211:104|167:96|125:116|125:116|146:134|179:119,1,320,2|0,0:0|0:0,0:0:0:0:
58,213,56235,5,2,0:0:0:0:
61,216,56373,2,0,B|-36:288|66:409|153:343|153:343|203:305|247:325|266:351|266:351|189:260|249:171|322:156|322:156|342:228|299:269,1,742.000001132202,10|0,0:3|0:3,0:3:0:0:
206,301,58873,5,8,0:0:0:0:
206,301,58957,1,8,0:0:0:0:
206,301,59040,2,0,B|150:261|154:205|183:159|183:159|219:92|233:25|63:-46|29:133|96:223|257:183|304:118|325:70|325:70|320:159|417:194,1,795.000001213074,8|0,0:0|0:0,0:0:0:0:
409,191,61707,6,0,B|426:224|420:248|399:267|399:267|414:230|397:201,1,150,4|0,0:0|0:0,0:0:0:0:
329,236,62373,6,0,P|268:195|186:219,1,150,2|0,0:0|0:0,0:0:0:0:
197,210,63040,2,0,P|225:217|276:169,1,100,2|0,0:0|0:0,0:0:0:0:
189,8,63707,6,0,L|182:71,1,50,2|0,0:0|0:0,0:0:0:0:
96,181,64040,6,0,L|105:267,1,75.0000028610231,10|0,0:1|0:0,0:0:0:0:
174,370,64373,5,10,0:1:0:0:
184,359,64457,1,2,0:0:0:0:
197,352,64540,1,2,0:0:0:0:
211,349,64623,1,2,0:0:0:0:
278,311,64707,5,10,0:0:0:0:
297,325,64790,1,2,0:0:0:0:
321,328,64873,1,2,0:0:0:0:
345,323,64957,1,10,0:0:0:0:
431,327,65040,5,10,0:0:0:0:
413,296,65123,1,2,0:0:0:0:
418,261,65207,1,10,0:1:0:0:
443,236,65290,1,2,0:0:0:0:
475,224,65373,6,0,P|489:243|495:277,1,50,10|2,0:0|0:0,0:0:0:0:
370,75,65540,6,0,P|375:50|395:23,1,59.9999981689454,10|2,0:0|0:0,0:0:0:0:
184,153,65707,5,14,0:1:0:0:
277,168,65873,6,0,B|251:179|231:161|231:161|209:141|184:154,1,100,10|0,0:1|0:0,0:0:0:0:
175,165,66207,6,0,B|203:148|228:171|228:171|254:193|284:179,1,119.999996337891,10|0,0:1|0:0,0:0:0:0:
294,195,66540,6,0,B|257:210|229:185|229:185|199:158|164:176,1,139.999995727539,10|0,0:1|0:0,0:0:0:0:
154,188,66873,6,0,B|193:168|226:197|226:197|259:226|300:208,1,160,10|0,0:1|0:0,0:0:0:0:
480,34,67707,2,0,L|491:21,6,12.5,0|0|0|0|0|0|0,0:0|0:0|0:0|0:0|0:0|0:0|0:0,0:1:0:0:
488,24,68040,6,0,P|516:69|493:134,1,112.500004291535
435,194,68373,5,14,0:1:0:0:
288,45,68540,1,8,0:0:0:0:
415,213,68707,5,10,0:1:0:0:
374,2,68873,1,8,0:0:0:0:
406,238,69040,5,10,0:1:0:0:
222,115,69207,1,8,0:1:0:0:
204,384,69373,1,8,0:0:0:0:
293,308,69540,6,0,P|321:241|289:150,1,165.000005035401,10|0,0:1|0:0,0:0:0:0:
222,115,69873,2,0,B|213:144|184:151|184:151|179:118|214:104,1,110.000003356934,10|8,0:1|0:0,0:0:0:0:
395,13,70207,5,8,0:1:0:0:
424,26,70290,1,8,0:1:0:0:
454,37,70373,1,8,0:1:0:0:
485,26,70457,1,8,0:1:0:0:
511,6,70540,1,8,0:1:0:0:
294,156,70707,5,10,0:0:0:0:
512,252,70873,1,12,0:1:0:0:
364,384,71040,6,0,P|349:331|362:279,1,110.000003356934,2|8,0:1|0:1,0:0:0:0:
454,37,71373,2,0,P|468:89|455:141,1,110.000003356934,10|8,0:0|0:1,0:0:0:0:
224,236,71707,5,2,0:0:0:0:
224,236,71873,2,0,P|178:211|116:236,1,110.000003356934,8|8,0:1|0:0,0:0:0:0:
397,97,72207,1,2,0:0:0:0:
397,97,72373,2,0,P|450:98|489:62,1,110.000003356934,8|0,0:1|0:0,0:0:0:0:
182,196,72707,2,0,P|128:194|89:230,1,110.000003356934,8|0,0:0|0:0,0:0:0:0:
55,305,72957,5,10,0:0:0:0:
55,305,73040,1,8,0:0:0:0:
23,161,73207,1,8,0:1:0:0:
138,348,73373,5,8,0:0:0:0:
205,107,73540,1,8,0:0:0:0:
322,344,73707,6,0,B|391:311|449:369|449:369|508:343|484:289,1,225.000008583069,14|0,0:1|0:0,0:0:0:0:
463,231,74040,2,0,P|452:193|474:121,1,110.000003356934,10|0,0:0|0:0,0:0:0:0:
267,46,74373,1,2,0:0:0:0:
362,0,74540,2,0,P|373:38|351:110,1,110.000003356934,8|8,0:1|0:0,0:0:0:0:
228,176,74873,5,2,0:0:0:0:
228,176,74957,1,2,0:0:0:0:
228,176,75040,2,0,B|174:144|174:144|110:172|110:172|163:188,1,165.000005035401,10|0,0:1|0:0,0:0:0:0:
156,194,75373,2,0,P|189:140|84:42,1,220.000006713867,8|0,0:0|0:0,0:0:0:0:
16,50,75873,5,8,0:1:0:0:
228,176,76040,1,10,0:0:0:0:
9,289,76207,1,8,0:0:0:0:
251,167,76373,6,0,B|313:153|358:193|358:193|358:133|409:101,1,225.000008583069,14|0,0:1|0:0,0:0:0:0:
448,164,76707,2,0,B|429:187|441:221|441:221|465:209|456:178,1,110.000003356934,10|0,0:0|0:0,0:0:0:0:
353,16,77040,5,2,0:0:0:0:
283,246,77207,1,8,0:1:0:0:
150,46,77373,1,8,0:0:0:0:
26,142,77540,5,10,0:1:0:0:
26,142,77623,1,2,0:1:0:0:
26,142,77707,1,2,0:0:0:0:
340,128,77873,1,10,0:1:0:0:
119,361,78040,6,8,B|133:307|133:307|127:276|127:276|146:203,1,150.000005722046,8|0,0:0|0:0,0:0:0:0:
165,143,78290,1,10,0:0:0:0:
165,143,78373,1,8,0:0:0:0:
209,277,78540,5,10,0:1:0:0:
26,142,78707,1,8,0:0:0:0:
231,33,78873,1,8,0:0:0:0:
414,201,79040,5,14,0:1:0:0:
165,143,79207,1,8,0:0:0:0:
326,294,79373,5,10,0:1:0:0:
252,49,79540,1,8,0:0:0:0:
202,265,79707,5,10,0:1:0:0:
376,78,79873,1,8,0:1:0:0:
252,49,80040,1,8,0:0:0:0:
418,212,80207,6,0,B|465:213|465:213|354:171,1,165.000005035401,10|0,0:1|0:0,0:0:0:0:
296,116,80540,2,0,B|271:142|272:177|272:177|269:149|256:137,1,110.000003356934,10|8,0:1|0:0,0:0:0:0:
87,0,80873,5,8,0:1:0:0:
97,31,80957,1,8,0:1:0:0:
114,58,81040,1,8,0:1:0:0:
92,82,81123,1,8,0:1:0:0:
80,113,81207,1,8,0:1:0:0:
243,214,81373,5,10,0:0:0:0:
0,294,81540,1,12,0:1:0:0:
143,384,81707,6,0,B|150:351|150:351|136:316|136:316|143:276,1,110.000003356934,2|8,0:0|0:1,0:0:0:0:
348,119,82040,2,0,B|354:157|354:157|341:193|341:193|348:225,1,110.000003356934,10|8,0:0|0:1,0:0:0:0:
124,42,82373,5,2,0:0:0:0:
124,42,82540,2,0,B|105:60|105:60|188:47,1,110.000003356934,8|8,0:1|0:0,0:0:0:0:
349,226,82873,1,2,0:0:0:0:
451,168,83040,2,0,B|469:149|469:149|386:162,1,110.000003356934,8|0,0:1|0:0,0:0:0:0:
117,320,83373,2,0,B|98:301|98:301|181:314,1,110.000003356934,8|0,0:0|0:0,0:0:0:0:
239,371,83623,5,10,0:0:0:0:
239,371,83707,1,8,0:0:0:0:
273,184,83873,1,8,0:1:0:0:
489,278,84040,5,8,0:0:0:0:
377,37,84207,1,8,0:0:0:0:
251,190,84373,5,14,0:0:0:0:
470,172,84540,1,8,0:1:0:0:
512,92,84707,1,8,0:1:0:0:
228,195,84873,5,10,0:0:0:0:
445,266,85040,1,8,0:1:0:0:
482,190,85207,1,8,0:1:0:0:
206,199,85373,5,10,0:0:0:0:
378,342,85540,1,8,0:1:0:0:
331,114,85707,5,10,0:0:0:0:
204,381,85873,1,8,0:1:0:0:
121,331,86040,1,8,0:1:0:0:
212,79,86207,5,10,0:0:0:0:
367,322,86373,1,8,0:1:0:0:
299,28,86540,5,10,0:1:0:0:
105,315,86707,1,8,0:0:0:0:
219,86,86873,5,8,0:0:0:0:
219,86,86957,1,8,0:0:0:0:
219,86,87040,1,14,0:1:0:0:
365,213,87207,6,0,P|408:204|458:132,1,110.000003356934,14|0,0:1|0:0,0:0:0:0:
219,87,87540,2,0,P|190:54|103:47,1,110.000003356934,14|0,0:1|0:0,0:0:0:0:
183,275,87873,2,0,P|169:317|206:396,1,110.000003356934,14|0,0:1|0:0,0:0:0:0:
256,192,88207,5,10,0:1:0:0:
293,301,88373,5,14,0:1:0:0:
383,352,88540,6,0,P|330:340|293:301,1,110.000003356934,14|0,0:1|0:0,0:0:0:0:
330,1,88873,2,0,P|347:52|332:105,1,110.000003356934,14|0,0:1|0:0,0:0:0:0:
53,222,89207,2,0,P|89:182|142:169,1,110.000003356934,14|0,0:1|0:0,0:0:0:0:
431,278,89540,5,10,0:1:0:0:
511,383,89707,2,0,B|540:365|526:328|526:328|484:293|413:303|383:352,1,225.000008583069,14|0,0:1|0:0,0:0:0:0:
431,278,90040,6,0,B|452:244|452:244|425:219|425:156,1,119.999996337891,10|0,0:2|0:0,0:0:0:0:
236,106,90373,2,0,B|215:72|215:72|242:47|242:-1,1,119.999996337891,2|8,0:0|0:1,0:0:0:0:
49,133,90707,5,10,0:0:0:0:
198,219,90873,1,2,0:0:0:0:
198,219,90957,1,2,0:0:0:0:
198,219,91040,2,0,P|238:225|318:192,1,119.999996337891,10|0,0:1|0:0,0:0:0:0:
482,94,91373,2,0,B|476:66|486:39|516:15|516:15|468:29|436:79|448:134,1,239.999992675781,10|0,0:0|0:0,0:0:0:0:
481,303,91873,5,8,0:1:0:0:
329,186,92040,1,8,0:0:0:0:
296,374,92207,1,8,0:0:0:0:
190,242,92373,6,0,B|162:272|166:304|166:304|188:321|197:361|197:361|202:332|222:306,1,179.999994506836,10|0,0:1|0:0,0:0:0:0:
265,261,92707,1,10,0:0:0:0:
105,197,92873,1,2,0:0:0:0:
262,119,93040,2,0,B|292:99|292:99|297:47|262:8,1,119.999996337891,2|8,0:0|0:1,0:0:0:0:
188,64,93373,5,10,0:0:0:0:
372,134,93540,1,2,0:0:0:0:
372,134,93623,1,2,0:0:0:0:
372,134,93707,2,0,B|414:126|414:126|437:137|437:137|496:130,1,119.999996337891,8|0,0:1|0:0,0:0:0:0:
222,201,94040,2,0,B|179:193|179:193|157:204|157:204|98:197,1,119.999996337891,10|0,0:0|0:0,0:0:0:0:
35,188,94290,1,10,0:0:0:0:
35,188,94373,1,8,0:0:0:0:
166,109,94540,5,10,0:1:0:0:
212,294,94707,1,8,0:0:0:0:
346,156,94873,1,8,0:0:0:0:
452,330,95040,6,0,B|486:369|535:344|506:308|506:308|478:273|423:269|377:295,1,240,14|0,0:1|0:0,0:0:0:0:
317,246,95373,2,0,P|301:294|330:354,1,119.999996337891,10|0,0:0|0:0,0:0:0:0:
490,199,95707,5,2,0:0:0:0:
267,132,95873,1,8,0:1:0:0:
512,209,96040,1,8,0:0:0:0:
307,36,96207,5,2,0:0:0:0:
307,36,96290,1,2,0:0:0:0:
307,36,96373,1,8,0:1:0:0:
389,101,96540,2,0,L|529:91,1,119.999996337891,2|8,0:0|0:0,0:0:0:0:
310,216,96873,1,10,0:1:0:0:
310,216,96957,2,0,B|264:207|223:239|223:239|216:191|168:167,1,179.999994506836,8|8,0:0|0:1,0:0:0:0:
5,106,97373,5,10,0:0:0:0:
5,106,97540,1,8,0:0:0:0:
8,291,97707,6,0,B|9:337|39:364|72:372|120:371|120:371|99:341|101:313|116:319|110:285|90:264,1,259.999988098145,14|0,0:1|0:0,0:0:0:0:
417,236,98207,6,0,B|427:280|405:315|376:331|329:342|329:342|341:308|332:282|319:291|316:257|330:231,1,259.999988098145,14|0,0:1|0:0,0:0:0:0:
41,52,98707,6,0,B|17:94|31:134|56:159|100:183|100:183|97:145|113:121|123:133|136:100|129:70,1,279.999991455078,14|0,0:1|0:0,0:0:0:0:
421,0,99207,6,0,B|460:27|466:70|454:103|424:144|424:144|410:108|386:94|382:109|356:85|349:55,1,279.999991455078,14|0,0:1|0:0,0:0:0:0:
103,188,99707,6,0,P|187:158|263:281,1,225.000008583069,10|0,0:1|0:0,0:0:0:0:
128,320,100040,2,0,P|88:258|104:187,1,150.000005722046,10|0,0:1|0:0,0:0:0:0:
286,17,100373,6,0,B|324:12|324:12|351:24|351:24|423:16,1,119.999996337891,14|0,0:3|0:0,0:0:0:0:
272,172,100707,2,0,B|310:167|310:167|337:179|337:179|409:171,1,119.999996337891,10|0,0:3|0:0,0:0:0:0:
258,327,101040,2,0,B|296:322|296:322|323:334|323:334|395:326,1,119.999996337891,10|0,0:3|0:0,0:0:0:0:
494,378,101373,5,10,0:3:0:0:
494,378,101540,2,0,B|516:324|481:273|481:273|500:220,1,150.000005722046,10|0,0:3|0:0,0:0:0:0:
487,232,102040,6,0,L|458:311,1,75.0000028610231,2|0,0:0|0:0,0:0:0:0:
454,299,102373,2,0,L|479:228,1,75.0000028610231,2|0,0:0|0:0,0:0:0:0:
512,139,102707,5,8,0:0:0:0:
512,139,102873,1,8,0:0:0:0:
400,20,103040,6,0,B|412:44|404:86|382:66|378:114|430:117|415:63,1,119.999996337891,10|0,0:3|0:0,0:0:0:0:
143,130,103373,2,0,B|157:107|198:93|191:122|235:102|212:55|172:95,1,119.999996337891,10|0,0:3|0:0,0:0:0:0:
367,298,103707,2,0,B|340:296|307:268|336:259|296:231|267:275|322:289,1,119.999996337891,10|0,0:3|0:0,0:0:0:0:
401,209,104040,5,10,0:3:0:0:
401,209,104207,2,0,P|432:172|403:57,1,150.000005722046,10|0,0:3|0:0,0:0:0:0:
416,70,104707,6,0,L|329:83,1,75.0000028610231,2|0,0:0|0:0,0:0:0:0:
337,75,105040,2,0,L|411:63,1,75.0000028610231,2|0,0:0|0:0,0:0:0:0:
0,36,105707,6,0,P|52:21|77:101,1,119.999996337891,14|0,0:3|0:0,0:0:0:0:
282,189,106040,2,0,P|244:150|182:206,1,119.999996337891,10|0,0:3|0:0,0:0:0:0:
0,322,106373,2,0,P|13:269|94:287,1,119.999996337891,10|0,0:3|0:0,0:0:0:0:
230,384,106707,5,10,0:3:0:0:
230,384,106873,2,0,B|241:375|263:373|263:373|249:342|217:326|217:326|230:303|234:250,1,150.000005722046,10|0,0:1|0:0,0:0:0:0:
229,273,107373,6,0,L|307:263,1,75.0000028610231,2|0,0:0|0:0,0:0:0:0:
301,256,107707,2,0,L|226:265,1,75.0000028610231,2|0,0:0|0:0,0:0:0:0:
89,206,108040,5,8,0:0:0:0:
89,206,108207,1,8,0:0:0:0:
202,112,108373,6,0,P|219:73|204:-1,1,119.999996337891,10|0,0:3|0:0,0:0:0:0:
294,280,108707,2,0,P|326:307|345:380,1,119.999996337891,10|0,0:3|0:0,0:0:0:0:
369,99,109040,2,0,P|409:56|467:44,1,119.999996337891,10|0,0:3|0:0,0:0:0:0:
512,257,109373,5,10,0:3:0:0:
512,257,109540,2,0,P|464:201|392:200,1,150.000005722046,10|0,0:3|0:0,0:0:0:0:
386,204,110040,6,0,L|382:280,1,75.0000028610231,2|0,0:0|0:0,0:0:0:0:
375,281,110373,2,0,L|378:206,1,75.0000028610231,2|0,0:0|0:0,0:0:0:0:
318,62,110707,5,8,0:1:0:0:
210,326,110873,1,8,0:1:0:0:
108,140,111040,6,0,P|96:173|97:207,1,69.9999978637696,14|0,0:1|0:0,0:0:0:0:
106,304,111373,1,2,0:0:0:0:
109,219,111540,2,0,P|116:252|110:287,1,69.9999978637696,2|0,0:0|0:0,0:0:0:0:
104,121,111873,2,0,P|98:86|106:52,1,69.9999978637696,2|0,0:0|0:0,0:0:0:0:
272,105,112207,6,0,B|225:79|182:109|182:109|167:88|182:67,1,139.999995727539,2|0,0:0|0:0,0:0:0:0:
284,116,112707,1,2,0:0:0:0:
284,116,112873,1,0,0:0:0:0:
368,72,113040,2,0,P|375:38|369:3,1,69.9999978637696,2|0,0:0|0:0,0:0:0:0:
284,116,113373,2,0,P|276:149|282:184,1,69.9999978637696,2|0,0:0|0:0,0:0:0:0:
381,253,113707,6,0,L|451:247,1,69.9999978637696,2|0,0:0|0:0,0:0:0:0:
369,266,114040,1,2,0:0:0:0:
369,266,114207,1,0,0:0:0:0:
468,232,114373,1,2,0:0:0:0:
468,232,114540,1,0,0:0:0:0:
369,266,114707,5,2,0:0:0:0:
468,232,114873,2,0,B|477:214|494:207|494:207|449:172|463:112,1,139.999995727539,2|0,0:0|0:0,0:0:0:0:
396,17,115373,2,0,L|464:29,1,69.9999978637696,2|0,0:0|0:0,0:0:0:0:
383,29,115707,1,2,0:0:0:0:
308,125,115873,1,2,0:0:0:0:
308,125,115957,1,2,0:0:0:0:
308,125,116040,2,0,L|297:30,1,69.9999978637696,2|0,0:0|0:0,0:0:0:0:
142,62,116373,6,0,P|171:83|215:85,1,75.0000028610231,6|0,0:0|0:0,0:0:0:0:
375,149,116707,2,0,P|345:127|302:126,1,75.0000028610231,2|0,0:0|0:0,0:0:0:0:
224,190,117040,2,0,P|220:226|199:257,1,75.0000028610231,2|0,0:0|0:0,0:0:0:0:
87,308,117373,5,2,0:0:0:0:
87,308,117540,2,0,B|46:322|46:322|80:221,1,150.000005722046,2|0,0:0|0:0,0:0:0:0:
102,150,118040,5,2,0:0:0:0:
153,204,118207,1,2,0:0:0:0:
225,186,118373,1,2,0:0:0:0:
246,114,118540,1,2,0:0:0:0:
194,61,118707,1,2,0:0:0:0:
122,79,118873,1,2,0:0:0:0:
225,186,119040,6,0,B|268:223|338:216|338:216|325:153|270:122,1,239.999992675781,14|0,0:1|0:1,0:1:0:0:
120,223,119540,6,0,B|108:278|51:316|51:316|24:261|45:199,1,239.999992675781,14|0,0:1|0:0,0:0:0:0:
384,158,120040,6,0,B|432:204|505:187|505:187|494:115|433:85,1,259.999988098145,14|0,0:1|0:0,0:0:0:0:
195,269,120540,6,0,B|167:330|96:345|96:345|75:274|120:223,1,259.999988098145,14|0,0:1|0:0,0:0:0:0:
249,3,121040,6,0,B|275:58|275:58|263:118|263:118|299:205,1,209.999993591309,14|0,0:1|0:0,0:0:0:0:
304,214,121373,6,0,P|337:214|371:198,1,50,10|0,0:1|0:0,0:0:0:0:
227,106,121540,6,0,P|205:93|181:88,1,50,2|0,0:0|0:0,0:0:0:0:
45,147,121707,6,0,B|30:169|30:169|29:190|37:212,1,70,12|0,0:0|0:0,0:0:0:0:
37,212,123040,6,0,P|30:165|39:123,1,80,14|0,0:1|0:0,0:0:0:0:
123,77,123373,2,0,B|135:100|133:120|133:120|114:160|123:202|123:202|140:174,1,160,10|0,0:0|0:0,0:0:0:0:
139,175,123873,1,8,0:1:0:0:
244,287,124040,5,10,0:0:0:0:
244,287,124207,1,0,0:0:0:0:
302,223,124373,5,10,0:1:0:0:
368,275,124540,2,0,P|383:238|381:199,1,80,2|8,0:0|0:0,0:0:0:0:
260,147,124873,2,0,P|219:212|243:286,1,160,2|8,0:0|0:1,0:0:0:0:
381,199,125373,5,8,0:0:0:0:
418,384,125540,1,8,0:0:0:0:
499,317,125707,6,0,P|514:280|512:241,1,80,10|0,0:1|0:0,0:0:0:0:
381,199,126040,2,0,B|345:242|367:287|367:287|409:292|430:266,1,160,8|0,0:0|0:0,0:0:0:0:
511,240,126540,1,8,0:1:0:0:
398,115,126707,1,8,0:0:0:0:
500,24,126873,5,2,0:0:0:0:
500,24,127040,2,0,L|506:108,1,80,8|0,0:1|0:0,0:0:0:0:
312,0,127373,2,0,L|306:84,1,80,10|0,0:0|0:0,0:0:0:0:
262,146,127623,5,10,0:0:0:0:
262,146,127707,1,8,0:0:0:0:
193,50,127873,1,8,0:1:0:0:
312,0,128040,5,10,0:0:0:0:
262,146,128207,1,8,0:0:0:0:
85,87,128373,6,2,B|72:55|105:15|105:15|94:49|97:84|122:110,1,179.999994506836,14|0,0:1|0:0,0:1:0:0:
184,154,128707,6,0,B|230:147|262:164|236:228|352:191|301:134|257:147,1,179.999994506836,10|0,0:0|0:0,0:0:0:0:
117,222,129207,1,10,0:1:0:0:
163,355,129373,1,10,0:0:0:0:
445,290,129707,5,10,0:1:0:0:
478,362,129873,2,0,P|433:367|393:349,1,89.9999972534181,2|8,0:0|0:0,0:0:0:0:
234,249,130207,2,0,P|278:254|318:236,1,89.9999972534181,2|0,0:0|0:0,0:0:0:0:
424,145,130540,1,10,0:1:0:0:
329,15,130707,5,8,0:0:0:0:
268,171,130873,1,8,0:0:0:0:
127,97,131040,6,0,L|138:6,1,89.9999972534181,10|0,0:1|0:0,0:0:0:0:
268,171,131373,2,0,L|279:80,1,89.9999972534181,10|0,0:0|0:0,0:0:0:0:
14,212,131707,2,0,L|25:121,1,89.9999972534181,2|8,0:0|0:1,0:0:0:0:
275,299,132040,5,10,0:0:0:0:
275,299,132207,1,8,0:0:0:0:
64,384,132373,5,14,0:3:0:0:
107,235,132540,2,0,B|112:263|112:263|88:311|88:311|85:275,1,119.999996337891,8|0,0:3|0:0,0:0:0:0:
372,157,132873,6,0,B|374:189|374:189|413:234|413:234|406:194,1,129.999994049073,10|0,0:3|0:0,0:0:0:0:
74,94,133207,6,0,B|62:126|62:126|10:161|10:161|28:122,1,139.999995727539,10|0,0:3|0:0,0:0:0:0:
216,6,133540,5,8,0:1:0:0:
280,54,133707,2,0,P|329:53|385:30,1,100,14|0,0:3|0:0,0:0:0:0:
272,282,134040,2,0,P|246:240|198:203,1,100,10|0,0:3|0:0,0:0:0:0:
474,175,134373,2,0,P|450:217|442:277,1,100,10|0,0:3|0:0,0:0:0:0:
280,54,134707,5,10,0:3:0:0:
280,54,134873,2,0,B|327:66|375:36|375:36|393:71|451:88|451:88|390:118|349:187|358:274,1,400,10|0,0:3|0:0,0:0:0:0:
414,341,136373,6,0,B|456:336|456:336|471:342|471:342|529:336,1,100,10|0,0:3|0:0,0:0:0:0:
256,256,136707,2,0,B|263:222|263:222|257:204|257:204|271:131,1,100,10|0,0:3|0:0,0:0:0:0:
98,271,137040,2,0,B|56:266|56:266|41:272|41:272|-17:266,1,100,10|0,0:3|0:0,0:0:0:0:
174,104,137373,5,10,0:3:0:0:
174,104,137540,2,0,P|249:127|300:75,1,150.000005722046,10|0,0:3|0:0,0:0:0:0:
512,38,138207,2,0,B|483:12|483:12|392:45,1,112.500004291535
414,38,138540,2,0,L|405:122,1,75.0000028610231
418,345,139040,6,0,B|448:356|448:356|477:336|512:345,1,100,14|0,0:3|0:0,0:0:0:0:
287,249,139373,2,0,B|256:237|256:237|224:257|192:248,1,100,10|0,0:3|0:0,0:0:0:0:
425,153,139707,2,0,B|453:130|487:137|487:137|511:114,1,100,10|0,0:3|0:0,0:0:0:0:
311,2,140040,5,10,0:3:0:0:
311,2,140207,2,0,B|341:91|256:133|256:133|219:57|122:64|122:64|163:83|174:120,1,400,10|0,0:3|0:0,0:0:0:0:
85,240,141707,6,0,P|78:177|99:138,1,100,10|0,0:3|0:0,0:0:0:0:
262,337,142040,2,0,P|210:374|166:375,1,100,10|0,0:3|0:0,0:0:0:0:
258,135,142373,2,0,P|316:160|339:198,1,100,10|0,0:3|0:0,0:0:0:0:
411,384,142707,5,10,0:3:0:0:
475,339,142873,2,0,B|493:322|493:322|442:308|446:249,1,112.500004291535,10|0,0:3|0:0,0:0:0:0:
473,185,143207,6,0,B|514:137|517:57|484:16|484:16|441:51|392:29|392:29|434:60|422:120,1,349.999989318848,2|0,0:0|0:0,0:0:0:0:
325,195,144235,5,2,0:0:0:0:
328,198,144373,2,0,B|291:269|347:322|421:312|440:208|341:175|341:175|291:154|280:125|281:76|281:76|265:165|197:191|162:193|71:182|87:85|142:66|186:85,1,742.000001132202,10|0,0:3|0:3,0:3:0:0:
241,206,146873,5,8,0:0:0:0:
241,206,146957,1,8,0:0:0:0:
241,206,147040,2,0,B|266:268|346:273|409:231|409:231|474:205|502:117|417:25|323:115|355:195|399:229|399:229|439:264|483:267|530:316|510:393|417:398|405:326,1,795.000001213074,8|0,0:0|0:0,0:0:0:0:
406,327,149707,6,0,B|408:294|397:277|369:256|369:256|393:284|393:315,1,150,4|0,0:0|0:0,0:0:0:0:
311,318,150373,6,0,P|265:370|192:341,1,150,2|0,0:0|0:0,0:0:0:0:
196,347,151040,2,0,L|209:244,1,100,2|0,0:0|0:0,0:0:0:0:
316,93,151707,6,0,P|338:101|364:95,1,50,2|0,0:0|0:0,0:0:0:0:
229,33,152040,6,0,P|197:18|152:26,1,75.0000028610231,10|0,0:1|0:0,0:0:0:0:
46,71,152373,5,10,0:1:0:0:
55,82,152457,1,2,0:0:0:0:
62,94,152540,1,2,0:0:0:0:
65,108,152623,1,2,0:0:0:0:
109,179,152707,5,10,0:0:0:0:
91,192,152790,1,2,0:0:0:0:
82,212,152873,1,2,0:0:0:0:
82,234,152957,1,10,0:0:0:0:
37,297,153040,5,10,0:0:0:0:
68,281,153123,1,2,0:0:0:0:
103,281,153207,1,10,0:1:0:0:
133,298,153290,1,2,0:0:0:0:
150,328,153373,6,0,P|172:344|194:347,1,50,10|2,0:0|0:0,0:0:0:0:
309,261,153540,6,0,L|321:186,1,59.9999981689454,10|2,0:0|0:0,0:0:0:0:
229,31,153707,5,14,0:1:0:0:
175,88,153873,6,0,B|176:118|200:141|200:141|231:133|247:108,1,119.999996337891,10|0,0:1|0:0,0:0:0:0:
254,116,154207,6,0,B|233:144|196:154|196:154|168:127|166:94,1,139.999995727539,10|0,0:1|0:0,0:0:0:0:
160,97,154540,6,0,B|162:136|193:167|193:167|236:155|258:123,1,160,10|0,0:1|0:0,0:0:0:0:
262,132,154873,6,0,B|235:169|188:182|188:182|153:147|151:103,1,179.999994506836,10|0,0:1|0:0,0:0:0:0:
445,346,155707,2,0,L|463:351,6,12.5
457,349,156040,6,0,B|483:357|483:357|460:262,1,112.500004291535
426,189,156373,5,14,0:1:0:0:
322,384,156540,1,8,0:0:0:0:
411,165,156707,5,10,0:1:0:0:
199,252,156873,1,8,0:0:0:0:
405,138,157040,5,10,0:1:0:0:
205,76,157207,1,8,0:1:0:0:
411,165,157373,1,8,0:0:0:0:
282,18,157540,6,0,B|326:68|292:137|292:137|251:156,1,165.000005035401,10|0,0:1|0:0,0:0:0:0:
181,169,157873,2,0,B|153:164|133:185|133:185|144:155|180:155,1,110.000003356934,10|8,0:1|0:0,0:0:0:0:
388,260,158207,5,8,0:1:0:0:
414,278,158290,1,8,0:1:0:0:
445,268,158373,1,8,0:1:0:0:
474,282,158457,1,8,0:1:0:0:
505,272,158540,1,8,0:1:0:0:
316,384,158707,5,10,0:0:0:0:
258,152,158873,1,12,0:1:0:0:
83,316,159040,6,0,L|202:309,1,110.000003356934,2|8,0:1|0:1,0:0:0:0:
505,272,159373,2,0,L|386:265,1,110.000003356934,10|8,0:0|0:1,0:0:0:0:
260,37,159707,5,2,0:0:0:0:
345,80,159873,2,0,B|385:65|385:65|428:67|428:67|405:56,1,110.000003356934,8|8,0:1|0:0,0:0:0:0:
176,179,160207,1,2,0:0:0:0:
176,179,160290,1,2,0:0:0:0:
176,179,160373,2,0,B|133:164|133:164|93:166|93:166|115:155,1,110.000003356934,8|0,0:1|0:0,0:0:0:0:
395,265,160707,2,0,B|434:283|434:283|462:314|462:314|454:290,1,110.000003356934,8|0,0:0|0:0,0:0:0:0:
451,204,160957,5,10,0:0:0:0:
451,204,161040,1,8,0:0:0:0:
380,347,161207,1,8,0:1:0:0:
335,148,161373,5,8,0:0:0:0:
297,374,161540,1,8,0:0:0:0:
175,261,161707,6,0,B|149:257|129:235|129:235|91:224|59:240|45:272|45:272|-3:253|14:204,1,225.000008583069,14|0,0:1|0:0,0:0:0:0:
0,134,162040,2,0,B|41:125|71:155|71:155|91:145|102:124,1,110.000003356934,10|0,0:0|0:0,0:0:0:0:
389,72,162373,1,2,0:0:0:0:
305,31,162540,2,0,B|264:23|234:52|234:52|213:42|202:21,1,110.000003356934,8|8,0:1|0:0,0:0:0:0:
369,229,162873,5,2,0:0:0:0:
369,229,162957,1,2,0:0:0:0:
369,229,163040,2,0,B|380:271|430:272|430:272|439:221|479:209,1,165.000005035401,10|0,0:1|0:0,0:0:0:0:
492,219,163373,2,0,B|528:301|479:362|479:362|439:385|399:358,1,220.000006713867,8|0,0:0|0:0,0:0:0:0:
306,285,163873,5,8,0:1:0:0:
485,116,164040,1,10,0:0:0:0:
256,22,164207,1,8,0:0:0:0:
81,169,164373,6,0,B|104:171|124:166|148:148|148:148|169:166|200:169|223:165|223:165|243:177|257:222|214:249,1,240,14|0,0:1|0:0,0:0:0:0:
149,274,164707,2,0,B|113:263|113:263|84:273|84:273|34:259,1,110.000003356934,10|0,0:0|0:0,0:0:0:0:
208,52,165040,5,2,0:0:0:0:
312,271,165207,1,8,0:1:0:0:
443,69,165373,1,8,0:0:0:0:
512,190,165540,5,10,0:1:0:0:
512,190,165623,1,2,0:1:0:0:
512,190,165707,1,2,0:0:0:0:
198,169,165873,1,10,0:1:0:0:
415,367,166040,6,8,B|403:332|403:332|414:282|391:221,1,150.000005722046,8|0,0:0|0:0,0:0:0:0:
347,164,166290,1,10,0:0:0:0:
347,164,166373,1,8,0:0:0:0:
157,322,166540,5,10,0:1:0:0:
264,70,166707,1,8,0:0:0:0:
319,375,166873,1,8,0:0:0:0:
448,147,167040,5,14,0:1:0:0:
214,216,167207,1,8,0:0:0:0:
300,277,167373,5,10,0:1:0:0:
35,225,167540,1,8,0:0:0:0:
115,152,167707,5,10,0:1:0:0:
235,380,167873,1,8,0:1:0:0:
317,255,168040,1,8,0:0:0:0:
469,363,168207,6,0,B|493:373|514:371|514:371|449:348|458:277,1,165.000005035401,10|0,0:1|0:0,0:0:0:0:
480,204,168540,2,0,B|503:179|503:179|508:140|475:107,1,110.000003356934,10|8,0:1|0:0,0:0:0:0:
250,13,168873,5,8,0:1:0:0:
229,38,168957,1,8,0:1:0:0:
208,64,169040,1,8,0:1:0:0:
181,43,169123,1,8,0:1:0:0:
154,22,169207,1,8,0:1:0:0:
242,186,169373,5,10,0:0:0:0:
34,140,169540,1,12,0:1:0:0:
154,320,169707,6,0,B|125:319|100:325|100:325|82:308|52:298,1,110.000003356934,2|8,0:0|0:1,0:0:0:0:
336,248,170040,2,0,B|365:247|390:253|390:253|408:236|437:226,1,110.000003356934,10|8,0:0|0:1,0:0:0:0:
256,101,170373,5,2,0:0:0:0:
334,135,170540,2,0,B|362:143|362:143|402:127|395:77,1,110.000003356934,8|8,0:1|0:0,0:0:0:0:
221,326,170873,1,2,0:0:0:0:
221,326,170957,1,2,0:0:0:0:
221,326,171040,2,0,B|195:318|195:318|156:335|157:360|163:385,1,110.000003356934,8|0,0:1|0:0,0:0:0:0:
256,101,171373,2,0,B|284:109|284:109|324:93|317:43,1,110.000003356934,8|0,0:0|0:0,0:0:0:0:
251,0,171623,5,10,0:0:0:0:
251,0,171707,1,8,0:0:0:0:
169,168,171873,1,8,0:1:0:0:
317,43,172040,5,8,0:0:0:0:
351,256,172207,1,8,0:0:0:0:
164,80,172373,5,14,0:0:0:0:
75,287,172540,1,8,0:1:0:0:
0,227,172707,1,8,0:1:0:0:
168,52,172873,5,10,0:0:0:0:
246,289,173040,1,8,0:1:0:0:
338,247,173207,1,8,0:1:0:0:
173,24,173373,5,10,0:0:0:0:
87,262,173540,1,8,0:1:0:0:
315,99,173707,5,10,0:0:0:0:
375,373,173873,1,8,0:1:0:0:
462,321,174040,1,8,0:1:0:0:
321,72,174207,5,10,0:0:0:0:
274,368,174373,1,8,0:1:0:0:
332,46,174540,5,10,0:1:0:0:
166,333,174707,1,8,0:0:0:0:
256,192,174873,5,8,0:0:0:0:
256,192,174957,1,8,0:0:0:0:
256,192,175040,1,14,0:1:0:0:
340,307,175207,6,0,B|362:341|401:340|401:340|394:319|380:310,1,110.000003356934,14|0,0:1|0:0,0:0:0:0:
113,207,175540,2,0,B|73:209|55:243|55:243|76:247|91:240,1,110.000003356934,14|0,0:1|0:0,0:0:0:0:
313,61,175873,2,0,B|332:25|311:-7|311:-7|297:8|296:25,1,110.000003356934,14|0,0:1|0:0,0:0:0:0:
256,192,176207,5,10,0:1:0:0:
340,307,176373,5,14,0:1:0:0:
420,142,176540,6,0,B|434:135|456:139|456:139|437:173|397:176,1,110.000003356934,14|0,0:1|0:0,0:0:0:0:
132,74,176873,2,0,B|117:63|111:44|111:44|149:41|171:76,1,110.000003356934,14|0,0:1|0:0,0:0:0:0:
215,355,177207,2,0,B|213:374|199:390|199:390|179:358|197:322,1,110.000003356934,14|0,0:1|0:0,0:0:0:0:
448,37,177540,5,10,0:1:0:0:
486,128,177707,2,0,B|510:174|491:229|444:234|444:234|469:214|478:180|464:151,1,225.000008583069,14|0,0:1|0:0,0:0:0:0:
393,111,178040,6,0,P|346:131|303:61,1,119.999996337891,10|0,0:2|0:0,0:0:0:0:
53,268,178373,2,0,P|91:226|145:245,1,119.999996337891,2|8,0:0|0:1,0:0:0:0:
4,144,178707,5,10,0:0:0:0:
151,252,178873,1,2,0:0:0:0:
151,252,178957,1,2,0:0:0:0:
151,252,179040,2,0,B|208:272|208:272|262:237,1,119.999996337891,10|0,0:1|0:0,0:0:0:0:
420,65,179373,2,0,B|440:79|441:97|441:97|404:93|382:62|382:62|345:37|296:53|296:53|310:68|336:66,1,239.999992675781,10|0,0:0|0:0,0:0:0:0:
512,27,179873,5,8,0:1:0:0:
359,144,180040,1,8,0:0:0:0:
510,263,180207,1,8,0:0:0:0:
296,369,180373,6,0,B|305:402|352:398|355:361|320:330|317:351|272:330|276:269,1,179.999994506836,10|0,0:1|0:0,0:0:0:0:
289,192,180707,1,10,0:0:0:0:
445,100,180873,1,2,0:0:0:0:
288,0,181040,2,0,B|277:29|244:35|244:35|232:8|197:1,1,119.999996337891,2|8,0:0|0:1,0:0:0:0:
92,39,181373,5,10,0:0:0:0:
307,110,181540,1,2,0:0:0:0:
307,110,181623,1,2,0:0:0:0:
307,110,181707,2,0,B|369:127|369:127|323:76,1,119.999996337891,8|0,0:1|0:0,0:0:0:0:
86,167,182040,2,0,B|25:187|25:187|79:201,1,119.999996337891,10|0,0:0|0:0,0:0:0:0:
158,212,182290,1,10,0:0:0:0:
158,212,182373,1,8,0:0:0:0:
0,368,182540,5,10,0:1:0:0:
86,167,182707,1,8,0:0:0:0:
206,348,182873,1,8,0:0:0:0:
402,169,183040,6,0,B|384:142|358:125|358:125|365:162|349:197|316:219|316:219|303:242|305:272|326:296,1,240,14|0,0:1|0:0,0:0:0:0:
382,347,183373,2,0,P|443:364|491:336,1,119.999996337891,10|0,0:0|0:0,0:0:0:0:
267,137,183707,5,2,0:0:0:0:
196,363,183873,1,8,0:1:0:0:
277,115,184040,1,8,0:0:0:0:
436,282,184207,5,2,0:0:0:0:
436,282,184290,1,2,0:0:0:0:
436,282,184373,1,8,0:1:0:0:
208,250,184540,2,0,B|174:241|174:241|137:267|91:266,1,119.999996337891,2|8,0:0|0:0,0:0:0:0:
290,95,184873,1,10,0:1:0:0:
290,95,184957,2,0,B|321:133|377:118|377:118|377:68|425:42,1,179.999994506836,8|8,0:0|0:1,0:0:0:0:
150,6,185373,5,10,0:0:0:0:
150,6,185540,1,8,0:0:0:0:
217,196,185707,6,0,B|248:238|309:207|296:155|296:155|282:103|343:73|374:117,1,260,14|0,0:1|0:0,0:0:0:0:
512,340,186207,6,0,B|480:382|419:351|432:299|432:299|446:247|385:217|354:261,1,260,14|0,0:1|0:0,0:0:0:0:
46,281,186707,6,0,B|80:327|146:293|131:237|131:237|116:181|182:147|216:195,1,279.999991455078,14|0,0:1|0:0,0:0:0:0:
512,153,187207,6,0,B|477:199|411:165|426:109|426:109|441:53|375:19|341:67,1,279.999991455078,14|0,0:1|0:0,0:0:0:0:
99,207,187707,6,0,B|130:211|156:187|156:187|193:238|266:233|289:180,1,225.000008583069,10|0,0:1|0:0,0:0:0:0:
217,77,188040,2,0,P|166:102|161:195,1,150.000005722046,10|0,0:1|0:0,0:0:0:0:
378,384,188373,6,0,L|365:235,1,119.999996337891,14|0,0:3|0:0,0:0:0:0:
145,307,188707,2,0,L|158:158,1,119.999996337891,10|0,0:3|0:0,0:0:0:0:
474,289,189040,2,0,L|461:140,1,119.999996337891,10|0,0:3|0:0,0:0:0:0:
389,36,189373,5,10,0:3:0:0:
389,36,189540,2,0,B|367:68|322:62|322:62|304:18|251:10,1,150.000005722046,10|0,0:3|0:0,0:0:0:0:
261,20,190040,6,0,L|247:106,1,75.0000028610231,2|0,0:0|0:0,0:0:0:0:
241,100,190373,2,0,L|253:25,1,75.0000028610231,2|0,0:0|0:0,0:0:0:0:
357,152,190707,5,8,0:0:0:0:
357,152,190873,1,8,0:0:0:0:
219,198,191040,6,0,B|165:207|136:155|136:155|157:155,1,119.999996337891,10|0,0:3|0:0,0:0:0:0:
357,152,191373,2,0,B|376:100|435:101|435:101|424:119,1,119.999996337891,10|0,0:3|0:0,0:0:0:0:
327,294,191707,2,0,B|361:336|331:386|331:386|321:368,1,119.999996337891,10|0,0:3|0:0,0:0:0:0:
228,302,192040,5,10,0:3:0:0:
228,302,192207,2,0,P|184:271|71:289,1,150.000005722046,10|0,0:3|0:0,0:0:0:0:
85,283,192707,6,0,L|76:363,1,75.0000028610231,2|0,0:0|0:0,0:0:0:0:
69,363,193040,2,0,L|77:288,1,75.0000028610231,2|0,0:0|0:0,0:0:0:0:
414,188,193707,6,0,P|468:202|502:156,1,119.999996337891,14|0,0:3|0:0,0:0:0:0:
241,85,194040,2,0,P|207:39|152:53,1,119.999996337891,10|0,0:3|0:0,0:0:0:0:
424,104,194373,2,0,P|478:118|512:72,1,119.999996337891,10|0,0:3|0:0,0:0:0:0:
301,4,194707,5,10,0:3:0:0:
301,4,194873,2,0,B|331:70|269:103|269:103|241:85,1,150.000005722046,10|0,0:1|0:0,0:0:0:0:
232,89,195373,6,0,L|212:4,1,75.0000028610231,2|0,0:0|0:0,0:0:0:0:
205,17,195707,2,0,L|222:90,1,75.0000028610231,2|0,0:0|0:0,0:0:0:0:
126,200,196040,5,8,0:0:0:0:
126,200,196207,1,8,0:0:0:0:
193,318,196373,6,0,P|239:343|319:313,1,119.999996337891,10|0,0:3|0:0,0:0:0:0:
190,111,196707,2,0,P|145:138|131:222,1,119.999996337891,10|0,0:3|0:0,0:0:0:0:
370,211,197040,2,0,P|368:158|302:104,1,119.999996337891,10|0,0:3|0:0,0:0:0:0:
174,34,197373,5,10,0:3:0:0:
174,34,197540,2,0,B|186:95|132:112|132:112|89:83|108:41,1,150.000005722046,10|0,0:3|0:0,0:0:0:0:
111,67,198040,6,0,L|206:58,1,75.0000028610231,2|0,0:0|0:0,0:0:0:0:
193,54,198373,2,0,L|118:61,1,75.0000028610231,2|0,0:0|0:0,0:0:0:0:
302,236,198707,5,8,0:1:0:0:
393,6,198873,1,8,0:1:0:0:
477,138,199040,5,8,0:0:0:0:
475,126,199123,1,8,0:0:0:0:
472,114,199207,1,8,0:1:0:0:
501,280,199373,1,8,0:0:0:0:
250,132,199623,5,8,0:0:0:0:
253,121,199707,1,8,0:0:0:0:
225,257,199873,1,8,0:1:0:0:
74,190,200040,5,8,0:0:0:0:
118,384,200207,1,8,0:0:0:0:
232,232,200373,5,14,0:1:0:0:
208,349,200540,1,8,0:2:0:0:
359,267,200707,5,10,0:1:0:0:
335,384,200873,1,8,0:0:0:0:
486,302,201040,5,10,0:1:0:0:
486,302,201207,1,8,0:1:0:0:
348,172,201373,5,10,0:0:0:0:
359,267,201540,2,0,P|421:233|386:86,1,239.999992675781,8|8,0:1|0:1,0:0:0:0:
348,172,202040,1,8,0:0:0:0:
275,24,202207,5,8,0:1:0:0:
250,57,202290,1,8,0:1:0:0:
210,71,202373,1,8,0:1:0:0:
170,55,202457,1,8,0:1:0:0:
148,19,202540,1,8,0:1:0:0:
0,128,202707,5,10,0:0:0:0:
173,222,202873,2,0,B|239:176|239:176|14:217,1,300.000011444092,14|8,0:1|0:1,0:0:0:0:
23,215,203373,1,8,0:0:0:0:
143,375,203540,2,0,B|196:338|196:338|375:377,1,239.999992675781,10|8,0:1|0:1,0:0:0:0:
512,235,204040,5,10,0:0:0:0:
512,235,204123,1,2,0:0:0:0:
512,235,204207,1,2,0:0:0:0:
512,235,204290,1,2,0:0:0:0:
512,235,204373,2,0,B|459:272|459:272|280:233,1,239.999992675781,8|8,0:1|0:0,0:0:0:0:
88,25,204957,5,8,0:0:0:0:
96,8,205040,1,10,0:0:0:0:
48,164,205207,1,10,0:1:0:0:
207,95,205373,5,8,0:0:0:0:
42,181,205540,1,10,0:0:0:0:
156,338,205707,6,0,B|170:296|170:296|165:271|165:271|183:217,1,119.999996337891,14|0,0:1|0:0,0:0:0:0:
293,75,206040,1,10,0:0:0:0:
394,140,206207,2,0,B|350:148|350:148|331:165|331:165|275:177,1,119.999996337891,2|0,0:0|0:0,0:0:0:0:
405,335,206540,1,10,0:1:0:0:
504,269,206707,2,0,B|460:260|460:260|441:243|441:243|385:231,1,119.999996337891,10|0,0:0|0:0,0:0:0:0:
233,384,207040,5,10,0:1:0:0:
290,183,207207,1,2,0:0:0:0:
290,183,207290,1,2,0:0:0:0:
290,183,207373,1,10,0:0:0:0:
392,233,207540,5,2,0:0:0:0:
281,69,207707,1,2,0:0:0:0:
196,247,207873,1,10,0:1:0:0:
281,44,208040,5,10,0:0:0:0:
311,300,208207,1,10,0:0:0:0:
479,157,208373,6,0,B|363:131|363:131|311:170|311:170|190:142,2,300.000011444092,14|8|0,0:1|0:0|0:0,0:0:0:0:
281,44,209207,5,8,0:1:0:0:
200,277,209373,1,12,0:0:0:0:
161,142,209540,5,10,0:1:0:0:
161,142,209623,1,2,0:1:0:0:
161,142,209707,1,6,0:0:0:0:
293,241,209873,1,8,0:1:0:0:
127,342,210040,2,0,P|104:290|132:210,1,119.999996337891,14|0,0:0|0:0,0:0:0:0:
168,149,210290,5,8,0:0:0:0:
168,149,210373,1,10,0:0:0:0:
280,331,210540,1,10,0:1:0:0:
400,212,210707,1,10,0:0:0:0:
400,212,210873,1,8,0:0:0:0:
472,275,211040,5,14,0:1:0:0:
293,241,211207,1,8,0:2:0:0:
400,212,211373,5,10,0:1:0:0:
210,213,211540,1,8,0:0:0:0:
490,181,211707,5,10,0:1:0:0:
490,181,211873,1,8,0:1:0:0:
364,48,212040,5,10,0:0:0:0:
302,117,212207,2,0,B|330:151|386:151|421:123|421:123|405:166|369:177|327:153,1,239.999992675781,8|8,0:1|0:1,0:0:0:0:
364,48,212707,1,8,0:0:0:0:
179,0,212873,5,8,0:1:0:0:
198,37,212957,1,8,0:1:0:0:
199,78,213040,1,8,0:1:0:0:
182,116,213123,1,8,0:1:0:0:
149,142,213207,1,8,0:1:0:0:
238,277,213373,5,10,0:0:0:0:
68,347,213540,2,0,B|0:374|0:374|36:145,1,300.000011444092,14|8,0:1|0:1,0:0:0:0:
35,149,214040,1,8,0:0:0:0:
240,103,214207,2,0,B|221:133|220:163|220:163|189:156|167:132|167:132|142:99|162:55|199:36,1,239.999992675781,10|8,0:1|0:1,0:0:0:0:
428,9,214707,5,10,0:0:0:0:
428,9,214790,1,2,0:0:0:0:
428,9,214873,1,2,0:0:0:0:
428,9,214957,1,2,0:0:0:0:
428,9,215040,2,0,B|463:27|483:71|458:104|458:104|436:128|405:135|405:135|404:105|385:75,1,239.999992675781,8|8,0:1|0:0,0:0:0:0:
153,238,215623,5,8,0:0:0:0:
159,214,215707,1,10,0:0:0:0:
124,352,215873,1,10,0:1:0:0:
166,191,216040,5,10,0:0:0:0:
223,384,216207,1,10,0:0:0:0:
395,157,216373,5,14,0:0:0:0:
309,354,216540,1,8,0:1:0:0:
292,265,216707,1,8,0:1:0:0:
353,76,216873,5,10,0:0:0:0:
481,292,217040,1,8,0:1:0:0:
493,202,217207,1,8,0:1:0:0:
414,0,217373,5,10,0:0:0:0:
293,152,217540,1,8,0:1:0:0:
159,51,217707,5,10,0:0:0:0:
371,88,217873,1,10,0:1:0:0:
471,106,218040,1,10,0:1:0:0:
147,143,218207,5,10,0:0:0:0:
373,106,218373,1,10,0:1:0:0:
473,88,218540,1,10,0:1:0:0:
296,18,218707,5,10,0:0:0:0:
193,262,218873,1,8,0:0:0:0:
444,238,219040,5,14,0:1:0:0:
367,384,219207,2,0,B|358:345|358:345|367:304|367:304|350:241,1,139.999995727539,14|0,0:1|0:0,0:0:0:0:
73,281,219540,2,0,B|82:242|82:242|73:201|73:201|90:138,1,139.999995727539,14|0,0:1|0:0,0:0:0:0:
444,238,219873,2,0,B|435:199|435:199|444:158|444:158|427:95,1,139.999995727539,14|0,0:1|0:0,0:0:0:0:
272,0,220207,5,10,0:1:0:0:
217,155,220373,5,14,0:1:0:0:
351,248,220540,6,0,B|408:294|408:294|449:231,1,139.999995727539,14|0,0:1|0:0,0:0:0:0:
184,63,220873,2,0,B|127:17|127:17|86:80,1,139.999995727539,14|0,0:1|0:0,0:0:0:0:
356,284,221207,2,0,B|413:330|413:330|454:267,1,139.999995727539,14|0,0:1|0:0,0:0:0:0:
320,89,221540,5,10,0:1:0:0:
320,89,221707,2,0,B|378:174|313:326|224:338|224:338|270:318|303:269|292:213,1,454.999979171754,6|4,0:1|0:0,0:0:0:0:
0,108,231040,5,4,0:1:0:0:
109,179,231207,1,8,0:1:0:0:
172,6,231373,1,8,0:0:0:0:
315,212,231623,5,8,0:0:0:0:
309,193,231707,1,8,0:0:0:0:
354,346,231873,1,8,0:1:0:0:
303,174,232040,5,8,0:0:0:0:
254,382,232207,1,8,0:0:0:0:
118,284,232373,6,0,B|143:278|168:283|168:283|186:269|212:263,1,100,14|0,0:3|0:0,0:0:0:0:
487,187,232707,2,0,B|462:181|436:186|436:186|420:172|392:166,1,100,10|0,0:3|0:0,0:0:0:0:
112,86,233040,2,0,B|137:80|162:85|162:85|180:71|206:65,1,100,10|0,0:3|0:0,0:0:0:0:
438,27,233373,5,10,0:3:0:0:
438,27,233540,2,0,B|358:44|364:150|446:165|446:165|528:178|532:283|450:299,1,400,10|0,0:3|0:0,0:0:0:0:
351,384,235040,6,0,B|357:350|357:350|348:330|348:330|354:286,1,100,10|0,0:3|0:0,0:0:0:0:
132,328,235373,2,0,B|126:294|126:294|135:274|135:274|128:230,1,100,10|0,0:3|0:0,0:0:0:0:
450,299,235707,2,0,B|456:265|456:265|447:245|447:245|453:201,1,100,10|0,0:3|0:0,0:0:0:0:
397,62,236040,5,10,0:3:0:0:
397,62,236207,2,0,B|372:92|327:89|327:89|312:49|271:33,1,150.000005722046,10|0,0:3|0:0,0:0:0:0:
42,107,236873,2,0,P|81:69|135:74,1,112.500004291535
135,74,237207,2,0,L|126:158,1,75.0000028610231
333,354,237707,6,0,B|351:351|369:360|367:379|423:397|409:347|380:359,1,100,14|0,0:3|0:0,0:0:0:0:
247,209,238040,2,0,B|240:226|223:237|208:225|164:265|215:278|219:247,1,100,10|0,0:3|0:0,0:0:0:0:
416,206,238373,2,0,B|404:191|403:171|420:163|408:106|371:143|396:162,1,100,10|0,0:3|0:0,0:0:0:0:
333,354,238707,5,10,0:3:0:0:
333,354,238873,2,0,B|357:326|400:335|400:335|420:357|450:358|450:358|465:335|479:324|501:321|501:321|487:304|488:276|487:261|487:261|515:235|511:187|497:166|497:166|497:150|512:123,1,400,10|0,0:3|0:0,0:0:0:0:
324,181,240373,6,0,P|377:207|427:204,1,100,10|0,0:3|0:0,0:0:0:0:
283,32,240707,2,0,P|230:6|180:9,1,100,10|0,0:3|0:0,0:0:0:0:
319,198,241040,2,0,P|372:224|422:221,1,100,10|0,0:3|0:0,0:0:0:0:
177,22,241373,5,10,0:3:0:0:
128,83,241540,2,0,B|128:106|110:103|89:119|89:119|88:85|116:71,1,112.500004291535,10|0,0:3|0:0,0:0:0:0:
177,22,241873,6,0,B|214:45|216:117|191:157|142:175|142:175|167:226|200:240|247:234|267:172,1,349.999989318848,2|0,0:0|0:0,0:0:0:0:
369,20,242901,5,2,0:0:0:0:
372,23,243040,2,0,B|340:66|342:119|373:148|399:171|399:171|468:241|526:202|546:136|490:92|427:97|400:171|400:171|361:251|407:285|433:271|438:325|418:359|418:359|423:319|390:295,1,742.000001132202,10|0,0:3|0:3,0:3:0:0:
298,264,245540,5,8,0:0:0:0:
298,264,245623,1,8,0:0:0:0:
298,264,245707,2,0,B|284:338|211:399|104:355|104:355|126:321|131:271|90:231|90:231|42:180|67:125|119:101|119:101|179:71|176:-15|70:-21|32:65|138:125,1,795.000001213074,8|0,0:0|0:0,0:0:0:0:
121,114,248373,6,0,B|160:112|191:136|191:136|218:106|255:100,1,150,4|0,0:0|0:0,0:0:0:0:
315,171,249040,6,0,P|293:213|329:305,1,150,2|0,0:0|0:0,0:0:0:0:
327,303,249707,2,0,B|378:291|375:327|432:311,1,100,2|0,0:0|0:0,0:0:0:0:
512,103,250373,6,0,P|507:75|495:53,1,50,2|0,0:0|0:0,0:0:0:0:
312,58,250707,6,0,P|290:35|245:14,1,75.0000028610231,10|0,0:1|0:0,0:0:0:0:
85,19,251040,5,10,0:1:0:0:
95,30,251123,1,2,0:0:0:0:
102,45,251207,1,2,0:0:0:0:
102,59,251290,1,2,0:0:0:0:
134,135,251373,5,10,0:0:0:0:
117,155,251457,1,2,0:0:0:0:
110,179,251540,1,2,0:0:0:0:
112,205,251623,1,10,0:0:0:0:
87,290,251707,5,10,0:0:0:0:
123,274,251790,1,2,0:0:0:0:
163,274,251873,1,10,0:1:0:0:
197,294,251957,1,2,0:0:0:0:
217,328,252040,6,0,P|214:357|189:381,1,50,10|2,0:0|0:0,0:0:0:0:
91,193,252207,6,0,P|94:164|120:129,1,59.9999981689454,10|2,0:0|0:0,0:0:0:0:
276,5,252373,5,14,0:1:0:0:
341,72,252540,6,0,P|283:98|220:83,1,129.999994049073,10|0,0:1|0:0,0:0:0:0:
213,93,252873,6,0,P|284:111|351:80,1,150.000005722046,10|0,0:1|0:0,0:0:0:0:
360,88,253207,6,0,P|284:123|203:103,1,170.000003242493,10|0,0:1|0:0,0:0:0:0:
195,117,253540,6,0,P|285:139|369:100,1,189.999994926453,10|0,0:1|0:0,0:0:0:0:
91,313,254373,2,0,L|78:317,6,12.5
79,316,254707,6,0,B|55:300|55:300|38:256|67:221,1,112.500004291535
134,158,255040,5,14,0:1:0:0:
190,364,255207,1,8,0:0:0:0:
243,107,255373,5,10,0:1:0:0:
196,337,255540,1,8,0:0:0:0:
351,134,255707,5,10,0:1:0:0:
384,369,255873,1,8,0:1:0:0:
472,203,256040,1,8,0:0:0:0:
418,41,256207,6,0,B|395:80|400:114|400:114|303:56,1,165.000005035401,10|0,0:1|0:0,0:0:0:0:
251,90,256540,2,0,P|249:39|293:-2,1,110.000003356934,10|8,0:1|0:0,0:0:0:0:
472,203,256873,5,8,0:1:0:0:
451,228,256957,1,8,0:1:0:0:
444,260,257040,1,8,0:1:0:0:
452,292,257123,1,8,0:1:0:0:
472,317,257207,1,8,0:1:0:0:
340,384,257373,5,10,0:0:0:0:
267,174,257540,1,12,0:1:0:0:
151,371,257707,6,0,P|145:320|180:254,1,110.000003356934,2|8,0:1|0:1,0:0:0:0:
472,317,258040,2,0,P|477:262|455:213,1,110.000003356934,10|8,0:0|0:1,0:0:0:0:
241,16,258373,5,2,0:0:0:0:
173,74,258540,2,0,B|153:98|122:92|122:92|123:61|148:48,1,110.000003356934,8|8,0:1|0:0,0:0:0:0:
358,201,258873,1,2,0:0:0:0:
358,201,258957,1,2,0:0:0:0:
358,201,259040,2,0,B|377:225|408:219|408:219|407:188|382:175,1,110.000003356934,8|0,0:1|0:0,0:0:0:0:
128,282,259373,2,0,B|109:306|78:300|78:300|79:269|104:256,1,110.000003356934,8|0,0:0|0:0,0:0:0:0:
180,217,259623,5,10,0:0:0:0:
180,217,259707,1,8,0:0:0:0:
266,353,259873,1,8,0:1:0:0:
269,181,260040,5,8,0:0:0:0:
175,381,260207,1,8,0:0:0:0:
0,276,260373,6,0,B|52:294|96:253|96:253|71:187|121:138,1,225.000008583069,14|0,0:1|0:0,0:0:0:0:
156,73,260707,2,0,B|193:96|194:139|194:139|211:108,1,110.000003356934,10|0,0:0|0:0,0:0:0:0:
454,6,261040,1,2,0:0:0:0:
393,84,261207,2,0,B|356:61|355:18|355:18|337:48,1,110.000003356934,8|8,0:1|0:0,0:0:0:0:
410,253,261540,5,2,0:0:0:0:
410,253,261623,1,2,0:0:0:0:
410,253,261707,2,0,B|419:313|482:325|482:325|500:297|497:267,1,165.000005035401,10|0,0:1|0:0,0:0:0:0:
468,197,262040,2,0,P|378:169|334:276,1,220.000006713867,8|0,0:0|0:0,0:0:0:0:
345,384,262540,5,8,0:1:0:0:
250,148,262707,1,10,0:0:0:0:
124,368,262873,1,8,0:0:0:0:
0,214,263040,6,0,B|44:207|69:239|69:239|84:192|126:172|171:184|171:184|156:141,1,240,14|0,0:1|0:0,0:0:0:0:
145,259,263373,2,0,B|152:306|201:307|201:307|227:283,1,110.000003356934,10|0,0:0|0:0,0:0:0:0:
397,138,263707,5,2,0:0:0:0:
361,377,263873,1,8,0:1:0:0:
402,116,264040,1,8,0:0:0:0:
496,270,264207,5,10,0:1:0:0:
496,270,264290,1,2,0:1:0:0:
496,270,264373,1,2,0:0:0:0:
430,37,264540,1,10,0:1:0:0:
294,149,264707,6,8,B|308:169|334:181|334:181|384:169|402:116,1,150.000005722046,8|0,0:0|0:0,0:0:0:0:
437,44,264957,1,10,0:0:0:0:
437,44,265040,1,8,0:0:0:0:
496,270,265207,5,10,0:1:0:0:
347,52,265373,1,8,0:0:0:0:
276,340,265540,1,8,0:0:0:0:
130,199,265707,5,14,0:1:0:0:
399,250,265873,1,8,0:0:0:0:
347,143,266040,5,10,0:1:0:0:
147,326,266207,1,8,0:0:0:0:
272,367,266373,5,10,0:1:0:0:
205,98,266540,1,8,0:1:0:0:
130,199,266707,1,8,0:0:0:0:
382,268,266873,6,0,B|429:257|459:291|459:291|509:272|505:210,1,165.000005035401,10|0,0:1|0:0,0:0:0:0:
503,154,267207,2,0,B|488:130|488:130|492:90|492:90|468:38,1,110.000003356934,10|8,0:1|0:0,0:0:0:0:
263,0,267540,5,8,0:1:0:0:
257,38,267623,1,8,0:1:0:0:
229,64,267707,1,8,0:1:0:0:
191,70,267790,1,8,0:1:0:0:
156,51,267873,1,8,0:1:0:0:
188,230,268040,5,10,0:0:0:0:
137,17,268207,1,12,0:1:0:0:
11,152,268373,6,0,B|-16:193|-1:230|-1:230|27:252,1,110.000003356934,2|8,0:0|0:1,0:0:0:0:
330,175,268707,2,0,B|351:157|351:157|366:120|339:79,1,110.000003356934,10|8,0:0|0:1,0:0:0:0:
175,313,269040,5,2,0:0:0:0:
268,349,269207,2,0,B|295:344|323:350|323:350|345:333|375:328,1,110.000003356934,8|8,0:1|0:0,0:0:0:0:
165,177,269540,1,2,0:0:0:0:
165,177,269623,1,2,0:0:0:0:
165,177,269707,2,0,B|138:172|110:178|110:178|88:161|58:156,1,110.000003356934,8|0,0:1|0:0,0:0:0:0:
318,51,270040,2,0,B|345:46|373:52|373:52|395:35|425:30,1,110.000003356934,8|0,0:0|0:0,0:0:0:0:
512,33,270290,5,10,0:0:0:0:
512,33,270373,1,8,0:0:0:0:
407,212,270540,1,8,0:1:0:0:
422,30,270707,5,8,0:0:0:0:
496,247,270873,1,8,0:0:0:0:
363,384,271040,5,14,0:0:0:0:
273,141,271207,1,8,0:1:0:0:
241,271,271373,1,8,0:1:0:0:
170,59,271540,5,10,0:0:0:0:
248,297,271707,1,8,0:1:0:0:
280,167,271873,1,8,0:1:0:0:
82,324,272040,5,10,0:0:0:0:
164,85,272207,1,8,0:1:0:0:
373,148,272373,5,10,0:0:0:0:
47,170,272540,1,8,0:1:0:0:
170,59,272707,1,8,0:1:0:0:
231,319,272873,5,10,0:0:0:0:
178,32,273040,1,8,0:1:0:0:
82,324,273207,5,10,0:1:0:0:
186,6,273373,1,8,0:0:0:0:
256,192,273540,5,8,0:0:0:0:
256,192,273623,1,8,0:0:0:0:
256,192,273707,1,14,0:1:0:0:
362,116,273873,6,0,B|399:92|387:46|387:46|385:60|377:73,1,110.000003356934,14|0,0:1|0:0,0:0:0:0:
268,321,274207,2,0,B|269:366|316:379|316:379|304:369|298:356,1,110.000003356934,14|0,0:1|0:0,0:0:0:0:
137,138,274540,2,0,B|98:117|63:150|63:150|78:145|92:146,1,110.000003356934,14|0,0:1|0:0,0:0:0:0:
256,192,274873,5,10,0:1:0:0:
377,73,275040,5,14,0:1:0:0:
206,17,275207,6,0,B|200:4|188:-6|188:-6|235:8|236:52,1,110.000003356934,14|0,0:1|0:0,0:0:0:0:
129,322,275540,2,0,B|121:334|118:349|118:349|107:302|144:279,1,110.000003356934,14|0,0:1|0:0,0:0:0:0:
432,236,275873,2,0,B|446:237|461:232|461:232|425:265|387:244,1,110.000003356934,14|0,0:1|0:0,0:0:0:0:
206,17,276207,5,10,0:1:0:0:
316,83,276373,2,0,B|368:126|428:127|508:71|450:26|396:45|396:78,1,225.000008583069,14|0,0:1|0:0,0:0:0:0:
332,182,276707,6,0,P|308:234|327:299,1,119.999996337891,10|0,0:2|0:0,0:0:0:0:
146,110,277040,2,0,P|160:52|136:0,1,119.999996337891,2|8,0:0|0:1,0:0:0:0:
0,221,277373,5,10,0:0:0:0:
113,308,277540,1,2,0:0:0:0:
113,308,277623,1,2,0:0:0:0:
113,308,277707,2,0,L|232:300,1,119.999996337891,10|0,0:1|0:0,0:0:0:0:
474,264,278040,2,0,B|454:318|484:362|484:362|429:405|372:362|395:298,1,239.999992675781,10|0,0:0|0:0,0:0:0:0:
448,135,278540,5,8,0:1:0:0:
316,277,278707,1,8,0:0:0:0:
257,95,278873,1,8,0:0:0:0:
120,200,279040,6,0,B|82:274|146:316|146:316|196:295,1,179.999994506836,10|0,0:1|0:0,0:0:0:0:
240,240,279373,1,10,0:0:0:0:
119,105,279540,1,2,0:0:0:0:
267,2,279707,2,0,B|275:41|275:41|265:74|265:74|277:117,1,119.999996337891,2|8,0:0|0:1,0:0:0:0:
178,30,280040,5,10,0:0:0:0:
365,87,280207,1,2,0:0:0:0:
365,87,280290,1,2,0:0:0:0:
365,87,280373,2,0,B|407:79|407:79|440:98|488:79,1,119.999996337891,8|0,0:1|0:0,0:0:0:0:
204,193,280707,2,0,B|162:185|162:185|129:204|81:185,1,119.999996337891,10|0,0:0|0:0,0:0:0:0:
22,148,280957,1,10,0:0:0:0:
22,148,281040,1,8,0:0:0:0:
178,30,281207,5,10,0:1:0:0:
211,218,281373,1,8,0:0:0:0:
370,111,281540,1,8,0:0:0:0:
470,267,281707,6,0,B|515:294|515:294|465:209|465:209|370:225,1,240,14|0,0:1|0:0,0:0:0:0:
312,270,282040,2,0,P|295:317|321:387,1,119.999996337891,10|0,0:0|0:0,0:0:0:0:
468,174,282373,5,2,0:0:0:0:
265,132,282540,1,8,0:1:0:0:
491,180,282707,1,8,0:0:0:0:
292,41,282873,5,2,0:0:0:0:
292,41,282957,1,2,0:0:0:0:
292,41,283040,1,8,0:1:0:0:
376,112,283207,2,0,P|400:59|393:-2,1,119.999996337891,2|8,0:0|0:0,0:0:0:0:
182,105,283540,1,10,0:1:0:0:
182,105,283623,2,0,B|168:170|215:203|215:203|174:201|139:240,1,179.999994506836,8|8,0:0|0:1,0:0:0:0:
0,127,284040,5,10,0:0:0:0:
0,127,284207,1,8,0:0:0:0:
126,304,284373,6,0,B|142:355|200:396|256:386|317:331|258:273|228:271|200:292|200:292,1,259.999988098145,14|0,0:1|0:0,0:0:0:0:
389,85,284873,6,0,B|373:34|315:-7|259:3|198:58|257:116|287:118|315:97|315:97,1,259.999988098145,14|0,0:1|0:0,0:0:0:0:
126,304,285373,6,0,B|141:357|202:400|262:390|327:335|266:271|236:266|201:291|201:291,1,279.999991455078,14|0,0:1|0:0,0:0:0:0:
389,85,285873,6,0,B|373:31|312:-11|252:-1|187:56|250:118|279:123|314:98|314:98,1,279.999991455078,14|0,0:1|0:0,0:0:0:0:
426,253,286373,6,0,B|475:258|494:208|494:208|422:151|344:213,1,225.000008583069,10|0,0:1|0:0,0:0:0:0:
443,328,286707,2,0,P|498:280|493:208,1,150.000005722046,10|0,0:1|0:0,0:0:0:0:
313,99,287040,6,0,B|243:142|151:112|193:53|93:7|4:84|4:84|39:146|97:150|97:150|60:197|78:243|78:243|101:236|112:222,1,595.000011348725,12|0,0:2|0:0,0:0:0:0:
239,155,288373,5,14,0:1:0:0:
202,303,288540,1,8,0:0:0:0:
352,211,288707,5,10,0:1:0:0:
315,359,288873,1,8,0:0:0:0:
465,267,289040,5,10,0:1:0:0:
465,267,289207,1,8,0:1:0:0:
339,118,289373,5,10,0:0:0:0:
352,211,289540,2,0,P|432:127|372:28,1,239.999992675781,8|8,0:1|0:1,0:0:0:0:
339,118,290040,1,8,0:0:0:0:
232,1,290207,5,8,0:1:0:0:
242,42,290290,1,8,0:1:0:0:
227,81,290373,1,8,0:1:0:0:
190,104,290457,1,8,0:1:0:0:
148,100,290540,1,8,0:1:0:0:
226,218,290707,5,10,0:0:0:0:
91,288,290873,2,0,B|51:307|13:286|13:286|-20:176|65:75,1,300.000011444092,14|8,0:1|0:1,0:0:0:0:
59,81,291373,1,8,0:0:0:0:
226,218,291540,2,0,B|259:239|300:219|300:219|328:138|265:59,1,239.999992675781,10|8,0:1|0:1,0:0:0:0:
270,66,292040,1,8,0:0:0:0:
396,203,292207,5,2,0:0:0:0:
396,203,292290,1,2,0:0:0:0:
396,203,292373,2,0,B|454:222|454:222|509:184,1,119.999996337891,10|0,0:1|0:0,0:0:0:0:
270,66,292707,2,0,B|221:32|221:32|163:51,1,119.999996337891,10|0,0:0|0:0,0:0:0:0:
94,91,292957,5,10,0:0:0:0:
94,91,293040,1,8,0:0:0:0:
270,159,293207,1,10,0:1:0:0:
313,238,293373,5,10,0:0:0:0:
47,256,293540,1,10,0:0:0:0:
173,384,293707,6,0,B|182:344|182:344|175:318|175:318|186:266,1,119.999996337891,14|0,0:1|0:0,0:0:0:0:
351,138,294040,1,10,0:0:0:0:
450,277,294207,2,0,B|441:238|441:238|448:211|448:211|436:159,1,119.999996337891,2|0,0:0|0:0,0:0:0:0:
224,45,294540,1,10,0:1:0:0:
125,184,294707,2,0,B|134:147|134:147|127:118|127:118|140:66,1,119.999996337891,10|0,0:0|0:0,0:0:0:0:
324,0,295040,5,10,0:1:0:0:
273,202,295207,1,2,0:0:0:0:
273,202,295290,1,2,0:0:0:0:
273,202,295373,1,10,0:0:0:0:
451,47,295540,5,2,0:0:0:0:
423,270,295707,1,2,0:0:0:0:
302,102,295873,1,10,0:1:0:0:
157,218,296040,5,10,0:0:0:0:
406,168,296207,1,10,0:0:0:0:
287,378,296373,6,0,B|273:315|305:281|305:281|273:251|269:203|269:203|304:166|302:101,2,300.000011444092,14|8|0,0:1|0:0|0:0,0:0:0:0:
423,270,297207,5,8,0:1:0:0:
157,218,297373,1,12,0:0:0:0:
309,110,297540,5,10,0:0:0:0:
309,110,297623,1,2,0:0:0:0:
309,110,297707,1,6,0:0:0:0:
209,280,297873,1,8,0:1:0:0:
41,174,298040,2,0,P|32:121|66:48,1,119.999996337891,12|0,0:0|0:0,0:0:0:0:
114,8,298290,5,8,0:0:0:0:
114,8,298373,1,10,0:0:0:0:
252,185,298540,1,10,0:1:0:0:
380,75,298707,1,10,0:0:0:0:
380,75,298873,1,8,0:0:0:0:
444,146,299040,1,10,0:0:0:0:
444,146,299207,1,8,0:0:0:0:
366,52,299373,5,8,0:1:0:0:
325,259,299540,1,8,0:0:0:0:
223,88,299707,6,0,B|222:128|243:161|243:161|195:194|200:253|200:253|136:246|136:190,1,279.999991455078,14|8,0:1|0:0,0:0:0:0:
325,259,300207,6,0,B|340:339|441:348|441:348|423:308|459:258,1,239.999992675781,8|8,0:1|0:1,0:0:0:0:
512,182,300707,1,8,0:0:0:0:
380,64,300873,5,8,0:1:0:0:
354,98,300957,1,8,0:1:0:0:
317,118,301040,1,8,0:1:0:0:
275,118,301123,1,8,0:1:0:0:
237,97,301207,1,8,0:1:0:0:
283,251,301373,5,10,0:0:0:0:
209,65,301540,2,0,B|185:15|126:16|126:16|188:101|133:201,1,300.000011444092,14|8,0:1|0:1,0:0:0:0:
132,201,302040,1,8,0:0:0:0:
269,352,302207,1,10,0:1:0:0:
269,352,302290,1,2,0:0:0:0:
269,352,302373,2,0,B|306:347|306:347|336:362|336:362|399:357,1,119.999996337891,2|8,0:0|0:1,0:0:0:0:
251,109,302707,5,10,0:0:0:0:
158,302,302873,1,2,0:0:0:0:
158,302,302957,1,2,0:0:0:0:
158,302,303040,1,10,0:1:0:0:
38,125,303207,1,2,0:0:0:0:
251,109,303373,2,0,B|288:104|288:104|318:119|318:119|381:114,1,119.999996337891,10|0,0:0|0:0,0:0:0:0:
435,72,303623,5,8,0:0:0:0:
435,72,303707,1,10,0:0:0:0:
345,220,303873,1,10,0:1:0:0:
343,33,304040,5,10,0:0:0:0:
428,252,304207,1,10,0:0:0:0:
366,115,304373,5,14,0:2:0:0:
241,312,304540,1,8,0:1:0:0:
196,213,304707,1,8,0:1:0:0:
343,33,304873,5,10,0:0:0:0:
428,252,305040,1,8,0:1:0:0:
473,153,305207,1,8,0:1:0:0:
334,10,305373,5,10,0:0:0:0:
288,205,305540,1,8,0:1:0:0:
183,58,305707,5,10,0:0:0:0:
378,166,305873,1,10,0:1:0:0:
480,131,306040,1,10,0:1:0:0:
352,285,306207,5,10,0:0:0:0:
157,177,306373,1,10,0:1:0:0:
55,212,306540,1,10,0:1:0:0:
188,384,306707,5,10,0:0:0:0:
280,183,306873,1,10,0:0:0:0:
407,382,307040,5,14,0:1:0:0:
467,293,307207,2,0,B|482:264|486:239|486:239|480:195|443:156,1,139.999995727539,14|0,0:1|0:0,0:0:0:0:
117,293,307540,2,0,B|102:264|98:239|98:239|104:195|141:156,1,139.999995727539,14|0,0:1|0:0,0:0:0:0:
487,294,307873,2,0,B|502:265|506:240|506:240|500:196|463:157,1,139.999995727539,14|0,0:1|0:0,0:0:0:0:
269,13,308207,5,10,0:1:0:0:
147,157,308373,5,14,0:1:0:0:
312,261,308540,6,0,B|340:296|320:338|385:359|388:304|378:287|339:283,1,150.000005722046,14|0,0:1|0:0,0:0:0:0:
202,82,308873,2,0,B|174:47|194:5|129:-16|126:39|136:56|175:60,1,150.000005722046,14|0,0:1|0:0,0:0:0:0:
347,284,309207,2,0,B|375:319|355:361|420:382|423:327|413:310|374:306,1,150.000005722046,14|0,0:1|0:0,0:0:0:0:
167,59,309540,5,10,0:1:0:0:
308,81,309707,6,0,B|350:74|350:74|374:83|374:83|425:75,1,119.999996337891,14|0,0:3|0:0,0:0:0:0:
260,205,310040,2,0,B|294:229|294:229|305:253|305:253|346:283,1,119.999996337891,10|0,0:3|0:0,0:0:0:0:
138,258,310373,2,0,B|144:300|144:300|135:324|135:324|143:375,1,119.999996337891,10|0,0:3|0:0,0:0:0:0:
347,284,310707,5,10,0:3:0:0:
347,284,310873,2,0,B|348:349|413:357|413:357|439:320,1,150.000005722046,10|0,0:3|0:0,0:0:0:0:
444,318,311373,6,0,L|454:231,1,75.0000028610231,2|0,0:0|0:0,0:0:0:0:
461,238,311707,2,0,L|452:312,1,75.0000028610231,2|0,0:0|0:0,0:0:0:0:
311,205,312040,5,8,0:0:0:0:
311,205,312207,1,8,0:0:0:0:
380,127,312373,6,0,B|434:116|434:53|434:53|415:65,1,119.999996337891,10|0,0:3|0:0,0:0:0:0:
311,205,312707,2,0,B|293:257|348:288|348:288|347:266,1,119.999996337891,10|0,0:3|0:0,0:0:0:0:
277,106,313040,2,0,B|240:64|185:96|185:96|205:106,1,119.999996337891,10|0,0:3|0:0,0:0:0:0:
380,127,313373,5,10,0:3:0:0:
380,127,313540,2,0,B|395:185|459:178|459:178|502:115,1,150.000005722046,10|0,0:3|0:0,0:0:0:0:
490,133,314040,6,0,L|481:53,1,75.0000028610231,2|0,0:0|0:0,0:0:0:0:
489,52,314373,2,0,L|497:126,1,75.0000028610231,2|0,0:0|0:0,0:0:0:0:
103,16,315040,6,0,P|137:62|192:49,1,119.999996337891,14|0,0:3|0:0,0:0:0:0:
359,160,315373,2,0,P|325:205|270:192,1,119.999996337891,10|0,0:3|0:0,0:0:0:0:
101,313,315707,2,0,P|155:327|189:282,1,119.999996337891,10|0,0:3|0:0,0:0:0:0:
116,131,316040,5,10,0:3:0:0:
116,131,316207,2,0,B|89:151|89:151|27:118|48:54,1,150.000005722046,10|0,0:1|0:0,0:0:0:0:
53,46,316707,6,0,L|140:30,1,75.0000028610231,2|0,0:0|0:0,0:0:0:0:
132,24,317040,2,0,L|45:40,1,75.0000028610231,2|0,0:0|0:0,0:0:0:0:
256,192,317373,5,8,0:0:0:0:
256,192,317540,1,8,0:0:0:0:
354,120,317707,6,0,B|387:106|391:64|391:64|361:69|353:103,1,119.999996337891,10|0,0:3|0:0,0:0:0:0:
269,312,318040,2,0,B|264:348|298:373|298:373|309:344|284:320,1,119.999996337891,10|0,0:3|0:0,0:0:0:0:
144,143,318373,2,0,B|116:121|77:138|77:138|97:162|130:152,1,119.999996337891,10|0,0:3|0:0,0:0:0:0:
256,192,318707,5,10,0:3:0:0:
256,192,318873,2,0,B|280:244|339:236|339:236|350:214|382:193,1,150.000005722046,10|0,0:3|0:0,0:0:0:0:
380,198,319373,6,0,L|398:106,1,75.0000028610231,2|0,0:0|0:0,0:0:0:0:
404,123,319707,2,0,L|389:196,1,75.0000028610231,2|0,0:0|0:0,0:0:0:0:
258,351,320040,5,8,0:1:0:0:
186,40,320207,1,8,0:1:0:0:
