osu file format v14

[General]
AudioFilename: audio.mp3
AudioLeadIn: 0
PreviewTime: 12139
Countdown: 0
SampleSet: Soft
StackLeniency: 0.4
Mode: 0
LetterboxInBreaks: 0
WidescreenStoryboard: 0

[Editor]
Bookmarks: 16491
DistanceSpacing: 1
BeatDivisor: 4
GridSize: 32
TimelineZoom: 1.6

[Metadata]
Title:JuDGMENT/SHADoW ~T06481T0~
TitleUnicode:JuDGMENT/SHΛDoW~T06481T0~
Artist:No:R
ArtistUnicode:No:R
Creator:Bellicose
Version:Origami
Source:白刃きらめく恋しらべ
Tags:ジャッジメントシャドウ~とがびと~ ALNEAR めくらべ Mekurabe Shiraha Kirameku Koi Shirabe crystalia togabito eroge japanese vn visual novel electronic video game opening
BeatmapID:2234002
BeatmapSetID:1067036

[Difficulty]
HPDrainRate:6
CircleSize:4
OverallDifficulty:8.8
ApproachRate:9.3
SliderMultiplier:1.8
SliderTickRate:1

[Events]
//Background and Video events
0,0,"bgmatsurika.jpg",0,0
//Break Periods
//Storyboard Layer 0 (Background)
//Storyboard Layer 1 (Fail)
//Storyboard Layer 2 (Pass)
//Storyboard Layer 3 (Foreground)
//Storyboard Layer 4 (Overlay)
//Storyboard Sound Samples

[TimingPoints]
1306,333.333333333333,4,2,1,50,1,0
1306,-200,4,2,1,50,0,0
6639,-100,4,2,1,50,0,0
11139,-100,4,2,1,60,0,0
12314,333.333333333333,4,2,1,50,1,0
12314,-50,4,2,1,80,0,0
12564,-50,4,2,1,5,0,0
12647,-66.6666666666667,4,2,1,70,0,0
13980,-62.5,4,2,1,70,0,0
14313,-66.6666666666667,4,2,1,70,0,0
15230,-66.6666666666667,4,2,1,5,0,0
15313,-66.6666666666667,4,2,1,70,0,0
17647,-41.6666666666667,4,2,1,80,0,0
17980,-66.6666666666667,4,2,1,70,0,0
20063,-66.6666666666667,4,2,1,5,0,0
20147,-66.6666666666667,4,2,1,70,0,0
20230,-66.6666666666667,4,2,1,5,0,0
20313,-100,4,2,1,70,0,0
20730,-100,4,2,1,5,0,0
20813,-100,4,2,1,70,0,0
21230,-100,4,2,1,5,0,0
21313,-100,4,2,1,70,0,0
21730,-100,4,2,1,5,0,0
21813,-100,4,2,1,70,0,0
22230,-100,4,2,1,5,0,0
22313,-58.8235294117647,4,2,1,70,0,0
22563,-58.8235294117647,4,2,1,5,0,0
22647,-58.8235294117647,4,2,1,70,0,0
22897,-58.8235294117647,4,2,1,5,0,0
22980,-76.9230769230769,4,2,1,80,0,0
23230,-76.9230769230769,4,2,1,5,0,0
23313,-76.9230769230769,4,2,1,70,0,0
25397,-76.9230769230769,4,2,1,5,0,0
25480,-76.9230769230769,4,2,1,70,0,0
25563,-76.9230769230769,4,2,1,5,0,0
25647,-76.9230769230769,4,2,1,70,0,0
28313,-58.8235294117647,4,2,1,70,0,0
28480,-76.9230769230769,4,2,1,60,0,0
30980,-100,4,2,1,70,0,0
31397,-100,4,2,1,5,0,0
31480,-100,4,2,1,70,0,0
31897,-100,4,2,1,5,0,0
31980,-100,4,2,1,70,0,0
32397,-100,4,2,1,5,0,0
32480,-100,4,2,1,70,0,0
32897,-100,4,2,1,5,0,0
32980,-58.8235294117647,4,2,1,70,0,0
33230,-58.8235294117647,4,2,1,5,0,0
33313,-58.8235294117647,4,2,1,70,0,0
33563,-58.8235294117647,4,2,1,5,0,0
33647,-58.8235294117647,4,2,1,50,0,0
34980,-100,4,2,1,50,0,0
44313,-66.6666666666667,4,2,1,70,0,0
46813,-166.666666666667,4,2,1,70,0,0
48313,-66.6666666666667,4,2,1,70,0,0
50147,-83.3333333333333,4,2,1,70,0,0
50980,-66.6666666666667,4,2,1,70,0,0
52147,-166.666666666667,4,2,1,70,0,0
53647,-66.6666666666667,4,2,1,70,0,0
55063,-66.6666666666667,4,2,1,5,0,0
55147,-166.666666666667,4,2,1,50,0,0
56313,-200,4,2,1,50,0,0
62230,-200,4,2,1,5,0,0
62313,-200,4,2,1,50,0,0
62897,-200,4,2,1,5,0,0
62980,-142.857142857143,4,2,1,60,0,0
63813,-111.111111111111,4,2,1,70,0,0
64313,-76.9230769230769,4,2,1,60,0,0
64647,-76.9230769230769,4,2,1,65,0,0
64980,-76.9230769230769,4,2,1,70,0,0
65313,-76.9230769230769,4,2,1,75,0,0
65647,-66.6666666666667,4,2,1,80,0,0
66980,-66.6666666666667,4,2,1,50,0,0
67980,-125,4,2,1,50,0,0
68230,-125,4,2,1,5,0,0
68313,-71.4285714285714,4,2,1,75,0,1
73647,-52.6315789473684,4,2,1,85,0,1
73897,-52.6315789473684,4,2,1,5,0,1
73980,-71.4285714285714,4,2,1,75,0,1
74230,-71.4285714285714,4,2,1,5,0,1
74313,-71.4285714285714,4,2,1,75,0,1
76313,-52.6315789473684,4,2,1,85,0,1
76563,-52.6315789473684,4,2,1,5,0,1
76647,-71.4285714285714,4,2,1,75,0,1
76897,-71.4285714285714,4,2,1,5,0,1
76980,-71.4285714285714,4,2,1,75,0,1
77730,-71.4285714285714,4,2,1,5,0,1
77813,-71.4285714285714,4,2,1,75,0,1
78980,-52.6315789473684,4,2,1,85,0,1
79147,-71.4285714285714,4,2,1,75,0,1
86980,-66.6666666666667,4,2,1,75,0,1
88313,-58.8235294117647,4,2,1,80,0,1
89480,-58.8235294117647,4,2,1,80,0,0
89647,-45.4545454545455,4,2,1,85,0,1
89897,-45.4545454545455,4,2,1,5,0,1
89980,-66.6666666666667,4,2,1,70,0,1
91313,-62.5,4,2,1,70,0,1
91647,-66.6666666666667,4,2,1,70,0,1
92563,-66.6666666666667,4,2,1,5,0,1
92647,-66.6666666666667,4,2,1,70,0,1
94980,-41.6666666666667,4,2,1,80,0,1
95313,-66.6666666666667,4,2,1,70,0,1
97397,-66.6666666666667,4,2,1,5,0,1
97480,-66.6666666666667,4,2,1,70,0,1
97563,-66.6666666666667,4,2,1,5,0,1
97647,-100,4,2,1,70,0,1
98063,-100,4,2,1,5,0,1
98147,-100,4,2,1,70,0,1
98563,-100,4,2,1,5,0,1
98647,-100,4,2,1,70,0,1
99063,-100,4,2,1,5,0,1
99147,-100,4,2,1,70,0,1
99563,-100,4,2,1,5,0,1
99647,-58.8235294117647,4,2,1,70,0,1
99897,-58.8235294117647,4,2,1,5,0,1
99980,-58.8235294117647,4,2,1,70,0,1
100230,-58.8235294117647,4,2,1,5,0,1
100313,-76.9230769230769,4,2,1,60,0,0
101647,-200,4,2,1,60,0,0
102980,-76.9230769230769,4,2,1,60,0,0
104313,-200,4,2,1,60,0,0
105647,-76.9230769230769,4,2,1,60,0,0
106980,-200,4,2,1,60,0,0
108313,-76.9230769230769,4,2,1,60,0,0
109647,-200,4,2,1,60,0,0

[Colours]
Combo1 : 254,107,166
Combo2 : 152,233,241

[HitObjects]
273,301,1306,6,2,B|224:321|216:428|370:443|385:323|406:215|255:182|255:182|218:247|132:272|64:203,1,630,6|0,0:0|0:1,0:1:0:0:
157,152,3805,5,2,0:0:0:0:
157,152,3889,1,2,0:0:0:0:
157,152,3972,2,0,B|113:150|65:106|89:47|134:10|175:20|218:51|224:51|226:113|184:123|370:150|414:51|359:8|359:8|318:15|290:79|340:132|415:157,1,675,2|0,0:0|0:0,0:0:0:0:
288,199,6639,5,4,0:0:0:0:
404,335,6972,2,0,L|314:329,1,90,2|0,0:0|0:0,0:0:0:0:
415,245,7305,2,0,L|402:342,1,90,2|0,0:0|0:0,0:0:0:0:
288,199,7639,1,2,0:0:0:0:
211,353,7805,6,0,P|234:291|155:228,1,180
33,362,8305,2,0,L|123:372,1,90,2|0,0:0|0:0,0:0:0:0:
211,353,8639,1,2,0:0:0:0:
77,263,8805,1,2,0:0:0:0:
122,372,8972,5,2,0:1:0:0:
237,205,9139,1,2,0:1:0:0:
72,99,9305,5,0,0:0:0:0:
244,45,9639,2,0,L|137:7,1,90,2|0,0:0|0:0,0:0:0:0:
205,126,9972,2,0,L|247:37,1,90,2|0,0:0|0:0,0:0:0:0:
72,99,10305,1,2,0:0:0:0:
196,236,10472,6,0,P|145:188|39:198,1,180
271,177,10972,2,0,P|320:157|378:165,1,90,2|0,0:0|0:0,0:0:0:0:
367,307,11305,5,8,0:0:0:0:
322,316,11389,1,8,0:0:0:0:
300,277,11472,1,8,0:0:0:0:
330,243,11555,1,8,0:0:0:0:
371,261,11639,1,0,3:0:0:0:
371,261,11805,1,0,3:0:0:0:
221,351,11972,5,8,0:0:0:0:
175,314,12055,1,8,0:0:0:0:
117,301,12139,1,8,0:0:0:0:
59,311,12222,1,8,0:0:0:0:
0,360,12314,6,0,B|43:380|43:380|116:249|10:120,1,270,6|0,3:2|0:0,0:0:0:0:
66,47,12647,2,0,P|12:153|155:218,1,270.000010299683,10|2,0:0|0:0,0:0:0:0:
345,82,13147,1,0,3:0:0:0:
233,157,13313,2,0,P|160:160|103:127,1,135.000005149842,8|2,0:0|0:0,0:0:0:0:
267,0,13647,5,0,3:0:0:0:
431,241,13813,1,2,0:0:0:0:
456,219,13897,1,2,0:0:0:0:
462,186,13980,2,0,B|311:131|354:314|163:259,1,288,10|0,0:0|0:0,0:0:0:0:
107,130,14480,1,0,3:0:0:0:
332,186,14647,1,8,0:0:0:0:
90,342,14813,1,8,0:0:0:0:
56,334,14897,1,8,0:0:0:0:
41,304,14980,6,0,B|72:294|90:262|90:262|133:309|114:352|211:360,1,202.500007724762,2|0,3:2|0:0,0:0:0:0:
216,355,15313,1,10,0:0:0:0:
15,223,15480,1,2,0:0:0:0:
204,267,15647,2,0,B|222:193|184:161|184:161|186:190,1,135.000005149842,2|0,0:0|3:0,0:0:0:0:
204,267,15980,1,10,0:0:0:0:
389,357,16147,6,0,P|367:277|411:195,1,135.000005149842,2|0,0:0|3:0,0:0:0:0:
493,153,16480,1,2,0:0:0:0:
271,106,16647,2,0,P|335:101|389:180,1,135.000005149842,8|2,0:0|0:0,0:0:0:0:
381,229,16897,1,8,0:0:0:0:
359,252,16980,2,0,B|329:279|329:279|292:225|308:157,1,135.000005149842,8|2,0:0|3:2,0:0:0:0:
416,34,17313,1,8,0:0:0:0:
485,263,17480,1,8,0:0:0:0:
109,341,17647,6,0,B|-15:210|64:26|203:55|231:171|142:245,1,431.999986816407,6|8,3:2|0:0,0:0:0:0:
171,210,18313,5,2,0:0:0:0:
209,80,18480,1,2,3:2:0:0:
320,243,18647,5,10,0:0:0:0:
226,107,18813,1,2,0:0:0:0:
39,313,18980,6,0,P|16:251|51:159,1,135.000005149842,0|2,3:0|0:0,0:0:0:0:
245,138,19313,1,8,0:0:0:0:
198,370,19480,2,0,P|147:327|131:230,1,135.000005149842,2|0,0:0|0:0,0:0:0:0:
441,334,19813,5,2,3:2:0:0:
255,282,19980,2,0,P|258:243|281:211,1,67.5000025749208,8|0,0:0|0:0,0:0:0:0:
435,106,20147,2,0,P|449:135|450:169,1,67.5000025749208,10|0,0:0|0:0,0:0:0:0:
142,211,20313,6,0,B|80:223|33:182|25:117|25:117|61:132|75:179,1,225,6|0,3:2|0:0,0:0:0:0:
201,264,20813,6,0,B|181:322|121:343|61:319|61:319|93:293|140:304,1,225,2|0,3:2|0:0,0:0:0:0:
277,241,21313,6,0,B|318:286|306:348|255:388|255:388|249:348|281:312,1,225,2|0,3:2|0:0,0:0:0:0:
297,161,21813,6,0,B|357:147|405:188|413:253|413:253|376:238|362:191,1,225,2|0,3:2|0:0,0:0:0:0:
237,108,22313,6,0,B|255:48|315:27|375:51|375:51|344:77|297:68,1,229.500004377365,2|0,3:2|0:0,0:0:0:0:
159,130,22647,6,0,B|116:83|128:20|179:-17|179:-17|185:21|155:56,1,229.500004377365,2|0,3:2|0:0,0:0:0:0:
163,269,22980,6,0,B|67:269|111:198|-16:208,1,175.499991966248,6|0,3:2|0:0,0:0:0:0:
5,207,23313,2,0,B|44:240|44:240|141:243|223:181,1,233.999989288331,10|0,0:0|0:0,0:0:0:0:
313,251,23814,1,0,3:0:0:0:
196,341,23980,2,0,P|129:333|57:365,1,116.999994644165,8|0,0:0|0:0,0:0:0:0:
214,186,24314,5,0,3:0:0:0:
347,333,24480,1,0,0:0:0:0:
386,112,24647,2,0,P|325:119|272:90,1,116.999994644165,10|0,0:0|0:0,0:0:0:0:
492,174,24980,1,2,0:0:0:0:
489,56,25147,1,0,3:0:0:0:
322,198,25313,6,0,P|320:241|348:275,1,58.4999973220826,8|0,0:0|0:0,0:0:0:0:
436,344,25480,2,0,P|438:301|410:267,1,58.4999973220826,8|0,0:0|0:0,0:0:0:0:
208,180,25647,6,0,P|139:207|110:260,1,116.999994644165,0|0,3:0|0:0,0:0:0:0:
238,384,25980,2,0,P|201:316|217:270,1,116.999994644165,10|0,0:0|0:0,0:0:0:0:
326,254,26313,1,2,0:0:0:0:
125,363,26480,1,0,3:0:0:0:
34,168,26647,2,0,P|27:96|52:41,1,116.999994644165,8|2,0:0|0:0,0:0:0:0:
209,281,26980,5,0,3:0:0:0:
23,252,27147,1,2,0:0:0:0:
269,145,27313,2,0,P|337:157|383:207,1,116.999994644165,10|2,0:0|0:0,0:0:0:0:
391,266,27563,1,8,0:0:0:0:
381,292,27647,1,8,0:0:0:0:
191,180,27813,1,0,3:0:0:0:
452,123,27980,2,0,P|473:188|465:249,1,116.999994644165,8|8,0:0|0:0,0:0:0:0:
175,384,28313,6,0,B|127:329|141:272|141:272|174:332,1,153.000002918243,6|2,3:2|0:0,0:0:0:0:
374,313,28647,2,0,P|315:336|235:315,1,116.999994644165,10|0,0:0|0:0,0:0:0:0:
452,123,28980,1,2,0:0:0:0:
468,235,29147,1,0,3:0:0:0:
301,63,29313,2,0,P|243:57|189:79,1,116.999994644165,10|2,0:0|0:0,0:0:0:0:
262,329,29647,5,0,3:0:0:0:
468,235,29813,1,0,0:0:0:0:
200,159,29980,6,0,L|74:177,1,116.999994644165,10|2,0:0|0:0,0:0:0:0:
262,329,30313,2,0,L|136:347,1,116.999994644165,2|2,0:0|3:2,0:0:0:0:
376,212,30647,5,10,0:0:0:0:
121,247,30813,1,10,0:0:0:0:
376,212,30980,6,0,B|447:205|493:249|493:249|433:257|376:213,1,225,6|0,3:2|0:0,0:0:0:0:
357,133,31480,6,0,B|387:68|448:49|448:49|425:106|358:133,1,225,2|0,3:2|0:0,0:0:0:0:
280,108,31980,6,0,B|239:51|253:-11|253:-11|291:36|281:108,1,225,2|0,3:2|0:0,0:0:0:0:
221,164,32480,6,0,B|151:171|104:127|104:127|165:119|221:163,1,225,2|0,3:2|0:0,0:0:0:0:
237,244,32980,6,0,B|210:308|149:327|149:327|171:270|238:243,1,229.500004377365,2|0,3:2|0:0,0:0:0:0:
317,267,33313,6,0,B|359:322|344:384|344:384|306:336|316:265,1,229.500004377365,2|0,3:2|0:0,0:0:0:0:
300,189,33647,5,0,0:0:0:0:
120,99,34980,6,0,L|209:93,1,90,4|0,3:2|0:0,0:0:0:0:
290,52,35313,2,0,P|251:84|281:210,1,180,8|0,0:0|0:0,0:0:0:0:
330,135,35813,1,0,3:0:0:0:
318,277,35980,5,10,0:0:0:0:
166,236,36147,1,2,0:0:0:0:
385,213,36313,5,2,3:2:0:0:
407,300,36480,2,0,P|398:326|344:367,1,90,2|8,0:0|0:0,0:0:0:0:
330,135,36813,2,0,P|397:121|478:226,1,180,2|2,0:0|3:2,0:0:0:0:
267,200,37313,1,8,0:0:0:0:
385,213,37480,1,10,0:0:0:0:
278,54,37647,6,0,P|219:83|195:112,1,90,0|2,3:0|0:0,0:0:0:0:
36,165,37980,2,0,P|114:172|190:284,1,180,10|0,0:0|0:0,0:0:0:0:
107,293,38480,1,0,3:0:0:0:
202,130,38647,1,8,0:0:0:0:
322,296,38813,5,2,0:0:0:0:
275,218,38980,2,0,P|282:149|310:112,1,90,2|2,3:2|0:0,0:0:0:0:
229,314,39313,2,0,P|198:253|142:234,1,90,10|0,0:0|0:0,0:0:0:0:
81,248,39563,1,8,0:0:0:0:
52,243,39647,2,0,P|60:193|107:139,1,90,10|0,0:0|3:0,0:0:0:0:
135,325,39980,5,10,0:0:0:0:
285,220,40147,1,8,0:0:0:0:
114,76,40313,6,0,P|164:137|139:232,2,180,4|10|2,3:2|0:0|0:0,0:0:0:0:
80,160,41147,1,2,3:2:0:0:
252,110,41313,2,0,L|367:103,1,90,10|0,0:0|0:0,0:0:0:0:
218,38,41647,5,2,3:2:0:0:
295,189,41813,1,2,0:0:0:0:
341,104,41980,1,8,0:0:0:0:
149,175,42147,2,0,B|244:194|180:262|305:279,1,180,2|2,0:0|3:2,0:0:0:0:
437,247,42647,1,8,0:0:0:0:
295,189,42813,1,10,0:0:0:0:
416,326,42980,6,0,L|515:319,1,90,0|2,3:0|0:0,0:0:0:0:
427,98,43313,2,0,P|475:183|413:257,1,180,10|0,0:0|0:0,0:0:0:0:
349,267,43813,1,0,3:0:0:0:
151,192,43980,5,10,0:0:0:0:
393,172,44147,1,8,0:0:0:0:
312,54,44313,5,10,3:2:0:0:
249,321,44480,2,0,L|254:177,1,135.000005149842,10|0,3:2|0:0,0:0:0:0:
436,246,44813,2,0,L|424:106,1,135.000005149842,10|0,3:2|0:0,0:0:0:0:
76,203,45147,2,0,L|88:63,1,135.000005149842,10|0,3:2|0:0,0:0:0:0:
249,321,45480,1,8,3:2:0:0:
424,111,45647,6,0,P|365:62|292:58,1,135.000005149842,14|0,3:2|0:0,0:0:0:0:
375,273,45980,2,0,P|367:196|319:142,1,135.000005149842,10|0,3:2|0:0,0:0:0:0:
227,358,46313,2,0,P|275:299|279:226,1,135.000005149842,10|0,3:2|0:0,0:0:0:0:
68,304,46647,1,10,3:2:0:0:
283,243,46813,6,2,B|163:256|208:145|79:164,1,215.999993408203,10|2,3:2|0:0,0:1:0:0:
109,244,47563,1,2,0:0:0:0:
109,244,47647,2,0,L|95:293,3,26.9999991760254,2|2|2|2,0:0|0:0|0:0|0:0,0:0:0:0:
89,321,47980,5,2,0:1:0:0:
4,148,48147,1,2,0:1:0:0:
266,151,48313,6,0,P|315:113|325:30,1,135.000005149842,10|0,3:2|0:0,0:0:0:0:
332,231,48647,2,0,P|340:292|407:342,1,135.000005149842,10|0,3:2|0:0,0:0:0:0:
226,245,48980,2,0,P|168:221|91:254,1,135.000005149842,10|0,3:2|0:0,0:0:0:0:
266,151,49313,1,10,3:2:0:0:
393,338,49480,6,0,P|362:249|510:243,1,270.000010299683,10|2,3:2|0:0,0:0:0:0:
497,222,50147,2,0,P|432:218|398:281,1,107.999996704102,2|0,0:0|0:0,0:0:0:0:
476,326,50480,1,2,0:0:0:0:
418,124,50647,1,2,0:0:0:0:
146,241,50980,6,0,P|75:237|16:173,1,135.000005149842,10|0,3:2|0:0,0:0:0:0:
234,286,51313,2,0,P|180:333|93:329,1,135.000005149842,10|0,3:2|0:0,0:0:0:0:
328,258,51647,2,0,P|323:328|259:387,1,135.000005149842,10|0,3:2|0:0,0:0:0:0:
370,166,51980,1,10,3:2:0:0:
284,376,52147,6,2,P|207:286|215:186,1,215.999993408203,10|2,3:2|0:0,0:1:0:0:
270,140,52897,1,2,0:0:0:0:
270,140,52980,2,0,L|319:145,3,26.9999991760254,2|2|2|2,0:0|0:0|0:0|0:0,0:0:0:0:
349,149,53313,5,2,0:1:0:0:
141,114,53480,1,2,0:1:0:0:
297,248,53647,6,0,P|363:258|428:214,1,135.000005149842,10|0,3:2|0:0,0:0:0:0:
208,192,53980,2,0,P|165:244|171:322,1,135.000005149842,10|0,3:2|0:0,0:0:0:0:
296,142,54313,2,0,P|271:79|201:45,1,135.000005149842,10|0,3:2|0:0,0:0:0:0:
297,248,54647,1,10,3:2:0:0:
1,235,54813,2,0,P|117:246|167:313,1,202.500007724762,10|0,3:2|0:0,0:0:0:0:
160,336,55147,6,2,P|79:263|196:207,1,269.999991760254,2|0,0:0|0:0,0:1:0:0:
355,291,56202,5,2,0:0:0:0:
355,291,56313,6,2,B|333:232|243:263|219:322|319:468|371:423|464:381|544:306|450:208|383:195|315:207|344:69|420:42,1,630,2|0,0:0|0:0,0:1:0:0:
456,132,58813,5,2,0:0:0:0:
456,132,58897,1,2,0:0:0:0:
456,132,58980,2,0,B|394:184|247:185|357:83|257:44|113:86|89:150|89:150|126:184|141:238|141:238|167:181|234:178,1,630,2|0,0:0|0:0,0:0:0:0:
224,270,61480,1,0,0:0:0:0:
224,270,61647,6,0,P|278:270|272:362,1,157.5
263,366,62313,2,0,P|172:379|111:339,1,157.5,2|0,0:0|0:0,0:0:0:0:
85,348,62980,2,0,L|111:149,1,188.999994232178,2|0,0:0|0:0,0:0:0:0:
227,46,63647,1,2,0:0:0:0:
94,81,63813,2,0,B|181:71|155:146|260:124,1,161.999995056153,2|0,0:0|0:0,0:0:0:0:
169,229,64313,5,2,3:2:0:0:
191,211,64396,1,2,0:0:0:0:
218,205,64479,1,2,0:0:0:0:
247,207,64563,1,2,0:0:0:0:
290,279,64647,5,10,0:0:0:0:
317,248,64730,1,2,0:0:0:0:
327,208,64813,1,2,0:0:0:0:
313,168,64897,1,2,0:0:0:0:
243,127,64980,5,10,0:0:0:0:
277,96,65063,1,2,0:0:0:0:
323,89,65147,1,2,3:2:0:0:
366,106,65230,1,2,0:0:0:0:
313,168,65313,5,10,0:0:0:0:
266,204,65397,1,2,0:0:0:0:
207,200,65480,1,2,0:0:0:0:
167,157,65563,1,2,0:0:0:0:
172,97,65647,5,10,3:2:0:0:
452,193,65813,2,0,B|461:133|461:133|456:108|456:108|466:41,1,135.000005149842,10|0,3:2|0:0,0:0:0:0:
78,236,66147,2,0,B|68:176|68:176|73:151|73:151|63:84,1,135.000005149842,10|0,3:2|0:0,0:0:0:0:
432,313,66480,2,0,P|467:251|433:174,1,135.000005149842,10|0,3:2|0:0,0:0:0:0:
97,356,66813,2,0,P|62:294|96:217,1,135.000005149842,10|0,3:2|0:0,0:0:0:0:
274,141,67647,6,0,L|232:151,4,33.7500012874604
343,91,67897,1,0,0:0:0:0:
356,73,67980,2,0,P|386:119|372:195,1,108,2|0,0:0|0:0,0:0:0:0:
372,220,68313,5,6,3:2:0:0:
495,191,68480,1,8,0:0:0:0:
228,250,68647,5,2,3:2:0:0:
457,314,68813,1,8,0:0:0:0:
96,342,68980,5,2,3:2:0:0:
372,220,69147,1,2,3:2:0:0:
95,107,69313,1,8,0:0:0:0:
311,320,69480,6,0,B|369:220|288:125|288:125|294:164,1,251.999992309571,2|0,3:2|3:0,0:0:0:0:
179,250,69980,1,8,0:0:0:0:
424,319,70147,1,0,3:0:0:0:
442,279,70230,1,0,3:0:0:0:
451,236,70313,1,0,3:0:0:0:
446,191,70397,1,0,3:0:0:0:
430,149,70480,1,0,3:0:0:0:
314,341,70647,5,14,0:0:0:0:
268,84,70813,1,0,3:0:0:0:
67,285,70980,6,0,P|57:203|96:143,1,125.999996154785,2|0,0:0|3:0,0:0:0:0:
348,227,71313,1,8,0:0:0:0:
178,383,71480,1,0,3:0:0:0:
417,357,71647,5,2,0:0:0:0:
139,228,71813,2,0,B|200:235|200:235|211:230|211:230|271:238,1,125.999996154785,2|8,3:2|0:0,0:0:0:0:
212,61,72147,2,0,B|250:109|250:109|261:113|261:113|298:161,1,125.999996154785,2|0,0:0|3:0,0:0:0:0:
396,22,72480,2,0,B|389:82|389:82|394:94|394:94|385:153,1,125.999996154785,2|8,0:0|0:0,0:0:0:0:
331,304,72813,5,2,0:0:0:0:
331,304,72897,1,8,0:0:0:0:
331,304,72980,1,8,0:0:0:0:
490,209,73147,1,0,3:0:0:0:
293,155,73313,1,8,0:0:0:0:
458,334,73480,1,8,0:0:0:0:
123,255,73647,6,0,P|26:253|108:290,1,256.499993150711,6|0,3:2|0:0,0:0:0:0:
75,257,73980,2,0,B|85:161|85:161|79:152|79:152|91:31,1,188.999994232178,10|0,0:0|0:0,0:0:0:0:
91,22,74313,1,2,0:0:0:0:
293,155,74480,1,2,3:2:0:0:
31,183,74647,2,0,P|114:181|162:240,1,125.999996154785,8|2,0:0|0:0,0:0:0:0:
376,329,74980,6,0,P|285:303|222:340,1,125.999996154785,0|0,3:0|0:0,0:0:0:0:
163,366,75230,1,0,0:0:0:0:
163,366,75313,2,0,B|125:291|178:198|252:200|252:200|231:226,1,251.999992309571,8|0,0:0|0:0,0:0:0:0:
68,281,75813,1,0,3:0:0:0:
258,311,75980,5,10,0:0:0:0:
34,194,76147,1,8,0:0:0:0:
368,113,76313,6,0,P|283:71|337:149,1,256.499993150711,6|0,3:2|0:0,0:0:0:0:
321,104,76647,2,0,B|219:140|249:45|118:91,1,188.999994232178,10|0,0:0|0:0,0:0:0:0:
94,103,76980,1,2,0:0:0:0:
289,20,77147,1,2,3:2:0:0:
164,234,77313,1,8,0:0:0:0:
459,82,77480,6,0,P|514:197|444:264,1,188.999994232178,2|0,3:2|0:0,0:0:0:0:
453,275,77813,1,2,3:2:0:0:
229,151,77980,1,8,0:0:0:0:
433,170,78147,1,2,0:0:0:0:
433,170,78230,1,8,0:0:0:0:
433,170,78313,1,8,0:0:0:0:
250,280,78480,5,2,3:2:0:0:
345,72,78647,1,10,0:0:0:0:
438,346,78813,1,8,0:0:0:0:
164,202,78980,6,0,B|114:213|114:213|108:206|108:206|-11:230,1,170.999995433807,6|8,3:2|0:0,0:0:0:0:
345,72,79313,2,0,B|307:64|307:64|300:56|300:56|170:34,1,125.999996154785,2|8,3:2|0:0,0:0:0:0:
487,189,79647,1,2,3:2:0:0:
164,202,79813,1,2,3:2:0:0:
438,346,79980,1,8,0:0:0:0:
117,373,80147,6,0,B|227:347|227:347|246:321|246:321|351:299,1,251.999992309571,2|0,3:2|3:0,0:0:0:0:
171,262,80647,1,8,0:0:0:0:
413,203,80813,1,0,3:0:0:0:
369,192,80897,1,0,3:0:0:0:
326,182,80980,1,0,3:0:0:0:
282,173,81063,1,0,3:0:0:0:
238,164,81147,1,0,3:0:0:0:
408,40,81313,5,14,0:0:0:0:
350,299,81480,1,0,3:0:0:0:
159,91,81647,6,0,L|4:129,1,125.999996154785,2|0,0:0|3:0,0:0:0:0:
326,182,81980,1,10,0:0:0:0:
229,9,82147,1,0,3:0:0:0:
151,277,82313,5,2,0:0:0:0:
409,203,82480,2,0,P|406:142|361:101,1,125.999996154785,2|8,3:2|0:0,0:0:0:0:
434,292,82813,2,0,P|485:258|498:198,1,125.999996154785,2|0,0:0|3:0,0:0:0:0:
370,356,83147,2,0,P|424:383|483:365,1,125.999996154785,2|8,0:0|0:0,0:0:0:0:
258,283,83480,5,2,0:0:0:0:
258,283,83563,1,8,0:0:0:0:
258,283,83647,1,8,0:0:0:0:
409,203,83813,1,0,3:0:0:0:
267,149,83980,1,10,0:0:0:0:
434,292,84147,1,8,0:0:0:0:
191,363,84313,5,14,0:0:0:0:
188,183,84480,1,0,3:0:0:0:
347,265,84647,1,0,3:0:0:0:
53,210,84813,5,8,0:0:0:0:
267,149,84980,1,0,3:0:0:0:
62,66,85147,1,0,3:0:0:0:
149,295,85313,5,10,0:0:0:0:
242,68,85480,1,0,3:0:0:0:
348,298,85647,5,10,0:0:0:0:
135,219,85813,1,0,3:0:0:0:
357,150,85980,1,0,3:0:0:0:
75,270,86147,5,10,0:0:0:0:
398,234,86313,1,0,3:0:0:0:
118,86,86480,1,2,3:2:0:0:
260,357,86647,5,8,0:0:0:0:
328,80,86813,1,2,3:2:0:0:
60,165,86980,5,14,3:2:0:0:
419,104,87147,2,0,P|370:163|273:158,1,135.000005149842,10|0,3:2|0:0,0:0:0:0:
102,92,87480,2,0,P|177:104|221:191,1,135.000005149842,10|0,3:2|0:0,0:0:0:0:
255,371,87813,2,0,P|228:299|281:217,1,135.000005149842,10|0,3:2|0:0,0:0:0:0:
419,104,88147,1,10,3:2:0:0:
255,371,88313,5,10,3:2:0:0:
213,146,88480,2,0,B|153:197|153:197|79:206,1,153.000002918243,10|0,3:2|0:0,0:0:0:0:
315,172,88813,2,0,B|300:94|300:94|329:25,1,153.000002918243,10|0,3:2|0:0,0:0:0:0:
246,246,89147,2,0,B|320:272|320:272|365:331,1,153.000002918243,10|0,3:2|0:0,0:0:0:0:
79,206,89480,1,10,3:2:0:0:
480,354,89647,6,0,B|427:365|427:365|380:217|495:115,1,297.000009063721,6|0,3:2|0:0,0:0:0:0:
464,28,89980,2,0,P|482:169|351:182,1,270.000010299683,10|2,0:0|0:0,0:0:0:0:
125,135,90480,1,0,3:0:0:0:
228,222,90647,2,0,P|263:139|240:69,1,135.000005149842,10|2,0:0|0:0,0:0:0:0:
363,255,90980,5,0,3:0:0:0:
67,328,91147,1,2,0:0:0:0:
51,290,91230,1,2,0:0:0:0:
37,248,91313,2,0,B|142:267|142:267|177:308|177:308|306:333,1,288,10|0,0:0|0:0,0:0:0:0:
264,178,91813,1,0,3:0:0:0:
156,384,91980,1,8,0:0:0:0:
33,144,92147,1,8,0:0:0:0:
66,160,92230,1,8,0:0:0:0:
104,150,92313,6,0,P|47:115|71:226,1,202.500007724762,2|0,3:2|0:0,0:0:0:0:
37,248,92647,1,10,0:0:0:0:
221,120,92813,1,2,0:0:0:0:
11,33,92980,2,0,P|65:29|157:77,1,135.000005149842,2|0,0:0|3:0,0:0:0:0:
184,212,93313,1,10,0:0:0:0:
33,340,93480,6,0,P|42:277|-16:192,1,135.000005149842,2|0,0:0|3:0,0:0:0:0:
158,344,93813,1,2,0:0:0:0:
216,95,93980,2,0,P|164:137|88:127,1,135.000005149842,8|2,0:0|0:0,0:0:0:0:
12,214,94230,1,8,0:0:0:0:
39,232,94313,2,0,P|112:257|184:246,1,135.000005149842,8|2,0:0|3:2,0:0:0:0:
344,162,94647,1,8,0:0:0:0:
250,378,94813,1,8,0:0:0:0:
512,188,94980,6,0,P|442:36|178:109,1,431.999986816407,6|8,3:2|0:0,0:0:0:0:
208,60,95647,5,2,0:0:0:0:
227,193,95813,1,2,3:2:0:0:
55,81,95980,5,10,0:0:0:0:
256,213,96147,1,2,0:0:0:0:
0,326,96313,6,0,P|59:353|131:330,1,135.000005149842,0|2,3:0|0:0,0:0:0:0:
287,234,96647,1,8,0:0:0:0:
69,257,96813,2,0,P|76:170|122:127,1,135.000005149842,2|0,0:0|0:0,0:0:0:0:
368,328,97147,5,2,3:2:0:0:
162,220,97313,2,0,P|180:250|217:268,1,67.5000025749208,8|0,0:0|0:0,0:0:0:0:
451,198,97480,2,0,P|467:168|467:135,1,67.5000025749208,10|0,0:0|0:0,0:0:0:0:
106,137,97647,6,0,B|56:78|56:78|8:61|8:61|34:106|34:106|76:125,1,225,6|0,3:2|0:0,0:0:0:0:
228,241,98147,6,0,B|277:297|277:297|325:311|325:311|298:268|298:268|250:246,1,225,2|0,3:2|0:0,0:0:0:0:
94,218,98647,6,0,B|18:229|18:229|-17:264|-17:264|32:264|32:264|74:233,1,225,2|0,3:2|0:0,0:0:0:0:
246,156,99147,6,0,B|319:142|319:142|357:107|357:107|305:107|305:107|261:140,1,225,2|0,3:2|0:0,0:0:0:0:
159,269,99647,6,0,B|131:338|131:338|143:388|143:388|167:344|167:344|164:288,1,229.500004377365,2|0,3:2|0:0,0:0:0:0:
181,107,99980,6,0,B|207:34|207:34|194:-12|194:-12|169:29|169:29|176:82,1,229.500004377365,2|0,3:2|0:0,0:0:0:0:
345,326,100313,6,0,L|485:304,1,116.999994644165,14|0,3:2|0:0,0:0:0:0:
304,232,100647,2,0,L|444:210,1,116.999994644165,10|0,3:2|0:0,0:0:0:0:
267,135,100980,2,0,L|407:113,1,116.999994644165,10|0,3:2|0:0,0:0:0:0:
498,98,101313,1,10,3:2:0:0:
345,326,101480,1,10,3:2:0:0:
243,312,101647,6,0,L|136:331,2,90,0|2|2,0:0|0:0|0:0,0:0:0:0:
345,326,102480,1,2,0:0:0:0:
429,382,102647,5,2,0:1:0:0:
457,189,102813,1,2,0:1:0:0:
227,215,102980,6,0,L|89:192,1,116.999994644165,10|0,3:2|0:0,0:0:0:0:
290,127,103313,2,0,L|152:104,1,116.999994644165,10|0,3:2|0:0,0:0:0:0:
358,45,103647,2,0,L|220:22,1,116.999994644165,10|0,3:2|0:0,0:0:0:0:
126,7,103980,1,10,3:2:0:0:
227,215,104147,1,10,3:2:0:0:
331,225,104313,6,0,L|436:201,2,90,0|2|2,0:0|0:0|0:0,0:0:0:0:
227,215,105147,1,2,0:0:0:0:
227,215,105647,6,0,L|235:98,1,116.999994644165,14|0,3:2|0:0,0:0:0:0:
130,278,105980,2,0,L|138:161,1,116.999994644165,10|0,3:2|0:0,0:0:0:0:
31,345,106313,2,0,L|39:228,1,116.999994644165,10|0,3:2|0:0,0:0:0:0:
51,111,106647,1,10,3:2:0:0:
227,215,106813,1,10,3:2:0:0:
324,168,106980,6,0,L|426:176,2,90,0|2|2,0:0|0:0|0:0,0:0:0:0:
227,215,107813,1,2,0:0:0:0:
184,313,107980,5,2,0:1:0:0:
97,147,108147,1,2,0:1:0:0:
422,205,108313,6,0,L|412:88,1,116.999994644165,10|0,3:2|0:0,0:0:0:0:
333,284,108647,2,0,L|323:167,1,116.999994644165,10|0,3:2|0:0,0:0:0:0:
249,361,108980,2,0,L|239:244,1,116.999994644165,10|0,3:2|0:0,0:0:0:0:
228,127,109313,1,10,3:2:0:0:
422,205,109480,1,10,3:2:0:0:
507,156,109647,6,0,L|513:56,2,90,0|2|2,0:0|0:0|0:0,0:0:0:0:
422,205,110480,1,2,0:0:0:0:
256,64,110647,5,10,3:2:0:0:
256,320,110813,1,10,3:2:0:0:
