osu file format v14

[General]
AudioFilename: audio.mp3
AudioLeadIn: 0
PreviewTime: 12139
Countdown: 0
SampleSet: Soft
StackLeniency: 0.7
Mode: 0
LetterboxInBreaks: 0
WidescreenStoryboard: 0

[Editor]
DistanceSpacing: 0.9
BeatDivisor: 4
GridSize: 32
TimelineZoom: 1.6

[Metadata]
Title:JuDGMENT/SHADoW ~T06481T0~
TitleUnicode:JuDGMENT/SHΛDoW~T06481T0~
Artist:No:R
ArtistUnicode:No:R
Creator:Bellicose
Version:Normal
Source:白刃きらめく恋しらべ
Tags:ジャッジメントシャドウ~とがびと~ ALNEAR めくらべ Mekurabe Shiraha Kirameku Koi Shirabe crystalia togabito eroge japanese vn visual novel electronic video game opening
BeatmapID:2234001
BeatmapSetID:1067036

[Difficulty]
HPDrainRate:4
CircleSize:3
OverallDifficulty:4.5
ApproachRate:5.5
SliderMultiplier:1.3
SliderTickRate:1

[Events]
//Background and Video events
0,0,"bgmatsurika.jpg",0,0
//Break Periods
2,56513,63188
//Storyboard Layer 0 (Background)
//Storyboard Layer 1 (Fail)
//Storyboard Layer 2 (Pass)
//Storyboard Layer 3 (Foreground)
//Storyboard Layer 4 (Overlay)
//Storyboard Sound Samples

[TimingPoints]
1306,333.333333333333,4,2,1,50,1,0
1306,-111.111111111111,4,2,1,50,0,0
11139,-111.111111111111,4,2,1,70,0,0
12314,333.333333333333,4,2,1,50,1,0
12314,-100,4,2,1,80,0,0
12647,-100,4,2,1,70,0,0
17647,-100,4,2,1,80,0,0
17980,-100,4,2,1,70,0,0
22980,-100,4,2,1,80,0,0
23147,-100,4,2,1,70,0,0
28647,-100,4,2,1,60,0,0
30980,-100,4,2,1,70,0,0
34980,-111.111111111111,4,2,1,50,0,0
44313,-111.111111111111,4,2,1,70,0,0
55147,-111.111111111111,4,2,1,50,0,0
64313,-111.111111111111,4,2,1,60,0,0
64647,-111.111111111111,4,2,1,65,0,0
64980,-111.111111111111,4,2,1,70,0,0
65313,-111.111111111111,4,2,1,75,0,0
65647,-111.111111111111,4,2,1,80,0,0
68313,-100,4,2,1,75,0,1
73647,-100,4,2,1,85,0,1
73980,-100,4,2,1,75,0,1
76313,-100,4,2,1,85,0,1
76647,-100,4,2,1,75,0,1
78980,-100,4,2,1,85,0,1
79147,-100,4,2,1,75,0,1
88313,-100,4,2,1,80,0,1
89480,-100,4,2,1,80,0,0
89647,-100,4,2,1,85,0,1
89813,-100,4,2,1,70,0,1
94980,-100,4,2,1,80,0,1
95313,-100,4,2,1,70,0,1
100313,-100,4,2,1,60,0,0

[Colours]
Combo1 : 254,107,166
Combo2 : 152,235,241

[HitObjects]
145,198,1306,5,6,0:0:0:0:
201,272,1639,2,0,L|341:262,2,116.999996429443,2|2|2,0:0|0:0|0:0,0:0:0:0:
181,314,2472,1,0,0:0:0:0:
41,333,2972,2,0,P|18:275|48:203,1,116.999996429443,2|2,0:0|0:0,0:0:0:0:
53,182,3472,1,0,0:0:0:0:
179,121,3972,5,2,0:0:0:0:
109,58,4305,2,0,P|68:62|3:22,2,116.999996429443,2|2|2,0:0|0:0|0:0,0:0:0:0:
154,44,5139,1,0,0:0:0:0:
265,128,5639,2,0,B|299:95|299:95|389:110,1,116.999996429443,2|2,0:0|0:0,0:0:0:0:
412,120,6139,1,0,0:0:0:0:
370,254,6639,5,4,0:0:0:0:
431,324,6972,2,0,B|406:358|406:358|319:351,2,116.999996429443,2|2|2,0:0|0:0|0:0,0:0:0:0:
461,288,7805,1,0,0:0:0:0:
489,150,8305,2,0,P|486:83|432:36,1,116.999996429443,2|2,0:0|0:0,0:0:0:0:
410,32,8805,1,2,0:0:0:0:
313,134,9305,5,0,0:0:0:0:
222,156,9639,2,0,L|208:31,2,116.999996429443,2|2|2,0:0|0:0|0:0,0:0:0:0:
228,202,10472,1,0,0:0:0:0:
112,282,10972,2,0,P|52:240|51:184,1,116.999996429443,2|8,0:0|0:0,0:0:0:0:
54,154,11472,1,8,0:0:0:0:
54,154,11639,2,0,L|65:88,1,58.4999982147217,0|0,3:0|3:0,0:0:0:0:
88,56,11972,2,0,L|166:48,1,58.4999982147217,8|8,0:0|0:0,0:0:0:0:
197,77,12314,6,0,P|260:54|323:80,1,130,6|10,3:2|0:0,0:0:0:0:
428,39,12980,1,2,0:0:0:0:
459,151,13313,1,8,0:0:0:0:
459,151,13480,1,2,0:0:0:0:
462,267,13813,1,2,0:0:0:0:
462,267,13980,2,0,B|354:275|390:189|272:196,1,195,10|0,0:0|3:0,0:0:0:0:
241,230,14647,2,0,L|166:225,1,65,8|8,0:0|0:0,0:0:0:0:
117,222,14980,5,2,3:2:0:0:
34,304,15313,2,0,P|65:338|89:344,1,65,10|2,0:0|0:0,0:0:0:0:
140,353,15647,1,2,0:0:0:0:
255,359,15980,1,10,0:0:0:0:
255,359,16147,1,2,0:0:0:0:
286,246,16480,1,2,0:0:0:0:
196,170,16813,1,2,0:0:0:0:
103,242,17147,2,0,B|59:223|59:223|71:121,1,130,2|8,3:2|0:0,0:0:0:0:
79,83,17647,5,6,3:2:0:0:
184,32,17980,1,8,0:0:0:0:
281,95,18313,2,0,L|349:94,1,65,2|2,0:0|3:2,0:0:0:0:
398,66,18647,1,10,0:0:0:0:
398,66,18813,2,0,L|419:213,1,130,2|2,0:0|0:0,0:0:0:0:
429,311,19480,1,2,0:0:0:0:
315,282,19813,1,2,3:2:0:0:
204,320,20147,1,10,0:0:0:0:
204,320,20313,6,0,B|129:296|129:296|114:260|114:260|35:240,1,195,6|2,3:2|3:2,0:0:0:0:
212,211,21313,2,0,B|287:187|287:187|302:151|302:151|381:131,1,195,2|2,3:2|3:2,0:0:0:0:
204,98,22313,2,0,B|154:78|154:78|146:54|146:54|79:30,1,130,2|2,3:2|3:2,0:0:0:0:
13,117,22980,6,0,L|38:257,1,130,6|10,3:2|0:0,0:0:0:0:
161,367,23813,1,0,3:0:0:0:
161,367,23980,2,0,P|199:314|269:300,1,130,8|0,0:0|3:0,0:0:0:0:
315,314,24480,1,0,0:0:0:0:
315,314,24647,2,0,B|355:347|355:347|439:324,1,130,10|2,0:0|0:0,0:0:0:0:
487,312,25147,1,0,3:0:0:0:
487,312,25313,2,0,L|466:225,1,65,8|8,0:0|0:0,0:0:0:0:
459,191,25647,5,0,3:0:0:0:
487,77,25980,1,10,0:0:0:0:
292,57,26480,1,0,3:0:0:0:
292,57,26647,2,0,B|250:35|250:35|149:54,1,130,8|0,0:0|3:0,0:0:0:0:
111,62,27147,1,2,0:0:0:0:
111,62,27313,2,0,P|63:112|101:172,1,130,10|8,0:0|0:0,0:0:0:0:
140,174,27813,1,0,3:0:0:0:
140,174,27980,2,0,L|207:169,1,65,8|8,0:0|0:0,0:0:0:0:
263,167,28313,5,6,3:2:0:0:
273,286,28647,2,0,P|244:326|109:311,1,195,10|0,0:0|3:0,0:0:0:0:
70,275,29313,1,10,0:0:0:0:
49,159,29647,6,0,L|72:89,1,65,0|0,3:0|0:0,0:0:0:0:
92,43,29980,1,10,0:0:0:0:
197,92,30313,1,2,0:0:0:0:
298,34,30647,1,10,0:0:0:0:
400,89,30980,6,0,B|437:130|437:130|401:272,1,195,6|2,3:2|3:2,0:0:0:0:
245,343,31980,2,0,B|208:302|208:302|244:160,1,195,2|2,3:2|3:2,0:0:0:0:
400,89,32980,2,0,B|437:130|437:130|411:225,1,130,2|2,3:2|3:2,0:0:0:0:
245,343,34980,5,4,3:2:0:0:
154,366,35313,2,0,P|79:332|69:236,1,175.499994644165,8|0,0:0|3:0,0:0:0:0:
83,203,35980,1,10,0:0:0:0:
49,115,36313,5,2,3:2:0:0:
49,115,36480,2,0,L|173:97,1,116.999996429443,2|2,0:0|0:0,0:0:0:0:
237,38,37147,1,2,3:2:0:0:
310,95,37480,2,0,P|351:114|345:192,1,116.999996429443,10|0,0:0|0:0,0:0:0:0:
315,203,37980,2,0,P|237:259|291:305,1,175.499994644165,10|0,0:0|3:0,0:0:0:0:
361,327,38813,1,2,0:0:0:0:
361,327,38980,5,2,3:2:0:0:
448,294,39313,1,10,0:0:0:0:
495,213,39647,2,0,L|477:73,1,116.999996429443,10|10,0:0|0:0,0:0:0:0:
419,25,40313,5,4,3:2:0:0:
348,87,40647,2,0,B|290:106|290:106|225:76,1,116.999996429443,10|2,0:0|0:0,0:0:0:0:
192,74,41147,1,2,3:2:0:0:
192,74,41313,1,10,0:0:0:0:
106,112,41647,5,2,3:2:0:0:
106,112,41813,1,2,0:0:0:0:
83,202,42147,2,0,P|96:264|67:322,1,116.999996429443,2|2,0:0|3:2,0:0:0:0:
146,373,42813,6,0,L|278:347,1,116.999996429443,10|2,0:0|0:0,0:0:0:0:
295,318,43313,2,0,P|358:366|450:315,1,175.499994644165,10|0,0:0|3:0,0:0:0:0:
466,293,43980,1,10,0:0:0:0:
393,219,44313,5,10,3:2:0:0:
393,219,44480,1,10,3:2:0:0:
463,141,44813,1,10,3:2:0:0:
395,62,45147,2,0,B|344:42|344:42|308:37|269:77,1,116.999996429443,10|8,3:2|3:2,0:0:0:0:
247,104,45647,5,14,3:2:0:0:
131,84,45980,1,10,3:2:0:0:
110,199,46313,1,10,3:2:0:0:
224,223,46647,1,10,3:2:0:0:
224,223,46813,2,2,P|296:223|317:369,1,233.999992858887,10|2,3:2|0:0,0:1:0:0:
113,320,48313,5,10,3:2:0:0:
37,229,48647,1,10,3:2:0:0:
129,157,48980,1,10,3:2:0:0:
207,243,49313,1,10,3:2:0:0:
207,243,49480,2,0,P|249:205|322:214,1,116.999996429443,10|2,3:2|0:0,0:0:0:0:
400,275,50147,2,0,L|412:158,1,116.999996429443,2|2,0:0|0:0,0:0:0:0:
418,100,50647,1,2,0:0:0:0:
332,19,50980,5,10,3:2:0:0:
216,37,51313,1,10,3:2:0:0:
158,139,51647,1,10,3:2:0:0:
42,156,51980,1,10,3:2:0:0:
42,156,52147,2,2,P|57:294|127:283,1,233.999992858887,10|2,3:2|0:0,0:1:0:0:
181,106,53647,5,10,3:2:0:0:
215,217,53980,1,10,3:2:0:0:
331,217,54313,1,10,3:2:0:0:
363,329,54647,1,10,3:2:0:0:
363,329,54813,1,10,3:2:0:0:
480,325,55147,6,2,L|490:26,1,292.499991073609,2|0,0:0|0:0,0:1:0:0:
392,98,56313,5,2,0:0:0:0:
375,176,64313,6,0,L|256:191,1,116.999996429443,2|10,3:2|0:0,0:0:0:0:
155,168,64980,2,0,P|144:92|179:49,1,116.999996429443,10|10,0:0|0:0,0:0:0:0:
265,88,65647,5,10,3:2:0:0:
265,88,65813,1,10,3:2:0:0:
344,19,66147,1,10,3:2:0:0:
412,98,66480,1,10,3:2:0:0:
496,34,66813,1,10,3:2:0:0:
409,294,68313,6,0,L|267:281,1,130,6|2,3:2|3:2,0:0:0:0:
193,361,68980,1,2,3:2:0:0:
193,361,69147,2,0,P|147:368|112:344,1,65,2|8,3:2|0:0,0:0:0:0:
72,356,69480,2,0,P|89:289|57:221,1,130,2|0,3:2|3:0,0:0:0:0:
31,188,69980,1,8,0:0:0:0:
82,82,70313,1,0,3:0:0:0:
195,110,70647,1,14,0:0:0:0:
293,47,70980,6,0,P|365:90|422:73,1,130,2|10,0:0|0:0,0:0:0:0:
462,185,71647,1,2,0:0:0:0:
462,185,71813,2,0,L|436:273,1,65,2|8,3:2|0:0,0:0:0:0:
432,305,72147,2,0,B|365:321|372:253|294:268,1,130,2|2,0:0|0:0,0:0:0:0:
216,331,72813,2,0,P|138:336|155:239,1,195,2|10,0:0|0:0,0:0:0:0:
239,172,73647,6,0,B|268:112|268:112|236:58,1,130,6|10,3:2|0:0,0:0:0:0:
124,22,74313,1,2,0:0:0:0:
124,22,74480,2,0,L|33:38,1,65,2|8,3:2|0:0,0:0:0:0:
3,47,74813,1,2,0:0:0:0:
3,47,74980,5,0,3:0:0:0:
74,139,75313,2,0,B|107:187|107:187|60:326,1,195,8|0,0:0|3:0,0:0:0:0:
43,372,75980,1,10,0:0:0:0:
159,363,76313,6,0,L|305:350,1,130,6|10,3:2|0:0,0:0:0:0:
357,256,76980,1,2,0:0:0:0:
357,256,77147,2,0,P|407:292|439:290,1,65,2|8,3:2|0:0,0:0:0:0:
465,305,77480,2,0,L|472:147,1,130,2|2,3:2|3:2,0:0:0:0:
474,116,77980,1,8,0:0:0:0:
474,116,78147,2,0,P|409:70|377:124,1,130,2|2,0:0|3:2,0:0:0:0:
358,147,78647,1,10,0:0:0:0:
258,207,78980,6,0,L|229:58,1,130,6|2,3:2|3:2,0:0:0:0:
125,31,79647,1,2,3:2:0:0:
125,31,79813,2,0,L|139:103,1,65,2|8,3:2|0:0,0:0:0:0:
145,153,80147,2,0,P|89:151|56:213,1,130,2|0,3:2|3:0,0:0:0:0:
61,268,80647,1,8,0:0:0:0:
151,342,80980,1,0,3:0:0:0:
263,308,81313,2,0,L|335:313,1,65,14|0,0:0|3:0,0:0:0:0:
369,354,81647,6,0,P|414:313|484:325,1,130,2|10,0:0|0:0,0:0:0:0:
475,204,82313,1,2,0:0:0:0:
475,204,82480,2,0,L|407:191,1,65,2|8,3:2|0:0,0:0:0:0:
353,183,82813,2,0,B|301:192|301:192|288:216|288:216|225:230,2,130,2|2|2,0:0|0:0|0:0,0:0:0:0:
392,138,83647,2,0,L|386:62,1,65,8|0,0:0|3:0,0:0:0:0:
382,14,83980,1,10,0:0:0:0:
272,54,84313,6,0,B|231:61|207:95|207:95|153:53|79:76,1,195,14|8,0:0|0:0,0:0:0:0:
46,100,84980,1,0,3:0:0:0:
125,185,85313,1,10,0:0:0:0:
35,261,85647,5,10,0:0:0:0:
35,261,85813,2,0,L|51:334,1,65,0|0,3:0|3:0,0:0:0:0:
62,381,86147,1,10,0:0:0:0:
154,311,86480,2,0,L|121:169,1,130,2|2,3:2|3:2,0:0:0:0:
109,127,86980,5,14,3:2:0:0:
109,127,87147,1,10,3:2:0:0:
225,129,87480,1,10,3:2:0:0:
257,241,87813,1,10,3:2:0:0:
297,351,88147,1,10,3:2:0:0:
297,351,88313,6,0,L|381:345,1,65,10|10,3:2|3:2,0:0:0:0:
478,340,88813,1,10,3:2:0:0:
433,231,89147,1,10,3:2:0:0:
387,123,89480,1,10,3:2:0:0:
387,123,89647,6,0,P|315:166|254:134,1,130,6|10,3:2|0:0,0:0:0:0:
182,83,90313,1,2,0:0:0:0:
272,8,90647,1,10,0:0:0:0:
272,8,90813,1,2,0:0:0:0:
388,18,91147,1,2,0:0:0:0:
388,18,91313,2,0,P|434:33|484:181,1,195,10|0,0:0|3:0,0:0:0:0:
481,215,91980,2,0,L|398:208,1,65,8|8,0:0|0:0,0:0:0:0:
357,203,92313,5,2,3:2:0:0:
317,313,92647,2,0,P|271:320|228:308,1,65,10|2,0:0|0:0,0:0:0:0:
197,298,92980,1,2,0:0:0:0:
92,349,93313,1,10,0:0:0:0:
92,349,93480,1,2,0:0:0:0:
7,267,93813,1,2,0:0:0:0:
63,164,94147,1,2,0:0:0:0:
178,181,94480,2,0,P|241:192|288:128,1,130,2|8,3:2|0:0,0:0:0:0:
281,90,94980,5,6,3:2:0:0:
188,18,95313,1,8,0:0:0:0:
72,40,95647,2,0,L|79:115,1,65,2|0,0:0|3:0,0:0:0:0:
44,152,95980,1,10,0:0:0:0:
44,152,96147,2,0,P|77:201|57:287,1,130,2|2,0:0|0:0,0:0:0:0:
136,364,96813,1,2,0:0:0:0:
253,364,97147,1,2,3:2:0:0:
336,281,97480,1,10,0:0:0:0:
336,281,97647,6,0,B|408:265|408:265|426:231|426:231|515:214,1,195,6|2,3:2|3:2,0:0:0:0:
334,184,98647,2,0,B|262:168|262:168|244:134|244:134|155:117,1,195,2|2,3:2|3:2,0:0:0:0:
334,82,99647,2,0,B|382:70|382:70|400:42|400:42|452:32,1,130,2|2,3:2|3:2,0:0:0:0:
496,123,100313,6,0,L|479:254,2,130,14|10|10,3:2|3:2|3:2,0:0:0:0:
446,33,101313,1,10,3:2:0:0:
446,33,101480,1,10,3:2:0:0:
311,111,101980,2,0,L|167:95,1,130,2|2,0:0|0:0,0:0:0:0:
129,93,102480,1,2,0:0:0:0:
53,229,102980,6,0,P|11:163|18:106,2,130,10|10|10,3:2|3:2|3:2,0:0:0:0:
141,284,103980,1,10,3:2:0:0:
141,284,104147,1,10,3:2:0:0:
281,216,104647,2,0,P|364:220|403:266,1,130,2|2,0:0|0:0,0:0:0:0:
416,297,105147,1,2,0:0:0:0:
449,144,105647,6,0,L|462:11,2,130,14|10|10,3:2|3:2|3:2,0:0:0:0:
494,237,106647,1,10,3:2:0:0:
494,237,106813,1,10,3:2:0:0:
375,339,107313,2,0,B|312:364|312:364|235:341,1,130,2|2,0:0|0:0,0:0:0:0:
202,329,107813,1,2,0:0:0:0:
78,233,108313,6,0,B|40:265|40:265|58:358,2,130,10|10|10,3:2|3:2|3:2,0:0:0:0:
162,171,109313,1,10,3:2:0:0:
162,171,109480,1,10,3:2:0:0:
307,226,109980,2,0,L|321:78,1,130,2|2,0:0|0:0,0:0:0:0:
324,44,110480,1,2,0:0:0:0:
324,44,110647,2,0,L|248:37,1,65,10|10,3:2|3:2,0:0:0:0:
