osu file format v14

[General]
AudioFilename: audio.mp3
AudioLeadIn: 0
PreviewTime: 12139
Countdown: 0
SampleSet: Soft
StackLeniency: 0.5
Mode: 0
LetterboxInBreaks: 0
WidescreenStoryboard: 0

[Editor]
DistanceSpacing: 1.1
BeatDivisor: 4
GridSize: 32
TimelineZoom: 1.6

[Metadata]
Title:JuDGMENT/SHADoW ~T06481T0~
TitleUnicode:JuDGMENT/SHΛDoW~T06481T0~
Artist:No:R
ArtistUnicode:No:R
Creator:Bellicose
Version:Insane
Source:白刃きらめく恋しらべ
Tags:ジャッジメントシャドウ~とがびと~ ALNEAR めくらべ Mekurabe Shiraha Kirameku Koi Shirabe crystalia togabito eroge japanese vn visual novel electronic video game opening
BeatmapID:2234000
BeatmapSetID:1067036

[Difficulty]
HPDrainRate:6
CircleSize:3.8
OverallDifficulty:8
ApproachRate:9
SliderMultiplier:1.6
SliderTickRate:1

[Events]
//Background and Video events
0,0,"bgmatsurika.jpg",0,0
//Break Periods
2,56513,63713
//Storyboard Layer 0 (Background)
//Storyboard Layer 1 (Fail)
//Storyboard Layer 2 (Pass)
//Storyboard Layer 3 (Foreground)
//Storyboard Layer 4 (Overlay)
//Storyboard Sound Samples

[TimingPoints]
1306,333.333333333333,4,2,1,50,1,0
1306,-125,4,2,1,50,0,0
11139,-100,4,2,1,70,0,0
12314,333.333333333333,4,2,1,50,1,0
12314,-90.9090909090909,4,2,1,80,0,0
12564,-90.9090909090909,4,2,1,5,0,0
12647,-90.9090909090909,4,2,1,70,0,0
17647,-66.6666666666667,4,2,1,80,0,0
17980,-90.9090909090909,4,2,1,70,0,0
20730,-90.9090909090909,4,2,1,5,0,0
20813,-90.9090909090909,4,2,1,70,0,0
21230,-90.9090909090909,4,2,1,5,0,0
21313,-90.9090909090909,4,2,1,70,0,0
21730,-90.9090909090909,4,2,1,5,0,0
21813,-90.9090909090909,4,2,1,70,0,0
22230,-90.9090909090909,4,2,1,5,0,0
22313,-90.9090909090909,4,2,1,70,0,0
22563,-90.9090909090909,4,2,1,5,0,0
22647,-90.9090909090909,4,2,1,70,0,0
22897,-90.9090909090909,4,2,1,5,0,0
22980,-100,4,2,1,80,0,0
23147,-100,4,2,1,70,0,0
28480,-100,4,2,1,60,0,0
30980,-100,4,2,1,70,0,0
31397,-100,4,2,1,5,0,0
31480,-100,4,2,1,70,0,0
31897,-100,4,2,1,5,0,0
31980,-100,4,2,1,70,0,0
32397,-100,4,2,1,5,0,0
32480,-100,4,2,1,70,0,0
32897,-100,4,2,1,5,0,0
32980,-100,4,2,1,70,0,0
33230,-100,4,2,1,5,0,0
33313,-100,4,2,1,70,0,0
33563,-100,4,2,1,5,0,0
33647,-100,4,2,1,70,0,0
34980,-111.111111111111,4,2,1,50,0,0
44313,-100,4,2,1,70,0,0
55063,-100,4,2,1,5,0,0
55147,-100,4,2,1,50,0,0
64313,-100,4,2,1,60,0,0
64647,-100,4,2,1,65,0,0
64980,-100,4,2,1,70,0,0
65313,-100,4,2,1,75,0,0
65647,-100,4,2,1,80,0,0
67980,-125,4,2,1,50,0,0
68230,-125,4,2,1,5,0,0
68313,-90.9090909090909,4,2,1,75,0,1
73647,-90.9090909090909,4,2,1,85,0,1
73980,-90.9090909090909,4,2,1,75,0,1
76313,-90.9090909090909,4,2,1,85,0,1
76647,-90.9090909090909,4,2,1,75,0,1
78980,-90.9090909090909,4,2,1,85,0,1
79147,-90.9090909090909,4,2,1,75,0,1
88313,-90.9090909090909,4,2,1,80,0,1
89480,-90.9090909090909,4,2,1,80,0,0
89647,-83.3333333333333,4,2,1,85,0,1
89897,-83.3333333333333,4,2,1,5,0,1
89980,-90.9090909090909,4,2,1,70,0,1
94980,-66.6666666666667,4,2,1,80,0,1
95313,-90.9090909090909,4,2,1,70,0,1
98063,-90.9090909090909,4,2,1,5,0,1
98147,-90.9090909090909,4,2,1,70,0,1
98563,-90.9090909090909,4,2,1,5,0,1
98647,-90.9090909090909,4,2,1,70,0,1
99063,-90.9090909090909,4,2,1,5,0,1
99147,-90.9090909090909,4,2,1,70,0,1
99563,-90.9090909090909,4,2,1,5,0,1
99647,-90.9090909090909,4,2,1,70,0,1
99897,-90.9090909090909,4,2,1,5,0,1
99980,-90.9090909090909,4,2,1,70,0,1
100230,-90.9090909090909,4,2,1,5,0,1
100313,-100,4,2,1,60,0,0

[Colours]
Combo1 : 254,107,166
Combo2 : 152,235,241

[HitObjects]
147,285,1306,5,6,0:0:0:0:
128,276,1639,2,0,P|116:198|149:152,1,128,2|2,0:0|0:0,0:0:0:0:
272,81,2305,1,2,0:0:0:0:
272,81,2472,2,0,P|217:86|130:51,1,128,0|0,0:0|0:0,0:0:0:0:
80,28,2972,2,0,P|114:55|107:151,1,128,2|2,0:0|0:0,0:0:0:0:
79,200,3472,1,0,0:0:0:0:
79,200,3639,2,0,L|93:276,1,64,2|2,0:1|0:1,0:0:0:0:
106,338,3972,5,2,0:0:0:0:
124,357,4305,2,0,P|205:360|246:328,1,128,2|2,0:0|0:0,0:0:0:0:
353,229,4972,1,2,0:0:0:0:
353,229,5139,2,0,P|303:243|221:207,1,128
180,162,5639,2,0,L|194:307,1,128,2|2,0:0|0:0,0:0:0:0:
197,366,6139,1,0,0:0:0:0:
423,322,6639,5,4,0:0:0:0:
456,172,6972,2,0,P|414:180|334:148,1,128,2|2,0:0|0:0,0:0:0:0:
243,27,7639,1,2,0:0:0:0:
243,27,7805,2,0,P|261:80|247:149,1,128,0|0,0:0|0:0,0:0:0:0:
201,211,8305,2,0,P|286:212|323:259,1,128,2|2,0:0|0:0,0:0:0:0:
393,218,8805,1,2,0:0:0:0:
393,218,8972,2,0,L|462:214,1,64,2|2,0:1|0:1,0:0:0:0:
479,140,9305,5,0,0:0:0:0:
477,116,9639,2,0,B|455:79|455:79|345:97,1,128,2|2,0:0|0:0,0:0:0:0:
247,183,10305,1,2,0:0:0:0:
247,183,10472,2,0,P|208:142|125:143,1,128,0|0,0:0|0:0,0:0:0:0:
75,179,10972,2,0,L|81:256,1,64,2|0,0:0|0:0,0:0:0:0:
50,340,11305,5,8,0:0:0:0:
89,333,11389,1,8,0:0:0:0:
128,326,11472,1,8,0:0:0:0:
167,321,11555,1,8,0:0:0:0:
206,315,11639,1,0,3:0:0:0:
206,315,11805,1,0,3:0:0:0:
324,363,11972,5,8,0:0:0:0:
290,328,12055,1,8,0:0:0:0:
283,280,12139,1,8,0:0:0:0:
305,238,12222,1,8,0:0:0:0:
353,216,12314,6,0,P|418:220|468:286,1,132.00000402832,6|0,3:2|0:0,0:0:0:0:
477,316,12647,2,0,L|497:116,1,176.000005371094,10|2,0:0|0:0,0:0:0:0:
431,55,13147,1,0,3:0:0:0:
330,86,13313,1,8,0:0:0:0:
330,86,13480,6,0,P|271:90|219:56,1,88.000002685547,2|0,0:0|3:0,0:0:0:0:
109,44,13813,1,2,0:0:0:0:
109,44,13980,2,0,P|153:84|164:211,1,176.000005371094,10|0,0:0|0:0,0:0:0:0:
126,291,14480,1,0,3:0:0:0:
5,232,14647,1,8,0:0:0:0:
5,232,14813,1,8,0:0:0:0:
105,138,14980,6,0,P|167:109|257:168,1,176.000005371094,2|10,3:2|0:0,0:0:0:0:
213,257,15480,1,2,0:0:0:0:
261,350,15647,2,0,L|372:339,1,88.000002685547,2|0,0:0|3:0,0:0:0:0:
464,230,15980,1,10,0:0:0:0:
464,230,16147,6,0,L|377:239,1,88.000002685547,2|0,0:0|3:0,0:0:0:0:
253,159,16480,1,2,0:0:0:0:
358,147,16647,2,0,L|367:50,1,88.000002685547,8|2,0:0|0:0,0:0:0:0:
369,32,16897,1,8,0:0:0:0:
372,6,16980,1,8,0:0:0:0:
449,78,17147,1,2,3:2:0:0:
253,159,17313,2,0,P|195:152|148:118,1,88.000002685547,8|8,0:0|0:0,0:0:0:0:
38,291,17647,6,0,B|0:273|0:273|115:243|187:341,1,240.000009155274,6|8,3:2|0:0,0:0:0:0:
157,34,18313,1,2,0:0:0:0:
54,175,18479,1,2,3:2:0:0:
220,121,18646,1,10,0:0:0:0:
54,67,18813,1,2,0:0:0:0:
157,209,18980,6,0,P|218:230|268:213,1,88.000002685547,0|2,3:0|0:0,0:0:0:0:
318,156,19313,1,8,0:0:0:0:
421,355,19480,2,0,P|353:310|240:346,1,176.000005371094,2|2,0:0|3:2,0:0:0:0:
396,234,19980,1,8,0:0:0:0:
396,234,20147,1,10,0:0:0:0:
227,184,20313,6,0,B|335:210|320:114|434:149,1,220.000006713867,6|0,3:2|0:0,0:0:0:0:
434,149,20813,2,0,P|392:110|492:49,1,220.000006713867,2|0,3:2|0:0,0:0:0:0:
490,48,21313,2,0,P|459:90|299:63,1,220.000006713867,2|0,3:2|0:0,0:0:0:0:
308,76,21813,2,0,P|209:38|125:102,1,220.000006713867,2|0,3:2|0:0,0:0:0:0:
125,101,22313,2,0,L|140:246,1,132.00000402832,2|0,3:2|0:0,0:0:0:0:
162,280,22647,2,0,L|148:124,1,132.00000402832,2|0,3:2|0:0,0:0:0:0:
125,101,22980,6,0,P|87:98|36:126,1,80,6|0,3:2|0:0,0:0:0:0:
194,30,23313,2,0,P|261:40|337:130,1,160,10|0,0:0|0:0,0:0:0:0:
300,193,23813,1,0,3:0:0:0:
390,224,23980,2,0,L|499:223,1,80,8|0,0:0|0:0,0:0:0:0:
223,250,24313,5,0,3:0:0:0:
313,286,24480,1,0,0:0:0:0:
326,101,24647,2,0,L|314:-15,1,80,10|0,0:0|0:0,0:0:0:0:
249,158,24980,2,0,L|241:79,1,80,2|0,0:0|3:0,0:0:0:0:
331,190,25313,1,8,0:0:0:0:
161,156,25480,1,8,0:0:0:0:
51,308,25647,6,0,P|85:288|125:286,1,80,0|0,3:0|0:0,0:0:0:0:
267,369,25980,2,0,P|231:250|174:223,1,160,10|2,0:0|0:0,0:0:0:0:
119,194,26480,1,0,3:0:0:0:
188,127,26647,2,0,L|293:135,1,80,8|2,0:0|0:0,0:0:0:0:
125,286,26980,5,0,3:0:0:0:
37,247,27147,1,2,0:0:0:0:
207,233,27313,2,0,L|301:240,1,80,10|2,0:0|0:0,0:0:0:0:
310,241,27563,1,8,0:0:0:0:
334,243,27647,1,8,0:0:0:0:
395,316,27813,1,0,3:0:0:0:
492,192,27980,1,8,0:0:0:0:
492,192,28147,1,8,0:0:0:0:
377,64,28313,6,0,P|322:91|227:79,2,160,6|10|2,3:2|0:0|0:0,0:0:0:0:
462,18,29147,1,0,3:0:0:0:
479,112,29313,2,0,L|491:195,1,80,10|2,0:0|0:0,0:0:0:0:
303,199,29647,6,0,P|377:224|427:285,2,160,0|10|2,3:0|0:0|0:0,0:0:0:0:
209,223,30480,1,2,3:2:0:0:
310,97,30647,1,10,0:0:0:0:
310,97,30813,1,10,0:0:0:0:
129,265,30980,6,0,B|90:162|182:163|130:68,1,200,6|0,3:2|0:0,0:0:0:0:
132,73,31480,2,0,P|70:57|48:175,1,200,2|0,3:2|0:0,0:0:0:0:
35,163,31980,2,0,P|87:184|233:158,1,200,2|0,3:2|0:0,0:0:0:0:
225,162,32480,2,0,P|172:171|204:296,1,200,2|0,3:2|0:0,0:0:0:0:
180,289,32980,2,0,L|319:282,1,120,2|0,3:2|0:0,0:0:0:0:
344,303,33313,2,0,L|224:309,1,120,2|0,3:2|0:0,0:0:0:0:
180,289,33647,5,0,0:0:0:0:
116,51,34980,5,4,3:2:0:0:
102,76,35313,2,0,L|116:229,1,143.999995605469,8|0,0:0|0:0,0:0:0:0:
117,305,35813,1,0,3:0:0:0:
117,305,35980,2,0,L|28:292,1,71.9999978027344,10|2,0:0|0:0,0:0:0:0:
199,258,36313,5,2,3:2:0:0:
199,258,36480,2,0,P|235:293|284:295,1,71.9999978027344,2|8,0:0|0:0,0:0:0:0:
434,311,36813,2,0,P|366:308|324:390,1,143.999995605469,2|2,0:0|3:2,0:0:0:0:
396,220,37313,2,0,L|380:137,1,71.9999978027344,8|10,0:0|0:0,0:0:0:0:
253,32,37647,6,0,P|278:69|262:176,2,143.999995605469,0|10|0,3:0|0:0|0:0,0:0:0:0:
183,83,38480,1,0,3:0:0:0:
106,42,38647,2,0,L|18:41,1,71.9999978027344,8|2,0:0|0:0,0:0:0:0:
186,169,38980,5,2,3:2:0:0:
270,164,39147,1,2,0:0:0:0:
104,130,39313,2,0,P|94:171|106:215,1,71.9999978027344,10|0,0:0|0:0,0:0:0:0:
104,220,39563,1,8,0:0:0:0:
114,239,39647,1,10,0:0:0:0:
196,262,39813,1,0,3:0:0:0:
226,88,39980,1,10,0:0:0:0:
226,88,40147,1,8,0:0:0:0:
312,191,40313,6,0,P|348:159|454:162,2,143.999995605469,4|10|2,3:2|0:0|0:0,0:0:0:0:
321,277,41147,1,2,3:2:0:0:
398,313,41313,2,0,L|500:303,1,71.9999978027344,10|0,0:0|0:0,0:0:0:0:
312,191,41647,5,2,3:2:0:0:
242,242,41813,2,0,L|140:232,1,71.9999978027344,2|8,0:0|0:0,0:0:0:0:
91,197,42147,2,0,P|125:243|94:338,1,143.999995605469,2|2,0:0|3:2,0:0:0:0:
242,242,42647,1,8,0:0:0:0:
242,242,42813,1,10,0:0:0:0:
168,110,42980,6,0,P|214:143|308:113,2,143.999995605469,0|10|0,3:0|0:0|0:0,0:0:0:0:
122,36,43813,1,0,3:0:0:0:
36,187,43980,1,10,0:0:0:0:
36,187,44147,1,8,0:0:0:0:
4,96,44313,5,10,3:2:0:0:
158,189,44480,2,0,L|167:109,1,80,10|0,3:2|0:0,0:0:0:0:
242,283,44813,2,0,L|252:204,1,80,10|0,3:2|0:0,0:0:0:0:
327,380,45147,2,0,L|337:301,1,80,10|0,3:2|0:0,0:0:0:0:
231,374,45480,1,8,3:2:0:0:
33,365,45647,6,0,L|133:356,1,80,14|0,3:2|0:0,0:0:0:0:
242,283,45980,2,0,L|162:275,1,80,10|0,3:2|0:0,0:0:0:0:
33,200,46313,2,0,L|113:193,1,80,10|0,3:2|0:0,0:0:0:0:
260,131,46647,1,10,3:2:0:0:
260,131,46813,6,2,P|182:129|274:16,1,320,10|2,3:2|0:0,0:1:0:0:
269,12,48313,6,0,L|355:25,1,80,10|0,3:2|0:0,0:0:0:0:
464,101,48647,2,0,L|385:113,1,80,10|0,3:2|0:0,0:0:0:0:
260,186,48980,2,0,L|340:198,1,80,10|0,3:2|0:0,0:0:0:0:
474,264,49313,1,10,3:2:0:0:
474,264,49480,6,0,P|429:310|335:304,1,160,10|2,3:2|0:0,0:0:0:0:
338,306,50147,2,0,L|358:132,1,160,2|2,0:0|0:0,0:0:0:0:
367,51,50647,1,2,0:0:0:0:
205,153,50980,6,0,P|243:144|273:119,1,80,10|0,3:2|0:0,0:0:0:0:
121,204,51313,2,0,P|147:233|185:247,1,80,10|0,3:2|0:0,0:0:0:0:
32,156,51647,2,0,P|20:194|28:233,1,80,10|0,3:2|0:0,0:0:0:0:
119,109,51980,1,10,3:2:0:0:
119,109,52147,2,2,P|132:43|192:155,1,320,10|2,3:2|0:0,0:1:0:0:
157,212,53647,6,0,P|174:176|204:151,1,80,10|0,3:2|0:0,0:0:0:0:
280,303,53980,2,0,P|257:271|251:232,1,80,10|0,3:2|0:0,0:0:0:0:
423,244,54313,2,0,P|384:247|347:234,1,80,10|0,3:2|0:0,0:0:0:0:
446,88,54647,1,10,3:2:0:0:
446,88,54813,2,0,P|398:101|408:174,1,120,10|0,3:2|0:0,0:0:0:0:
395,163,55147,2,2,B|251:168|321:65|237:36|155:50|122:117|99:147|225:243|223:124,1,400,2|0,0:0|0:0,0:1:0:0:
218,153,56313,5,2,0:0:0:0:
332,355,64313,6,0,P|360:341|378:304,3,40,2|2|2|2,3:2|0:0|0:0|0:0,0:0:0:0:
382,294,64647,2,0,P|379:267|370:247,3,40,10|2|2|10,0:0|0:0|0:0|0:0,0:0:0:0:
336,226,64980,1,2,0:0:0:0:
293,213,65063,1,2,0:0:0:0:
249,221,65147,1,2,3:2:0:0:
212,246,65230,1,2,0:0:0:0:
193,286,65313,1,10,0:0:0:0:
162,318,65397,1,2,0:0:0:0:
121,333,65480,1,2,0:0:0:0:
77,330,65563,1,2,0:0:0:0:
44,300,65647,5,10,3:2:0:0:
90,168,65813,2,0,P|107:204|109:244,1,80,10|0,3:2|0:0,0:0:0:0:
421,168,66147,2,0,P|404:204|403:244,1,80,10|0,3:2|0:0,0:0:0:0:
108,65,66480,2,0,P|146:79|175:107,1,80,10|0,3:2|0:0,0:0:0:0:
403,65,66813,2,0,P|365:79|337:107,1,80,10|0,3:2|0:0,0:0:0:0:
337,106,67980,6,0,L|232:99,1,96,2|0,0:0|0:0,0:0:0:0:
188,97,68313,5,6,3:2:0:0:
277,207,68480,1,8,0:0:0:0:
102,125,68647,2,0,P|99:74|125:35,1,88.000002685547,2|8,3:2|0:0,0:0:0:0:
176,268,68980,1,2,3:2:0:0:
41,274,69147,1,2,3:2:0:0:
168,182,69313,1,8,0:0:0:0:
295,333,69480,6,0,B|323:292|323:292|397:281|466:323,1,176.000005371094,2|0,3:2|3:0,0:0:0:0:
367,383,69980,1,8,0:0:0:0:
335,197,70147,1,0,3:0:0:0:
313,202,70230,1,0,3:0:0:0:
291,206,70313,1,0,3:0:0:0:
269,210,70397,1,0,3:0:0:0:
247,214,70480,1,0,3:0:0:0:
418,226,70647,1,14,0:0:0:0:
385,40,70813,6,0,P|352:85|232:79,1,176.000005371094,0|0,3:0|3:0,0:0:0:0:
150,30,71313,2,0,P|158:75|150:139,1,88.000002685547,8|0,0:0|3:0,0:0:0:0:
26,270,71647,1,2,0:0:0:0:
0,167,71813,2,0,P|70:191|104:183,1,88.000002685547,2|8,3:2|0:0,0:0:0:0:
155,117,72147,1,2,0:0:0:0:
181,363,72313,6,0,P|157:241|221:205,1,176.000005371094,0|8,3:0|0:0,0:0:0:0:
316,294,72813,1,2,0:0:0:0:
316,294,72897,1,8,0:0:0:0:
316,294,72980,2,0,L|221:290,1,88.000002685547,8|0,0:0|3:0,0:0:0:0:
395,239,73313,1,8,0:0:0:0:
364,368,73480,1,8,0:0:0:0:
284,182,73647,6,0,B|262:138|262:138|274:54|356:8,2,176.000005371094,6|10|2,3:2|0:0|0:0,0:0:0:0:
449,48,74480,1,2,3:2:0:0:
489,145,74647,1,8,0:0:0:0:
489,145,74813,1,2,0:0:0:0:
241,102,74980,6,0,P|311:100|375:185,2,176.000005371094,0|8|0,3:0|0:0|0:0,0:0:0:0:
190,194,75813,1,0,3:0:0:0:
93,151,75980,1,10,0:0:0:0:
284,182,76147,1,8,0:0:0:0:
69,384,76313,6,0,B|30:346|30:346|83:203,2,176.000005371094,6|10|2,3:2|0:0|0:0,0:0:0:0:
236,344,77147,1,2,3:2:0:0:
132,323,77313,1,8,0:0:0:0:
356,271,77480,6,0,P|292:276|225:187,1,176.000005371094,2|2,3:2|3:2,0:0:0:0:
329,55,77980,2,0,P|348:100|334:157,1,88.000002685547,8|2,0:0|0:0,0:0:0:0:
337,162,78230,1,8,0:0:0:0:
321,183,78313,1,8,0:0:0:0:
258,109,78480,1,2,3:2:0:0:
485,136,78647,2,0,L|508:24,1,88.000002685547,10|8,0:0|0:0,0:0:0:0:
456,258,78980,5,6,3:2:0:0:
298,196,79147,1,8,0:0:0:0:
363,349,79313,5,2,3:2:0:0:
271,199,79480,1,8,0:0:0:0:
226,360,79647,5,2,3:2:0:0:
244,199,79813,1,2,3:2:0:0:
105,293,79980,5,8,0:0:0:0:
218,193,80147,2,0,P|170:124|201:33,1,176.000005371094,2|0,3:2|3:0,0:0:0:0:
275,107,80647,1,8,0:0:0:0:
103,201,80813,1,0,3:0:0:0:
77,197,80896,1,0,3:0:0:0:
51,193,80979,1,0,3:0:0:0:
25,191,81063,1,0,3:0:0:0:
0,187,81146,1,0,3:0:0:0:
145,129,81313,1,14,0:0:0:0:
66,319,81480,6,0,P|159:280|232:327,1,176.000005371094,0|0,3:0|3:0,0:0:0:0:
305,374,81980,2,0,P|305:320|326:278,1,88.000002685547,10|0,0:0|3:0,0:0:0:0:
490,154,82313,1,2,0:0:0:0:
492,259,82480,2,0,P|427:233|392:237,1,88.000002685547,2|8,3:2|0:0,0:0:0:0:
318,289,82813,1,2,0:0:0:0:
269,51,82980,6,0,P|333:115|293:210,1,176.000005371094,0|8,3:0|0:0,0:0:0:0:
169,164,83480,1,2,0:0:0:0:
169,164,83563,1,8,0:0:0:0:
169,164,83647,2,0,L|264:130,1,88.000002685547,8|0,0:0|3:0,0:0:0:0:
77,110,83980,1,10,0:0:0:0:
141,252,84147,1,8,0:0:0:0:
315,190,84313,5,14,0:0:0:0:
269,51,84480,1,0,3:0:0:0:
169,164,84647,1,0,3:0:0:0:
360,111,84813,5,8,0:0:0:0:
319,301,84980,1,0,3:0:0:0:
169,164,85147,1,0,3:0:0:0:
408,191,85313,2,0,L|496:185,1,88.000002685547,10|0,0:0|3:0,0:0:0:0:
366,9,85647,5,10,0:0:0:0:
303,214,85813,2,0,L|320:312,1,88.000002685547,0|0,3:0|3:0,0:0:0:0:
136,61,86147,2,0,P|84:89|65:145,1,88.000002685547,10|0,0:0|3:0,0:0:0:0:
376,113,86480,2,0,P|407:163|395:221,1,88.000002685547,2|8,3:2|0:0,0:0:0:0:
255,51,86813,1,2,3:2:0:0:
197,297,86980,5,14,3:2:0:0:
99,194,87147,2,0,L|11:204,1,88.000002685547,10|0,3:2|0:0,0:0:0:0:
237,139,87480,2,0,L|156:105,1,88.000002685547,10|0,3:2|0:0,0:0:0:0:
395,197,87813,2,0,L|342:127,1,88.000002685547,10|0,3:2|0:0,0:0:0:0:
510,298,88147,1,10,3:2:0:0:
510,193,88313,5,10,3:2:0:0:
399,305,88480,2,0,P|352:302|309:262,1,88.000002685547,10|0,3:2|0:0,0:0:0:0:
327,42,88813,2,0,P|288:61|265:98,1,88.000002685547,10|0,3:2|0:0,0:0:0:0:
197,223,89147,2,0,P|237:193|296:198,1,88.000002685547,10|0,3:2|0:0,0:0:0:0:
63,151,89480,1,10,3:2:0:0:
52,384,89647,6,0,B|92:370|92:370|98:300|66:235,1,143.999995605469,6|0,3:2|0:0,0:0:0:0:
37,239,89980,2,0,P|89:261|198:223,1,176.000005371094,10|2,0:0|0:0,0:0:0:0:
216,327,90480,1,0,3:0:0:0:
317,357,90647,1,10,0:0:0:0:
317,357,90813,6,0,L|417:372,1,88.000002685547,2|0,0:0|3:0,0:0:0:0:
504,253,91147,1,2,0:0:0:0:
504,253,91313,2,0,P|454:281|348:218,1,176.000005371094,10|0,0:0|0:0,0:0:0:0:
262,285,91813,1,0,3:0:0:0:
298,136,91980,1,8,0:0:0:0:
298,136,92147,1,8,0:0:0:0:
434,194,92313,6,0,P|450:122|407:26,1,176.000005371094,2|10,3:2|0:0,0:0:0:0:
305,37,92813,1,2,0:0:0:0:
209,81,92980,2,0,L|118:75,1,88.000002685547,2|0,0:0|3:0,0:0:0:0:
298,136,93313,1,10,0:0:0:0:
298,136,93480,6,0,L|389:130,1,88.000002685547,2|0,0:0|3:0,0:0:0:0:
202,184,93813,1,2,0:0:0:0:
294,235,93980,2,0,P|314:283|290:339,1,88.000002685547,8|2,0:0|0:0,0:0:0:0:
297,341,94230,1,8,0:0:0:0:
280,361,94313,1,8,0:0:0:0:
202,288,94480,1,2,3:2:0:0:
391,223,94647,2,0,P|436:216|488:228,1,88.000002685547,8|8,0:0|0:0,0:0:0:0:
301,51,94980,6,0,B|334:62|334:62|251:131|144:45,1,240.000009155274,6|8,3:2|0:0,0:0:0:0:
91,338,95647,1,2,0:0:0:0:
25,177,95813,1,2,3:2:0:0:
171,268,95980,1,10,0:0:0:0:
0,279,96147,1,2,0:0:0:0:
131,169,96313,6,0,B|177:159|177:159|234:184,1,88.000002685547,0|2,3:0|0:0,0:0:0:0:
275,263,96647,1,8,0:0:0:0:
374,69,96813,2,0,B|293:96|293:96|210:58,1,176.000005371094,2|2,0:0|3:2,0:0:0:0:
355,187,97313,1,8,0:0:0:0:
355,187,97480,1,10,0:0:0:0:
194,233,97647,6,0,B|320:198|263:317|420:266,1,220.000006713867,6|0,3:2|0:0,0:0:0:0:
397,272,98147,2,0,P|370:204|482:192,1,220.000006713867,2|0,3:2|0:0,0:0:0:0:
480,189,98647,2,0,P|418:163|432:28,1,220.000006713867,2|0,3:2|0:0,0:0:0:0:
428,30,99147,2,0,P|430:90|273:116,1,220.000006713867,2|0,3:2|0:0,0:0:0:0:
300,140,99647,2,0,L|162:149,1,132.00000402832,2|0,3:2|0:0,0:0:0:0:
120,121,99980,2,0,L|258:112,1,132.00000402832,2|0,3:2|0:0,0:0:0:0:
300,140,100313,6,0,L|316:246,1,80,14|0,3:2|0:0,0:0:0:0:
230,213,100647,2,0,L|246:319,1,80,10|0,3:2|0:0,0:0:0:0:
162,285,100980,2,0,L|178:391,1,80,10|0,3:2|0:0,0:0:0:0:
151,202,101313,1,10,3:2:0:0:
151,202,101480,1,10,3:2:0:0:
65,53,101980,6,0,P|87:126|29:188,1,160,2|2,0:0|0:0,0:0:0:0:
10,109,102480,1,2,0:0:0:0:
65,53,102647,2,0,L|168:50,1,80,2|2,0:1|0:1,0:0:0:0:
287,125,102980,6,0,L|207:120,1,80,10|0,3:2|0:0,0:0:0:0:
340,205,103313,2,0,L|261:201,1,80,10|0,3:2|0:0,0:0:0:0:
398,287,103647,2,0,L|319:283,1,80,10|0,3:2|0:0,0:0:0:0:
488,297,103980,1,10,3:2:0:0:
488,297,104147,1,10,3:2:0:0:
497,92,104647,6,0,P|427:120|354:51,1,160,2|2,0:0|0:0,0:0:0:0:
433,38,105147,1,2,0:0:0:0:
241,182,105647,6,0,L|320:175,1,80,14|0,3:2|0:0,0:0:0:0:
192,261,105980,2,0,L|272:255,1,80,10|0,3:2|0:0,0:0:0:0:
142,342,106313,2,0,L|222:336,1,80,10|0,3:2|0:0,0:0:0:0:
57,352,106647,1,10,3:2:0:0:
57,352,106813,1,10,3:2:0:0:
98,127,107313,6,0,P|150:179|232:160,1,160,2|2,0:0|0:0,0:0:0:0:
175,103,107813,1,2,0:0:0:0:
98,127,107980,2,0,L|82:210,1,80,2|2,0:1|0:1,0:0:0:0:
270,318,108313,6,0,L|191:301,1,80,10|0,3:2|0:0,0:0:0:0:
343,253,108647,2,0,L|264:236,1,80,10|0,3:2|0:0,0:0:0:0:
414,189,108980,2,0,L|335:172,1,80,10|0,3:2|0:0,0:0:0:0:
500,211,109313,1,10,3:2:0:0:
500,211,109480,1,10,3:2:0:0:
260,99,109980,6,0,P|293:141|263:237,1,160,2|2,0:0|0:0,0:0:0:0:
219,169,110480,1,2,0:0:0:0:
381,163,110647,1,10,3:2:0:0:
381,163,110813,1,10,3:2:0:0:
