osu file format v14

[General]
AudioFilename: audio.mp3
AudioLeadIn: 0
PreviewTime: 12139
Countdown: 0
SampleSet: Soft
StackLeniency: 0.6
Mode: 0
LetterboxInBreaks: 0
WidescreenStoryboard: 0

[Editor]
DistanceSpacing: 1.2
BeatDivisor: 4
GridSize: 32
TimelineZoom: 1.6

[Metadata]
Title:JuDGMENT/SHADoW ~T06481T0~
TitleUnicode:JuDGMENT/SHΛDoW~T06481T0~
Artist:No:R
ArtistUnicode:No:R
Creator:Bellicose
Version:Hard
Source:白刃きらめく恋しらべ
Tags:ジャッジメントシャドウ~とがびと~ ALNEAR めくらべ Mekurabe Shiraha Kirameku Koi Shirabe crystalia togabito eroge japanese vn visual novel electronic video game opening
BeatmapID:2233999
BeatmapSetID:1067036

[Difficulty]
HPDrainRate:5
CircleSize:3.5
OverallDifficulty:6.5
ApproachRate:8
SliderMultiplier:1.4
SliderTickRate:1

[Events]
//Background and Video events
0,0,"bgmatsurika.jpg",0,0
//Break Periods
2,56513,63563
//Storyboard Layer 0 (Background)
//Storyboard Layer 1 (Fail)
//Storyboard Layer 2 (Pass)
//Storyboard Layer 3 (Foreground)
//Storyboard Layer 4 (Overlay)
//Storyboard Sound Samples

[TimingPoints]
1306,333.333333333333,4,2,1,50,1,0
1306,-125,4,2,1,50,0,0
11139,-100,4,2,1,70,0,0
12314,333.333333333333,4,2,1,50,1,0
12314,-90.9090909090909,4,2,1,80,0,0
12564,-90.9090909090909,4,2,1,5,0,0
12647,-90.9090909090909,4,2,1,70,0,0
17647,-90.9090909090909,4,2,1,80,0,0
17980,-90.9090909090909,4,2,1,70,0,0
20730,-90.9090909090909,4,2,1,5,0,0
20813,-90.9090909090909,4,2,1,70,0,0
21730,-90.9090909090909,4,2,1,5,0,0
21813,-90.9090909090909,4,2,1,70,0,0
22563,-90.9090909090909,4,2,1,5,0,0
22647,-90.9090909090909,4,2,1,70,0,0
22980,-100,4,2,1,80,0,0
23147,-100,4,2,1,70,0,0
28647,-100,4,2,1,60,0,0
30980,-100,4,2,1,70,0,0
31397,-100,4,2,1,5,0,0
31480,-100,4,2,1,70,0,0
32397,-100,4,2,1,5,0,0
32480,-100,4,2,1,70,0,0
33230,-100,4,2,1,5,0,0
33313,-100,4,2,1,70,0,0
34980,-111.111111111111,4,2,1,50,0,0
44313,-100,4,2,1,70,0,0
55063,-100,4,2,1,5,0,0
55147,-100,4,2,1,50,0,0
64313,-100,4,2,1,60,0,0
64647,-100,4,2,1,65,0,0
64980,-100,4,2,1,70,0,0
65313,-100,4,2,1,75,0,0
65647,-100,4,2,1,80,0,0
67980,-100,4,2,1,50,0,0
68230,-100,4,2,1,5,0,0
68313,-90.9090909090909,4,2,1,75,0,1
73647,-90.9090909090909,4,2,1,85,0,1
73980,-90.9090909090909,4,2,1,75,0,1
76313,-90.9090909090909,4,2,1,85,0,1
76647,-90.9090909090909,4,2,1,75,0,1
78980,-90.9090909090909,4,2,1,85,0,1
79147,-90.9090909090909,4,2,1,75,0,1
88313,-90.9090909090909,4,2,1,80,0,1
89480,-90.9090909090909,4,2,1,80,0,0
89647,-90.9090909090909,4,2,1,85,0,1
89897,-90.9090909090909,4,2,1,5,0,1
89980,-90.9090909090909,4,2,1,70,0,1
94980,-90.9090909090909,4,2,1,80,0,1
95313,-90.9090909090909,4,2,1,70,0,1
98063,-90.9090909090909,4,2,1,5,0,1
98147,-90.9090909090909,4,2,1,70,0,1
99063,-90.9090909090909,4,2,1,5,0,1
99147,-90.9090909090909,4,2,1,70,0,1
99897,-90.9090909090909,4,2,1,5,0,1
99980,-90.9090909090909,4,2,1,70,0,1
100313,-100,4,2,1,60,0,0

[Colours]
Combo1 : 254,107,166
Combo2 : 152,235,241

[HitObjects]
145,236,1306,5,6,0:0:0:0:
188,339,1639,1,2,0:0:0:0:
299,325,1972,2,0,L|435:305,1,112,2|2,0:0|0:0,0:0:0:0:
465,300,2472,2,0,P|425:219|466:145,1,168,0|2,0:0|0:0,0:0:0:0:
422,46,3305,1,2,0:0:0:0:
422,46,3472,1,0,0:0:0:0:
352,98,3639,2,0,L|293:91,1,56,2|2,0:1|0:1,0:0:0:0:
240,84,3972,5,2,0:0:0:0:
167,169,4305,1,2,0:0:0:0:
253,240,4639,2,0,P|218:270|149:282,1,112,2|2,0:0|0:0,0:0:0:0:
116,323,5139,2,0,P|103:230|33:177,1,168,0|2,0:0|0:0,0:0:0:0:
83,76,5972,1,2,0:0:0:0:
83,76,6139,1,0,0:0:0:0:
250,90,6639,5,4,0:0:0:0:
152,143,6972,1,2,0:0:0:0:
229,223,7305,2,0,P|199:265|202:331,1,112,2|2,0:0|0:0,0:0:0:0:
247,352,7805,2,0,B|354:366|354:366|406:309,1,168,0|2,0:0|0:0,0:0:0:0:
471,239,8639,1,2,0:0:0:0:
471,239,8805,1,2,0:0:0:0:
378,219,8972,2,0,L|388:157,1,56,2|2,0:1|0:1,0:0:0:0:
400,109,9305,5,0,0:0:0:0:
326,24,9639,1,2,0:0:0:0:
279,125,9972,2,0,P|219:171|161:169,1,112,2|2,0:0|0:0,0:0:0:0:
137,143,10472,2,0,P|169:194|163:306,1,168,0|2,0:0|0:0,0:0:0:0:
57,327,11305,5,8,0:0:0:0:
57,327,11389,1,8,0:0:0:0:
57,327,11472,2,0,L|38:272,1,35,8|8,0:0|0:0,0:0:0:0:
33,260,11639,2,0,L|50:175,1,70,0|0,3:0|3:0,0:0:0:0:
136,141,11972,5,8,0:0:0:0:
136,141,12055,1,8,0:0:0:0:
136,141,12139,2,0,L|87:122,1,35,8|8,0:0|0:0,0:0:0:0:
71,106,12314,6,0,L|216:80,1,115.50000352478,6|0,3:2|0:0,0:0:0:0:
222,79,12647,2,0,P|272:106|241:202,1,154.000004699707,10|2,0:0|0:0,0:0:0:0:
207,258,13147,1,0,3:0:0:0:
207,258,13313,2,0,L|221:345,1,77.0000023498536,8|2,0:0|0:0,0:0:0:0:
298,366,13647,5,0,3:0:0:0:
378,341,13813,1,2,0:0:0:0:
378,341,13980,2,0,P|354:292|444:233,1,154.000004699707,10|0,0:0|0:0,0:0:0:0:
494,254,14480,1,0,3:0:0:0:
508,170,14647,1,8,0:0:0:0:
508,170,14813,1,8,0:0:0:0:
426,90,14980,6,0,B|391:125|391:125|278:103,1,154.000004699707,2|10,3:2|0:0,0:0:0:0:
204,92,15480,1,2,0:0:0:0:
176,172,15647,2,0,P|179:229|210:259,1,77.0000023498536,2|0,0:0|3:0,0:0:0:0:
301,176,15980,1,10,0:0:0:0:
301,176,16147,6,0,P|298:119|267:89,1,77.0000023498536,2|0,0:0|3:0,0:0:0:0:
204,92,16480,2,0,B|110:70|130:141|31:112,1,154.000004699707,2|2,0:0|0:0,0:0:0:0:
37,112,16897,1,8,0:0:0:0:
19,104,16980,1,8,0:0:0:0:
67,34,17147,1,2,3:2:0:0:
136,144,17313,2,0,L|128:240,1,77.0000023498536,8|8,0:0|0:0,0:0:0:0:
143,365,17647,6,0,B|78:346|78:346|61:320|61:320|-10:300,2,154.000004699707,6|8|2,3:2|0:0|0:0,0:0:0:0:
228,345,18480,1,2,3:2:0:0:
263,267,18647,1,10,0:0:0:0:
263,267,18813,2,0,P|212:208|228:123,1,154.000004699707,2|2,0:0|0:0,0:0:0:0:
267,66,19313,1,8,0:0:0:0:
267,66,19480,2,0,L|428:83,1,154.000004699707,2|2,0:0|3:2,0:0:0:0:
504,92,19980,1,8,0:0:0:0:
504,92,20147,1,10,0:0:0:0:
492,214,20313,6,0,P|435:196|395:300,1,192.500005874634,6|0,3:2|0:0,0:0:0:0:
414,333,20813,1,2,3:2:0:0:
217,171,21313,6,0,B|322:160|281:99|394:84,1,192.500005874634,2|0,3:2|0:0,0:0:0:0:
426,89,21813,1,2,3:2:0:0:
335,326,22313,6,0,P|271:334|210:297,1,115.50000352478,2|0,3:2|0:0,0:0:0:0:
195,282,22647,1,2,3:2:0:0:
193,128,22980,5,6,3:2:0:0:
51,187,23313,2,0,P|40:252|81:338,1,140,10|0,0:0|0:0,0:0:0:0:
145,358,23813,1,0,3:0:0:0:
145,358,23980,2,0,L|240:342,1,70,8|0,0:0|0:0,0:0:0:0:
297,332,24313,5,0,3:0:0:0:
307,248,24480,1,0,0:0:0:0:
258,179,24647,2,0,P|210:207|120:186,1,140,10|2,0:0|0:0,0:0:0:0:
65,138,25147,1,0,3:0:0:0:
65,138,25313,2,0,L|76:51,1,70,8|8,0:0|0:0,0:0:0:0:
141,17,25647,5,0,3:0:0:0:
290,94,25980,2,0,B|324:65|324:65|436:89,1,140,10|2,0:0|0:0,0:0:0:0:
488,139,26480,1,0,3:0:0:0:
488,139,26647,2,0,L|480:233,1,70,8|2,0:0|0:0,0:0:0:0:
474,292,26980,5,0,3:0:0:0:
404,245,27147,1,2,0:0:0:0:
330,284,27313,2,0,L|244:272,1,70,10|2,0:0|0:0,0:0:0:0:
243,272,27563,1,8,0:0:0:0:
225,270,27647,1,8,0:0:0:0:
156,317,27813,1,0,3:0:0:0:
116,242,27980,2,0,L|116:139,1,70,8|8,0:0|0:0,0:0:0:0:
112,51,28313,6,0,B|61:69|61:69|49:99|49:99|0:118,2,140,6|10|2,3:2|0:0|0:0,0:0:0:0:
192,77,29147,1,0,3:0:0:0:
192,77,29313,2,0,P|244:94|280:88,1,70,10|2,0:0|0:0,0:0:0:0:
343,94,29647,6,0,L|370:264,2,140,0|10|2,3:0|0:0|0:0,0:0:0:0:
299,21,30480,1,2,3:2:0:0:
258,93,30647,2,0,L|180:99,1,70,10|10,0:0|0:0,0:0:0:0:
45,162,30980,6,0,P|116:166|172:257,1,175,6|0,3:2|0:0,0:0:0:0:
164,287,31480,1,2,3:2:0:0:
374,148,31980,6,0,B|289:154|311:68|209:71,1,175,2|0,3:2|0:0,0:0:0:0:
182,76,32480,1,2,3:2:0:0:
282,307,32980,6,0,P|343:334|402:312,1,105,2|0,3:2|0:0,0:0:0:0:
420,320,33313,1,2,3:2:0:0:
434,187,34980,5,4,3:2:0:0:
406,38,35313,2,0,B|327:52|327:52|316:80|316:80|224:102,1,188.999994232178,8|0,0:0|3:0,0:0:0:0:
164,113,35980,2,0,L|143:25,1,62.9999980773926,10|2,0:0|0:0,0:0:0:0:
222,182,36313,5,2,3:2:0:0:
222,182,36480,2,0,P|181:200|140:202,1,62.9999980773926,2|8,0:0|0:0,0:0:0:0:
88,214,36813,2,0,P|50:243|71:330,1,125.999996154785,2|2,0:0|3:2,0:0:0:0:
122,365,37313,1,8,0:0:0:0:
122,365,37480,1,10,0:0:0:0:
212,344,37647,6,0,B|298:366|298:366|330:341|330:341,2,125.999996154785,0|10|0,3:0|0:0|0:0,0:0:0:0:
219,268,38480,1,0,3:0:0:0:
219,268,38647,2,0,L|233:186,1,62.9999980773926,8|2,0:0|0:0,0:0:0:0:
311,146,38980,5,2,3:2:0:0:
306,70,39147,1,2,0:0:0:0:
306,70,39313,2,0,P|258:42|196:50,1,94.499997116089,10|8,0:0|0:0,0:0:0:0:
188,63,39647,2,0,L|95:58,1,62.9999980773926,10|0,0:0|3:0,0:0:0:0:
51,79,39980,1,10,0:0:0:0:
51,79,40147,1,8,0:0:0:0:
77,213,40313,6,0,P|125:164|199:173,2,125.999996154785,4|10|2,3:2|0:0|0:0,0:0:0:0:
89,295,41147,1,2,3:2:0:0:
89,295,41313,2,0,L|169:302,1,62.9999980773926,10|0,0:0|0:0,0:0:0:0:
233,355,41647,5,2,3:2:0:0:
233,355,41813,2,0,P|275:325|311:336,1,62.9999980773926,2|8,0:0|0:0,0:0:0:0:
341,374,42147,2,0,L|321:241,1,125.999996154785,2|2,0:0|3:2,0:0:0:0:
358,182,42647,1,8,0:0:0:0:
358,182,42813,1,10,0:0:0:0:
459,212,42980,6,0,B|482:245|482:245|465:346,2,125.999996154785,0|10|0,3:0|0:0|0:0,0:0:0:0:
398,257,43813,1,0,3:0:0:0:
308,249,43980,2,0,L|224:243,1,62.9999980773926,10|8,0:0|0:0,0:0:0:0:
145,329,44313,5,10,3:2:0:0:
229,325,44480,1,10,3:2:0:0:
245,157,44813,1,10,3:2:0:0:
111,55,45147,2,0,B|66:75|66:75|93:176,1,140,10|8,3:2|3:2,0:0:0:0:
153,286,45647,6,0,L|-9:270,2,140,14|10|10,3:2|3:2|3:2,0:0:0:0:
307,352,46647,1,10,3:2:0:0:
307,352,46813,2,2,P|307:291|455:336,1,280,10|2,3:2|0:0,0:1:0:0:
336,148,48313,6,0,L|481:162,2,140,10|10|10,3:2|3:2|3:2,0:0:0:0:
175,198,49313,1,10,3:2:0:0:
175,198,49480,2,0,P|151:144|166:63,1,140,10|2,3:2|0:0,0:0:0:0:
263,202,50147,2,0,L|240:355,1,140,2|2,0:0|0:0,0:0:0:0:
164,308,50647,1,2,0:0:0:0:
63,173,50980,6,0,L|71:320,2,140,10|10|10,3:2|3:2|3:2,0:0:0:0:
148,28,51980,1,10,3:2:0:0:
148,28,52147,2,2,P|152:87|307:28,1,280,10|2,3:2|0:0,0:1:0:0:
327,271,53647,6,0,B|158:255|159:255,2,140,10|10|10,3:2|3:2|3:2,0:0:0:0:
467,364,54647,1,10,3:2:0:0:
467,364,54813,2,0,P|498:292|490:245,1,105,10|0,3:2|0:0,0:0:0:0:
484,226,55147,2,2,P|311:224|333:359,1,350,2|0,0:0|0:0,0:1:0:0:
396,279,56313,5,2,0:0:0:0:
120,134,64313,6,0,L|178:129,3,35,2|2|2|2,3:2|0:0|0:0|0:0,0:0:0:0:
192,150,64647,2,0,L|266:144,1,70,10|2,0:0|0:0,0:0:0:0:
292,117,64897,1,10,0:0:0:0:
292,117,64980,2,0,L|350:112,3,35,10|2|2|2,0:0|0:0|3:2|0:0,0:0:0:0:
364,133,65314,2,0,L|425:129,3,35,10|2|10|2,0:0|0:0|0:0|0:0,0:0:0:0:
441,127,65647,5,10,3:2:0:0:
482,221,65813,1,10,3:2:0:0:
408,354,66147,5,10,3:2:0:0:
241,330,66480,1,10,3:2:0:0:
75,304,66813,1,10,3:2:0:0:
87,111,67980,6,0,P|99:152|94:222,1,105,2|0,0:0|0:0,0:0:0:0:
73,254,68313,5,6,3:2:0:0:
73,254,68480,1,8,0:0:0:0:
121,332,68647,2,0,L|213:327,1,77.0000023498536,2|8,3:2|0:0,0:0:0:0:
290,321,68980,1,2,3:2:0:0:
290,321,69147,2,0,P|275:260|285:229,1,77.0000023498536,2|8,3:2|0:0,0:0:0:0:
438,275,69480,6,0,P|451:212|409:113,1,154.000004699707,2|0,3:2|3:0,0:0:0:0:
347,183,69980,1,8,0:0:0:0:
267,134,70147,1,0,3:0:0:0:
267,134,70230,1,0,3:0:0:0:
267,134,70313,2,0,L|210:123,2,38.5000011749268,0|0|0,3:0|3:0|3:0,0:0:0:0:
260,226,70647,1,14,0:0:0:0:
260,226,70813,1,0,3:0:0:0:
212,305,70980,6,0,L|130:288,1,77.0000023498536,2|0,0:0|3:0,0:0:0:0:
47,314,71313,2,0,L|63:217,1,77.0000023498536,10|0,0:0|3:0,0:0:0:0:
48,145,71647,1,2,0:0:0:0:
48,145,71813,2,0,P|94:160|146:142,1,77.0000023498536,2|8,3:2|0:0,0:0:0:0:
188,91,72147,6,0,P|234:106|286:88,1,77.0000023498536,2|0,0:0|3:0,0:0:0:0:
332,41,72480,2,0,P|378:56|430:38,1,77.0000023498536,2|8,0:0|0:0,0:0:0:0:
468,118,72813,1,2,0:0:0:0:
468,118,72897,2,0,L|460:180,1,38.5000011749268,8|8,0:0|0:0,0:0:0:0:
456,248,73147,1,0,3:0:0:0:
379,196,73313,2,0,L|269:188,1,77.0000023498536,10|8,0:0|0:0,0:0:0:0:
151,185,73647,6,0,P|204:210|210:306,2,154.000004699707,6|10|2,3:2|0:0|0:0,0:0:0:0:
67,144,74480,2,0,L|75:61,1,77.0000023498536,2|8,3:2|0:0,0:0:0:0:
162,39,74813,1,2,0:0:0:0:
151,185,74980,6,0,L|308:171,2,154.000004699707,0|8|0,3:0|0:0|0:0,0:0:0:0:
97,260,75813,1,0,3:0:0:0:
163,324,75980,2,0,L|246:316,1,77.0000023498536,10|8,0:0|0:0,0:0:0:0:
391,296,76313,6,0,P|327:282|292:201,2,154.000004699707,6|10|2,3:2|0:0|0:0,0:0:0:0:
470,248,77147,2,0,L|465:153,1,77.0000023498536,2|8,3:2|0:0,0:0:0:0:
453,76,77480,2,0,B|386:86|386:86|375:111|375:111|290:128,1,154.000004699707,2|2,3:2|3:2,0:0:0:0:
224,119,77980,1,8,0:0:0:0:
199,208,78147,2,0,L|128:219,2,38.5000011749268,2|8|8,0:0|0:0|0:0,0:0:0:0:
69,230,78480,1,2,3:2:0:0:
22,150,78647,2,0,L|31:61,1,77.0000023498536,10|8,0:0|0:0,0:0:0:0:
112,32,78980,5,6,3:2:0:0:
112,32,79147,1,8,0:0:0:0:
156,112,79313,2,0,P|200:96|253:107,1,77.0000023498536,2|8,3:2|0:0,0:0:0:0:
307,47,79647,1,2,3:2:0:0:
307,47,79813,2,0,P|354:77|370:103,1,77.0000023498536,2|8,3:2|0:0,0:0:0:0:
402,242,80147,6,0,P|450:183|457:108,1,154.000004699707,2|0,3:2|3:0,0:0:0:0:
421,22,80647,1,8,0:0:0:0:
365,93,80813,1,0,3:0:0:0:
365,93,80897,1,0,3:0:0:0:
365,93,80980,2,0,L|355:166,2,38.5000011749268,0|0|0,3:0|3:0|3:0,0:0:0:0:
272,85,81313,1,14,0:0:0:0:
272,85,81480,1,0,3:0:0:0:
193,150,81647,6,0,P|250:182|264:216,1,77.0000023498536,2|0,0:0|3:0,0:0:0:0:
255,282,81980,2,0,P|215:324|187:328,1,77.0000023498536,10|0,0:0|3:0,0:0:0:0:
106,337,82313,1,2,0:0:0:0:
106,337,82480,2,0,L|136:242,1,77.0000023498536,2|8,3:2|0:0,0:0:0:0:
36,256,82813,6,0,L|66:161,1,77.0000023498536,2|0,0:0|3:0,0:0:0:0:
88,94,83147,2,0,L|177:116,1,77.0000023498536,2|8,0:0|0:0,0:0:0:0:
251,86,83480,2,0,L|320:102,2,38.5000011749268,2|8|8,0:0|0:0|0:0,0:0:0:0:
377,119,83813,1,0,3:0:0:0:
462,84,83980,2,0,P|440:50|390:29,1,77.0000023498536,10|8,0:0|0:0,0:0:0:0:
308,185,84313,5,14,0:0:0:0:
308,185,84480,2,0,L|321:262,1,77.0000023498536,0|0,3:0|3:0,0:0:0:0:
407,229,84813,1,8,0:0:0:0:
407,229,84980,2,0,L|420:306,1,77.0000023498536,0|0,3:0|3:0,0:0:0:0:
347,362,85313,2,0,L|250:342,1,77.0000023498536,10|0,0:0|3:0,0:0:0:0:
218,269,85647,5,10,0:0:0:0:
218,269,85813,2,0,P|190:308|132:317,1,77.0000023498536,0|0,3:0|3:0,0:0:0:0:
71,310,86147,1,10,0:0:0:0:
71,310,86313,2,0,P|42:284|31:248,1,77.0000023498536,0|2,3:0|3:2,0:0:0:0:
74,165,86647,2,0,L|76:78,1,77.0000023498536,8|2,0:0|3:2,0:0:0:0:
158,199,86980,5,14,3:2:0:0:
265,182,87147,1,10,3:2:0:0:
449,108,87480,5,10,3:2:0:0:
266,81,87813,1,10,3:2:0:0:
82,57,88147,1,10,3:2:0:0:
24,128,88313,5,10,3:2:0:0:
24,128,88480,2,0,P|22:168|45:213,1,77.0000023498536,10|0,3:2|0:0,0:0:0:0:
82,281,88813,5,10,3:2:0:0:
266,257,89147,1,10,3:2:0:0:
449,230,89480,1,10,3:2:0:0:
485,144,89647,6,0,P|471:62|419:31,1,115.50000352478,6|0,3:2|0:0,0:0:0:0:
407,41,89980,2,0,B|368:80|368:80|257:63,1,154.000004699707,10|2,0:0|0:0,0:0:0:0:
186,53,90480,1,0,3:0:0:0:
186,53,90647,2,0,L|197:138,1,77.0000023498536,10|2,0:0|0:0,0:0:0:0:
214,212,90980,5,0,3:0:0:0:
281,160,91147,1,2,0:0:0:0:
281,160,91313,2,0,P|354:174|350:267,1,154.000004699707,10|0,0:0|0:0,0:0:0:0:
344,325,91813,1,0,3:0:0:0:
259,321,91980,1,8,0:0:0:0:
259,321,92147,1,8,0:0:0:0:
157,377,92313,6,0,B|116:350|116:350|134:222,1,154.000004699707,2|10,3:2|0:0,0:0:0:0:
167,169,92813,1,2,0:0:0:0:
83,153,92980,2,0,L|2:139,1,77.0000023498536,2|0,0:0|3:0,0:0:0:0:
149,69,93313,1,10,0:0:0:0:
149,69,93480,6,0,P|195:86|231:75,1,77.0000023498536,2|0,0:0|3:0,0:0:0:0:
295,38,93813,2,0,B|306:92|306:92|297:120|297:120|316:198,1,154.000004699707,2|2,0:0|0:0,0:0:0:0:
319,205,94230,1,8,0:0:0:0:
325,223,94313,1,8,0:0:0:0:
347,304,94480,1,2,3:2:0:0:
470,302,94647,2,0,L|483:217,1,77.0000023498536,8|8,0:0|0:0,0:0:0:0:
390,126,94980,6,0,P|409:66|521:54,2,154.000004699707,6|8|2,3:2|0:0|0:0,0:0:0:0:
402,209,95813,1,2,3:2:0:0:
373,289,95980,1,10,0:0:0:0:
373,289,96147,2,0,L|212:277,1,154.000004699707,2|2,0:0|0:0,0:0:0:0:
152,329,96647,1,8,0:0:0:0:
152,329,96813,2,0,P|181:277|137:175,1,154.000004699707,2|2,0:0|3:2,0:0:0:0:
71,184,97313,1,8,0:0:0:0:
71,184,97480,1,10,0:0:0:0:
20,85,97647,6,0,B|104:58|104:58|119:27|119:27|186:8,1,192.500005874634,6|0,3:2|0:0,0:0:0:0:
228,2,98147,1,2,3:2:0:0:
353,223,98647,6,0,B|294:209|294:209|316:65,1,192.500005874634,2|0,3:2|0:0,0:0:0:0:
323,37,99147,1,2,3:2:0:0:
488,229,99647,6,0,P|475:302|413:337,1,115.50000352478,2|0,3:2|0:0,0:0:0:0:
406,343,99980,1,2,3:2:0:0:
260,292,100313,6,0,L|105:307,2,140,14|10|10,3:2|3:2|3:2,0:0:0:0:
354,170,101313,1,10,3:2:0:0:
373,244,101480,1,10,3:2:0:0:
178,118,101980,2,0,P|163:170|75:214,1,140,2|2,0:0|0:0,0:0:0:0:
16,207,102480,1,2,0:0:0:0:
154,22,102980,6,0,L|315:57,2,140,10|10|10,3:2|3:2|3:2,0:0:0:0:
74,154,103980,1,10,3:2:0:0:
48,81,104147,1,10,3:2:0:0:
255,181,104647,2,0,P|301:140|389:145,1,140,2|2,0:0|0:0,0:0:0:0:
444,175,105147,1,2,0:0:0:0:
296,352,105647,6,0,L|147:332,2,140,14|10|10,3:2|3:2|3:2,0:0:0:0:
422,263,106647,1,10,3:2:0:0:
404,337,106813,1,10,3:2:0:0:
212,207,107313,2,0,P|146:231|64:208,1,140,2|2,0:0|0:0,0:0:0:0:
22,165,107813,1,2,0:0:0:0:
235,75,108313,6,0,L|98:47,2,140,10|10|10,3:2|3:2|3:2,0:0:0:0:
388,91,109313,1,10,3:2:0:0:
366,18,109480,1,10,3:2:0:0:
227,202,109980,2,0,P|316:189|361:234,1,140,2|2,0:0|0:0,0:0:0:0:
395,280,110480,1,2,0:0:0:0:
350,342,110647,1,10,3:2:0:0:
350,342,110813,1,10,3:2:0:0:
