osu file format v14

[General]
AudioFilename: audio.mp3
AudioLeadIn: 0
PreviewTime: -1
Countdown: 1
SampleSet: Soft
StackLeniency: 0.7
Mode: 0
LetterboxInBreaks: 0
WidescreenStoryboard: 0

[Editor]
Bookmarks: 34457,40707
DistanceSpacing: 1
BeatDivisor: 4
GridSize: 8
TimelineZoom: 2

[Metadata]
Title:The Redbreast Of Princess
TitleUnicode:The Redbreast Of Princess
Artist:NoKANY
ArtistUnicode:NoKANY
Creator:Artymis
Version:Princess
Source:
Tags:
BeatmapID:1659991
BeatmapSetID:791222

[Difficulty]
HPDrainRate:6
CircleSize:3.8
OverallDifficulty:6
ApproachRate:10
SliderMultiplier:2.2
SliderTickRate:1

[Events]
//Background and Video events
//Break Periods
//Storyboard Layer 0 (Background)
//Storyboard Layer 1 (Fail)
//Storyboard Layer 2 (Pass)
//Storyboard Layer 3 (Foreground)
//Storyboard Sound Samples

[TimingPoints]
1332,312.5,4,2,0,100,1,0
21332,-66.6666666666667,4,2,0,100,0,1
31332,-133.333333333333,4,2,0,100,0,0
41332,-100,4,2,0,100,0,1
61332,-100,4,2,0,100,0,0

[HitObjects]
88,72,1332,6,0,P|120:144|168:160,1,110,4|0,0:0|0:0,0:0:0:0:
248,144,1644,1,0,0:0:0:0:
272,104,1800,2,0,P|240:192|296:152,1,220
360,56,2269,1,0,0:0:0:0:
336,264,2425,5,0,0:0:0:0:
336,264,2503,1,0,0:0:0:0:
336,264,2582,2,4,B|304:248|256:280|256:280|248:248|224:232|224:232|184:256|112:240,1,220
368,128,3207,5,0,0:0:0:0:
192,224,3519,5,0,0:0:0:0:
408,264,3675,1,0,0:0:0:0:
184,248,3832,5,4,0:0:0:0:
184,248,3988,1,0,0:0:0:0:
400,264,4144,1,0,0:0:0:0:
216,176,4300,1,0,0:0:0:0:
216,176,4378,1,0,0:0:0:0:
216,176,4457,2,0,B|256:136|296:144|296:144|280:104|304:72|304:72|344:88|400:80,1,220
176,296,4925,5,0,0:0:0:0:
136,64,5082,5,4,0:0:0:0:
136,64,5160,1,0,0:0:0:0:
136,64,5238,2,0,L|184:92,1,55
392,120,5394,2,0,L|336:88,1,55
80,168,5550,6,0,L|128:200,1,55
376,240,5707,2,0,L|312:208,1,55,4|0,0:0|0:0,0:0:0:0:
152,104,5863,6,0,L|200:136,1,55
304,320,6019,2,0,L|240:280,1,55,4|0,0:0|0:0,0:0:0:0:
224,200,6175,5,0,0:0:0:0:
320,56,6332,5,8,0:0:0:0:
296,240,6488,1,0,0:0:0:0:
408,128,6644,1,0,0:0:0:0:
216,176,6800,1,0,0:0:0:0:
280,328,7113,5,0,0:0:0:0:
232,80,7269,1,0,0:0:0:0:
232,336,7582,5,8,0:0:0:0:
352,224,7894,5,0,0:0:0:0:
112,104,8207,5,0,0:0:0:0:
288,304,8519,5,0,0:0:0:0:
312,48,8675,1,0,0:0:0:0:
128,224,8832,5,8,0:0:0:0:
248,296,9144,1,0,0:0:0:0:
328,168,9457,1,0,0:0:0:0:
200,96,9769,1,0,0:0:0:0:
208,320,10082,5,12,0:0:0:0:
144,176,10238,1,8,0:0:0:0:
320,256,10394,1,8,0:0:0:0:
136,272,10550,1,8,0:0:0:0:
264,112,10707,1,8,0:0:0:0:
312,336,10863,1,8,0:0:0:0:
136,96,11019,1,8,0:0:0:0:
208,320,11175,1,8,0:0:0:0:
264,104,11332,6,0,L|400:160,1,110,4|0,0:0|0:0,0:0:0:0:
232,152,11644,1,0,0:0:0:0:
400,136,11800,1,0,0:0:0:0:
272,232,12113,5,0,0:0:0:0:
368,56,12269,1,0,0:0:0:0:
160,64,12582,6,0,P|192:136|192:176,1,110,4|0,0:0|0:0,0:0:0:0:
240,288,12894,2,0,P|274:217|305:191,1,110,0|0,0:0|0:0,3:0:0:0:
368,48,13207,2,0,P|365:102|382:154,1,110,0|0,0:0|0:0,3:0:0:0:
408,192,13519,5,0,0:0:0:0:
136,80,13675,1,0,0:0:0:0:
232,296,13832,5,4,0:0:0:0:
264,104,13988,1,0,0:0:0:0:
280,272,14144,1,0,0:0:0:0:
216,128,14300,1,0,0:0:0:0:
345,34,14613,5,0,0:0:0:0:
248,320,14769,1,0,0:0:0:0:
162,139,15082,6,0,L|234:157,1,55,4|0,0:0|0:0,0:0:0:0:
350,245,15238,2,0,L|278:227,1,55
111,199,15394,5,0,0:0:0:0:
111,199,15472,1,0,0:0:0:0:
111,199,15550,2,0,L|183:217,1,55
299,305,15706,2,0,L|227:287,1,55,4|0,0:0|0:0,0:0:0:0:
178,117,15863,6,0,L|102:54,1,55
326,171,16019,2,0,L|407:133,1,55
232,60,16175,1,0,0:0:0:0:
16,96,16332,6,0,P|40:160|24:232,1,110,4|0,0:0|0:0,0:0:0:0:
144,336,16644,2,0,P|120:272|136:200,1,110
160,40,16957,2,0,P|184:104|168:176,1,110
288,280,17269,2,0,P|264:216|280:144,1,110
368,112,17582,6,0,B|295:109|270:158|244:207|120:176,3,220,4|0|4|0,0:0|0:0|0:0|0:0,0:0:0:0:
416,64,18832,5,4,0:0:0:0:
240,200,18988,1,0,0:0:0:0:
424,168,19144,1,0,0:0:0:0:
184,112,19300,1,0,0:0:0:0:
128,32,19457,6,0,P|152:64|160:120,1,55,4|0,0:0|0:0,0:0:0:0:
232,200,19613,2,0,P|208:168|200:112,1,55
272,64,19769,6,0,P|240:88|184:96,1,55
104,168,19925,2,0,P|136:144|192:136,1,55
248,272,20082,5,4,0:0:0:0:
160,112,20238,1,0,0:0:0:0:
168,304,20394,1,0,0:0:0:0:
296,112,20550,1,0,0:0:0:0:
376,64,20707,6,0,P|344:87|288:95,1,55,4|0,0:0|3:0,3:0:0:0:
208,167,20863,2,0,P|240:143|296:135,1,55,0|0,3:0|3:0,3:0:0:0:
344,207,21019,6,0,P|320:175|312:119,1,55,4|0,0:0|3:0,3:0:0:0:
240,39,21175,2,0,P|264:71|272:127,1,55,0|0,3:0|3:0,3:0:0:0:
120,248,21332,6,0,L|360:200,1,165.000006294251,4|0,0:0|0:0,0:0:0:0:
304,200,21566,6,0,L|128:144,1,165.000006294251,4|0,0:0|0:0,0:0:0:0:
104,128,21800,6,0,L|344:80,1,165.000006294251,4|0,0:0|0:0,0:0:0:0:
264,56,22035,6,4,L|88:0,1,165.000006294251,4|0,0:0|0:0,0:0:0:0:
191,304,22269,6,0,L|303:280,3,82.5000031471254,4|0|0|0,0:0|0:0|0:0|0:0,0:0:0:0:
320,88,22582,6,0,P|344:168|256:200,1,165.000006294251,4|0,0:0|0:0,0:0:0:0:
285,206,22816,6,0,P|365:182|397:270,1,165.000006294251,4|0,0:0|0:0,0:0:0:0:
403,240,23050,6,0,P|379:160|467:128,1,165.000006294251,4|0,0:0|0:0,0:0:0:0:
437,121,23285,6,0,P|357:145|325:57,1,165.000006294251,4|0,0:0|0:0,0:0:0:0:
176,104,23519,6,0,P|192:192|168:216,3,82.5000031471254,4|0|0|0,0:0|0:0|0:0|0:0,0:0:0:0:
320,96,23832,6,0,B|296:176|296:176|224:216,1,165.000006294251,4|0,0:0|0:0,0:0:0:0:
224,215,24066,6,0,B|304:239|304:239|344:311,1,165.000006294251,4|0,0:0|0:0,0:0:0:0:
343,310,24301,6,0,B|367:230|367:230|439:190,1,165.000006294251,4|0,0:0|0:0,0:0:0:0:
438,190,24535,6,0,B|357:165|357:165|317:94,1,165.000006294251,4|0,0:0|0:0,0:0:0:0:
432,288,24769,6,0,B|400:256|400:256|368:208,3,82.5000031471254,4|0|0|0,0:0|0:0|0:0|0:0,0:0:0:0:
160,72,25082,6,0,L|256:232,1,165.000006294251,4|0,0:0|0:0,0:0:0:0:
352,280,25316,6,0,L|267:138,1,165.000006294251,4|0,0:0|0:0,0:0:0:0:
112,136,25550,6,0,L|276:226,1,165.000006294251,4|0,0:0|0:0,0:0:0:0:
383,220,25784,6,0,L|238:140,1,165.000006294251,4|0,0:0|0:0,0:0:0:0:
110,241,26019,6,0,L|216:216,1,82.5000031471254,4|0,0:0|0:0,0:0:0:0:
401,142,26175,6,0,L|296:168,1,82.5000031471254,4|0,0:0|0:0,0:0:0:0:
136,120,26332,6,0,B|176:120|200:64|200:64|232:120|264:120,1,165.000006294251,4|0,0:0|0:0,0:0:0:0:
136,232,26566,6,0,B|136:192|80:167|80:167|136:136|136:104,1,165.000006294251,4|0,0:0|0:0,0:0:0:0:
250,229,26800,6,0,B|210:229|185:285|185:285|154:229|122:229,1,165.000006294251,4|0,0:0|0:0,0:0:0:0:
248,112,27035,6,0,B|248:152|304:176|304:176|248:208|248:240,1,165.000006294251,4|0,0:0|0:0,0:0:0:0:
176,72,27269,6,0,L|288:80,1,82.5000031471254,4|0,0:0|0:0,0:0:0:0:
400,168,27425,2,0,L|288:176,1,82.5000031471254,4|0,0:0|0:0,0:0:0:0:
128,208,27582,6,0,P|120:312|80:360,1,165.000006294251,4|0,0:0|0:0,0:0:0:0:
175,168,27816,6,0,P|183:272|223:320,1,165.000006294251,4|0,0:0|0:0,0:0:0:0:
96,120,28050,6,0,P|88:224|48:272,1,165.000006294251,4|0,0:0|0:0,0:0:0:0:
208,48,28285,6,0,P|216:152|256:200,1,165.000006294251,4|0,0:0|0:0,0:0:0:0:
64,56,28519,6,0,L|152:24,1,82.5000031471254,4|0,0:0|0:0,0:0:0:0:
192,128,28675,2,0,L|280:144,1,82.5000031471254,4|0,0:0|0:0,0:0:0:0:
456,232,28832,6,0,L|416:72,1,165.000006294251,4|0,0:0|0:0,0:0:0:0:
336,320,29066,6,0,L|353:155,1,165.000006294251,4|0,0:0|0:0,0:0:0:0:
232,248,29300,6,0,L|208:80,1,165.000006294251,4|0,0:0|0:0,0:0:0:0:
96,304,29534,6,0,L|113:139,1,165.000006294251,4|0,0:0|0:0,0:0:0:0:
408,88,29769,6,0,L|448:176,1,82.5000031471254,4|0,0:0|0:0,0:0:0:0:
216,104,29925,2,0,L|176:192,1,82.5000031471254,4|0,0:0|0:0,0:0:0:0:
256,192,30082,12,4,31332,0:0:0:0:
120,72,31488,5,0,0:0:0:0:
288,248,31644,1,0,0:0:0:0:
240,64,31800,1,0,0:0:0:0:
152,256,31957,1,0,0:0:0:0:
320,152,32113,1,0,0:0:0:0:
88,112,32269,1,0,0:0:0:0:
216,280,32425,1,0,0:0:0:0:
136,64,32582,6,0,B|172:72|201:141|220:202|280:180,2,165.000006294251,4|0|4,0:0|0:0|0:0,0:0:0:0:
104,208,33363,1,0,0:0:0:0:
248,64,33519,6,0,L|256:128,1,41.2500015735627
296,96,33675,2,0,L|304:160,1,41.2500015735627
424,320,33832,6,4,L|408:224,1,82.5000031471254,4|0,0:0|0:0,0:0:0:0:
280,40,34144,2,0,L|256:136,1,82.5000031471254
232,320,34457,2,0,L|216:224,1,82.5000031471254
88,40,34769,2,0,L|64:136,1,82.5000031471254
224,272,35082,6,0,L|272:256,1,41.2500015735627,4|0,0:0|0:0,0:0:0:0:
168,264,35238,2,0,L|129:248,1,41.2500015735627
240,184,35394,6,0,L|288:168,1,41.2500015735627
184,176,35550,2,0,L|145:160,1,41.2500015735627
248,96,35707,6,0,L|296:80,1,41.2500015735627,4|0,0:0|0:0,0:0:0:0:
192,88,35863,2,0,L|153:72,1,41.2500015735627
56,152,36019,1,4,0:0:0:0:
184,56,36332,6,0,L|136:152,1,82.5000031471254,4|0,0:0|0:0,0:0:0:0:
240,136,36644,2,0,L|232:248,1,82.5000031471254
312,72,36957,2,0,L|336:176,1,82.5000031471254
406,97,37269,2,0,L|471:187,1,82.5000031471254
128,280,37582,6,0,L|176:213,1,82.5000031471254,4|0,0:0|0:0,0:0:0:0:
251,268,37894,2,0,L|270:187,1,82.5000031471254
348,334,38207,2,0,L|342:251,1,82.5000031471254
435,245,38519,2,0,L|398:171,1,82.5000031471254
224,120,38832,5,4,0:0:0:0:
344,128,39457,5,4,0:0:0:0:
208,240,40082,5,4,0:0:0:0:
208,56,40394,5,4,0:0:0:0:
56,168,40707,5,0,0:0:0:0:
62,127,40785,1,0,0:0:0:0:
90,98,40863,1,0,0:0:0:0:
130,90,40941,1,0,0:0:0:0:
160,104,41019,5,0,0:0:0:0:
176,127,41097,1,0,0:0:0:0:
182,155,41175,1,0,0:0:0:0:
176,176,41253,5,0,0:0:0:0:
168,200,41332,5,0,0:0:0:0:
112,177,41410,1,0,0:0:0:0:
56,200,41488,1,0,0:0:0:0:
32,256,41566,1,0,0:0:0:0:
55,312,41644,1,0,0:0:0:0:
110,336,41722,1,0,0:0:0:0:
166,314,41800,1,0,0:0:0:0:
208,296,41878,5,0,0:0:0:0:
263,286,41956,1,0,0:0:0:0:
320,299,42034,1,0,0:0:0:0:
376,312,42112,1,0,0:0:0:0:
433,312,42190,1,0,0:0:0:0:
487,292,42268,1,0,0:0:0:0:
488,256,42347,5,0,0:0:0:0:
473,217,42425,1,0,0:0:0:0:
440,200,42503,1,0,0:0:0:0:
408,176,42582,5,0,0:0:0:0:
390,135,42660,1,0,0:0:0:0:
400,91,42738,1,0,0:0:0:0:
383,64,42816,5,0,0:0:0:0:
343,84,42894,1,0,0:0:0:0:
298,78,42972,1,0,0:0:0:0:
254,68,43050,1,0,0:0:0:0:
209,62,43128,1,0,0:0:0:0:
164,65,43206,1,0,0:0:0:0:
123,83,43284,1,0,0:0:0:0:
104,120,43363,5,0,0:0:0:0:
112,176,43441,1,0,0:0:0:0:
88,232,43519,1,0,0:0:0:0:
133,234,43597,5,0,0:0:0:0:
181,237,43675,1,0,0:0:0:0:
221,266,43753,1,0,0:0:0:0:
239,311,43831,1,0,0:0:0:0:
269,274,43910,5,0,0:0:0:0:
299,225,43988,1,0,0:0:0:0:
342,186,44066,1,0,0:0:0:0:
394,161,44144,1,0,0:0:0:0:
451,152,44222,5,0,0:0:0:0:
432,200,44300,1,0,0:0:0:0:
396,233,44378,1,0,0:0:0:0:
349,247,44456,1,0,0:0:0:0:
300,239,44534,1,0,0:0:0:0:
261,210,44612,1,0,0:0:0:0:
224,184,44691,1,0,0:0:0:0:
176,184,44769,5,0,0:0:0:0:
127,202,44847,1,0,0:0:0:0:
90,227,44925,5,0,0:0:0:0:
76,171,45003,1,0,0:0:0:0:
60,116,45081,1,0,0:0:0:0:
72,64,45160,5,0,0:0:0:0:
117,24,45238,1,0,0:0:0:0:
178,20,45316,1,0,0:0:0:0:
234,45,45394,1,0,0:0:0:0:
256,88,45472,1,0,0:0:0:0:
260,141,45550,1,0,0:0:0:0:
252,193,45628,1,0,0:0:0:0:
220,236,45706,1,0,0:0:0:0:
170,254,45784,1,0,0:0:0:0:
120,256,45863,1,0,0:0:0:0:
78,223,45941,1,0,0:0:0:0:
71,171,46019,1,0,0:0:0:0:
80,128,46097,5,0,0:0:0:0:
130,153,46175,1,0,0:0:0:0:
158,203,46253,1,0,0:0:0:0:
153,260,46331,1,0,0:0:0:0:
128,304,46410,5,0,0:0:0:0:
181,265,46488,1,0,0:0:0:0:
243,244,46566,1,0,0:0:0:0:
309,244,46644,1,0,0:0:0:0:
371,263,46722,1,0,0:0:0:0:
424,304,46800,1,0,0:0:0:0:
448,368,46878,1,0,0:0:0:0:
480,328,46957,5,0,0:0:0:0:
492,263,47035,1,0,0:0:0:0:
484,198,47113,1,0,0:0:0:0:
455,139,47191,1,0,0:0:0:0:
410,91,47269,1,0,0:0:0:0:
352,72,47347,5,0,0:0:0:0:
386,32,47425,1,0,0:0:0:0:
439,37,47503,1,0,0:0:0:0:
447,88,47582,5,0,0:0:0:0:
395,137,47660,1,0,0:0:0:0:
330,167,47738,1,0,0:0:0:0:
259,173,47816,1,0,0:0:0:0:
192,154,47894,1,0,0:0:0:0:
133,113,47972,1,0,0:0:0:0:
91,56,48050,1,0,0:0:0:0:
48,88,48128,5,0,0:0:0:0:
46,100,48206,1,0,0:0:0:0:
45,113,48284,1,0,0:0:0:0:
44,125,48362,1,0,0:0:0:0:
43,138,48440,1,0,0:0:0:0:
56,160,48519,5,0,0:0:0:0:
98,193,48597,1,0,0:0:0:0:
152,197,48675,1,0,0:0:0:0:
206,187,48753,1,0,0:0:0:0:
261,193,48831,1,0,0:0:0:0:
294,234,48909,1,0,0:0:0:0:
