osu file format v14

[General]
AudioFilename: add8e6.mp3
AudioLeadIn: 0
PreviewTime: 76268
Countdown: 0
SampleSet: Soft
StackLeniency: 0.7
Mode: 3
LetterboxInBreaks: 0
SpecialStyle: 1
WidescreenStoryboard: 0

[Editor]
Bookmarks: 1195,20111,29569,39027,57943,67401,76860,95776,114692
DistanceSpacing: 1
BeatDivisor: 4
GridSize: 8
TimelineZoom: 1.6

[Metadata]
Title:Mujinku-Vacuum Track#ADD8E6-
TitleUnicode:無人区-Vacuum Track#ADD8E6-
Artist:NoKANY
ArtistUnicode:NoKANY
Creator:McEndu
Version:Dilly's 4K NM
Source:Muse Dash
Tags:famoss dilly_p ragnarok vii [rt]alleyne electronic instrumental video game bofu2017 bms of fighters EVER BURST Vacuumcore Redo JurokuNeta 米線p 電子弦奏工房
BeatmapID:2418268
BeatmapSetID:1151089

[Difficulty]
HPDrainRate:7
CircleSize:4
OverallDifficulty:7
ApproachRate:5
SliderMultiplier:1.4
SliderTickRate:1

[Events]
//Background and Video events
0,0,"common.png",0,0
//Break Periods
//Storyboard Layer 0 (Background)
//Storyboard Layer 1 (Fail)
//Storyboard Layer 2 (Pass)
//Storyboard Layer 3 (Foreground)
//Storyboard Layer 4 (Overlay)
//Storyboard Sound Samples
Sample,18928,0,"pluckf.wav",100
Sample,114692,0,"pluckf.wav",100

[TimingPoints]
1195,295.566502463054,4,2,1,40,1,0
18928,-100,4,2,1,50,0,0
20111,-100,4,2,1,60,0,0
67549,-100,4,2,1,40,0,0
69766,-100,4,2,1,50,0,0
72130,-100,4,2,1,60,0,0
76860,-100,4,2,1,60,0,1
110111,-100,4,2,1,40,0,1
111145,-100,4,2,1,50,0,1
112328,-100,4,2,1,60,0,1
114692,-100,4,2,1,40,0,0

[HitObjects]
448,192,1195,5,0,0:0:0:0:
320,192,1342,1,0,0:0:0:0:
192,192,1490,1,0,0:0:0:0:
64,192,1638,1,0,0:0:0:0:
448,192,1786,1,0,0:0:0:0:
320,192,2007,1,0,0:0:0:0:
192,192,2229,1,0,0:0:0:0:
64,192,2377,1,0,0:0:0:0:
192,192,2968,1,0,0:0:0:0:
448,192,3263,1,0,0:0:0:0:
192,192,3559,1,0,0:0:0:0:
320,192,3707,1,0,0:0:0:0:
448,192,3855,1,0,0:0:0:0:
320,192,4002,1,0,0:0:0:0:
64,192,4150,1,0,0:0:0:0:
192,192,4298,1,0,0:0:0:0:
448,192,4446,1,0,0:0:0:0:
320,192,4594,1,0,0:0:0:0:
192,192,4741,1,0,0:0:0:0:
448,192,5332,1,0,0:0:0:0:
320,192,5924,1,0,0:0:0:0:
192,192,6071,1,0,0:0:0:0:
64,192,6219,1,0,0:0:0:0:
192,192,6367,1,0,0:0:0:0:
320,192,6515,1,0,0:0:0:0:
448,192,6736,1,0,0:0:0:0:
192,192,6958,1,0,0:0:0:0:
64,192,7106,1,0,0:0:0:0:
448,192,7697,1,0,0:0:0:0:
192,192,7993,1,0,0:0:0:0:
448,192,8288,1,0,0:0:0:0:
320,192,8436,1,0,0:0:0:0:
192,192,8584,1,0,0:0:0:0:
64,192,8731,1,0,0:0:0:0:
320,192,8879,1,0,0:0:0:0:
64,192,9027,1,0,0:0:0:0:
448,192,9175,1,0,0:0:0:0:
320,192,9323,1,0,0:0:0:0:
192,192,9470,1,0,0:0:0:0:
448,192,9914,1,0,0:0:0:0:
64,192,10357,1,0,0:0:0:0:
320,192,10653,1,0,0:0:0:0:
192,192,10800,1,0,0:0:0:0:
64,192,10948,1,0,0:0:0:0:
192,192,11096,1,0,0:0:0:0:
448,192,11244,1,0,0:0:0:0:
320,192,11465,1,0,0:0:0:0:
64,192,11687,1,0,0:0:0:0:
192,192,11835,1,0,0:0:0:0:
64,192,12426,1,0,0:0:0:0:
320,192,12722,1,0,0:0:0:0:
448,192,13017,1,0,0:0:0:0:
320,192,13165,1,0,0:0:0:0:
192,192,13313,1,0,0:0:0:0:
64,192,13461,1,0,0:0:0:0:
192,192,13608,1,0,0:0:0:0:
320,192,13756,1,0,0:0:0:0:
448,192,13904,1,0,0:0:0:0:
320,192,14052,1,0,0:0:0:0:
192,192,14199,1,0,0:0:0:0:
64,192,14791,1,0,0:0:0:0:
192,192,15382,1,0,0:0:0:0:
320,192,15529,1,0,0:0:0:0:
448,192,15677,1,0,0:0:0:0:
320,192,15825,1,0,0:0:0:0:
64,192,15973,1,0,0:0:0:0:
448,192,16194,1,0,0:0:0:0:
192,192,16416,1,0,0:0:0:0:
448,192,16564,1,0,0:0:0:0:
320,192,17155,1,0,0:0:0:0:
64,192,17451,1,0,0:0:0:0:
192,192,17746,1,0,0:0:0:0:
320,192,17894,1,0,0:0:0:0:
448,192,18042,1,0,0:0:0:0:
320,192,18190,1,0,0:0:0:0:
192,192,18337,1,0,0:0:0:0:
64,192,18485,1,0,0:0:0:0:
320,192,18633,1,0,0:0:0:0:
192,192,18781,1,0,0:0:0:0:
448,192,18928,1,0,0:0:0:100:slead.wav
320,192,19150,1,0,0:0:0:100:slead1.wav
192,192,19372,1,0,0:0:0:100:slead2.wav
64,192,19520,1,0,0:0:0:100:lead3.wav
320,192,19741,1,0,0:0:0:100:slead4.wav
192,192,19963,1,0,0:0:0:100:slead final.wav
64,192,20111,1,6,0:0:0:0:
448,192,20111,1,0,0:0:0:100:pluckf.wav
320,192,20259,1,0,0:0:0:0:
192,192,20406,1,2,0:0:0:0:
64,192,20554,1,0,0:0:0:0:
320,192,20702,1,2,0:0:0:0:
192,192,20850,1,0,0:0:0:0:
64,192,20997,1,2,0:0:0:0:
448,192,21145,1,0,0:0:0:0:
320,192,21293,1,2,0:0:0:0:
64,192,21441,1,0,0:0:0:0:
192,192,21589,1,2,0:0:0:0:
320,192,21736,1,0,0:0:0:0:
448,192,21884,1,2,0:0:0:0:
192,192,22032,1,0,0:0:0:0:
64,192,22180,1,2,0:0:0:0:
448,192,22328,1,0,0:0:0:0:
192,192,22475,1,2,0:0:0:0:
64,192,22623,1,0,0:0:0:0:
320,192,22771,1,2,0:0:0:0:
448,192,22919,1,0,0:0:0:0:
64,192,23066,1,2,0:0:0:0:
320,192,23214,1,0,0:0:0:0:
448,192,23362,1,2,0:0:0:0:
64,192,23510,1,0,0:0:0:0:
320,192,23658,1,2,0:0:0:0:
448,192,23805,1,0,0:0:0:0:
320,192,23953,1,2,0:0:0:0:
192,192,24101,1,0,0:0:0:0:
64,192,24249,1,2,0:0:0:0:
320,192,24544,1,2,0:0:0:0:
320,192,24692,1,2,0:0:0:0:
64,192,24840,1,2,0:0:0:0:
448,192,24840,1,4,0:0:0:0:
192,192,24988,1,0,0:0:0:0:
320,192,25135,1,8,0:0:0:0:
448,192,25283,1,0,0:0:0:0:
64,192,25431,1,2,0:0:0:0:
192,192,25579,1,0,0:0:0:0:
448,192,25727,1,8,0:0:0:0:
320,192,25874,1,0,0:0:0:0:
64,192,26022,1,2,0:0:0:0:
192,192,26170,1,0,0:0:0:0:
320,192,26318,1,8,0:0:0:0:
448,192,26465,1,0,0:0:0:0:
192,192,26613,1,2,0:0:0:0:
448,192,26761,1,0,0:0:0:0:
320,192,26909,1,8,0:0:0:0:
192,192,27057,1,0,0:0:0:0:
64,192,27204,1,2,0:0:0:0:
192,192,27352,1,0,0:0:0:0:
320,192,27500,1,8,0:0:0:0:
448,192,27648,1,0,0:0:0:0:
64,192,27795,1,2,0:0:0:0:
448,192,27943,1,0,0:0:0:0:
320,192,28091,1,8,0:0:0:0:
192,192,28239,1,0,0:0:0:0:
64,192,28387,128,0,28682:0:0:0:0:
448,192,28682,128,0,28978:0:0:0:0:
192,192,28978,128,0,29273:0:0:0:0:
64,192,29569,128,2,30751:0:0:0:0:
192,192,29569,1,4,0:0:0:0:
448,192,29864,1,8,0:0:0:0:
192,192,30160,1,2,0:0:0:0:
320,192,30456,1,8,0:0:0:0:
320,192,30751,128,2,31933:0:0:0:0:
448,192,30751,1,0,0:0:0:0:
192,192,31047,1,8,0:0:0:0:
448,192,31342,1,2,0:0:0:0:
64,192,31638,1,8,0:0:0:0:
64,192,31933,1,2,0:0:0:0:
192,192,31933,128,0,33116:0:0:0:0:
320,192,32229,1,8,0:0:0:0:
64,192,32525,1,2,0:0:0:0:
448,192,32820,1,8,0:0:0:0:
320,192,33116,1,2,0:0:0:0:
448,192,33116,128,0,34002:0:0:0:0:
192,192,33411,1,8,0:0:0:0:
320,192,33707,1,2,0:0:0:0:
64,192,34002,1,8,0:0:0:0:
64,192,34150,1,8,0:0:0:0:
192,192,34298,128,2,35480:0:0:0:0:
448,192,34298,1,4,0:0:0:0:
64,192,34594,1,8,0:0:0:0:
320,192,34889,1,2,0:0:0:0:
64,192,35185,1,8,0:0:0:0:
448,192,35480,1,2,0:0:0:0:
320,192,35480,128,4,36071:0:0:0:0:
64,192,35776,1,8,0:0:0:0:
192,192,36071,1,4,0:0:0:0:
64,192,36071,128,2,36662:0:0:0:0:
320,192,36367,1,8,0:0:0:0:
192,192,36662,1,2,0:0:0:0:
448,192,36662,1,4,0:0:0:0:
64,192,36958,1,8,0:0:0:0:
320,192,36958,1,4,0:0:0:0:
320,192,37254,1,2,0:0:0:0:
448,192,37254,1,4,0:0:0:0:
64,192,37549,1,8,0:0:0:0:
192,192,37549,1,4,0:0:0:0:
64,192,37845,1,2,0:0:0:0:
448,192,37845,1,4,0:0:0:0:
192,192,38288,1,4,0:0:0:0:
320,192,38288,1,2,0:0:0:0:
192,192,38731,1,2,0:0:0:0:
448,192,38731,1,4,0:0:0:0:
64,192,39027,128,6,39618:0:0:0:0:
320,192,39027,1,0,0:0:0:100:pluckf.wav
192,192,39618,1,8,0:0:0:0:
448,192,39618,1,0,0:0:0:0:
64,192,39914,1,0,0:0:0:0:
192,192,40209,128,2,40800:0:0:0:0:
320,192,40209,1,0,0:0:0:0:
64,192,40800,128,8,41392:0:0:0:0:
448,192,40800,1,0,0:0:0:0:
320,192,41392,128,2,41983:0:0:0:0:
192,192,41392,1,0,0:0:0:0:
448,192,41983,1,8,0:0:0:0:
64,192,41983,1,0,0:0:0:0:
192,192,42130,1,0,0:0:0:0:
320,192,42278,1,0,0:0:0:0:
64,192,42426,1,0,0:0:0:0:
448,192,42574,1,2,0:0:0:0:
320,192,42722,1,0,0:0:0:0:
192,192,42869,1,0,0:0:0:0:
64,192,43017,1,2,0:0:0:0:
320,192,43165,1,8,0:0:0:0:
448,192,43165,1,0,0:0:0:0:
192,192,43461,1,2,0:0:0:0:
448,192,43461,1,0,0:0:0:0:
64,192,43756,128,2,44347:0:0:0:0:
192,192,44347,1,8,0:0:0:0:
320,192,44347,1,0,0:0:0:0:
448,192,44495,1,0,0:0:0:0:
320,192,44643,1,0,0:0:0:0:
64,192,44791,1,0,0:0:0:0:
192,192,44938,128,2,45529:0:0:0:0:
64,192,45529,1,8,0:0:0:0:
448,192,45529,1,0,0:0:0:0:
320,192,45825,1,0,0:0:0:0:
64,192,46121,128,2,46712:0:0:0:0:
192,192,46121,1,0,0:0:0:0:
192,192,46712,1,8,0:0:0:0:
448,192,46712,1,0,0:0:0:0:
320,192,46860,1,0,0:0:0:0:
64,192,47007,1,0,0:0:0:0:
192,192,47155,1,0,0:0:0:0:
448,192,47303,1,2,0:0:0:0:
320,192,47451,1,0,0:0:0:0:
192,192,47598,1,0,0:0:0:0:
64,192,47746,1,2,0:0:0:0:
192,192,47894,1,8,0:0:0:0:
448,192,47894,1,0,0:0:0:0:
320,192,48190,1,2,0:0:0:0:
64,192,48190,1,0,0:0:0:0:
192,192,48485,128,6,49076:0:0:0:0:
320,192,48485,1,0,0:0:0:100:pluckf.wav
448,192,49076,1,8,0:0:0:0:
64,192,49076,1,0,0:0:0:0:
320,192,49372,1,0,0:0:0:0:
64,192,49667,128,2,50259:0:0:0:0:
448,192,49667,1,0,0:0:0:0:
192,192,50259,128,8,50850:0:0:0:0:
320,192,50259,1,0,0:0:0:0:
64,192,50850,1,2,0:0:0:0:
448,192,50850,128,0,51441:0:0:0:0:
64,192,51441,1,8,0:0:0:0:
320,192,51441,1,0,0:0:0:0:
192,192,51589,1,0,0:0:0:0:
448,192,51736,1,0,0:0:0:0:
320,192,51884,1,0,0:0:0:0:
192,192,52032,1,2,0:0:0:0:
64,192,52180,1,0,0:0:0:0:
192,192,52328,1,0,0:0:0:0:
320,192,52475,1,2,0:0:0:0:
192,192,52623,1,8,0:0:0:0:
448,192,52623,1,0,0:0:0:0:
320,192,52919,1,2,0:0:0:0:
64,192,52919,1,0,0:0:0:0:
64,192,53214,128,2,53805:0:0:0:0:
448,192,53214,1,4,0:0:0:0:
192,192,53805,1,8,0:0:0:0:
448,192,53805,1,0,0:0:0:0:
320,192,53953,1,0,0:0:0:0:
448,192,54101,1,0,0:0:0:0:
192,192,54249,1,0,0:0:0:0:
64,192,54396,128,2,54988:0:0:0:0:
192,192,54988,1,8,0:0:0:0:
448,192,54988,1,0,0:0:0:0:
320,192,55209,1,0,0:0:0:0:
448,192,55431,1,0,0:0:0:0:
64,192,55579,1,12,0:0:0:0:
192,192,55579,1,2,0:0:0:0:
320,192,55874,1,8,0:0:0:0:
448,192,55874,1,4,0:0:0:0:
192,192,56170,1,6,0:0:0:0:
448,192,56170,1,8,0:0:0:0:
64,192,56465,1,8,0:0:0:0:
320,192,56465,1,4,0:0:0:0:
320,192,56761,1,10,0:0:0:0:
448,192,56761,1,4,0:0:0:0:
64,192,56909,1,8,0:0:0:0:
192,192,56909,1,0,0:0:0:0:
320,192,57057,1,12,0:0:0:0:
448,192,57057,1,2,0:0:0:0:
64,192,57204,1,8,0:0:0:0:
192,192,57204,1,0,0:0:0:0:
64,192,57943,1,6,0:0:0:0:
448,192,57943,1,4,0:0:0:100:pluckf.wav
64,192,58239,1,6,0:0:0:0:
320,192,58534,1,6,0:0:0:0:
64,192,58756,1,6,0:0:0:0:
192,192,58978,1,6,0:0:0:0:
448,192,59126,1,6,0:0:0:0:
448,192,59421,1,6,0:0:0:0:
192,192,59717,1,6,0:0:0:0:
448,192,59938,1,6,0:0:0:0:
320,192,60160,1,6,0:0:0:0:
192,192,60308,1,12,0:0:0:0:
192,192,60603,1,12,0:0:0:0:
64,192,60899,1,12,0:0:0:0:
192,192,61121,1,12,0:0:0:0:
320,192,61342,1,12,0:0:0:0:
192,192,61490,1,12,0:0:0:0:
320,192,61712,1,12,0:0:0:0:
448,192,61933,1,12,0:0:0:0:
320,192,62081,1,12,0:0:0:0:
64,192,62303,1,12,0:0:0:0:
320,192,62525,1,12,0:0:0:0:
64,192,62672,1,6,0:0:0:0:
448,192,62672,1,4,0:0:0:100:pluckf.wav
64,192,62968,1,6,0:0:0:0:
448,192,63263,1,6,0:0:0:0:
320,192,63485,1,6,0:0:0:0:
192,192,63707,1,6,0:0:0:0:
448,192,63855,1,6,0:0:0:0:
64,192,64150,1,6,0:0:0:0:
320,192,64446,1,6,0:0:0:0:
448,192,64667,1,6,0:0:0:0:
192,192,64889,1,6,0:0:0:0:
320,192,65037,1,12,0:0:0:0:
64,192,65332,1,12,0:0:0:0:
448,192,65628,1,12,0:0:0:0:
320,192,65850,1,12,0:0:0:0:
192,192,66071,1,12,0:0:0:0:
64,192,66219,1,12,0:0:0:0:
192,192,66367,1,12,0:0:0:0:
448,192,66515,1,12,0:0:0:0:
320,192,66662,1,12,0:0:0:0:
64,192,66810,1,12,0:0:0:0:
448,192,67106,128,0,67401:0:0:0:0:
64,192,67401,128,6,68584:0:0:0:0:
192,192,67401,1,0,0:0:0:100:pluckf.wav
320,192,67697,1,8,0:0:0:0:
192,192,67993,1,8,0:0:0:0:
448,192,68288,1,8,0:0:0:0:
192,192,68584,128,2,69766:0:0:0:0:
320,192,68584,1,0,0:0:0:0:
448,192,68879,1,8,0:0:0:0:
320,192,69175,1,8,0:0:0:0:
64,192,69470,1,8,0:0:0:0:
320,192,69766,128,4,70948:0:0:0:0:
448,192,69766,1,2,0:0:0:0:
192,192,70061,1,8,0:0:0:0:
64,192,70357,1,8,0:0:0:0:
448,192,70653,1,8,0:0:0:0:
192,192,70948,1,2,0:0:0:0:
448,192,70948,128,0,71539:0:0:0:0:
64,192,71244,1,8,0:0:0:0:
192,192,71539,1,8,0:0:0:0:
192,192,71761,1,8,0:0:0:0:
192,192,71983,1,8,0:0:0:0:
448,192,72130,1,2,0:0:0:0:
320,192,72130,1,4,0:0:0:0:
192,192,72278,1,8,0:0:0:0:
64,192,72426,1,2,0:0:0:0:
448,192,72574,1,8,0:0:0:0:
192,192,72722,1,4,0:0:0:0:
320,192,72722,1,2,0:0:0:0:
64,192,72869,1,8,0:0:0:0:
448,192,73017,1,2,0:0:0:0:
320,192,73165,1,8,0:0:0:0:
64,192,73313,1,2,0:0:0:0:
192,192,73313,1,4,0:0:0:0:
320,192,73461,1,8,0:0:0:0:
192,192,73608,1,6,0:0:0:0:
64,192,73756,1,8,0:0:0:0:
192,192,73904,1,4,0:0:0:0:
320,192,73904,1,2,0:0:0:0:
448,192,74052,1,8,0:0:0:0:
320,192,74199,1,6,0:0:0:0:
192,192,74347,1,8,0:0:0:0:
64,192,74495,1,2,0:0:0:0:
448,192,74495,1,4,0:0:0:0:
192,192,74643,1,6,0:0:0:0:
320,192,74791,1,6,0:0:0:0:
448,192,74938,1,6,0:0:0:0:
64,192,75086,1,6,0:0:0:0:
192,192,75234,1,6,0:0:0:0:
320,192,75382,1,6,0:0:0:0:
448,192,75529,1,6,0:0:0:0:
64,192,75677,128,4,76860:0:0:0:0:
320,192,75677,1,0,0:0:0:0:
192,192,76860,1,6,0:0:0:0:
448,192,76860,1,0,0:0:0:100:pluckf.wav
320,192,77007,1,0,0:0:0:0:
192,192,77155,1,8,0:0:0:0:
64,192,77303,1,0,0:0:0:0:
448,192,77451,1,2,0:0:0:0:
320,192,77598,1,0,0:0:0:0:
64,192,77746,1,8,0:0:0:0:
192,192,77894,1,0,0:0:0:0:
64,192,78042,1,2,0:0:0:0:
448,192,78190,1,0,0:0:0:0:
320,192,78337,1,8,0:0:0:0:
64,192,78485,1,0,0:0:0:0:
320,192,78633,1,2,0:0:0:0:
192,192,78928,1,8,0:0:0:0:
448,192,79076,1,0,0:0:0:0:
64,192,79224,1,2,0:0:0:0:
320,192,79372,1,0,0:0:0:0:
64,192,79520,1,8,0:0:0:0:
192,192,79667,1,0,0:0:0:0:
448,192,79815,1,2,0:0:0:0:
320,192,79963,1,0,0:0:0:0:
192,192,80111,1,8,0:0:0:0:
64,192,80259,1,0,0:0:0:0:
448,192,80406,1,2,0:0:0:0:
64,192,80554,1,0,0:0:0:0:
448,192,80702,1,8,0:0:0:0:
64,192,80997,1,2,0:0:0:0:
192,192,81145,1,0,0:0:0:0:
448,192,81293,1,8,0:0:0:0:
320,192,81441,1,8,0:0:0:0:
192,192,81589,1,2,0:0:0:0:
448,192,81589,1,4,0:0:0:0:
64,192,81736,1,0,0:0:0:0:
320,192,81884,1,8,0:0:0:0:
192,192,82032,1,0,0:0:0:0:
448,192,82180,1,2,0:0:0:0:
64,192,82328,1,0,0:0:0:0:
320,192,82475,1,8,0:0:0:0:
448,192,82623,1,0,0:0:0:0:
320,192,82771,1,2,0:0:0:0:
192,192,82919,1,0,0:0:0:0:
320,192,83066,1,8,0:0:0:0:
192,192,83214,1,0,0:0:0:0:
64,192,83362,1,2,0:0:0:0:
448,192,83658,1,8,0:0:0:0:
192,192,83805,1,0,0:0:0:0:
64,192,83953,1,2,0:0:0:0:
320,192,83953,1,4,0:0:0:0:
448,192,84101,1,0,0:0:0:0:
320,192,84249,1,8,0:0:0:0:
192,192,84396,1,0,0:0:0:0:
320,192,84544,1,2,0:0:0:0:
64,192,84692,1,0,0:0:0:0:
192,192,84840,1,8,0:0:0:0:
320,192,84988,1,0,0:0:0:0:
448,192,85135,1,12,0:0:0:0:
448,192,85357,1,12,0:0:0:0:
448,192,85579,1,12,0:0:0:0:
64,192,85727,1,12,0:0:0:0:
192,192,85948,1,12,0:0:0:0:
448,192,86170,1,12,0:0:0:0:
64,192,86318,1,6,0:0:0:0:
320,192,86318,1,0,0:0:0:100:pluckf.wav
192,192,86465,1,0,0:0:0:0:
320,192,86613,1,8,0:0:0:0:
192,192,86761,1,0,0:0:0:0:
448,192,86909,1,2,0:0:0:0:
320,192,87057,1,0,0:0:0:0:
64,192,87204,1,8,0:0:0:0:
192,192,87352,1,0,0:0:0:0:
64,192,87500,1,2,0:0:0:0:
448,192,87648,1,0,0:0:0:0:
320,192,87795,1,8,0:0:0:0:
64,192,87943,1,0,0:0:0:0:
192,192,88091,1,2,0:0:0:0:
64,192,88387,1,8,0:0:0:0:
448,192,88534,1,0,0:0:0:0:
64,192,88682,1,2,0:0:0:0:
192,192,88830,1,0,0:0:0:0:
64,192,88978,1,8,0:0:0:0:
320,192,89126,1,0,0:0:0:0:
448,192,89273,1,2,0:0:0:0:
320,192,89421,1,0,0:0:0:0:
192,192,89569,1,8,0:0:0:0:
64,192,89717,1,0,0:0:0:0:
448,192,89864,1,2,0:0:0:0:
192,192,90012,1,0,0:0:0:0:
448,192,90160,1,8,0:0:0:0:
64,192,90456,1,2,0:0:0:0:
192,192,90603,1,0,0:0:0:0:
448,192,90751,1,8,0:0:0:0:
320,192,90899,1,8,0:0:0:0:
192,192,91047,1,4,0:0:0:0:
448,192,91047,1,2,0:0:0:0:
64,192,91194,1,0,0:0:0:0:
320,192,91342,1,8,0:0:0:0:
192,192,91490,1,0,0:0:0:0:
448,192,91638,1,2,0:0:0:0:
64,192,91786,1,0,0:0:0:0:
320,192,91933,1,8,0:0:0:0:
448,192,92081,1,0,0:0:0:0:
320,192,92229,1,2,0:0:0:0:
192,192,92377,1,0,0:0:0:0:
320,192,92525,1,8,0:0:0:0:
192,192,92672,1,0,0:0:0:0:
64,192,92820,1,2,0:0:0:0:
448,192,93116,1,8,0:0:0:0:
320,192,93263,1,0,0:0:0:0:
64,192,93411,1,2,0:0:0:0:
320,192,93559,1,0,0:0:0:0:
192,192,93707,1,8,0:0:0:0:
64,192,93855,1,0,0:0:0:0:
448,192,94002,1,2,0:0:0:0:
64,192,94150,1,0,0:0:0:0:
192,192,94298,1,8,0:0:0:0:
320,192,94446,1,0,0:0:0:0:
448,192,94594,128,6,94741:0:0:0:0:
192,192,94594,1,0,0:0:0:0:
64,192,94741,1,0,0:0:0:0:
320,192,94889,128,12,95037:0:0:0:0:
192,192,94889,1,0,0:0:0:0:
448,192,95037,1,0,0:0:0:0:
192,192,95185,128,6,95332:0:0:0:0:
64,192,95185,1,0,0:0:0:0:
320,192,95332,1,0,0:0:0:0:
64,192,95480,128,12,95628:0:0:0:0:
448,192,95480,1,0,0:0:0:0:
192,192,95628,1,8,0:0:0:0:
320,192,95776,128,6,96662:0:0:0:0:
448,192,95776,1,0,0:0:0:100:pluckf.wav
64,192,96071,1,8,0:0:0:0:
448,192,96367,1,2,0:0:0:0:
64,192,96662,1,8,0:0:0:0:
192,192,96662,128,0,97549:0:0:0:0:
448,192,96958,1,2,0:0:0:0:
320,192,97254,1,8,0:0:0:0:
64,192,97549,128,2,97845:0:0:0:0:
448,192,97549,1,0,0:0:0:0:
192,192,97845,1,8,0:0:0:0:
448,192,97845,128,0,98140:0:0:0:0:
64,192,98140,1,2,0:0:0:0:
320,192,98140,128,0,98362:0:0:0:0:
192,192,98362,128,0,98584:0:0:0:0:
448,192,98436,1,8,0:0:0:0:
320,192,98584,128,0,99027:0:0:0:0:
64,192,98731,1,2,0:0:0:0:
448,192,99027,1,0,0:0:0:0:
64,192,99027,128,8,99175:0:0:0:0:
192,192,99175,128,0,99323:0:0:0:0:
448,192,99323,128,2,99470:0:0:0:0:
64,192,99323,1,0,0:0:0:0:
320,192,99470,128,0,100209:0:0:0:0:
64,192,99618,1,8,0:0:0:0:
448,192,99914,1,2,0:0:0:0:
64,192,100209,128,8,100357:0:0:0:0:
448,192,100209,1,0,0:0:0:0:
192,192,100357,128,8,100505:0:0:0:0:
320,192,100505,128,2,101392:0:0:0:0:
448,192,100505,1,4,0:0:0:0:
64,192,100800,1,8,0:0:0:0:
192,192,101096,1,2,0:0:0:0:
64,192,101392,1,8,0:0:0:0:
448,192,101392,128,0,102278:0:0:0:0:
192,192,101687,1,2,0:0:0:0:
320,192,101983,1,8,0:0:0:0:
64,192,102278,1,2,0:0:0:0:
320,192,102278,128,0,102574:0:0:0:0:
192,192,102574,128,8,102869:0:0:0:0:
448,192,102574,1,0,0:0:0:0:
64,192,102869,128,2,104052:0:0:0:0:
320,192,102869,1,0,0:0:0:0:
192,192,103165,1,8,0:0:0:0:
448,192,103461,1,2,0:0:0:0:
320,192,103756,1,8,0:0:0:0:
448,192,104052,128,6,104199:0:0:0:0:
320,192,104052,1,0,0:0:0:0:
192,192,104199,1,0,0:0:0:0:
320,192,104347,128,12,104495:0:0:0:0:
64,192,104347,1,0,0:0:0:0:
448,192,104495,1,0,0:0:0:0:
192,192,104643,128,6,104791:0:0:0:0:
320,192,104643,1,0,0:0:0:0:
448,192,104791,1,0,0:0:0:0:
64,192,104938,128,12,105086:0:0:0:0:
192,192,104938,1,0,0:0:0:0:
320,192,105086,1,0,0:0:0:0:
192,192,105234,128,4,106121:0:0:0:0:
448,192,105234,1,2,0:0:0:0:
64,192,105529,1,8,0:0:0:0:
320,192,105825,1,2,0:0:0:0:
64,192,106121,128,8,107007:0:0:0:0:
448,192,106121,1,0,0:0:0:0:
192,192,106416,1,2,0:0:0:0:
320,192,106712,1,8,0:0:0:0:
192,192,107007,128,2,107303:0:0:0:0:
448,192,107007,1,0,0:0:0:0:
64,192,107303,1,8,0:0:0:0:
320,192,107303,128,0,107598:0:0:0:0:
192,192,107598,1,2,0:0:0:0:
448,192,107598,128,0,107820:0:0:0:0:
320,192,107820,128,0,108042:0:0:0:0:
64,192,107894,1,8,0:0:0:0:
192,192,108042,128,0,108485:0:0:0:0:
448,192,108190,1,2,0:0:0:0:
64,192,108485,1,8,0:0:0:0:
320,192,108485,128,0,108781:0:0:0:0:
192,192,108781,128,2,109667:0:0:0:0:
448,192,108781,1,0,0:0:0:0:
64,192,109076,1,8,0:0:0:0:
448,192,109372,1,2,0:0:0:0:
64,192,109667,128,8,109815:0:0:0:0:
320,192,109667,1,0,0:0:0:0:
192,192,109815,128,8,109963:0:0:0:0:
448,192,109963,1,6,0:0:0:0:
320,192,109963,1,8,0:0:0:0:
64,192,110111,1,8,0:0:0:0:
192,192,110259,1,8,0:0:0:0:
448,192,110406,1,8,0:0:0:0:
320,192,110554,1,8,0:0:0:0:
64,192,110702,1,8,0:0:0:0:
192,192,110850,1,8,0:0:0:0:
320,192,110997,1,8,0:0:0:0:
448,192,111145,1,8,0:0:0:0:
192,192,111145,1,6,0:0:0:0:
64,192,111293,1,8,0:0:0:0:
320,192,111441,1,8,0:0:0:0:
64,192,111589,1,8,0:0:0:0:
192,192,111736,1,8,0:0:0:0:
320,192,111884,1,8,0:0:0:0:
448,192,112032,1,8,0:0:0:0:
192,192,112180,1,8,0:0:0:0:
448,192,112328,1,6,0:0:0:0:
64,192,112328,1,8,0:0:0:0:
192,192,112475,1,8,0:0:0:0:
320,192,112623,1,8,0:0:0:0:
448,192,112771,1,8,0:0:0:0:
192,192,112771,1,6,0:0:0:0:
64,192,112919,1,8,0:0:0:0:
192,192,113066,1,8,0:0:0:0:
448,192,113214,1,8,0:0:0:0:
320,192,113214,1,6,0:0:0:0:
192,192,113362,1,8,0:0:0:0:
64,192,113510,128,6,114692:0:0:0:0:
448,192,113510,1,8,0:0:0:0:
448,192,114692,1,4,0:0:0:0:
320,192,114840,1,0,0:0:0:0:
192,192,114988,1,0,0:0:0:0:
64,192,115135,1,0,0:0:0:0:
192,192,115283,1,0,0:0:0:0:
320,192,115431,1,0,0:0:0:0:
448,192,115579,1,0,0:0:0:0:
320,192,115727,1,0,0:0:0:0:
64,192,115874,128,0,117057:0:0:0:0:
320,192,117057,128,0,118239:0:0:0:0:
192,192,118239,128,0,119421:0:0:0:0:
64,192,119421,1,0,0:0:0:0:
320,192,119569,1,0,0:0:0:0:
192,192,119717,1,0,0:0:0:0:
320,192,119864,1,0,0:0:0:0:
448,192,120012,1,0,0:0:0:0:
320,192,120160,1,0,0:0:0:0:
192,192,120308,1,0,0:0:0:0:
64,192,120456,1,0,0:0:0:0:
320,192,120603,128,0,121786:0:0:0:0:
448,192,120899,1,0,0:0:0:0:
64,192,121490,1,0,0:0:0:0:
192,192,121786,128,0,122968:0:0:0:0:
448,192,122377,1,0,0:0:0:0:
64,192,122968,128,0,124150:0:0:0:0:
192,192,124150,1,0,0:0:0:0:
320,192,124298,1,0,0:0:0:0:
448,192,124446,1,0,0:0:0:0:
192,192,124594,1,0,0:0:0:0:
64,192,124741,1,0,0:0:0:0:
192,192,124889,1,0,0:0:0:0:
448,192,125037,1,0,0:0:0:0:
320,192,125185,1,0,0:0:0:0:
64,192,125332,128,0,126515:0:0:0:0:
192,192,125628,1,0,0:0:0:0:
448,192,126219,1,0,0:0:0:0:
192,192,126515,128,0,127697:0:0:0:0:
448,192,127697,128,0,128879:0:0:0:0:
64,192,128584,1,0,0:0:0:0:
192,192,128879,1,0,0:0:0:0:
64,192,129027,1,0,0:0:0:0:
192,192,129175,1,0,0:0:0:0:
320,192,129323,1,0,0:0:0:0:
64,192,129470,1,0,0:0:0:0:
192,192,129618,1,0,0:0:0:0:
320,192,129766,1,0,0:0:0:0:
448,192,129914,1,0,0:0:0:0:
192,192,130061,128,0,131244:0:0:0:0:
320,192,130357,1,0,0:0:0:0:
448,192,130948,1,0,0:0:0:0:
64,192,131244,128,0,133608:0:0:0:0:
320,192,131835,1,0,0:0:0:0:
192,192,132130,1,0,0:0:0:0:
320,192,132722,1,0,0:0:0:0:
448,192,133313,1,0,0:0:0:0:
192,192,133608,128,0,138337:0:0:0:0:
