osu file format v14

[General]
AudioFilename: add8e6.mp3
AudioLeadIn: 0
PreviewTime: 76268
Countdown: 0
SampleSet: Soft
StackLeniency: 0.7
Mode: 3
LetterboxInBreaks: 0
SpecialStyle: 1
WidescreenStoryboard: 0

[Editor]
Bookmarks: 1195,20111,29569,39027,57943,67401,76860,95776,114692
DistanceSpacing: 1
BeatDivisor: 4
GridSize: 4
TimelineZoom: 1.7

[Metadata]
Title:Mujinku-Vacuum Track#ADD8E6-
TitleUnicode:無人区-Vacuum Track#ADD8E6-
Artist:NoKANY
ArtistUnicode:NoKANY
Creator:McEndu
Version:8K Normal
Source:Muse Dash
Tags:famoss dilly_p ragnarok vii [rt]alleyne electronic instrumental video game bofu2017 bms of fighters EVER BURST Vacuumcore Redo JurokuNeta 米線p 電子弦奏工房
BeatmapID:2402869
BeatmapSetID:1151089

[Difficulty]
HPDrainRate:7
CircleSize:8
OverallDifficulty:7
ApproachRate:5
SliderMultiplier:1.4
SliderTickRate:1

[Events]
//Background and Video events
0,0,"common.png",0,0
//Break Periods
//Storyboard Layer 0 (Background)
//Storyboard Layer 1 (Fail)
//Storyboard Layer 2 (Pass)
//Storyboard Layer 3 (Foreground)
//Storyboard Layer 4 (Overlay)
//Storyboard Sound Samples
Sample,67401,0,"pluckf.wav",100

[TimingPoints]
1195,295.566502463054,4,2,1,40,1,0
18928,-100,4,2,1,50,0,0
20111,-100,4,2,1,60,0,0
67549,-100,4,2,1,40,0,0
69766,-100,4,2,1,50,0,0
72130,-100,4,2,1,60,0,0
76860,-100,4,2,1,60,0,1
110111,-100,4,2,1,40,0,1
111145,-100,4,2,1,50,0,1
112328,-100,4,2,1,60,0,1
114692,-100,4,2,1,40,0,0

[HitObjects]
96,192,1195,5,0,0:0:0:0:
224,192,1195,1,0,0:0:0:0:
160,192,2377,1,0,0:0:0:0:
288,192,2377,1,0,0:0:0:0:
224,192,3559,1,0,0:0:0:0:
352,192,3559,1,0,0:0:0:0:
96,192,5924,1,0,0:0:0:0:
224,192,5924,1,0,0:0:0:0:
288,192,7106,1,0,0:0:0:0:
160,192,7106,1,0,0:0:0:0:
224,192,8288,1,0,0:0:0:0:
352,192,8288,1,0,0:0:0:0:
96,192,10653,1,0,0:0:0:0:
224,192,10653,1,0,0:0:0:0:
160,192,11835,1,0,0:0:0:0:
288,192,11835,1,0,0:0:0:0:
352,192,13017,1,0,0:0:0:0:
224,192,13017,1,0,0:0:0:0:
224,192,15382,1,0,0:0:0:0:
96,192,15382,1,0,0:0:0:0:
160,192,16564,1,0,0:0:0:0:
288,192,16564,1,0,0:0:0:0:
224,192,17746,1,0,0:0:0:0:
352,192,17746,1,0,0:0:0:0:
32,192,18928,1,0,0:0:0:100:slead.wav
480,192,18928,1,0,0:0:0:100:pluckf.wav
352,192,19150,1,0,0:0:0:100:slead1.wav
224,192,19372,1,0,0:0:0:100:slead2.wav
96,192,19520,1,0,0:0:0:100:lead3.wav
224,192,19741,1,0,0:0:0:100:slead4.wav
352,192,19963,1,0,0:0:0:100:slead final.wav
32,192,20111,1,6,0:0:0:0:
96,192,20111,1,0,0:0:0:100:pluckf.wav
352,192,20259,1,0,0:0:0:0:
224,192,20406,1,2,0:0:0:0:
480,192,20554,1,0,0:0:0:0:
96,192,20702,1,2,0:0:0:0:
352,192,20850,1,0,0:0:0:0:
224,192,20997,1,2,0:0:0:0:
480,192,21145,1,0,0:0:0:0:
96,192,21293,1,2,0:0:0:0:
352,192,21441,1,0,0:0:0:0:
224,192,21589,1,2,0:0:0:0:
480,192,21736,1,0,0:0:0:0:
96,192,21884,1,2,0:0:0:0:
480,192,22032,1,0,0:0:0:0:
352,192,22180,1,2,0:0:0:0:
224,192,22328,1,0,0:0:0:0:
96,192,22475,1,2,0:0:0:0:
352,192,22623,1,0,0:0:0:0:
224,192,22771,1,2,0:0:0:0:
480,192,22919,1,0,0:0:0:0:
96,192,23066,1,2,0:0:0:0:
352,192,23214,1,0,0:0:0:0:
96,192,23362,1,2,0:0:0:0:
224,192,23510,1,0,0:0:0:0:
480,192,23658,1,2,0:0:0:0:
352,192,23805,1,0,0:0:0:0:
224,192,23953,1,2,0:0:0:0:
96,192,24101,1,0,0:0:0:0:
480,192,24249,1,2,0:0:0:0:
352,192,24544,1,2,0:0:0:0:
352,192,24692,1,2,0:0:0:0:
32,192,24840,1,2,0:0:0:0:
160,192,24840,1,4,0:0:0:0:
352,192,24988,1,0,0:0:0:0:
224,192,25135,1,8,0:0:0:0:
416,192,25283,1,0,0:0:0:0:
96,192,25431,1,2,0:0:0:0:
352,192,25579,1,0,0:0:0:0:
160,192,25727,1,8,0:0:0:0:
480,192,25874,1,0,0:0:0:0:
96,192,26022,1,2,0:0:0:0:
352,192,26170,1,0,0:0:0:0:
224,192,26318,1,8,0:0:0:0:
480,192,26465,1,0,0:0:0:0:
96,192,26613,1,2,0:0:0:0:
480,192,26761,1,0,0:0:0:0:
352,192,26909,1,8,0:0:0:0:
224,192,27057,1,0,0:0:0:0:
96,192,27204,1,2,0:0:0:0:
352,192,27352,1,0,0:0:0:0:
224,192,27500,1,8,0:0:0:0:
480,192,27648,1,0,0:0:0:0:
96,192,27795,1,2,0:0:0:0:
352,192,27943,1,0,0:0:0:0:
224,192,28091,1,8,0:0:0:0:
480,192,28239,1,0,0:0:0:0:
160,192,28387,128,0,28608:0:0:0:0:
480,192,28608,128,0,28978:0:0:0:0:
288,192,28978,128,0,29273:0:0:0:0:
480,192,29273,1,0,0:0:0:0:
480,192,29421,1,0,0:0:0:0:
96,192,29569,1,4,0:0:0:0:
224,192,29569,1,0,0:0:0:0:
32,192,29569,1,2,0:0:0:0:
160,192,29864,1,8,0:0:0:0:
288,192,29864,1,0,0:0:0:0:
96,192,30160,1,2,0:0:0:0:
416,192,30308,1,0,0:0:0:0:
160,192,30456,1,8,0:0:0:0:
96,192,30751,1,2,0:0:0:0:
224,192,30751,1,0,0:0:0:0:
416,192,31047,1,0,0:0:0:0:
160,192,31047,1,8,0:0:0:0:
96,192,31342,1,2,0:0:0:0:
352,192,31490,1,0,0:0:0:0:
160,192,31638,1,8,0:0:0:0:
96,192,31933,1,2,0:0:0:0:
352,192,31933,1,0,0:0:0:0:
160,192,32229,1,8,0:0:0:0:
288,192,32229,1,0,0:0:0:0:
96,192,32525,1,2,0:0:0:0:
416,192,32672,1,0,0:0:0:0:
160,192,32820,1,8,0:0:0:0:
96,192,33116,1,2,0:0:0:0:
224,192,33116,1,0,0:0:0:0:
160,192,33411,1,8,0:0:0:0:
480,192,33411,1,0,0:0:0:0:
96,192,33707,1,2,0:0:0:0:
288,192,33855,1,0,0:0:0:0:
160,192,34002,1,8,0:0:0:0:
416,192,34150,1,8,0:0:0:0:
480,192,34298,1,0,0:0:0:0:
32,192,34298,1,2,0:0:0:0:
96,192,34298,1,4,0:0:0:0:
160,192,34594,1,8,0:0:0:0:
416,192,34594,1,0,0:0:0:0:
480,192,34889,1,2,0:0:0:0:
288,192,35037,1,0,0:0:0:0:
416,192,35185,1,8,0:0:0:0:
96,192,35480,1,4,0:0:0:0:
480,192,35480,1,0,0:0:0:0:
32,192,35480,1,2,0:0:0:0:
288,192,35776,1,8,0:0:0:0:
416,192,35776,1,0,0:0:0:0:
32,192,36071,1,2,0:0:0:0:
480,192,36071,1,4,0:0:0:0:
224,192,36219,1,0,0:0:0:0:
416,192,36367,1,8,0:0:0:0:
480,192,36662,1,0,0:0:0:0:
224,192,36662,1,4,0:0:0:0:
32,192,36662,1,2,0:0:0:0:
32,192,36958,1,8,0:0:0:0:
288,192,36958,1,4,0:0:0:0:
416,192,36958,1,0,0:0:0:0:
32,192,37254,1,2,0:0:0:0:
224,192,37254,1,4,0:0:0:0:
480,192,37254,1,0,0:0:0:0:
160,192,37549,1,4,0:0:0:0:
416,192,37549,1,0,0:0:0:0:
32,192,37549,1,8,0:0:0:0:
480,192,37845,1,4,0:0:0:0:
32,192,37845,1,2,0:0:0:0:
32,192,38288,1,4,0:0:0:0:
352,192,38288,1,2,0:0:0:0:
32,192,38731,1,2,0:0:0:0:
224,192,38731,1,4,0:0:0:0:
32,192,39027,1,6,0:0:0:0:
352,192,39027,128,0,39618:0:0:0:100:pluckf.wav
160,192,39618,1,8,0:0:0:0:
160,192,39766,1,0,0:0:0:0:
416,192,39914,1,0,0:0:0:0:
160,192,40061,1,0,0:0:0:0:
288,192,40209,128,2,40800:0:0:0:0:
32,192,40800,128,8,41392:0:0:0:0:
352,192,41392,128,2,41983:0:0:0:0:
96,192,41983,1,8,0:0:0:0:
480,192,42130,1,0,0:0:0:0:
352,192,42278,1,0,0:0:0:0:
480,192,42426,1,0,0:0:0:0:
224,192,42574,1,2,0:0:0:0:
352,192,42722,1,0,0:0:0:0:
224,192,42869,1,0,0:0:0:0:
96,192,43017,1,2,0:0:0:0:
480,192,43165,1,8,0:0:0:0:
352,192,43313,1,0,0:0:0:0:
224,192,43461,1,2,0:0:0:0:
96,192,43608,1,0,0:0:0:0:
32,192,43756,128,2,44347:0:0:0:0:
96,192,44347,1,8,0:0:0:0:
480,192,44495,1,0,0:0:0:0:
352,192,44643,1,0,0:0:0:0:
224,192,44791,1,0,0:0:0:0:
416,192,44938,1,2,0:0:0:0:
288,192,45160,1,0,0:0:0:0:
160,192,45382,1,0,0:0:0:0:
480,192,45529,1,8,0:0:0:0:
224,192,45677,1,0,0:0:0:0:
352,192,45825,1,0,0:0:0:0:
96,192,45973,1,0,0:0:0:0:
288,192,46121,128,2,46712:0:0:0:0:
96,192,46712,1,8,0:0:0:0:
96,192,46860,1,0,0:0:0:0:
352,192,47007,1,0,0:0:0:0:
224,192,47155,1,0,0:0:0:0:
480,192,47303,1,2,0:0:0:0:
352,192,47451,1,0,0:0:0:0:
224,192,47598,1,0,0:0:0:0:
96,192,47746,1,2,0:0:0:0:
480,192,47894,1,8,0:0:0:0:
352,192,48042,1,0,0:0:0:0:
224,192,48190,1,2,0:0:0:0:
352,192,48337,1,0,0:0:0:0:
32,192,48485,1,6,0:0:0:0:
480,192,48485,128,0,49076:0:0:0:100:pluckf.wav
160,192,49076,1,8,0:0:0:0:
160,192,49224,1,0,0:0:0:0:
416,192,49372,1,0,0:0:0:0:
160,192,49520,1,0,0:0:0:0:
288,192,49667,128,2,50259:0:0:0:0:
32,192,50259,128,8,50850:0:0:0:0:
352,192,50850,128,2,51441:0:0:0:0:
96,192,51441,1,8,0:0:0:0:
480,192,51589,1,0,0:0:0:0:
352,192,51736,1,0,0:0:0:0:
480,192,51884,1,0,0:0:0:0:
224,192,52032,1,2,0:0:0:0:
352,192,52180,1,0,0:0:0:0:
224,192,52328,1,0,0:0:0:0:
96,192,52475,1,2,0:0:0:0:
480,192,52623,1,8,0:0:0:0:
352,192,52771,1,0,0:0:0:0:
224,192,52919,1,2,0:0:0:0:
96,192,53066,1,0,0:0:0:0:
32,192,53214,1,6,0:0:0:0:
160,192,53805,1,8,0:0:0:0:
480,192,53953,1,0,0:0:0:0:
352,192,54101,1,0,0:0:0:0:
224,192,54249,1,0,0:0:0:0:
32,192,54396,128,2,54988:0:0:0:0:
160,192,54988,1,8,0:0:0:0:
416,192,55209,1,0,0:0:0:0:
288,192,55431,1,0,0:0:0:0:
32,192,55579,1,4,0:0:0:0:
96,192,55579,1,8,0:0:0:0:
480,192,55579,1,2,0:0:0:0:
352,192,55874,1,4,0:0:0:0:
96,192,55874,1,8,0:0:0:0:
96,192,56170,1,6,0:0:0:0:
480,192,56170,1,8,0:0:0:0:
352,192,56392,1,0,0:0:0:0:
96,192,56465,1,12,0:0:0:0:
224,192,56613,1,0,0:0:0:0:
32,192,56761,1,10,0:0:0:0:
96,192,56761,1,4,0:0:0:0:
288,192,56909,1,8,0:0:0:0:
416,192,57057,1,14,0:0:0:0:
224,192,57204,1,8,0:0:0:0:
480,192,57352,128,0,57943:0:0:0:0:
32,192,57943,1,6,0:0:0:0:
96,192,57943,1,0,0:0:0:100:pluckf.wav
96,192,58239,1,6,0:0:0:0:
480,192,58534,1,6,0:0:0:0:
352,192,58756,1,6,0:0:0:0:
224,192,58978,1,6,0:0:0:0:
96,192,59126,1,6,0:0:0:0:
96,192,59421,1,6,0:0:0:0:
352,192,59717,1,6,0:0:0:0:
480,192,59938,1,6,0:0:0:0:
288,192,60160,1,6,0:0:0:0:
96,192,60308,1,8,0:0:0:0:
224,192,60308,1,4,0:0:0:0:
96,192,60603,1,8,0:0:0:0:
224,192,60603,1,4,0:0:0:0:
160,192,60899,1,4,0:0:0:0:
288,192,60899,1,8,0:0:0:0:
352,192,61121,1,4,0:0:0:0:
224,192,61121,1,8,0:0:0:0:
288,192,61342,1,4,0:0:0:0:
416,192,61342,1,8,0:0:0:0:
224,192,61490,1,8,0:0:0:0:
352,192,61490,1,4,0:0:0:0:
288,192,61712,1,8,0:0:0:0:
416,192,61712,1,4,0:0:0:0:
352,192,61933,1,8,0:0:0:0:
480,192,61933,1,4,0:0:0:0:
416,192,62081,1,8,0:0:0:0:
288,192,62081,1,4,0:0:0:0:
96,192,62303,1,8,0:0:0:0:
224,192,62303,1,4,0:0:0:0:
288,192,62525,1,4,0:0:0:0:
416,192,62525,1,8,0:0:0:0:
96,192,62672,1,6,0:0:0:0:
32,192,62672,1,0,0:0:0:100:pluckf.wav
96,192,62968,1,6,0:0:0:0:
480,192,63263,1,6,0:0:0:0:
352,192,63485,1,6,0:0:0:0:
224,192,63707,1,6,0:0:0:0:
416,192,63855,1,6,0:0:0:0:
288,192,64150,1,6,0:0:0:0:
352,192,64446,1,6,0:0:0:0:
480,192,64667,1,6,0:0:0:0:
160,192,64889,1,6,0:0:0:0:
416,192,65037,1,4,0:0:0:0:
288,192,65037,1,8,0:0:0:0:
96,192,65332,1,8,0:0:0:0:
224,192,65332,1,4,0:0:0:0:
352,192,65628,1,4,0:0:0:0:
480,192,65628,1,8,0:0:0:0:
288,192,65850,1,8,0:0:0:0:
416,192,65850,1,4,0:0:0:0:
288,192,66071,1,8,0:0:0:0:
160,192,66071,1,4,0:0:0:0:
224,192,66219,1,4,0:0:0:0:
96,192,66219,1,8,0:0:0:0:
288,192,66367,1,4,0:0:0:0:
416,192,66367,1,8,0:0:0:0:
352,192,66515,1,4,0:0:0:0:
480,192,66515,1,8,0:0:0:0:
160,192,66662,1,8,0:0:0:0:
288,192,66662,1,4,0:0:0:0:
96,192,66810,1,4,0:0:0:0:
224,192,66810,1,8,0:0:0:0:
32,192,67401,1,6,0:0:0:0:
288,192,67549,1,0,0:0:0:0:
416,192,67845,1,0,0:0:0:0:
352,192,68140,1,0,0:0:0:0:
160,192,68436,1,0,0:0:0:0:
288,192,68731,1,0,0:0:0:0:
416,192,69027,1,0,0:0:0:0:
288,192,69323,1,0,0:0:0:0:
480,192,69618,1,0,0:0:0:0:
32,192,69766,1,6,0:0:0:0:
288,192,69914,1,0,0:0:0:0:
416,192,70209,1,0,0:0:0:0:
352,192,70505,1,0,0:0:0:0:
160,192,70800,1,0,0:0:0:0:
416,192,71096,1,0,0:0:0:0:
288,192,71244,1,8,0:0:0:0:
160,192,71392,1,0,0:0:0:0:
96,192,71539,1,8,0:0:0:0:
96,192,71761,1,8,0:0:0:0:
96,192,71983,1,8,0:0:0:0:
32,192,72130,1,2,0:0:0:0:
96,192,72130,1,4,0:0:0:0:
416,192,72278,1,8,0:0:0:0:
288,192,72426,1,2,0:0:0:0:
160,192,72574,1,8,0:0:0:0:
32,192,72722,1,4,0:0:0:0:
352,192,72722,1,2,0:0:0:0:
480,192,72869,1,8,0:0:0:0:
352,192,73017,1,2,0:0:0:0:
224,192,73165,1,8,0:0:0:0:
32,192,73313,1,2,0:0:0:0:
96,192,73313,1,4,0:0:0:0:
416,192,73461,1,8,0:0:0:0:
288,192,73608,1,6,0:0:0:0:
160,192,73756,1,8,0:0:0:0:
32,192,73904,1,4,0:0:0:0:
224,192,73904,1,2,0:0:0:0:
416,192,74052,1,8,0:0:0:0:
288,192,74199,1,6,0:0:0:0:
160,192,74347,1,8,0:0:0:0:
32,192,74495,1,2,0:0:0:0:
96,192,74495,1,4,0:0:0:0:
96,192,74643,1,6,0:0:0:0:
224,192,74791,1,6,0:0:0:0:
224,192,74938,1,6,0:0:0:0:
352,192,75086,1,6,0:0:0:0:
352,192,75234,1,6,0:0:0:0:
480,192,75382,1,6,0:0:0:0:
480,192,75529,1,6,0:0:0:0:
352,192,75677,128,0,76860:0:0:0:0:
32,192,75677,1,4,0:0:0:0:
32,192,76860,1,6,0:0:0:0:
288,192,76860,1,0,0:0:0:100:pluckf.wav
160,192,77007,1,0,0:0:0:0:
416,192,77155,1,8,0:0:0:0:
288,192,77303,1,0,0:0:0:0:
480,192,77451,1,2,0:0:0:0:
352,192,77598,1,0,0:0:0:0:
224,192,77746,1,8,0:0:0:0:
352,192,77894,1,0,0:0:0:0:
96,192,78042,1,2,0:0:0:0:
416,192,78190,1,0,0:0:0:0:
288,192,78337,1,8,0:0:0:0:
160,192,78485,1,0,0:0:0:0:
288,192,78633,1,2,0:0:0:0:
160,192,78928,1,8,0:0:0:0:
416,192,79076,1,0,0:0:0:0:
96,192,79224,1,2,0:0:0:0:
224,192,79372,1,0,0:0:0:0:
160,192,79520,1,8,0:0:0:0:
288,192,79667,1,0,0:0:0:0:
480,192,79815,1,2,0:0:0:0:
352,192,79963,1,0,0:0:0:0:
224,192,80111,1,8,0:0:0:0:
96,192,80259,1,0,0:0:0:0:
288,192,80406,1,2,0:0:0:0:
160,192,80554,1,0,0:0:0:0:
288,192,80702,1,8,0:0:0:0:
96,192,80997,1,2,0:0:0:0:
224,192,81145,1,0,0:0:0:0:
480,192,81293,1,8,0:0:0:0:
352,192,81441,1,8,0:0:0:0:
32,192,81589,1,2,0:0:0:0:
224,192,81589,1,4,0:0:0:0:
96,192,81736,1,0,0:0:0:0:
352,192,81884,1,8,0:0:0:0:
160,192,82032,1,0,0:0:0:0:
416,192,82180,1,2,0:0:0:0:
224,192,82328,1,0,0:0:0:0:
352,192,82475,1,8,0:0:0:0:
480,192,82623,1,0,0:0:0:0:
416,192,82771,1,2,0:0:0:0:
288,192,82919,1,0,0:0:0:0:
416,192,83066,1,8,0:0:0:0:
288,192,83214,1,0,0:0:0:0:
160,192,83362,1,2,0:0:0:0:
480,192,83658,1,8,0:0:0:0:
352,192,83805,1,0,0:0:0:0:
96,192,83953,1,2,0:0:0:0:
32,192,83953,1,4,0:0:0:0:
416,192,84101,1,0,0:0:0:0:
288,192,84249,1,8,0:0:0:0:
160,192,84396,1,0,0:0:0:0:
480,192,84544,1,2,0:0:0:0:
96,192,84692,1,0,0:0:0:0:
224,192,84840,1,8,0:0:0:0:
352,192,84988,1,0,0:0:0:0:
160,192,85135,1,4,0:0:0:0:
416,192,85135,1,8,0:0:0:0:
160,192,85357,1,8,0:0:0:0:
416,192,85357,1,4,0:0:0:0:
160,192,85579,1,4,0:0:0:0:
416,192,85579,1,8,0:0:0:0:
480,192,85727,1,4,0:0:0:0:
352,192,85727,1,8,0:0:0:0:
224,192,85948,1,4,0:0:0:0:
352,192,85948,1,8,0:0:0:0:
96,192,86170,1,8,0:0:0:0:
224,192,86170,1,4,0:0:0:0:
32,192,86318,1,6,0:0:0:0:
288,192,86318,1,0,0:0:0:100:pluckf.wav
160,192,86465,1,0,0:0:0:0:
416,192,86613,1,8,0:0:0:0:
288,192,86761,1,0,0:0:0:0:
480,192,86909,1,2,0:0:0:0:
352,192,87057,1,0,0:0:0:0:
224,192,87204,1,8,0:0:0:0:
352,192,87352,1,0,0:0:0:0:
160,192,87500,1,2,0:0:0:0:
416,192,87648,1,0,0:0:0:0:
288,192,87795,1,8,0:0:0:0:
160,192,87943,1,0,0:0:0:0:
288,192,88091,1,2,0:0:0:0:
96,192,88387,1,8,0:0:0:0:
416,192,88534,1,0,0:0:0:0:
96,192,88682,1,2,0:0:0:0:
288,192,88830,1,0,0:0:0:0:
160,192,88978,1,8,0:0:0:0:
352,192,89126,1,0,0:0:0:0:
480,192,89273,1,2,0:0:0:0:
352,192,89421,1,0,0:0:0:0:
224,192,89569,1,8,0:0:0:0:
96,192,89717,1,0,0:0:0:0:
288,192,89864,1,2,0:0:0:0:
160,192,90012,1,0,0:0:0:0:
288,192,90160,1,8,0:0:0:0:
160,192,90456,1,2,0:0:0:0:
288,192,90603,1,0,0:0:0:0:
416,192,90751,1,8,0:0:0:0:
288,192,90899,1,8,0:0:0:0:
32,192,91047,1,4,0:0:0:0:
224,192,91047,1,2,0:0:0:0:
96,192,91194,1,0,0:0:0:0:
352,192,91342,1,8,0:0:0:0:
224,192,91490,1,0,0:0:0:0:
480,192,91638,1,2,0:0:0:0:
224,192,91786,1,0,0:0:0:0:
352,192,91933,1,8,0:0:0:0:
480,192,92081,1,0,0:0:0:0:
416,192,92229,1,2,0:0:0:0:
288,192,92377,1,0,0:0:0:0:
416,192,92525,1,8,0:0:0:0:
288,192,92672,1,0,0:0:0:0:
160,192,92820,1,2,0:0:0:0:
480,192,93116,1,8,0:0:0:0:
416,192,93263,1,0,0:0:0:0:
160,192,93411,1,2,0:0:0:0:
352,192,93559,1,0,0:0:0:0:
224,192,93707,1,8,0:0:0:0:
96,192,93855,1,0,0:0:0:0:
416,192,94002,1,2,0:0:0:0:
160,192,94150,1,0,0:0:0:0:
224,192,94298,1,8,0:0:0:0:
352,192,94446,1,0,0:0:0:0:
32,192,94594,1,2,0:0:0:0:
416,192,94594,1,4,0:0:0:0:
288,192,94741,1,0,0:0:0:0:
32,192,94889,1,8,0:0:0:0:
416,192,94889,1,4,0:0:0:0:
288,192,95037,1,0,0:0:0:0:
416,192,95185,1,2,0:0:0:0:
32,192,95185,1,4,0:0:0:0:
288,192,95332,1,0,0:0:0:0:
32,192,95480,1,4,0:0:0:0:
480,192,95480,1,8,0:0:0:0:
224,192,95628,1,8,0:0:0:0:
32,192,95776,1,6,0:0:0:0:
352,192,95776,128,0,96662:0:0:0:100:pluckf.wav
224,192,96662,128,8,97549:0:0:0:0:
96,192,97549,128,2,97845:0:0:0:0:
352,192,97845,128,8,98140:0:0:0:0:
288,192,98140,128,2,98362:0:0:0:0:
160,192,98362,128,0,98584:0:0:0:0:
288,192,98584,128,0,99027:0:0:0:0:
96,192,99027,128,8,99175:0:0:0:0:
224,192,99175,128,0,99323:0:0:0:0:
480,192,99323,128,2,99470:0:0:0:0:
352,192,99470,128,0,100209:0:0:0:0:
288,192,100209,128,8,100357:0:0:0:0:
160,192,100357,128,8,100505:0:0:0:0:
32,192,100505,1,2,0:0:0:0:
416,192,100505,128,4,101392:0:0:0:0:
480,192,101392,128,8,102278:0:0:0:0:
352,192,102278,128,2,102574:0:0:0:0:
224,192,102574,128,8,102869:0:0:0:0:
96,192,102869,128,2,104052:0:0:0:0:
32,192,104052,1,4,0:0:0:0:
288,192,104052,1,2,0:0:0:0:
416,192,104199,1,0,0:0:0:0:
32,192,104347,1,8,0:0:0:0:
288,192,104347,1,4,0:0:0:0:
416,192,104495,1,0,0:0:0:0:
32,192,104643,1,2,0:0:0:0:
288,192,104643,1,4,0:0:0:0:
416,192,104791,1,0,0:0:0:0:
32,192,104938,1,4,0:0:0:0:
480,192,104938,1,8,0:0:0:0:
224,192,105086,1,0,0:0:0:0:
352,192,105234,128,2,106121:0:0:0:0:
32,192,105234,1,4,0:0:0:0:
96,192,106121,128,8,107007:0:0:0:0:
224,192,107007,128,2,107303:0:0:0:0:
352,192,107303,128,8,107598:0:0:0:0:
416,192,107598,128,2,107820:0:0:0:0:
288,192,107820,128,0,108042:0:0:0:0:
160,192,108042,128,0,108485:0:0:0:0:
352,192,108485,128,8,108781:0:0:0:0:
224,192,108781,128,2,109667:0:0:0:0:
96,192,109667,128,8,109815:0:0:0:0:
160,192,109815,128,8,109963:0:0:0:0:
32,192,109963,1,6,0:0:0:0:
288,192,109963,128,8,110850:0:0:0:0:
416,192,110850,128,8,111736:0:0:0:0:
32,192,111145,1,14,0:0:0:0:
32,192,111736,1,2,0:0:0:0:
288,192,111736,128,8,112032:0:0:0:0:
160,192,112032,128,8,112328:0:0:0:0:
352,192,112328,128,8,112623:0:0:0:0:
32,192,112328,1,6,0:0:0:0:
32,192,112771,1,6,0:0:0:0:
480,192,112771,128,8,113066:0:0:0:0:
32,192,113214,1,6,0:0:0:0:
352,192,113214,128,8,113510:0:0:0:0:
32,192,113510,1,6,0:0:0:0:
224,192,113510,128,8,114692:0:0:0:0:
96,192,114692,1,4,0:0:0:0:
416,192,114692,1,0,0:0:0:100:pluckf.wav
416,192,115135,1,0,0:0:0:0:
416,192,115579,1,0,0:0:0:0:
160,192,115874,1,0,0:0:0:0:
288,192,115874,1,0,0:0:0:0:
352,192,116170,1,0,0:0:0:0:
288,192,116761,1,0,0:0:0:0:
224,192,117057,1,0,0:0:0:0:
352,192,117057,1,0,0:0:0:0:
96,192,118239,1,0,0:0:0:0:
224,192,119421,1,0,0:0:0:0:
96,192,119421,1,0,0:0:0:0:
96,192,119864,1,0,0:0:0:0:
96,192,120308,1,0,0:0:0:0:
160,192,120603,1,0,0:0:0:0:
288,192,120603,1,0,0:0:0:0:
96,192,120899,1,0,0:0:0:0:
224,192,121490,1,0,0:0:0:0:
288,192,121786,1,0,0:0:0:0:
416,192,121786,1,0,0:0:0:0:
480,192,122377,1,0,0:0:0:0:
352,192,122968,1,0,0:0:0:0:
96,192,124150,1,0,0:0:0:0:
480,192,124150,1,0,0:0:0:0:
480,192,124594,1,0,0:0:0:0:
480,192,125037,1,0,0:0:0:0:
160,192,125332,1,0,0:0:0:0:
288,192,125332,1,0,0:0:0:0:
352,192,125628,1,0,0:0:0:0:
224,192,126219,1,0,0:0:0:0:
160,192,126515,1,0,0:0:0:0:
288,192,126515,1,0,0:0:0:0:
96,192,127697,1,0,0:0:0:0:
224,192,128584,1,0,0:0:0:0:
96,192,128879,1,0,0:0:0:0:
224,192,128879,1,0,0:0:0:0:
224,192,129323,1,0,0:0:0:0:
224,192,129766,1,0,0:0:0:0:
288,192,130061,1,0,0:0:0:0:
160,192,130061,1,0,0:0:0:0:
160,192,130357,1,0,0:0:0:0:
352,192,130948,1,0,0:0:0:0:
288,192,131244,1,0,0:0:0:0:
416,192,131244,1,0,0:0:0:0:
416,192,131835,1,0,0:0:0:0:
352,192,132130,1,0,0:0:0:0:
224,192,132722,1,0,0:0:0:0:
96,192,133313,1,0,0:0:0:0:
32,192,133608,128,0,138190:0:0:0:0:
