osu file format v14

[General]
AudioFilename: add8e6.mp3
AudioLeadIn: 0
PreviewTime: 76268
Countdown: 0
SampleSet: Soft
StackLeniency: 0.7
Mode: 3
LetterboxInBreaks: 0
SpecialStyle: 1
WidescreenStoryboard: 0

[Editor]
Bookmarks: 1195,20111,29569,39027,57943,67401,76860,95776,114692
DistanceSpacing: 1
BeatDivisor: 4
GridSize: 4
TimelineZoom: 1.8

[Metadata]
Title:Mujinku-Vacuum Track#ADD8E6-
TitleUnicode:無人区-Vacuum Track#ADD8E6-
Artist:NoKANY
ArtistUnicode:NoKANY
Creator:McEndu
Version:8K Another
Source:Muse Dash
Tags:famoss dilly_p ragnarok vii [rt]alleyne electronic instrumental video game bofu2017 bms of fighters EVER BURST Vacuumcore Redo JurokuNeta 米線p 電子弦奏工房
BeatmapID:2402868
BeatmapSetID:1151089

[Difficulty]
HPDrainRate:8.5
CircleSize:8
OverallDifficulty:8.5
ApproachRate:5
SliderMultiplier:1.4
SliderTickRate:1

[Events]
//Background and Video events
0,0,"common.png",0,0
//Break Periods
//Storyboard Layer 0 (Background)
//Storyboard Layer 1 (Fail)
//Storyboard Layer 2 (Pass)
//Storyboard Layer 3 (Foreground)
//Storyboard Layer 4 (Overlay)
//Storyboard Sound Samples

[TimingPoints]
1195,295.566502463054,4,2,1,40,1,0
18928,-100,4,2,1,50,0,0
20111,-100,4,2,1,60,0,0
67549,-100,4,2,1,40,0,0
69766,-100,4,2,1,50,0,0
72130,-100,4,2,1,60,0,0
76860,-100,4,2,1,60,0,1
110111,-100,4,2,1,40,0,1
111145,-100,4,2,1,50,0,1
112328,-100,4,2,1,60,0,1
114692,-100,4,2,1,40,0,0

[HitObjects]
96,192,1195,5,0,0:0:0:0:
224,192,1195,1,0,0:0:0:0:
352,192,1195,1,0,0:0:0:0:
480,192,1342,1,0,0:0:0:0:
352,192,1490,1,0,0:0:0:0:
480,192,1638,1,0,0:0:0:0:
224,192,1786,1,0,0:0:0:0:
416,192,1786,1,0,0:0:0:0:
288,192,1933,1,0,0:0:0:0:
352,192,2007,1,0,0:0:0:0:
160,192,2081,1,0,0:0:0:0:
96,192,2229,1,0,0:0:0:0:
224,192,2229,1,0,0:0:0:0:
160,192,2377,1,0,0:0:0:0:
288,192,2377,1,0,0:0:0:0:
352,192,2968,1,0,0:0:0:0:
480,192,3263,1,0,0:0:0:0:
160,192,3559,1,0,0:0:0:0:
224,192,3559,1,0,0:0:0:0:
352,192,3559,1,0,0:0:0:0:
288,192,3707,1,0,0:0:0:0:
96,192,3855,1,0,0:0:0:0:
480,192,3855,1,0,0:0:0:0:
224,192,4002,1,0,0:0:0:0:
288,192,4150,1,0,0:0:0:0:
416,192,4150,1,0,0:0:0:0:
160,192,4298,1,0,0:0:0:0:
96,192,4446,1,0,0:0:0:0:
352,192,4446,1,0,0:0:0:0:
224,192,4594,1,0,0:0:0:0:
480,192,4741,1,0,0:0:0:0:
288,192,5332,1,0,0:0:0:0:
352,192,5924,1,0,0:0:0:0:
96,192,5924,1,0,0:0:0:0:
224,192,5924,1,0,0:0:0:0:
480,192,6071,1,0,0:0:0:0:
352,192,6219,1,0,0:0:0:0:
480,192,6367,1,0,0:0:0:0:
224,192,6515,1,0,0:0:0:0:
416,192,6515,1,0,0:0:0:0:
288,192,6662,1,0,0:0:0:0:
352,192,6736,1,0,0:0:0:0:
160,192,6810,1,0,0:0:0:0:
96,192,6958,1,0,0:0:0:0:
224,192,6958,1,0,0:0:0:0:
160,192,7106,1,0,0:0:0:0:
288,192,7106,1,0,0:0:0:0:
352,192,7697,1,0,0:0:0:0:
480,192,7993,1,0,0:0:0:0:
160,192,8288,1,0,0:0:0:0:
224,192,8288,1,0,0:0:0:0:
352,192,8288,1,0,0:0:0:0:
288,192,8436,1,0,0:0:0:0:
96,192,8584,1,0,0:0:0:0:
416,192,8584,1,0,0:0:0:0:
224,192,8731,1,0,0:0:0:0:
352,192,8879,1,0,0:0:0:0:
480,192,8879,1,0,0:0:0:0:
224,192,9027,1,0,0:0:0:0:
160,192,9175,1,0,0:0:0:0:
416,192,9175,1,0,0:0:0:0:
288,192,9323,1,0,0:0:0:0:
480,192,9470,1,0,0:0:0:0:
288,192,9914,1,0,0:0:0:0:
160,192,10357,1,0,0:0:0:0:
96,192,10653,1,0,0:0:0:0:
224,192,10653,1,0,0:0:0:0:
352,192,10653,1,0,0:0:0:0:
480,192,10800,1,0,0:0:0:0:
352,192,10948,1,0,0:0:0:0:
480,192,11096,1,0,0:0:0:0:
224,192,11244,1,0,0:0:0:0:
416,192,11244,1,0,0:0:0:0:
288,192,11392,1,0,0:0:0:0:
352,192,11465,1,0,0:0:0:0:
160,192,11539,1,0,0:0:0:0:
96,192,11687,1,0,0:0:0:0:
224,192,11687,1,0,0:0:0:0:
160,192,11835,1,0,0:0:0:0:
288,192,11835,1,0,0:0:0:0:
352,192,12426,1,0,0:0:0:0:
480,192,12722,1,0,0:0:0:0:
160,192,13017,1,0,0:0:0:0:
224,192,13017,1,0,0:0:0:0:
352,192,13017,1,0,0:0:0:0:
288,192,13165,1,0,0:0:0:0:
96,192,13313,1,0,0:0:0:0:
480,192,13313,1,0,0:0:0:0:
224,192,13461,1,0,0:0:0:0:
288,192,13608,1,0,0:0:0:0:
416,192,13608,1,0,0:0:0:0:
160,192,13756,1,0,0:0:0:0:
96,192,13904,1,0,0:0:0:0:
352,192,13904,1,0,0:0:0:0:
224,192,14052,1,0,0:0:0:0:
480,192,14199,1,0,0:0:0:0:
288,192,14791,1,0,0:0:0:0:
96,192,15382,1,0,0:0:0:0:
224,192,15382,1,0,0:0:0:0:
352,192,15382,1,0,0:0:0:0:
480,192,15529,1,0,0:0:0:0:
352,192,15677,1,0,0:0:0:0:
480,192,15825,1,0,0:0:0:0:
224,192,15973,1,0,0:0:0:0:
416,192,15973,1,0,0:0:0:0:
288,192,16121,1,0,0:0:0:0:
352,192,16194,1,0,0:0:0:0:
160,192,16268,1,0,0:0:0:0:
96,192,16416,1,0,0:0:0:0:
224,192,16416,1,0,0:0:0:0:
160,192,16564,1,0,0:0:0:0:
288,192,16564,1,0,0:0:0:0:
352,192,17155,1,0,0:0:0:0:
480,192,17451,1,0,0:0:0:0:
160,192,17746,1,0,0:0:0:0:
224,192,17746,1,0,0:0:0:0:
352,192,17746,1,0,0:0:0:0:
288,192,17894,1,0,0:0:0:0:
96,192,18042,1,0,0:0:0:0:
416,192,18042,1,0,0:0:0:0:
224,192,18190,1,0,0:0:0:0:
352,192,18337,1,0,0:0:0:0:
480,192,18337,1,0,0:0:0:0:
224,192,18485,1,0,0:0:0:0:
160,192,18633,1,0,0:0:0:0:
416,192,18633,1,0,0:0:0:0:
288,192,18781,1,0,0:0:0:0:
32,192,18928,1,0,0:0:0:100:slead.wav
352,192,18928,1,0,0:0:0:100:pluckf.wav
480,192,18928,1,0,0:0:0:0:
288,192,19150,1,0,0:0:0:100:slead1.wav
416,192,19150,1,0,0:0:0:0:
160,192,19372,1,0,0:0:0:100:slead2.wav
288,192,19372,1,0,0:0:0:0:
96,192,19520,1,0,0:0:0:100:lead3.wav
224,192,19520,1,0,0:0:0:0:
224,192,19741,1,0,0:0:0:100:slead4.wav
352,192,19741,1,0,0:0:0:0:
352,192,19963,1,0,0:0:0:100:slead final.wav
480,192,19963,1,0,0:0:0:0:
32,192,20111,1,2,0:0:0:0:
96,192,20111,1,4,0:0:0:0:
224,192,20111,1,0,0:0:0:100:pluckf.wav
288,192,20185,1,0,0:0:0:0:
352,192,20259,1,0,0:0:0:0:
416,192,20332,1,0,0:0:0:0:
96,192,20406,1,2,0:0:0:0:
224,192,20406,1,0,0:0:0:0:
288,192,20480,1,0,0:0:0:0:
352,192,20554,1,0,0:0:0:0:
288,192,20628,1,0,0:0:0:0:
96,192,20702,1,2,0:0:0:0:
224,192,20702,1,0,0:0:0:0:
288,192,20776,1,0,0:0:0:0:
352,192,20850,1,0,0:0:0:0:
416,192,20924,1,0,0:0:0:0:
96,192,20997,1,2,0:0:0:0:
224,192,20997,1,0,0:0:0:0:
288,192,21071,1,0,0:0:0:0:
416,192,21145,1,0,0:0:0:0:
352,192,21219,1,0,0:0:0:0:
96,192,21293,1,2,0:0:0:0:
224,192,21293,1,0,0:0:0:0:
288,192,21367,1,0,0:0:0:0:
352,192,21441,1,0,0:0:0:0:
416,192,21515,1,0,0:0:0:0:
96,192,21589,1,2,0:0:0:0:
224,192,21589,1,0,0:0:0:0:
288,192,21662,1,0,0:0:0:0:
352,192,21736,1,0,0:0:0:0:
288,192,21810,1,0,0:0:0:0:
96,192,21884,1,2,0:0:0:0:
224,192,21884,1,0,0:0:0:0:
352,192,21958,1,0,0:0:0:0:
480,192,22032,1,0,0:0:0:0:
352,192,22106,1,0,0:0:0:0:
96,192,22180,1,2,0:0:0:0:
224,192,22180,1,0,0:0:0:0:
416,192,22254,1,0,0:0:0:0:
352,192,22328,1,0,0:0:0:0:
288,192,22401,1,0,0:0:0:0:
96,192,22475,1,2,0:0:0:0:
224,192,22475,1,0,0:0:0:0:
288,192,22549,1,0,0:0:0:0:
352,192,22623,1,0,0:0:0:0:
416,192,22697,1,0,0:0:0:0:
96,192,22771,1,2,0:0:0:0:
224,192,22771,1,0,0:0:0:0:
288,192,22845,1,0,0:0:0:0:
352,192,22919,1,0,0:0:0:0:
288,192,22993,1,0,0:0:0:0:
96,192,23066,1,2,0:0:0:0:
224,192,23066,1,0,0:0:0:0:
288,192,23140,1,0,0:0:0:0:
352,192,23214,1,0,0:0:0:0:
416,192,23288,1,0,0:0:0:0:
96,192,23362,1,2,0:0:0:0:
224,192,23362,1,0,0:0:0:0:
288,192,23436,1,0,0:0:0:0:
416,192,23510,1,0,0:0:0:0:
352,192,23584,1,0,0:0:0:0:
96,192,23658,1,2,0:0:0:0:
480,192,23658,1,0,0:0:0:0:
416,192,23731,1,0,0:0:0:0:
352,192,23805,1,0,0:0:0:0:
288,192,23879,1,0,0:0:0:0:
96,192,23953,1,2,0:0:0:0:
416,192,23953,1,0,0:0:0:0:
352,192,24027,1,0,0:0:0:0:
288,192,24101,1,0,0:0:0:0:
224,192,24175,1,0,0:0:0:0:
96,192,24249,1,2,0:0:0:0:
160,192,24249,1,0,0:0:0:0:
416,192,24323,1,0,0:0:0:0:
224,192,24396,1,0,0:0:0:0:
288,192,24470,1,0,0:0:0:0:
96,192,24544,1,2,0:0:0:0:
416,192,24544,1,0,0:0:0:0:
96,192,24692,1,2,0:0:0:0:
288,192,24692,1,0,0:0:0:0:
416,192,24766,1,0,0:0:0:0:
32,192,24840,1,2,0:0:0:0:
96,192,24840,1,4,0:0:0:0:
224,192,24840,1,0,0:0:0:0:
288,192,24914,1,0,0:0:0:0:
352,192,24988,1,0,0:0:0:0:
416,192,25061,1,0,0:0:0:0:
480,192,25135,1,8,0:0:0:0:
224,192,25135,1,0,0:0:0:0:
288,192,25209,1,0,0:0:0:0:
352,192,25283,1,0,0:0:0:0:
288,192,25357,1,0,0:0:0:0:
96,192,25431,1,2,0:0:0:0:
224,192,25431,1,0,0:0:0:0:
288,192,25505,1,0,0:0:0:0:
352,192,25579,1,0,0:0:0:0:
416,192,25653,1,0,0:0:0:0:
160,192,25727,1,8,0:0:0:0:
224,192,25727,1,0,0:0:0:0:
288,192,25800,1,0,0:0:0:0:
416,192,25874,1,0,0:0:0:0:
352,192,25948,1,0,0:0:0:0:
96,192,26022,1,2,0:0:0:0:
224,192,26022,1,0,0:0:0:0:
288,192,26096,1,0,0:0:0:0:
352,192,26170,1,0,0:0:0:0:
416,192,26244,1,0,0:0:0:0:
480,192,26318,1,8,0:0:0:0:
224,192,26318,1,0,0:0:0:0:
288,192,26392,1,0,0:0:0:0:
352,192,26465,1,0,0:0:0:0:
288,192,26539,1,0,0:0:0:0:
96,192,26613,1,2,0:0:0:0:
224,192,26613,1,0,0:0:0:0:
352,192,26687,1,0,0:0:0:0:
480,192,26761,1,0,0:0:0:0:
352,192,26835,1,0,0:0:0:0:
160,192,26909,1,8,0:0:0:0:
224,192,26909,1,0,0:0:0:0:
416,192,26983,1,0,0:0:0:0:
352,192,27057,1,0,0:0:0:0:
288,192,27130,1,0,0:0:0:0:
96,192,27204,1,2,0:0:0:0:
224,192,27204,1,0,0:0:0:0:
288,192,27278,1,0,0:0:0:0:
352,192,27352,1,0,0:0:0:0:
416,192,27426,1,0,0:0:0:0:
480,192,27500,1,8,0:0:0:0:
224,192,27500,1,0,0:0:0:0:
288,192,27574,1,0,0:0:0:0:
352,192,27648,1,0,0:0:0:0:
288,192,27722,1,0,0:0:0:0:
96,192,27795,1,2,0:0:0:0:
224,192,27795,1,0,0:0:0:0:
288,192,27869,1,0,0:0:0:0:
352,192,27943,1,0,0:0:0:0:
416,192,28017,1,0,0:0:0:0:
160,192,28091,1,8,0:0:0:0:
224,192,28091,1,0,0:0:0:0:
288,192,28165,1,0,0:0:0:0:
416,192,28239,1,0,0:0:0:0:
352,192,28313,1,0,0:0:0:0:
96,192,28387,128,0,28608:0:0:0:0:
224,192,28534,1,0,0:0:0:0:
416,192,28608,128,0,28978:0:0:0:0:
288,192,28830,1,0,0:0:0:0:
224,192,28978,128,0,29273:0:0:0:0:
352,192,29126,1,0,0:0:0:0:
480,192,29273,1,0,0:0:0:0:
160,192,29421,1,0,0:0:0:0:
480,192,29421,1,0,0:0:0:0:
32,192,29569,1,2,0:0:0:0:
96,192,29569,1,4,0:0:0:0:
224,192,29569,1,0,0:0:0:0:
416,192,29569,1,0,0:0:0:0:
288,192,29643,1,0,0:0:0:0:
352,192,29717,1,0,0:0:0:0:
416,192,29791,1,0,0:0:0:0:
480,192,29864,1,8,0:0:0:0:
224,192,29864,1,0,0:0:0:0:
288,192,29938,1,0,0:0:0:0:
352,192,30012,1,0,0:0:0:0:
288,192,30086,1,0,0:0:0:0:
96,192,30160,1,2,0:0:0:0:
224,192,30160,1,0,0:0:0:0:
288,192,30234,1,0,0:0:0:0:
352,192,30308,1,0,0:0:0:0:
416,192,30382,1,0,0:0:0:0:
160,192,30456,1,8,0:0:0:0:
224,192,30456,1,0,0:0:0:0:
288,192,30529,1,0,0:0:0:0:
416,192,30603,1,0,0:0:0:0:
352,192,30677,1,0,0:0:0:0:
224,192,30751,1,0,0:0:0:0:
160,192,30751,1,0,0:0:0:0:
96,192,30751,1,2,0:0:0:0:
288,192,30825,1,0,0:0:0:0:
352,192,30899,1,0,0:0:0:0:
416,192,30973,1,0,0:0:0:0:
480,192,31047,1,8,0:0:0:0:
224,192,31047,1,0,0:0:0:0:
288,192,31121,1,0,0:0:0:0:
352,192,31194,1,0,0:0:0:0:
288,192,31268,1,0,0:0:0:0:
96,192,31342,1,2,0:0:0:0:
224,192,31342,1,0,0:0:0:0:
352,192,31416,1,0,0:0:0:0:
480,192,31490,1,0,0:0:0:0:
352,192,31564,1,0,0:0:0:0:
160,192,31638,1,8,0:0:0:0:
224,192,31638,1,0,0:0:0:0:
416,192,31712,1,0,0:0:0:0:
352,192,31786,1,0,0:0:0:0:
288,192,31860,1,0,0:0:0:0:
480,192,31933,1,0,0:0:0:0:
96,192,31933,1,2,0:0:0:0:
224,192,31933,1,0,0:0:0:0:
288,192,32007,1,0,0:0:0:0:
352,192,32081,1,0,0:0:0:0:
416,192,32155,1,0,0:0:0:0:
480,192,32229,1,8,0:0:0:0:
224,192,32229,1,0,0:0:0:0:
288,192,32303,1,0,0:0:0:0:
352,192,32377,1,0,0:0:0:0:
288,192,32451,1,0,0:0:0:0:
96,192,32525,1,2,0:0:0:0:
224,192,32525,1,0,0:0:0:0:
288,192,32598,1,0,0:0:0:0:
352,192,32672,1,0,0:0:0:0:
416,192,32746,1,0,0:0:0:0:
160,192,32820,1,8,0:0:0:0:
224,192,32820,1,0,0:0:0:0:
288,192,32894,1,0,0:0:0:0:
416,192,32968,1,0,0:0:0:0:
352,192,33042,1,0,0:0:0:0:
96,192,33116,1,2,0:0:0:0:
480,192,33116,1,0,0:0:0:0:
416,192,33190,1,0,0:0:0:0:
352,192,33263,1,0,0:0:0:0:
288,192,33337,1,0,0:0:0:0:
160,192,33411,1,8,0:0:0:0:
416,192,33411,1,0,0:0:0:0:
352,192,33485,1,0,0:0:0:0:
288,192,33559,1,0,0:0:0:0:
224,192,33633,1,0,0:0:0:0:
96,192,33707,1,2,0:0:0:0:
160,192,33707,1,0,0:0:0:0:
416,192,33781,1,0,0:0:0:0:
224,192,33855,1,0,0:0:0:0:
288,192,33928,1,0,0:0:0:0:
160,192,34002,1,8,0:0:0:0:
416,192,34002,1,0,0:0:0:0:
160,192,34150,1,8,0:0:0:0:
288,192,34150,1,0,0:0:0:0:
416,192,34224,1,0,0:0:0:0:
32,192,34298,1,2,0:0:0:0:
96,192,34298,1,4,0:0:0:0:
224,192,34298,1,0,0:0:0:0:
480,192,34298,1,0,0:0:0:0:
288,192,34372,1,0,0:0:0:0:
352,192,34446,1,0,0:0:0:0:
416,192,34520,1,0,0:0:0:0:
480,192,34594,1,8,0:0:0:0:
224,192,34594,1,0,0:0:0:0:
288,192,34667,1,0,0:0:0:0:
352,192,34741,1,0,0:0:0:0:
288,192,34815,1,0,0:0:0:0:
96,192,34889,1,2,0:0:0:0:
224,192,34889,1,0,0:0:0:0:
288,192,34963,1,0,0:0:0:0:
352,192,35037,1,0,0:0:0:0:
416,192,35111,1,0,0:0:0:0:
160,192,35185,1,8,0:0:0:0:
224,192,35185,1,0,0:0:0:0:
288,192,35259,1,0,0:0:0:0:
416,192,35332,1,0,0:0:0:0:
352,192,35406,1,0,0:0:0:0:
32,192,35480,1,2,0:0:0:0:
96,192,35480,1,4,0:0:0:0:
224,192,35480,1,0,0:0:0:0:
160,192,35480,1,0,0:0:0:0:
288,192,35554,1,0,0:0:0:0:
352,192,35628,1,0,0:0:0:0:
416,192,35702,1,0,0:0:0:0:
480,192,35776,1,8,0:0:0:0:
224,192,35776,1,0,0:0:0:0:
288,192,35850,1,0,0:0:0:0:
352,192,35924,1,0,0:0:0:0:
288,192,35997,1,0,0:0:0:0:
32,192,36071,1,2,0:0:0:0:
96,192,36071,1,4,0:0:0:0:
224,192,36071,1,0,0:0:0:0:
352,192,36145,1,0,0:0:0:0:
480,192,36219,1,0,0:0:0:0:
352,192,36293,1,0,0:0:0:0:
160,192,36367,1,8,0:0:0:0:
224,192,36367,1,0,0:0:0:0:
416,192,36441,1,0,0:0:0:0:
352,192,36515,1,0,0:0:0:0:
288,192,36589,1,0,0:0:0:0:
96,192,36662,1,2,0:0:0:0:
224,192,36662,1,0,0:0:0:0:
416,192,36662,1,0,0:0:0:0:
32,192,36662,1,4,0:0:0:0:
288,192,36736,1,0,0:0:0:0:
352,192,36810,1,0,0:0:0:0:
416,192,36884,1,0,0:0:0:0:
32,192,36958,1,4,0:0:0:0:
224,192,36958,1,0,0:0:0:0:
480,192,36958,1,8,0:0:0:0:
288,192,37032,1,0,0:0:0:0:
352,192,37106,1,0,0:0:0:0:
288,192,37180,1,0,0:0:0:0:
96,192,37254,1,2,0:0:0:0:
32,192,37254,1,4,0:0:0:0:
224,192,37254,1,0,0:0:0:0:
288,192,37328,1,0,0:0:0:0:
352,192,37401,1,0,0:0:0:0:
416,192,37475,1,0,0:0:0:0:
160,192,37549,1,8,0:0:0:0:
32,192,37549,1,4,0:0:0:0:
224,192,37549,1,0,0:0:0:0:
288,192,37623,1,0,0:0:0:0:
416,192,37697,1,0,0:0:0:0:
480,192,37845,1,2,0:0:0:0:
32,192,37845,1,4,0:0:0:0:
32,192,38288,1,4,0:0:0:0:
352,192,38288,1,2,0:0:0:0:
32,192,38731,1,2,0:0:0:0:
288,192,38731,1,4,0:0:0:0:
32,192,39027,1,4,0:0:0:0:
96,192,39027,1,2,0:0:0:0:
224,192,39027,1,0,0:0:0:100:pluckf.wav
352,192,39027,128,0,39618:0:0:0:0:
416,192,39323,1,0,0:0:0:0:
160,192,39618,1,8,0:0:0:0:
480,192,39618,1,0,0:0:0:0:
288,192,39618,1,0,0:0:0:0:
160,192,39766,1,0,0:0:0:0:
416,192,39914,1,0,0:0:0:0:
160,192,40061,1,0,0:0:0:0:
96,192,40209,1,2,0:0:0:0:
288,192,40209,128,0,40800:0:0:0:0:
416,192,40505,1,0,0:0:0:0:
32,192,40800,128,8,41392:0:0:0:0:
480,192,40800,1,0,0:0:0:0:
160,192,40800,1,0,0:0:0:0:
96,192,41392,1,2,0:0:0:0:
480,192,41392,1,0,0:0:0:0:
416,192,41465,1,0,0:0:0:0:
352,192,41539,1,0,0:0:0:0:
288,192,41613,1,0,0:0:0:0:
416,192,41687,1,0,0:0:0:0:
160,192,41687,1,0,0:0:0:0:
352,192,41761,1,0,0:0:0:0:
288,192,41835,1,0,0:0:0:0:
224,192,41909,1,0,0:0:0:0:
96,192,41983,1,8,0:0:0:0:
288,192,41983,1,0,0:0:0:0:
480,192,41983,1,0,0:0:0:0:
416,192,42130,1,0,0:0:0:0:
352,192,42278,1,0,0:0:0:0:
416,192,42426,1,0,0:0:0:0:
96,192,42574,1,2,0:0:0:0:
288,192,42574,1,0,0:0:0:0:
352,192,42722,1,0,0:0:0:0:
288,192,42869,1,0,0:0:0:0:
96,192,43017,1,2,0:0:0:0:
224,192,43017,1,0,0:0:0:0:
352,192,43165,1,8,0:0:0:0:
480,192,43165,1,0,0:0:0:0:
160,192,43165,1,0,0:0:0:0:
224,192,43313,1,0,0:0:0:0:
288,192,43461,1,2,0:0:0:0:
416,192,43461,1,0,0:0:0:0:
160,192,43608,1,0,0:0:0:0:
32,192,43756,128,2,44347:0:0:0:0:
96,192,43756,1,0,0:0:0:0:
160,192,44347,1,8,0:0:0:0:
480,192,44347,1,0,0:0:0:0:
288,192,44347,1,0,0:0:0:0:
416,192,44495,1,0,0:0:0:0:
352,192,44643,1,0,0:0:0:0:
288,192,44791,1,0,0:0:0:0:
96,192,44938,1,2,0:0:0:0:
352,192,44938,1,0,0:0:0:0:
288,192,45160,1,0,0:0:0:0:
224,192,45382,1,0,0:0:0:0:
96,192,45529,1,0,0:0:0:0:
480,192,45529,1,0,0:0:0:0:
416,192,45529,1,8,0:0:0:0:
352,192,45603,1,0,0:0:0:0:
288,192,45677,1,0,0:0:0:0:
224,192,45751,1,0,0:0:0:0:
352,192,45825,1,0,0:0:0:0:
288,192,45899,1,0,0:0:0:0:
224,192,45973,1,0,0:0:0:0:
160,192,46047,1,0,0:0:0:0:
96,192,46121,1,2,0:0:0:0:
224,192,46121,1,0,0:0:0:0:
416,192,46194,1,0,0:0:0:0:
352,192,46268,1,0,0:0:0:0:
288,192,46342,1,0,0:0:0:0:
416,192,46416,1,0,0:0:0:0:
352,192,46490,1,0,0:0:0:0:
224,192,46564,1,0,0:0:0:0:
288,192,46638,1,0,0:0:0:0:
96,192,46712,1,0,0:0:0:0:
160,192,46712,1,8,0:0:0:0:
480,192,46712,1,0,0:0:0:0:
160,192,46860,1,0,0:0:0:0:
288,192,47007,1,0,0:0:0:0:
160,192,47155,1,0,0:0:0:0:
96,192,47303,1,2,0:0:0:0:
416,192,47303,1,0,0:0:0:0:
352,192,47451,1,0,0:0:0:0:
288,192,47598,1,0,0:0:0:0:
96,192,47746,1,2,0:0:0:0:
224,192,47746,1,0,0:0:0:0:
416,192,47894,1,8,0:0:0:0:
480,192,47894,1,0,0:0:0:0:
160,192,47894,1,0,0:0:0:0:
288,192,48042,1,0,0:0:0:0:
224,192,48190,1,2,0:0:0:0:
96,192,48190,1,0,0:0:0:0:
352,192,48337,1,0,0:0:0:0:
32,192,48485,128,4,49076:0:0:0:0:
160,192,48485,1,2,0:0:0:0:
480,192,48485,1,0,0:0:0:100:pluckf.wav
416,192,49076,1,0,0:0:0:0:
96,192,49076,1,8,0:0:0:0:
224,192,49076,1,0,0:0:0:0:
224,192,49224,1,0,0:0:0:0:
352,192,49372,1,0,0:0:0:0:
224,192,49520,1,0,0:0:0:0:
224,192,49667,128,2,50259:0:0:0:0:
480,192,49667,1,0,0:0:0:0:
32,192,50259,128,8,50850:0:0:0:0:
96,192,50259,1,0,0:0:0:0:
352,192,50259,1,0,0:0:0:0:
160,192,50850,1,2,0:0:0:0:
480,192,50850,1,0,0:0:0:0:
416,192,50924,1,0,0:0:0:0:
352,192,50997,1,0,0:0:0:0:
288,192,51071,1,0,0:0:0:0:
416,192,51145,1,0,0:0:0:0:
352,192,51219,1,0,0:0:0:0:
288,192,51293,1,0,0:0:0:0:
224,192,51367,1,0,0:0:0:0:
96,192,51441,1,8,0:0:0:0:
288,192,51441,1,0,0:0:0:0:
480,192,51441,1,0,0:0:0:0:
416,192,51589,1,0,0:0:0:0:
352,192,51736,1,0,0:0:0:0:
416,192,51884,1,0,0:0:0:0:
224,192,52032,1,2,0:0:0:0:
480,192,52032,1,0,0:0:0:0:
288,192,52180,1,0,0:0:0:0:
224,192,52328,1,0,0:0:0:0:
160,192,52475,1,2,0:0:0:0:
480,192,52475,1,0,0:0:0:0:
96,192,52623,1,8,0:0:0:0:
416,192,52623,1,0,0:0:0:0:
224,192,52623,1,0,0:0:0:0:
352,192,52771,1,0,0:0:0:0:
288,192,52919,1,2,0:0:0:0:
96,192,52919,1,0,0:0:0:0:
160,192,53066,1,0,0:0:0:0:
224,192,53214,1,4,0:0:0:0:
416,192,53214,1,0,0:0:0:0:
32,192,53214,1,2,0:0:0:0:
96,192,53805,1,8,0:0:0:0:
224,192,53805,1,0,0:0:0:0:
416,192,53953,1,0,0:0:0:0:
288,192,54101,1,0,0:0:0:0:
160,192,54249,1,0,0:0:0:0:
32,192,54396,1,2,0:0:0:0:
480,192,54396,1,0,0:0:0:0:
32,192,54544,1,0,0:0:0:0:
32,192,54692,1,0,0:0:0:0:
32,192,54840,1,0,0:0:0:0:
96,192,54988,1,8,0:0:0:0:
288,192,54988,1,0,0:0:0:0:
416,192,55209,1,0,0:0:0:0:
224,192,55431,1,0,0:0:0:0:
32,192,55579,1,4,0:0:0:0:
352,192,55579,1,8,0:0:0:0:
480,192,55579,1,2,0:0:0:0:
224,192,55874,1,8,0:0:0:0:
480,192,55874,1,4,0:0:0:0:
352,192,56170,1,6,0:0:0:0:
480,192,56170,1,8,0:0:0:0:
224,192,56392,1,0,0:0:0:0:
480,192,56465,1,12,0:0:0:0:
160,192,56613,1,0,0:0:0:0:
32,192,56761,1,8,0:0:0:0:
96,192,56761,1,2,0:0:0:0:
224,192,56761,1,4,0:0:0:0:
288,192,56909,1,8,0:0:0:0:
416,192,56909,1,0,0:0:0:0:
352,192,57057,1,12,0:0:0:0:
480,192,57057,1,2,0:0:0:0:
160,192,57204,1,8,0:0:0:0:
288,192,57204,1,0,0:0:0:0:
480,192,57352,1,0,0:0:0:0:
416,192,57426,1,0,0:0:0:0:
352,192,57500,1,0,0:0:0:0:
288,192,57574,1,0,0:0:0:0:
160,192,57648,1,0,0:0:0:0:
224,192,57722,1,0,0:0:0:0:
288,192,57795,1,0,0:0:0:0:
224,192,57869,1,0,0:0:0:0:
32,192,57943,1,2,0:0:0:0:
160,192,57943,1,4,0:0:0:0:
352,192,57943,1,0,0:0:0:100:pluckf.wav
416,192,57943,1,0,0:0:0:0:
32,192,58239,1,2,0:0:0:0:
160,192,58239,1,4,0:0:0:0:
416,192,58239,1,0,0:0:0:0:
352,192,58534,1,2,0:0:0:0:
480,192,58534,1,0,0:0:0:0:
32,192,58534,1,4,0:0:0:0:
352,192,58756,1,0,0:0:0:0:
32,192,58756,1,2,0:0:0:0:
224,192,58756,1,4,0:0:0:0:
96,192,58978,1,2,0:0:0:0:
224,192,58978,1,0,0:0:0:0:
32,192,58978,1,4,0:0:0:0:
32,192,59126,1,4,0:0:0:0:
160,192,59126,1,2,0:0:0:0:
416,192,59126,1,0,0:0:0:0:
32,192,59421,1,4,0:0:0:0:
160,192,59421,1,2,0:0:0:0:
416,192,59421,1,0,0:0:0:0:
32,192,59717,1,2,0:0:0:0:
224,192,59717,1,4,0:0:0:0:
352,192,59717,1,0,0:0:0:0:
352,192,59938,1,2,0:0:0:0:
480,192,59938,1,0,0:0:0:0:
32,192,59938,1,4,0:0:0:0:
32,192,60160,1,2,0:0:0:0:
96,192,60160,1,4,0:0:0:0:
224,192,60160,1,0,0:0:0:0:
32,192,60308,1,8,0:0:0:0:
160,192,60308,1,4,0:0:0:0:
416,192,60308,1,0,0:0:0:0:
288,192,60308,1,0,0:0:0:0:
160,192,60603,1,4,0:0:0:0:
32,192,60603,1,8,0:0:0:0:
288,192,60603,1,0,0:0:0:0:
416,192,60603,1,0,0:0:0:0:
32,192,60899,1,4,0:0:0:0:
96,192,60899,1,8,0:0:0:0:
288,192,60899,1,0,0:0:0:0:
224,192,60899,1,0,0:0:0:0:
352,192,61121,1,0,0:0:0:0:
288,192,61121,1,0,0:0:0:0:
32,192,61121,1,8,0:0:0:0:
160,192,61121,1,4,0:0:0:0:
32,192,61342,1,4,0:0:0:0:
224,192,61342,1,8,0:0:0:0:
416,192,61342,1,0,0:0:0:0:
352,192,61342,1,0,0:0:0:0:
32,192,61490,1,8,0:0:0:0:
160,192,61490,1,4,0:0:0:0:
288,192,61490,1,0,0:0:0:0:
96,192,61490,1,0,0:0:0:0:
224,192,61712,1,4,0:0:0:0:
32,192,61712,1,8,0:0:0:0:
160,192,61712,1,0,0:0:0:0:
352,192,61712,1,0,0:0:0:0:
288,192,61933,1,4,0:0:0:0:
32,192,61933,1,8,0:0:0:0:
416,192,61933,1,0,0:0:0:0:
480,192,61933,1,0,0:0:0:0:
32,192,62081,1,4,0:0:0:0:
160,192,62081,1,8,0:0:0:0:
352,192,62081,1,0,0:0:0:0:
224,192,62081,1,0,0:0:0:0:
32,192,62303,1,8,0:0:0:0:
96,192,62303,1,4,0:0:0:0:
288,192,62303,1,0,0:0:0:0:
224,192,62303,1,0,0:0:0:0:
32,192,62525,1,4,0:0:0:0:
160,192,62525,1,8,0:0:0:0:
352,192,62525,1,0,0:0:0:0:
288,192,62525,1,0,0:0:0:0:
224,192,62672,1,0,0:0:0:100:pluckf.wav
416,192,62672,1,0,0:0:0:0:
32,192,62672,1,2,0:0:0:0:
96,192,62672,1,4,0:0:0:0:
224,192,62968,1,4,0:0:0:0:
416,192,62968,1,0,0:0:0:0:
32,192,62968,1,2,0:0:0:0:
32,192,63263,1,4,0:0:0:0:
352,192,63263,1,2,0:0:0:0:
480,192,63263,1,0,0:0:0:0:
32,192,63485,1,2,0:0:0:0:
224,192,63485,1,4,0:0:0:0:
352,192,63485,1,0,0:0:0:0:
32,192,63707,1,4,0:0:0:0:
96,192,63707,1,2,0:0:0:0:
224,192,63707,1,0,0:0:0:0:
32,192,63855,1,4,0:0:0:0:
288,192,63855,1,2,0:0:0:0:
416,192,63855,1,0,0:0:0:0:
288,192,64150,1,0,0:0:0:0:
32,192,64150,1,4,0:0:0:0:
160,192,64150,1,2,0:0:0:0:
416,192,64446,1,0,0:0:0:0:
32,192,64446,1,2,0:0:0:0:
224,192,64446,1,4,0:0:0:0:
480,192,64667,1,0,0:0:0:0:
32,192,64667,1,4,0:0:0:0:
288,192,64667,1,2,0:0:0:0:
288,192,64889,1,0,0:0:0:0:
32,192,64889,1,2,0:0:0:0:
96,192,64889,1,4,0:0:0:0:
32,192,65037,1,8,0:0:0:0:
352,192,65037,1,4,0:0:0:0:
480,192,65037,1,0,0:0:0:0:
224,192,65037,1,0,0:0:0:0:
32,192,65332,1,8,0:0:0:0:
224,192,65332,1,0,0:0:0:0:
352,192,65332,1,0,0:0:0:0:
96,192,65332,1,4,0:0:0:0:
32,192,65628,1,4,0:0:0:0:
224,192,65628,1,8,0:0:0:0:
480,192,65628,1,0,0:0:0:0:
352,192,65628,1,0,0:0:0:0:
32,192,65850,1,8,0:0:0:0:
160,192,65850,1,4,0:0:0:0:
416,192,65850,1,0,0:0:0:0:
288,192,65850,1,0,0:0:0:0:
32,192,66071,1,4,0:0:0:0:
96,192,66071,1,8,0:0:0:0:
352,192,66071,1,0,0:0:0:0:
224,192,66071,1,0,0:0:0:0:
32,192,66219,1,8,0:0:0:0:
160,192,66219,1,4,0:0:0:0:
288,192,66219,1,0,0:0:0:0:
96,192,66219,1,0,0:0:0:0:
32,192,66367,1,4,0:0:0:0:
288,192,66367,1,8,0:0:0:0:
416,192,66367,1,0,0:0:0:0:
224,192,66367,1,0,0:0:0:0:
352,192,66515,1,8,0:0:0:0:
32,192,66515,1,4,0:0:0:0:
160,192,66515,1,0,0:0:0:0:
480,192,66515,1,0,0:0:0:0:
32,192,66662,1,8,0:0:0:0:
224,192,66662,1,4,0:0:0:0:
352,192,66662,1,0,0:0:0:0:
96,192,66662,1,0,0:0:0:0:
32,192,66810,1,4,0:0:0:0:
160,192,66810,1,8,0:0:0:0:
288,192,66810,1,0,0:0:0:0:
416,192,66810,1,0,0:0:0:0:
96,192,67401,1,2,0:0:0:0:
352,192,67401,1,0,0:0:0:0:
160,192,67401,1,0,0:0:0:100:pluckf.wav
32,192,67401,1,4,0:0:0:0:
288,192,67549,1,0,0:0:0:0:
96,192,67697,1,8,0:0:0:0:
416,192,67845,1,0,0:0:0:0:
96,192,67993,1,8,0:0:0:0:
288,192,68140,1,0,0:0:0:0:
96,192,68288,1,8,0:0:0:0:
224,192,68436,1,0,0:0:0:0:
96,192,68584,1,2,0:0:0:0:
160,192,68584,1,0,0:0:0:0:
288,192,68731,1,0,0:0:0:0:
96,192,68879,1,8,0:0:0:0:
416,192,69027,1,0,0:0:0:0:
96,192,69175,1,8,0:0:0:0:
288,192,69323,1,0,0:0:0:0:
96,192,69470,1,8,0:0:0:0:
480,192,69618,1,0,0:0:0:0:
32,192,69766,1,4,0:0:0:0:
96,192,69766,1,2,0:0:0:0:
160,192,69766,1,0,0:0:0:0:
288,192,69914,1,0,0:0:0:0:
96,192,70061,1,8,0:0:0:0:
416,192,70209,1,0,0:0:0:0:
96,192,70357,1,8,0:0:0:0:
288,192,70505,1,0,0:0:0:0:
96,192,70653,1,8,0:0:0:0:
224,192,70800,1,0,0:0:0:0:
96,192,70948,1,2,0:0:0:0:
160,192,70948,1,0,0:0:0:0:
416,192,71096,1,0,0:0:0:0:
288,192,71244,1,8,0:0:0:0:
160,192,71392,1,0,0:0:0:0:
96,192,71539,1,8,0:0:0:0:
96,192,71761,1,8,0:0:0:0:
96,192,71983,1,8,0:0:0:0:
32,192,72130,1,4,0:0:0:0:
160,192,72130,1,0,0:0:0:0:
96,192,72130,1,2,0:0:0:0:
416,192,72204,1,0,0:0:0:0:
352,192,72278,1,8,0:0:0:0:
480,192,72352,1,0,0:0:0:0:
96,192,72426,1,2,0:0:0:0:
288,192,72426,1,0,0:0:0:0:
416,192,72500,1,0,0:0:0:0:
224,192,72574,1,8,0:0:0:0:
352,192,72648,1,0,0:0:0:0:
32,192,72722,1,4,0:0:0:0:
96,192,72722,1,2,0:0:0:0:
288,192,72722,1,0,0:0:0:0:
416,192,72795,1,0,0:0:0:0:
352,192,72869,1,8,0:0:0:0:
480,192,72943,1,0,0:0:0:0:
96,192,73017,1,2,0:0:0:0:
288,192,73017,1,0,0:0:0:0:
416,192,73091,1,0,0:0:0:0:
224,192,73165,1,8,0:0:0:0:
352,192,73239,1,0,0:0:0:0:
32,192,73313,1,4,0:0:0:0:
96,192,73313,1,2,0:0:0:0:
160,192,73313,1,0,0:0:0:0:
288,192,73387,1,0,0:0:0:0:
224,192,73461,1,8,0:0:0:0:
480,192,73534,1,0,0:0:0:0:
288,192,73608,1,0,0:0:0:0:
32,192,73608,1,4,0:0:0:0:
96,192,73608,1,2,0:0:0:0:
416,192,73682,1,0,0:0:0:0:
224,192,73756,1,8,0:0:0:0:
352,192,73830,1,0,0:0:0:0:
32,192,73904,1,4,0:0:0:0:
96,192,73904,1,2,0:0:0:0:
160,192,73904,1,0,0:0:0:0:
416,192,73978,1,0,0:0:0:0:
288,192,74052,1,8,0:0:0:0:
480,192,74126,1,0,0:0:0:0:
224,192,74199,1,0,0:0:0:0:
32,192,74199,1,4,0:0:0:0:
96,192,74199,1,2,0:0:0:0:
416,192,74273,1,0,0:0:0:0:
160,192,74347,1,8,0:0:0:0:
352,192,74421,1,0,0:0:0:0:
96,192,74495,1,2,0:0:0:0:
32,192,74495,1,4,0:0:0:0:
288,192,74495,1,0,0:0:0:0:
416,192,74569,1,0,0:0:0:0:
96,192,74643,1,2,0:0:0:0:
32,192,74643,1,4,0:0:0:0:
288,192,74643,1,0,0:0:0:0:
416,192,74717,1,0,0:0:0:0:
96,192,74791,1,2,0:0:0:0:
32,192,74791,1,4,0:0:0:0:
288,192,74791,1,0,0:0:0:0:
416,192,74864,1,0,0:0:0:0:
96,192,74938,1,2,0:0:0:0:
32,192,74938,1,4,0:0:0:0:
288,192,74938,1,0,0:0:0:0:
416,192,75012,1,0,0:0:0:0:
96,192,75086,1,2,0:0:0:0:
32,192,75086,1,4,0:0:0:0:
288,192,75086,1,0,0:0:0:0:
416,192,75160,1,0,0:0:0:0:
96,192,75234,1,2,0:0:0:0:
32,192,75234,1,4,0:0:0:0:
288,192,75234,1,0,0:0:0:0:
416,192,75308,1,0,0:0:0:0:
96,192,75382,1,2,0:0:0:0:
32,192,75382,1,4,0:0:0:0:
288,192,75382,1,0,0:0:0:0:
416,192,75456,1,0,0:0:0:0:
96,192,75529,1,2,0:0:0:0:
32,192,75529,1,4,0:0:0:0:
288,192,75529,1,0,0:0:0:0:
416,192,75603,1,0,0:0:0:0:
32,192,75677,1,4,0:0:0:0:
96,192,75677,128,0,76860:0:0:0:0:
288,192,75677,1,0,0:0:0:0:
32,192,76268,1,0,0:0:0:0:
224,192,76860,1,2,0:0:0:0:
32,192,76860,1,4,0:0:0:0:
352,192,76860,1,0,0:0:0:100:pluckf.wav
480,192,76860,1,0,0:0:0:0:
160,192,77007,1,0,0:0:0:0:
288,192,77007,1,0,0:0:0:0:
224,192,77155,1,8,0:0:0:0:
416,192,77155,1,0,0:0:0:0:
160,192,77303,1,0,0:0:0:0:
352,192,77303,1,0,0:0:0:0:
96,192,77451,1,2,0:0:0:0:
480,192,77451,1,0,0:0:0:0:
224,192,77598,1,0,0:0:0:0:
416,192,77598,1,0,0:0:0:0:
160,192,77746,1,8,0:0:0:0:
288,192,77746,1,0,0:0:0:0:
224,192,77894,1,0,0:0:0:0:
416,192,77894,1,0,0:0:0:0:
160,192,78042,1,0,0:0:0:0:
352,192,78042,1,0,0:0:0:0:
96,192,78042,1,2,0:0:0:0:
288,192,78190,1,0,0:0:0:0:
480,192,78190,1,0,0:0:0:0:
224,192,78337,1,8,0:0:0:0:
416,192,78337,1,0,0:0:0:0:
160,192,78485,1,0,0:0:0:0:
288,192,78485,1,0,0:0:0:0:
96,192,78633,1,2,0:0:0:0:
352,192,78633,1,0,0:0:0:0:
224,192,78781,1,0,0:0:0:0:
160,192,78928,1,8,0:0:0:0:
288,192,78928,1,0,0:0:0:0:
416,192,79002,1,0,0:0:0:0:
224,192,79076,1,0,0:0:0:0:
480,192,79076,1,0,0:0:0:0:
352,192,79150,1,0,0:0:0:0:
96,192,79224,1,2,0:0:0:0:
160,192,79224,1,0,0:0:0:0:
288,192,79224,1,0,0:0:0:0:
224,192,79372,1,0,0:0:0:0:
352,192,79372,1,0,0:0:0:0:
160,192,79520,1,8,0:0:0:0:
288,192,79520,1,0,0:0:0:0:
224,192,79667,1,0,0:0:0:0:
416,192,79667,1,0,0:0:0:0:
96,192,79815,1,2,0:0:0:0:
480,192,79815,1,0,0:0:0:0:
288,192,79963,1,0,0:0:0:0:
416,192,79963,1,0,0:0:0:0:
224,192,80111,1,8,0:0:0:0:
352,192,80111,1,0,0:0:0:0:
160,192,80259,1,0,0:0:0:0:
288,192,80259,1,0,0:0:0:0:
96,192,80406,1,2,0:0:0:0:
416,192,80406,1,0,0:0:0:0:
160,192,80554,1,0,0:0:0:0:
352,192,80554,1,0,0:0:0:0:
288,192,80702,1,8,0:0:0:0:
416,192,80702,1,0,0:0:0:0:
224,192,80850,1,0,0:0:0:0:
96,192,80997,1,2,0:0:0:0:
352,192,80997,1,0,0:0:0:0:
224,192,81145,1,0,0:0:0:0:
416,192,81145,1,0,0:0:0:0:
160,192,81293,1,8,0:0:0:0:
480,192,81293,1,0,0:0:0:0:
160,192,81441,1,8,0:0:0:0:
416,192,81441,1,0,0:0:0:0:
32,192,81589,1,2,0:0:0:0:
96,192,81589,1,4,0:0:0:0:
224,192,81589,1,0,0:0:0:0:
352,192,81589,1,0,0:0:0:0:
160,192,81736,1,0,0:0:0:0:
288,192,81736,1,0,0:0:0:0:
352,192,81884,1,8,0:0:0:0:
480,192,81884,1,0,0:0:0:0:
288,192,82032,1,0,0:0:0:0:
416,192,82032,1,0,0:0:0:0:
96,192,82180,1,2,0:0:0:0:
480,192,82180,1,0,0:0:0:0:
160,192,82328,1,0,0:0:0:0:
352,192,82328,1,0,0:0:0:0:
224,192,82475,1,8,0:0:0:0:
416,192,82475,1,0,0:0:0:0:
288,192,82623,1,0,0:0:0:0:
480,192,82623,1,0,0:0:0:0:
416,192,82771,1,0,0:0:0:0:
96,192,82771,1,2,0:0:0:0:
224,192,82771,1,0,0:0:0:0:
160,192,82919,1,0,0:0:0:0:
352,192,82919,1,0,0:0:0:0:
224,192,83066,1,8,0:0:0:0:
416,192,83066,1,0,0:0:0:0:
160,192,83214,1,0,0:0:0:0:
352,192,83214,1,0,0:0:0:0:
96,192,83362,1,2,0:0:0:0:
224,192,83362,1,0,0:0:0:0:
416,192,83510,1,0,0:0:0:0:
160,192,83658,1,8,0:0:0:0:
352,192,83658,1,0,0:0:0:0:
480,192,83731,1,0,0:0:0:0:
224,192,83805,1,0,0:0:0:0:
416,192,83805,1,0,0:0:0:0:
288,192,83879,1,0,0:0:0:0:
32,192,83953,1,2,0:0:0:0:
96,192,83953,1,4,0:0:0:0:
160,192,83953,1,0,0:0:0:0:
352,192,83953,1,0,0:0:0:0:
288,192,84101,1,0,0:0:0:0:
480,192,84101,1,0,0:0:0:0:
224,192,84249,1,8,0:0:0:0:
352,192,84249,1,0,0:0:0:0:
160,192,84396,1,0,0:0:0:0:
288,192,84396,1,0,0:0:0:0:
96,192,84544,1,2,0:0:0:0:
416,192,84544,1,0,0:0:0:0:
160,192,84692,1,0,0:0:0:0:
352,192,84692,1,0,0:0:0:0:
224,192,84840,1,8,0:0:0:0:
416,192,84840,1,0,0:0:0:0:
288,192,84988,1,0,0:0:0:0:
480,192,84988,1,0,0:0:0:0:
32,192,85135,1,4,0:0:0:0:
96,192,85135,1,8,0:0:0:0:
416,192,85135,1,0,0:0:0:0:
224,192,85283,1,0,0:0:0:0:
32,192,85357,1,8,0:0:0:0:
96,192,85357,1,4,0:0:0:0:
416,192,85357,1,0,0:0:0:0:
32,192,85579,1,4,0:0:0:0:
96,192,85579,1,8,0:0:0:0:
224,192,85579,1,0,0:0:0:0:
416,192,85579,1,0,0:0:0:0:
32,192,85727,1,8,0:0:0:0:
96,192,85727,1,4,0:0:0:0:
480,192,85727,1,0,0:0:0:0:
224,192,85874,1,0,0:0:0:0:
32,192,85948,1,4,0:0:0:0:
96,192,85948,1,8,0:0:0:0:
416,192,85948,1,0,0:0:0:0:
32,192,86170,1,8,0:0:0:0:
96,192,86170,1,4,0:0:0:0:
224,192,86170,1,0,0:0:0:0:
288,192,86170,1,0,0:0:0:0:
96,192,86318,1,2,0:0:0:0:
32,192,86318,1,4,0:0:0:0:
352,192,86318,1,0,0:0:0:0:
224,192,86318,1,0,0:0:0:100:pluckf.wav
160,192,86465,1,0,0:0:0:0:
288,192,86465,1,0,0:0:0:0:
224,192,86613,1,8,0:0:0:0:
416,192,86613,1,0,0:0:0:0:
160,192,86761,1,0,0:0:0:0:
352,192,86761,1,0,0:0:0:0:
96,192,86909,1,2,0:0:0:0:
480,192,86909,1,0,0:0:0:0:
224,192,87057,1,0,0:0:0:0:
416,192,87057,1,0,0:0:0:0:
160,192,87204,1,8,0:0:0:0:
288,192,87204,1,0,0:0:0:0:
224,192,87352,1,0,0:0:0:0:
416,192,87352,1,0,0:0:0:0:
96,192,87500,1,2,0:0:0:0:
160,192,87500,1,0,0:0:0:0:
352,192,87500,1,0,0:0:0:0:
288,192,87648,1,0,0:0:0:0:
480,192,87648,1,0,0:0:0:0:
224,192,87795,1,8,0:0:0:0:
416,192,87795,1,0,0:0:0:0:
160,192,87943,1,0,0:0:0:0:
288,192,87943,1,0,0:0:0:0:
96,192,88091,1,2,0:0:0:0:
352,192,88091,1,0,0:0:0:0:
224,192,88239,1,0,0:0:0:0:
160,192,88387,1,8,0:0:0:0:
288,192,88387,1,0,0:0:0:0:
416,192,88461,1,0,0:0:0:0:
224,192,88534,1,0,0:0:0:0:
480,192,88534,1,0,0:0:0:0:
352,192,88608,1,0,0:0:0:0:
288,192,88682,1,0,0:0:0:0:
96,192,88682,1,2,0:0:0:0:
160,192,88682,1,0,0:0:0:0:
224,192,88830,1,0,0:0:0:0:
352,192,88830,1,0,0:0:0:0:
160,192,88978,1,8,0:0:0:0:
288,192,88978,1,0,0:0:0:0:
224,192,89126,1,0,0:0:0:0:
416,192,89126,1,0,0:0:0:0:
96,192,89273,1,2,0:0:0:0:
480,192,89273,1,0,0:0:0:0:
288,192,89421,1,0,0:0:0:0:
416,192,89421,1,0,0:0:0:0:
224,192,89569,1,8,0:0:0:0:
352,192,89569,1,0,0:0:0:0:
160,192,89717,1,0,0:0:0:0:
288,192,89717,1,0,0:0:0:0:
96,192,89864,1,2,0:0:0:0:
416,192,89864,1,0,0:0:0:0:
160,192,90012,1,0,0:0:0:0:
352,192,90012,1,0,0:0:0:0:
288,192,90160,1,8,0:0:0:0:
416,192,90160,1,0,0:0:0:0:
224,192,90308,1,0,0:0:0:0:
96,192,90456,1,2,0:0:0:0:
352,192,90456,1,0,0:0:0:0:
224,192,90603,1,0,0:0:0:0:
416,192,90603,1,0,0:0:0:0:
160,192,90751,1,8,0:0:0:0:
480,192,90751,1,0,0:0:0:0:
160,192,90899,1,8,0:0:0:0:
416,192,90899,1,0,0:0:0:0:
96,192,91047,1,2,0:0:0:0:
224,192,91047,1,0,0:0:0:0:
32,192,91047,1,4,0:0:0:0:
352,192,91047,1,0,0:0:0:0:
288,192,91194,1,0,0:0:0:0:
160,192,91194,1,0,0:0:0:0:
352,192,91342,1,8,0:0:0:0:
480,192,91342,1,0,0:0:0:0:
288,192,91490,1,0,0:0:0:0:
416,192,91490,1,0,0:0:0:0:
96,192,91638,1,2,0:0:0:0:
480,192,91638,1,0,0:0:0:0:
160,192,91786,1,0,0:0:0:0:
352,192,91786,1,0,0:0:0:0:
224,192,91933,1,8,0:0:0:0:
416,192,91933,1,0,0:0:0:0:
288,192,92081,1,0,0:0:0:0:
480,192,92081,1,0,0:0:0:0:
96,192,92229,1,2,0:0:0:0:
224,192,92229,1,0,0:0:0:0:
416,192,92229,1,0,0:0:0:0:
160,192,92377,1,0,0:0:0:0:
352,192,92377,1,0,0:0:0:0:
224,192,92525,1,8,0:0:0:0:
416,192,92525,1,0,0:0:0:0:
160,192,92672,1,0,0:0:0:0:
352,192,92672,1,0,0:0:0:0:
96,192,92820,1,2,0:0:0:0:
224,192,92820,1,0,0:0:0:0:
416,192,92968,1,0,0:0:0:0:
160,192,93116,1,8,0:0:0:0:
352,192,93116,1,0,0:0:0:0:
480,192,93190,1,0,0:0:0:0:
224,192,93263,1,0,0:0:0:0:
416,192,93263,1,0,0:0:0:0:
288,192,93337,1,0,0:0:0:0:
160,192,93411,1,0,0:0:0:0:
352,192,93411,1,0,0:0:0:0:
96,192,93411,1,2,0:0:0:0:
288,192,93559,1,0,0:0:0:0:
480,192,93559,1,0,0:0:0:0:
224,192,93707,1,8,0:0:0:0:
352,192,93707,1,0,0:0:0:0:
160,192,93855,1,0,0:0:0:0:
288,192,93855,1,0,0:0:0:0:
96,192,94002,1,2,0:0:0:0:
416,192,94002,1,0,0:0:0:0:
160,192,94150,1,0,0:0:0:0:
352,192,94150,1,0,0:0:0:0:
224,192,94298,1,8,0:0:0:0:
416,192,94298,1,0,0:0:0:0:
288,192,94446,1,0,0:0:0:0:
480,192,94446,1,0,0:0:0:0:
32,192,94594,1,2,0:0:0:0:
96,192,94594,1,4,0:0:0:0:
416,192,94594,1,0,0:0:0:0:
352,192,94667,1,0,0:0:0:0:
288,192,94741,1,0,0:0:0:0:
480,192,94741,1,0,0:0:0:0:
224,192,94815,1,0,0:0:0:0:
32,192,94889,1,8,0:0:0:0:
96,192,94889,1,4,0:0:0:0:
416,192,94889,1,0,0:0:0:0:
352,192,94963,1,0,0:0:0:0:
288,192,95037,1,0,0:0:0:0:
480,192,95037,1,0,0:0:0:0:
224,192,95111,1,0,0:0:0:0:
32,192,95185,1,4,0:0:0:0:
96,192,95185,1,2,0:0:0:0:
416,192,95185,1,0,0:0:0:0:
352,192,95259,1,0,0:0:0:0:
288,192,95332,1,0,0:0:0:0:
160,192,95332,1,0,0:0:0:0:
224,192,95406,1,0,0:0:0:0:
96,192,95480,1,8,0:0:0:0:
480,192,95480,1,0,0:0:0:0:
32,192,95480,1,4,0:0:0:0:
416,192,95554,1,0,0:0:0:0:
96,192,95628,1,8,0:0:0:0:
352,192,95628,1,0,0:0:0:0:
288,192,95702,1,0,0:0:0:0:
352,192,95776,1,0,0:0:0:100:pluckf.wav
480,192,95776,128,0,96662:0:0:0:0:
32,192,95776,1,2,0:0:0:0:
96,192,95776,1,4,0:0:0:0:
224,192,95924,1,0,0:0:0:0:
96,192,96071,1,8,0:0:0:0:
224,192,96219,1,0,0:0:0:0:
96,192,96367,1,2,0:0:0:0:
224,192,96515,1,0,0:0:0:0:
96,192,96662,1,8,0:0:0:0:
416,192,96662,128,0,97549:0:0:0:0:
224,192,96810,1,0,0:0:0:0:
96,192,96958,1,2,0:0:0:0:
352,192,96958,1,0,0:0:0:0:
288,192,97106,1,0,0:0:0:0:
96,192,97254,1,8,0:0:0:0:
288,192,97401,1,0,0:0:0:0:
96,192,97549,1,2,0:0:0:0:
352,192,97549,128,0,97845:0:0:0:0:
288,192,97697,1,0,0:0:0:0:
96,192,97845,1,8,0:0:0:0:
480,192,97845,128,0,98140:0:0:0:0:
288,192,97993,1,0,0:0:0:0:
96,192,98140,1,2,0:0:0:0:
416,192,98140,128,0,98362:0:0:0:0:
352,192,98140,1,0,0:0:0:0:
224,192,98288,1,0,0:0:0:0:
288,192,98362,128,0,98584:0:0:0:0:
96,192,98436,1,8,0:0:0:0:
224,192,98584,1,0,0:0:0:0:
416,192,98584,128,0,99027:0:0:0:0:
96,192,98731,1,2,0:0:0:0:
224,192,98879,1,0,0:0:0:0:
96,192,99027,1,8,0:0:0:0:
288,192,99027,1,0,0:0:0:0:
224,192,99175,1,0,0:0:0:0:
352,192,99175,1,0,0:0:0:0:
96,192,99323,1,2,0:0:0:0:
480,192,99323,1,0,0:0:0:0:
288,192,99470,1,0,0:0:0:0:
416,192,99470,128,0,100061:0:0:0:0:
96,192,99618,1,8,0:0:0:0:
288,192,99766,1,0,0:0:0:0:
96,192,99914,1,2,0:0:0:0:
288,192,100061,1,0,0:0:0:0:
96,192,100209,1,8,0:0:0:0:
352,192,100209,1,0,0:0:0:0:
96,192,100357,1,8,0:0:0:0:
224,192,100357,1,0,0:0:0:0:
96,192,100505,1,4,0:0:0:0:
32,192,100505,1,2,0:0:0:0:
352,192,100505,1,0,0:0:0:0:
288,192,100505,128,0,101392:0:0:0:0:
224,192,100653,1,0,0:0:0:0:
96,192,100800,1,8,0:0:0:0:
224,192,100948,1,0,0:0:0:0:
96,192,101096,1,2,0:0:0:0:
224,192,101244,1,0,0:0:0:0:
96,192,101392,1,8,0:0:0:0:
480,192,101392,128,0,102278:0:0:0:0:
224,192,101539,1,0,0:0:0:0:
96,192,101687,1,2,0:0:0:0:
416,192,101687,1,0,0:0:0:0:
288,192,101835,1,0,0:0:0:0:
96,192,101983,1,8,0:0:0:0:
288,192,102130,1,0,0:0:0:0:
96,192,102278,1,2,0:0:0:0:
416,192,102278,128,0,102574:0:0:0:0:
288,192,102426,1,0,0:0:0:0:
96,192,102574,1,8,0:0:0:0:
352,192,102574,128,0,102869:0:0:0:0:
288,192,102722,1,0,0:0:0:0:
96,192,102869,1,2,0:0:0:0:
224,192,102869,128,0,104052:0:0:0:0:
480,192,102869,1,0,0:0:0:0:
288,192,103017,1,0,0:0:0:0:
96,192,103165,1,8,0:0:0:0:
288,192,103313,1,0,0:0:0:0:
96,192,103461,1,2,0:0:0:0:
288,192,103608,1,0,0:0:0:0:
96,192,103756,1,8,0:0:0:0:
416,192,103904,1,0,0:0:0:0:
32,192,104052,1,4,0:0:0:0:
480,192,104052,1,2,0:0:0:0:
96,192,104052,1,0,0:0:0:0:
160,192,104126,1,0,0:0:0:0:
224,192,104199,1,0,0:0:0:0:
352,192,104199,1,0,0:0:0:0:
288,192,104273,1,0,0:0:0:0:
32,192,104347,1,8,0:0:0:0:
480,192,104347,1,4,0:0:0:0:
96,192,104347,1,0,0:0:0:0:
160,192,104421,1,0,0:0:0:0:
224,192,104495,1,0,0:0:0:0:
352,192,104495,1,0,0:0:0:0:
288,192,104569,1,0,0:0:0:0:
480,192,104643,1,4,0:0:0:0:
96,192,104643,1,0,0:0:0:0:
32,192,104643,1,2,0:0:0:0:
160,192,104717,1,0,0:0:0:0:
224,192,104791,1,0,0:0:0:0:
352,192,104791,1,0,0:0:0:0:
288,192,104864,1,0,0:0:0:0:
96,192,104938,1,8,0:0:0:0:
480,192,104938,1,0,0:0:0:0:
32,192,104938,1,4,0:0:0:0:
352,192,105012,1,0,0:0:0:0:
288,192,105086,1,0,0:0:0:0:
160,192,105086,1,0,0:0:0:0:
96,192,105160,1,0,0:0:0:0:
32,192,105234,1,4,0:0:0:0:
480,192,105234,1,2,0:0:0:0:
288,192,105234,128,0,106121:0:0:0:0:
224,192,105234,1,0,0:0:0:0:
352,192,105382,1,0,0:0:0:0:
480,192,105529,1,8,0:0:0:0:
352,192,105677,1,0,0:0:0:0:
480,192,105825,1,2,0:0:0:0:
352,192,105973,1,0,0:0:0:0:
480,192,106121,1,8,0:0:0:0:
96,192,106121,128,0,107007:0:0:0:0:
352,192,106268,1,0,0:0:0:0:
480,192,106416,1,2,0:0:0:0:
160,192,106416,1,0,0:0:0:0:
288,192,106564,1,0,0:0:0:0:
480,192,106712,1,8,0:0:0:0:
288,192,106860,1,0,0:0:0:0:
480,192,107007,1,2,0:0:0:0:
160,192,107007,128,0,107303:0:0:0:0:
288,192,107155,1,0,0:0:0:0:
480,192,107303,1,8,0:0:0:0:
224,192,107303,128,0,107598:0:0:0:0:
288,192,107451,1,0,0:0:0:0:
96,192,107598,1,0,0:0:0:0:
480,192,107598,1,2,0:0:0:0:
352,192,107598,128,0,107820:0:0:0:0:
416,192,107746,1,0,0:0:0:0:
288,192,107820,128,0,108042:0:0:0:0:
480,192,107894,1,8,0:0:0:0:
224,192,108042,128,0,108485:0:0:0:0:
416,192,108042,1,0,0:0:0:0:
480,192,108190,1,2,0:0:0:0:
352,192,108337,1,0,0:0:0:0:
480,192,108485,1,8,0:0:0:0:
160,192,108485,128,0,108781:0:0:0:0:
352,192,108633,1,0,0:0:0:0:
480,192,108781,1,2,0:0:0:0:
96,192,108781,128,0,109667:0:0:0:0:
288,192,108928,1,0,0:0:0:0:
480,192,109076,1,8,0:0:0:0:
288,192,109224,1,0,0:0:0:0:
480,192,109372,1,2,0:0:0:0:
288,192,109520,1,0,0:0:0:0:
480,192,109667,1,8,0:0:0:0:
160,192,109667,1,0,0:0:0:0:
480,192,109815,1,8,0:0:0:0:
224,192,109815,1,0,0:0:0:0:
32,192,109963,1,4,0:0:0:0:
96,192,109963,1,2,0:0:0:0:
416,192,109963,1,8,0:0:0:0:
288,192,109963,1,0,0:0:0:0:
416,192,110111,1,8,0:0:0:0:
416,192,110259,1,8,0:0:0:0:
416,192,110406,1,8,0:0:0:0:
416,192,110554,1,8,0:0:0:0:
416,192,110702,1,8,0:0:0:0:
480,192,110850,1,8,0:0:0:0:
416,192,110850,1,0,0:0:0:0:
96,192,110997,1,2,0:0:0:0:
416,192,110997,1,8,0:0:0:0:
224,192,111145,1,2,0:0:0:0:
416,192,111145,1,8,0:0:0:0:
32,192,111145,1,4,0:0:0:0:
224,192,111293,1,8,0:0:0:0:
224,192,111441,1,8,0:0:0:0:
224,192,111589,1,8,0:0:0:0:
480,192,111736,1,2,0:0:0:0:
352,192,111736,1,8,0:0:0:0:
288,192,111736,1,0,0:0:0:0:
352,192,111884,1,8,0:0:0:0:
160,192,112032,1,8,0:0:0:0:
352,192,112032,1,0,0:0:0:0:
352,192,112180,1,8,0:0:0:0:
32,192,112328,1,4,0:0:0:0:
96,192,112328,1,2,0:0:0:0:
288,192,112328,1,8,0:0:0:0:
416,192,112328,1,0,0:0:0:0:
96,192,112475,1,8,0:0:0:0:
96,192,112623,1,8,0:0:0:0:
32,192,112771,1,4,0:0:0:0:
160,192,112771,1,2,0:0:0:0:
288,192,112771,1,8,0:0:0:0:
416,192,112771,1,0,0:0:0:0:
416,192,112919,1,8,0:0:0:0:
416,192,113066,1,8,0:0:0:0:
32,192,113214,1,2,0:0:0:0:
96,192,113214,1,4,0:0:0:0:
224,192,113214,1,8,0:0:0:0:
480,192,113214,1,0,0:0:0:0:
96,192,113362,1,8,0:0:0:0:
32,192,113510,1,4,0:0:0:0:
96,192,113510,1,2,0:0:0:0:
288,192,113510,1,8,0:0:0:0:
416,192,113510,128,0,114692:0:0:0:0:
32,192,114692,1,4,0:0:0:0:
96,192,114692,1,0,0:0:0:100:pluckf.wav
224,192,114692,1,0,0:0:0:0:
352,192,114692,1,0,0:0:0:0:
480,192,114840,1,0,0:0:0:0:
288,192,114988,1,0,0:0:0:0:
160,192,115135,1,0,0:0:0:0:
480,192,115135,1,0,0:0:0:0:
224,192,115283,1,0,0:0:0:0:
352,192,115431,1,0,0:0:0:0:
160,192,115579,1,0,0:0:0:0:
416,192,115579,1,0,0:0:0:0:
96,192,115727,1,0,0:0:0:0:
160,192,115874,1,0,0:0:0:0:
288,192,115874,1,0,0:0:0:0:
416,192,116170,1,0,0:0:0:0:
224,192,116761,1,0,0:0:0:0:
160,192,117057,1,0,0:0:0:0:
352,192,117057,1,0,0:0:0:0:
96,192,118239,1,0,0:0:0:0:
96,192,119421,1,0,0:0:0:0:
160,192,119421,1,0,0:0:0:0:
352,192,119421,1,0,0:0:0:0:
224,192,119569,1,0,0:0:0:0:
96,192,119717,1,0,0:0:0:0:
224,192,119864,1,0,0:0:0:0:
416,192,119864,1,0,0:0:0:0:
352,192,120012,1,0,0:0:0:0:
224,192,120160,1,0,0:0:0:0:
288,192,120308,1,0,0:0:0:0:
480,192,120308,1,0,0:0:0:0:
352,192,120456,1,0,0:0:0:0:
96,192,120603,1,0,0:0:0:0:
224,192,120603,1,0,0:0:0:0:
160,192,120899,1,0,0:0:0:0:
224,192,121490,1,0,0:0:0:0:
288,192,121786,1,0,0:0:0:0:
416,192,121786,1,0,0:0:0:0:
480,192,122377,1,0,0:0:0:0:
352,192,122968,1,0,0:0:0:0:
96,192,124150,1,0,0:0:0:0:
224,192,124150,1,0,0:0:0:0:
416,192,124150,1,0,0:0:0:0:
480,192,124298,1,0,0:0:0:0:
352,192,124446,1,0,0:0:0:0:
288,192,124594,1,0,0:0:0:0:
480,192,124594,1,0,0:0:0:0:
224,192,124741,1,0,0:0:0:0:
288,192,124889,1,0,0:0:0:0:
160,192,125037,1,0,0:0:0:0:
416,192,125037,1,0,0:0:0:0:
96,192,125185,1,0,0:0:0:0:
160,192,125332,1,0,0:0:0:0:
288,192,125332,1,0,0:0:0:0:
416,192,125628,1,0,0:0:0:0:
224,192,126219,1,0,0:0:0:0:
160,192,126515,1,0,0:0:0:0:
352,192,126515,1,0,0:0:0:0:
96,192,127697,1,0,0:0:0:0:
288,192,128584,1,0,0:0:0:0:
160,192,128879,1,0,0:0:0:0:
288,192,128879,1,0,0:0:0:0:
352,192,128879,1,0,0:0:0:0:
224,192,129027,1,0,0:0:0:0:
96,192,129175,1,0,0:0:0:0:
160,192,129323,1,0,0:0:0:0:
288,192,129323,1,0,0:0:0:0:
352,192,129470,1,0,0:0:0:0:
96,192,129618,1,0,0:0:0:0:
288,192,129766,1,0,0:0:0:0:
480,192,129766,1,0,0:0:0:0:
224,192,129914,1,0,0:0:0:0:
160,192,130061,1,0,0:0:0:0:
288,192,130061,1,0,0:0:0:0:
352,192,130357,1,0,0:0:0:0:
160,192,130948,1,0,0:0:0:0:
352,192,131244,1,0,0:0:0:0:
480,192,131244,1,0,0:0:0:0:
352,192,131835,1,0,0:0:0:0:
288,192,132130,1,0,0:0:0:0:
224,192,132722,1,0,0:0:0:0:
160,192,133313,1,0,0:0:0:0:
32,192,133608,128,0,134643:0:0:0:0:
32,192,134791,1,0,0:0:0:0:
32,192,134938,1,0,0:0:0:0:
32,192,135086,1,0,0:0:0:0:
32,192,135234,1,0,0:0:0:0:
32,192,135382,128,0,135973:0:0:0:0:
32,192,136268,128,0,137155:0:0:0:0:
32,192,137303,1,0,0:0:0:0:
32,192,137451,1,0,0:0:0:0:
32,192,137598,1,0,0:0:0:0:
32,192,137746,1,0,0:0:0:0:
32,192,137894,1,0,0:0:0:0:
32,192,138042,1,0,0:0:0:0:
32,192,138190,1,0,0:0:0:0:
