osu file format v14

[General]
AudioFilename: audio.ogg
AudioLeadIn: 0
PreviewTime: 129914
Countdown: 0
SampleSet: Normal
StackLeniency: 0.7
Mode: 1
LetterboxInBreaks: 0
WidescreenStoryboard: 0

[Editor]
Bookmarks: 44149,58813,73256,73478,108584,175927,177704,236260,264815,265704,295038
DistanceSpacing: 0.8
BeatDivisor: 8
GridSize: 16
TimelineZoom: 3.5

[Metadata]
Title:I wish I do nothing
TitleUnicode:I wish I do nothing
Artist:No-elements
ArtistUnicode:No-elements
Creator:Whulf
Version:Whulf & knots' Indolence
Source:
Tags:Speedcore Hardcore The Psycho Filth Vol5 -Paradox Prison- _knots liku electronic instrumental pfcd-004 volume 5 paradox prison records j core jcore j-core doujin
BeatmapID:3185319
BeatmapSetID:1559399

[Difficulty]
HPDrainRate:4
CircleSize:2
OverallDifficulty:8
ApproachRate:10
SliderMultiplier:1.4
SliderTickRate:1

[Events]
//Background and Video events
0,0,"thats so mean.jpg",0,30
//Break Periods
2,115893,121464
//Storyboard Layer 0 (Background)
//Storyboard Layer 1 (Fail)
//Storyboard Layer 2 (Pass)
//Storyboard Layer 3 (Foreground)
//Storyboard Layer 4 (Overlay)
//Storyboard Sound Samples

[TimingPoints]
7269,222.164623986374,6,1,0,70,1,0
28596,222.189305288105,4,1,0,90,1,0
30373,222.189305288105,4,1,0,90,1,0
58091,-95.2380952380952,4,1,0,90,0,0
58313,-90.9090909090909,4,1,0,90,0,0
58536,-86.9565217391304,4,1,0,90,0,0
58758,-95.2380952380952,4,1,0,90,0,0
58980,-100,4,1,0,90,0,0
59202,-105.263157894737,4,1,0,90,0,0
59424,-111.111111111111,4,1,0,90,0,0
59535,-114.285714285714,4,1,0,90,0,0
59702,-117.647058823529,4,1,0,90,0,0
73200,-111.111111111111,4,1,0,90,0,0
80337,-112.934884004581,4,1,0,89,0,0
80560,-114.819658503372,4,1,0,88,0,0
80782,-116.768274526884,4,1,0,87,0,0
81004,-118.784313818654,4,1,0,86,0,0
81226,-120.871045099404,4,1,0,86,0,0
81448,-123.032555644549,4,1,0,85,0,0
81670,-125.272624549175,4,1,0,84,0,0
81782,-126.423528935817,4,1,0,83,0,0
81893,-127.595939386825,4,1,0,82,0,0
82115,-130.006890365189,4,1,0,81,0,0
82337,-132.510706865115,4,1,0,80,0,0
82559,-135.113042326863,4,1,0,79,0,0
82781,-137.819448253621,4,1,0,79,0,0
83004,-140.636690424892,4,1,0,78,0,0
83143,-142.088848156752,4,1,0,77,0,0
83226,-143.571307561326,4,1,0,76,0,0
83337,-145.08502708012,4,1,0,75,0,0
83392,-146.412884333821,4,1,0,75,0,0
83448,-146.63122101284,4,1,0,74,0,0
83559,-148.210506346374,4,1,0,73,0,0
83670,-149.824181323217,4,1,0,72,0,0
83892,-153.159527901071,4,1,0,71,0,0
84115,-156.646511482189,4,1,0,71,0,0
84337,-160.295970479894,4,1,0,70,0,0
84559,-164.119800889858,4,1,0,69,0,0
84781,-168.130240409431,4,1,0,68,0,0
85003,-172.341884937664,4,1,0,67,0,0
85225,-176.769640874798,4,1,0,66,0,0
85337,-179.069946511807,4,1,0,65,0,0
85448,-181.431238467777,4,1,0,64,0,0
85670,-186.345010332831,4,1,0,64,0,0
85892,-191.532721450133,4,1,0,63,0,0
86003,-194.236233992506,4,1,0,62,0,0
86114,-197.017160194653,4,1,0,61,0,0
86225,-200,4,1,0,60,0,0
86420,-163.636393388435,4,1,0,90,0,0
86531,-149.999925000038,4,1,0,90,0,0
86642,-138.461581065102,4,1,0,90,0,0
86753,-128.571391836745,4,1,0,90,0,0
86864,-120.000048000019,4,1,0,90,0,0
86975,-112.499985937502,4,1,0,90,0,0
87086,-105.88240276819,4,1,0,90,0,0
87197,-100,4,1,0,90,0,0
101029,-83.3333333333333,4,1,0,90,0,0
101251,-76.9230769230769,4,1,0,90,0,0
101418,-100,4,1,0,90,0,0
115805,-125,4,1,0,10,0,0
122748,-125,4,1,0,15,0,0
123693,-125,4,1,0,17,0,0
124581,-125,4,1,0,22,0,0
125470,-125,4,1,0,25,0,0
126359,-125,4,1,0,29,0,0
127248,-125,4,1,0,34,0,0
128136,-125,4,1,0,40,0,0
129025,-125,4,1,0,44,0,0
129914,-125,4,1,0,50,0,0
137468,-125,4,1,0,63,0,0
139246,-125,4,1,0,65,0,0
141023,-128.205128205128,4,1,0,65,0,0
141245,-131.578947368421,4,1,0,65,0,0
141412,-135.135135135135,4,1,0,65,0,0
141912,-138.888888888889,4,1,0,65,0,0
142134,-142.857142857143,4,1,0,65,0,0
142356,241.935483870968,4,1,0,65,1,0
142356,-135.135135135135,4,1,0,65,0,0
142839,-138.888888888889,4,1,0,65,0,0
143081,250,6,1,0,65,1,8
143081,-138.888888888889,4,1,0,63,0,0
143331,307.692307692308,4,1,0,69,1,0
143331,-116.279069767442,4,1,0,60,0,8
143638,333.333333333333,6,1,0,57,1,8
143638,-111.111111111111,6,1,0,57,0,8
143971,375,6,1,0,55,1,8
143971,-101.010101010101,6,1,0,55,0,8
144346,500,4,1,0,53,1,8
144346,-75.7575757575758,4,1,0,53,0,8
144846,444.444444444444,4,1,0,50,1,0
144846,-87.719298245614,4,1,0,50,0,0
166179,-86.2068965517241,4,1,0,51,0,0
166401,-84.7457627118644,4,1,0,52,0,0
166623,-83.3333333333333,4,1,0,53,0,0
166845,-81.9672131147541,4,1,0,54,0,0
167068,-80.6451612903226,4,1,0,55,0,0
167290,-79.3650793650794,4,1,0,56,0,0
167401,-78.7401574803149,4,1,0,56,0,0
167512,-78.125,4,1,0,57,0,0
167734,-76.9230769230769,4,1,0,58,0,0
167957,-75.7575757575758,4,1,0,59,0,0
168179,-74.6268656716418,4,1,0,60,0,0
168401,-73.5294117647059,4,1,0,61,0,0
168623,-72.463768115942,4,1,0,62,0,0
168845,-71.4285714285714,4,1,0,63,0,0
169068,-70.4225352112676,4,1,0,64,0,0
169179,-69.9300699300699,4,1,0,64,0,0
169290,-69.4444444444444,4,1,0,65,0,0
169512,-68.4931506849315,4,1,0,66,0,0
169734,-67.5675675675676,4,1,0,67,0,0
169957,-67.1140939597315,4,1,0,68,0,0
170068,-66.6666666666667,4,1,0,68,0,0
170179,-66.2251655629139,4,1,0,69,0,0
170290,-65.7894736842105,4,1,0,69,0,0
170401,-65.359477124183,4,1,0,70,0,0
170623,-64.9350649350649,4,1,0,65,0,0
170845,-64.5161290322581,4,1,0,65,0,0
170957,-64.1025641025641,4,1,0,65,0,0
171068,-63.6942675159236,4,1,0,65,0,0
171290,-63.2911392405063,4,1,0,65,0,0
171512,-62.5,4,1,0,65,0,0
171734,-61.7283950617284,4,1,0,65,0,0
171845,-61.3496932515337,4,1,0,65,0,0
171957,-60.9756097560976,4,1,0,65,0,0
172179,-60.2409638554217,4,1,0,65,0,0
172401,-59.5238095238095,4,1,0,65,0,0
172623,-58.8235294117647,4,1,0,65,0,0
172845,-58.4795321637427,4,1,0,65,0,0
172957,-58.1395348837209,4,1,0,65,0,0
173068,-57.8034682080925,4,1,0,65,0,0
173123,-57.4712643678161,4,1,0,65,0,0
173179,-57.1428571428571,4,1,0,65,0,0
173234,-56.8181818181818,4,1,0,65,0,0
175068,-74.0740740740741,4,1,0,65,0,0
175845,-95.2380952380952,4,1,0,65,0,0
175927,222.222222222222,4,1,0,90,1,0
179371,-95.2380952380952,4,1,0,90,0,0
182704,-100,4,1,0,90,0,0
182927,-95.2380952380952,4,1,0,90,0,0
183149,-111.111111111111,4,1,0,90,0,0
184482,-95.2380952380952,4,1,0,90,0,0
185371,-111.111111111111,4,1,0,90,0,0
186260,-100,4,1,0,90,0,0
186482,-95.2380952380952,4,1,0,90,0,0
186704,-111.111111111111,4,1,0,90,0,0
188038,-95.2380952380952,4,1,0,90,0,0
188927,-111.111111111111,4,1,0,90,0,0
189815,-100,4,1,0,90,0,0
190038,-95.2380952380952,4,1,0,90,0,0
190260,-111.111111111111,4,1,0,90,0,0
191871,-95.2380952380952,4,1,0,90,0,0
192093,-111.111111111111,4,1,0,90,0,0
193649,-95.2380952380952,4,1,0,90,0,0
193871,-111.111111111111,4,1,0,90,0,0
195426,-95.2380952380952,4,1,0,90,0,0
195649,-111.111111111111,4,1,0,90,0,0
197204,-95.2380952380952,4,1,0,90,0,0
197315,-100,4,1,0,90,0,0
198982,-95.2380952380952,4,1,0,90,0,0
199093,-100,4,1,0,90,0,0
200760,-95.2380952380952,4,1,0,90,0,0
200871,-100,4,1,0,90,0,0
202538,-97.0873786407767,4,1,0,90,0,0
202649,-100,4,1,0,90,0,0
234701,-99.6681713551164,4,1,0,90,0,0
234757,-99.5015966812905,4,1,0,90,0,0
234812,-99.3385376318455,4,1,0,90,0,0
234868,-99.1730620500922,4,1,0,90,0,0
234923,-99.0110771241054,4,1,0,90,0,0
235035,-98.682847417493,4,1,0,90,0,0
235090,-98.5224586288416,4,1,0,90,0,0
235146,-98.3596884588152,4,1,0,90,0,0
235201,-98.2003475597184,4,1,0,90,0,0
235257,-98.0386391037139,4,1,0,90,0,0
235312,-97.880335858141,4,1,0,90,0,0
235368,-97.7196787619438,4,1,0,90,0,0
235479,-97.402787110345,4,1,0,90,0,0
235535,-97.2436925769287,4,1,0,90,0,0
235590,-97.0879440885265,4,1,0,90,0,0
235646,-96.9298755669264,4,1,0,90,0,0
235701,-96.775129894633,4,1,0,90,0,0
235757,-96.6180774915235,4,1,0,90,0,0
235812,-96.4643249811932,4,1,0,90,0,0
235923,-96.1555100510484,4,1,0,90,0,0
235979,-96.0004607100694,4,1,0,90,0,0
236035,-95.8459105936467,4,1,0,90,0,0
236090,-95.6946039035591,4,1,0,90,0,0
236146,-95.5410362219165,4,1,0,90,0,0
236201,-95.3906898228949,4,1,0,90,0,0
236257,-95.2380952380952,4,1,0,90,0,0
236371,-95.2380952380952,4,1,0,90,0,1
249704,-86.9565217391304,4,1,0,90,0,1
249926,-80,4,1,0,90,0,1
250149,-74.0740740740741,4,1,0,90,0,1
250371,-68.9655172413793,4,1,0,90,0,1
250593,-90.9090909090909,4,1,0,90,0,1
264815,-76.9230769230769,4,1,0,90,0,0
265704,-100,4,1,0,90,0,0

[HitObjects]
256,192,159,12,0,6824,0:0:0:0:
391,317,7269,5,4,0:0:0:0:
386,264,7491,1,8,0:0:0:0:
386,264,7713,1,8,0:0:0:0:
386,264,7935,1,0,0:0:0:0:
214,202,8157,1,8,0:0:0:0:
149,122,8379,1,0,0:0:0:0:
142,128,8490,1,8,0:0:0:0:
220,159,8601,1,0,0:0:0:0:
104,153,8824,1,8,0:0:0:0:
200,120,9046,1,8,0:0:0:0:
200,120,9268,1,0,0:0:0:0:
200,120,9490,1,8,0:0:0:0:
200,120,9601,1,0,0:0:0:0:
200,120,9712,1,8,0:0:0:0:
200,120,9934,1,0,0:0:0:0:
178,126,10157,1,8,0:0:0:0:
178,126,10379,1,8,0:0:0:0:
178,126,10601,1,0,0:0:0:0:
178,126,10823,1,8,0:0:0:0:
178,126,11045,1,8,0:0:0:0:
178,126,11156,1,8,0:0:0:0:
178,126,11267,1,0,0:0:0:0:
160,127,11490,1,8,0:0:0:0:
160,127,11712,1,8,0:0:0:0:
160,127,11934,1,0,0:0:0:0:
160,127,12156,1,8,0:0:0:0:
160,127,12267,1,0,0:0:0:0:
192,64,12378,1,8,0:0:0:0:
192,64,12434,1,8,0:0:0:0:
207,200,12489,1,8,0:0:0:0:
192,64,12545,1,8,0:0:0:0:
207,200,12600,1,4,0:0:0:0:
160,127,12823,1,8,0:0:0:0:
170,114,13045,1,8,0:0:0:0:
160,127,13267,1,0,0:0:0:0:
143,94,13489,1,8,0:0:0:0:
144,112,13711,1,8,0:0:0:0:
145,113,13822,1,8,0:0:0:0:
160,127,13933,1,0,0:0:0:0:
349,146,14156,1,8,0:0:0:0:
348,178,14378,1,8,0:0:0:0:
160,127,14600,1,0,0:0:0:0:
121,92,14822,1,8,0:0:0:0:
121,92,14933,1,8,0:0:0:0:
121,92,15044,1,8,0:0:0:0:
160,127,15266,1,0,0:0:0:0:
160,127,15489,1,8,0:0:0:0:
160,127,15711,1,8,0:0:0:0:
160,127,15933,1,0,0:0:0:0:
120,153,16155,1,8,0:0:0:0:
160,127,16377,1,8,0:0:0:0:
432,246,16488,1,0,0:0:0:0:
154,154,16599,1,8,0:0:0:0:
120,153,16822,1,0,0:0:0:0:
160,127,17044,1,0,0:0:0:0:
120,153,17155,1,8,0:0:0:0:
207,200,17266,1,0,0:0:0:0:
213,177,17321,1,8,0:0:0:0:
207,200,17377,1,0,0:0:0:0:
154,31,17433,1,0,0:0:0:0:
207,200,17488,1,8,0:0:0:0:
207,200,17599,1,0,0:0:0:0:
173,197,17655,1,0,0:0:0:0:
207,200,17710,1,8,0:0:0:0:
152,130,17932,1,4,0:0:0:0:
152,130,18155,1,8,0:0:0:0:
142,166,18266,1,0,0:0:0:0:
405,194,18488,5,0,0:0:0:0:
389,185,18599,1,8,0:0:0:0:
104,138,18821,1,0,0:0:0:0:
314,111,19043,1,8,0:0:0:0:
94,91,19154,1,8,0:0:0:0:
152,130,19265,1,0,0:0:0:0:
161,142,19488,1,8,0:0:0:0:
94,91,19599,1,0,0:0:0:0:
94,91,19821,1,0,0:0:0:0:
152,130,19932,1,8,0:0:0:0:
94,91,20154,1,8,0:0:0:0:
94,91,20265,1,8,0:0:0:0:
94,91,20376,1,8,0:0:0:0:
161,142,20598,1,0,0:0:0:0:
75,92,20821,1,8,0:0:0:0:
81,93,20932,1,0,0:0:0:0:
81,93,21154,1,0,0:0:0:0:
157,142,21265,1,8,0:0:0:0:
75,92,21487,1,0,0:0:0:0:
81,93,21709,1,8,0:0:0:0:
355,233,21820,1,8,0:0:0:0:
160,142,21931,1,0,0:0:0:0:
147,59,22154,1,8,0:0:0:0:
147,59,22265,1,0,0:0:0:0:
140,63,22487,1,0,0:0:0:0:
160,142,22598,1,8,0:0:0:0:
157,142,22820,1,8,0:0:0:0:
116,56,22931,1,0,0:0:0:0:
161,142,23042,1,8,0:0:0:0:
157,107,23098,1,8,0:0:0:0:
159,107,23153,1,8,0:0:0:0:
156,107,23209,1,8,0:0:0:0:
160,142,23264,1,4,0:0:0:0:
157,142,23487,1,8,0:0:0:0:
161,96,23598,1,0,0:0:0:0:
170,99,23820,1,0,0:0:0:0:
160,142,23931,1,8,0:0:0:0:
157,142,24153,1,8,0:0:0:0:
161,142,24375,1,8,0:0:0:0:
148,108,24486,1,8,0:0:0:0:
160,142,24597,1,0,0:0:0:0:
157,142,24820,1,8,0:0:0:0:
148,108,24931,1,0,0:0:0:0:
148,108,25153,1,0,0:0:0:0:
161,142,25264,1,8,0:0:0:0:
157,142,25486,1,0,0:0:0:0:
148,108,25597,1,0,0:0:0:0:
157,142,25708,1,0,0:0:0:0:
161,142,25930,1,4,0:0:0:0:
157,142,26152,1,8,0:0:0:0:
148,108,26264,1,0,0:0:0:0:
148,108,26486,1,0,0:0:0:0:
363,235,26597,1,8,0:0:0:0:
148,108,26708,1,8,0:0:0:0:
405,169,26763,1,8,0:0:0:0:
347,113,26819,1,0,0:0:0:0:
311,106,27041,1,12,0:0:0:0:
311,106,27152,1,8,0:0:0:0:
311,106,27263,1,4,0:0:0:0:
311,106,27485,1,0,0:0:0:0:
311,106,27708,1,8,0:0:0:0:
214,130,27819,1,0,0:0:0:0:
148,86,27874,1,0,0:0:0:0:
161,142,27930,1,8,0:0:0:0:
126,151,27985,1,8,0:0:0:0:
126,151,28041,1,0,0:0:0:0:
127,151,28096,1,0,0:0:0:0:
126,153,28152,1,8,0:0:0:0:
125,153,28263,1,0,0:0:0:0:
122,100,28319,1,0,0:0:0:0:
183,89,28374,1,8,0:0:0:0:
183,89,28411,1,8,0:0:0:0:
183,89,28448,1,8,0:0:0:0:
183,89,28485,1,8,0:0:0:0:
256,192,28596,12,0,30151,0:0:0:0:
228,119,30373,5,4,0:0:0:0:
228,119,30595,1,0,0:0:0:0:
362,202,30817,1,0,0:0:0:0:
362,202,31039,1,0,0:0:0:0:
362,202,31261,1,0,0:0:0:0:
362,202,31483,1,0,0:0:0:0:
362,202,31706,1,0,0:0:0:0:
362,202,31928,1,8,0:0:0:0:
177,178,32039,1,8,0:0:0:0:
362,202,32150,1,0,0:0:0:0:
362,202,32372,1,0,0:0:0:0:
362,202,32594,1,0,0:0:0:0:
161,123,32705,1,8,0:0:0:0:
362,202,32817,1,0,0:0:0:0:
161,123,32928,1,8,0:0:0:0:
362,202,33039,1,8,0:0:0:0:
161,123,33150,1,0,0:0:0:0:
362,202,33261,1,0,0:0:0:0:
161,123,33372,1,8,0:0:0:0:
362,202,33483,1,0,0:0:0:0:
194,109,33539,1,0,0:0:0:0:
186,122,33594,1,0,0:0:0:0:
362,202,33705,1,8,0:0:0:0:
149,98,33816,1,8,0:0:0:0:
362,202,33928,1,4,0:0:0:0:
362,202,34150,1,0,0:0:0:0:
362,202,34372,1,0,0:0:0:0:
362,202,34594,1,0,0:0:0:0:
362,202,34816,1,0,0:0:0:0:
362,202,35038,1,0,0:0:0:0:
362,202,35261,1,8,0:0:0:0:
362,202,35483,1,0,0:0:0:0:
150,98,35594,1,0,0:0:0:0:
362,202,35705,1,8,0:0:0:0:
362,202,35927,1,0,0:0:0:0:
362,202,36149,1,8,0:0:0:0:
150,98,36261,1,0,0:0:0:0:
362,202,36372,1,8,0:0:0:0:
146,109,36483,1,8,0:0:0:0:
362,202,36594,1,0,0:0:0:0:
150,98,36705,1,0,0:0:0:0:
362,202,36816,1,8,0:0:0:0:
201,142,36927,1,8,0:0:0:0:
362,202,37038,1,0,0:0:0:0:
151,115,37094,1,0,0:0:0:0:
150,98,37149,1,8,0:0:0:0:
151,115,37205,1,0,0:0:0:0:
362,202,37260,1,0,0:0:0:0:
150,98,37371,1,8,0:0:0:0:
362,202,37483,1,4,0:0:0:0:
362,202,37705,1,0,0:0:0:0:
362,202,37927,1,0,0:0:0:0:
362,202,38149,1,0,0:0:0:0:
362,202,38371,1,0,0:0:0:0:
362,202,38594,1,0,0:0:0:0:
362,202,38816,1,0,0:0:0:0:
362,202,39038,1,0,0:0:0:0:
141,98,39149,1,8,0:0:0:0:
362,202,39260,1,0,0:0:0:0:
362,202,39482,1,0,0:0:0:0:
362,202,39704,1,0,0:0:0:0:
151,110,39816,1,0,0:0:0:0:
362,202,39927,1,8,0:0:0:0:
151,110,40038,1,0,0:0:0:0:
362,202,40149,1,8,0:0:0:0:
151,110,40260,1,0,0:0:0:0:
362,202,40371,1,8,0:0:0:0:
151,110,40482,1,0,0:0:0:0:
362,202,40593,1,8,0:0:0:0:
158,110,40649,1,8,0:0:0:0:
158,110,40704,1,0,0:0:0:0:
188,100,40760,1,0,0:0:0:0:
362,202,40815,1,8,0:0:0:0:
123,99,40926,1,8,0:0:0:0:
362,202,41038,1,4,0:0:0:0:
362,202,41260,1,0,0:0:0:0:
362,202,41482,1,0,0:0:0:0:
362,202,41704,1,0,0:0:0:0:
362,202,41926,1,12,0:0:0:0:
362,202,42149,1,0,0:0:0:0:
362,202,42371,1,8,0:0:0:0:
362,202,42593,1,0,0:0:0:0:
163,97,42704,1,0,0:0:0:0:
362,202,42815,1,12,0:0:0:0:
362,202,43037,1,0,0:0:0:0:
362,202,43259,1,12,0:0:0:0:
362,202,43482,1,0,0:0:0:0:
119,124,43593,1,0,0:0:0:0:
362,202,43704,1,8,0:0:0:0:
119,124,43815,1,0,0:0:0:0:
362,202,43926,1,8,0:0:0:0:
119,124,44037,1,0,0:0:0:0:
81,172,44148,5,8,0:0:0:0:
81,172,44204,1,8,0:0:0:0:
81,172,44259,1,8,0:0:0:0:
81,172,44315,1,8,0:0:0:0:
208,153,44370,1,0,0:0:0:0:
208,153,44426,1,0,0:0:0:0:
208,153,44482,1,0,0:0:0:0:
208,153,44537,1,0,0:0:0:0:
433,123,44593,1,8,0:0:0:0:
243,77,44704,1,0,0:0:0:0:
383,188,44815,1,8,0:0:0:0:
194,55,44870,1,8,0:0:0:0:
383,188,44926,1,0,0:0:0:0:
194,55,44981,1,0,0:0:0:0:
217,69,45037,1,8,0:0:0:0:
204,51,45148,1,0,0:0:0:0:
236,90,45259,1,0,0:0:0:0:
301,42,45370,1,8,0:0:0:0:
301,42,45426,1,8,0:0:0:0:
213,76,45481,1,0,0:0:0:0:
374,78,45592,1,8,0:0:0:0:
229,133,45704,1,8,0:0:0:0:
308,167,45815,1,0,0:0:0:0:
308,167,45870,1,0,0:0:0:0:
333,148,45926,1,8,0:0:0:0:
333,148,45981,1,8,0:0:0:0:
308,167,46037,1,0,0:0:0:0:
417,155,46148,1,0,0:0:0:0:
338,115,46259,1,8,0:0:0:0:
336,113,46315,1,8,0:0:0:0:
207,68,46370,1,0,0:0:0:0:
262,51,46481,1,8,0:0:0:0:
262,51,46592,1,8,0:0:0:0:
235,121,46703,1,0,0:0:0:0:
235,121,46759,1,0,0:0:0:0:
235,121,46815,1,8,0:0:0:0:
255,131,46926,1,8,0:0:0:0:
346,128,47037,1,0,0:0:0:0:
346,128,47092,1,0,0:0:0:0:
346,128,47148,1,8,0:0:0:0:
315,38,47203,1,0,0:0:0:0:
315,38,47259,1,8,0:0:0:0:
315,38,47370,1,0,0:0:0:0:
315,38,47481,1,8,0:0:0:0:
315,38,47592,1,8,0:0:0:0:
315,38,47703,1,0,0:0:0:0:
315,38,47759,1,0,0:0:0:0:
263,20,47814,1,8,0:0:0:0:
263,20,47925,1,0,0:0:0:0:
276,119,48037,1,8,0:0:0:0:
336,173,48092,1,8,0:0:0:0:
336,173,48148,1,0,0:0:0:0:
336,173,48259,1,0,0:0:0:0:
336,173,48370,1,8,0:0:0:0:
222,119,48425,1,8,0:0:0:0:
225,109,48481,1,0,0:0:0:0:
223,110,48536,1,8,0:0:0:0:
223,110,48592,1,0,0:0:0:0:
318,90,48703,1,0,0:0:0:0:
318,123,48814,1,8,0:0:0:0:
255,148,48925,1,0,0:0:0:0:
255,148,48981,1,8,0:0:0:0:
208,58,49036,1,0,0:0:0:0:
218,95,49147,1,0,0:0:0:0:
223,98,49259,1,8,0:0:0:0:
425,186,49370,1,0,0:0:0:0:
405,253,49425,1,0,0:0:0:0:
306,145,49481,1,8,0:0:0:0:
306,145,49536,1,8,0:0:0:0:
306,145,49592,1,0,0:0:0:0:
306,145,49703,1,8,0:0:0:0:
338,245,49814,1,0,0:0:0:0:
277,128,49870,1,0,0:0:0:0:
277,128,49925,1,8,0:0:0:0:
260,153,50036,1,0,0:0:0:0:
260,153,50147,1,8,0:0:0:0:
234,83,50258,1,0,0:0:0:0:
234,83,50314,1,0,0:0:0:0:
234,83,50370,1,8,0:0:0:0:
234,83,50481,1,0,0:0:0:0:
234,83,50592,1,8,0:0:0:0:
234,83,50703,1,0,0:0:0:0:
217,46,50758,1,0,0:0:0:0:
248,44,50814,1,8,0:0:0:0:
248,44,50851,1,8,0:0:0:0:
248,44,50888,1,8,0:0:0:0:
177,56,50925,1,0,0:0:0:0:
248,44,50981,1,0,0:0:0:0:
326,86,51036,1,8,0:0:0:0:
191,58,51092,1,0,0:0:0:0:
191,58,51147,1,8,0:0:0:0:
223,110,51203,1,8,0:0:0:0:
215,55,51258,1,0,0:0:0:0:
254,64,51369,1,8,0:0:0:0:
254,64,51425,1,8,0:0:0:0:
254,64,51480,1,0,0:0:0:0:
210,62,51592,1,8,0:0:0:0:
314,122,51703,1,0,0:0:0:0:
314,122,51814,1,8,0:0:0:0:
236,111,51925,1,0,0:0:0:0:
237,109,51980,1,0,0:0:0:0:
237,109,52036,1,8,0:0:0:0:
236,111,52092,1,0,0:0:0:0:
236,111,52147,1,8,0:0:0:0:
236,111,52258,1,0,0:0:0:0:
236,111,52369,1,8,0:0:0:0:
236,111,52425,1,8,0:0:0:0:
236,111,52480,1,0,0:0:0:0:
236,111,52591,1,8,0:0:0:0:
236,111,52703,1,8,0:0:0:0:
237,109,52814,1,0,0:0:0:0:
237,109,52869,1,8,0:0:0:0:
236,111,52925,1,0,0:0:0:0:
236,111,52980,1,0,0:0:0:0:
236,111,53036,1,8,0:0:0:0:
236,111,53147,1,0,0:0:0:0:
272,133,53258,1,8,0:0:0:0:
272,133,53369,1,0,0:0:0:0:
272,133,53425,1,0,0:0:0:0:
272,133,53480,1,8,0:0:0:0:
272,133,53591,1,0,0:0:0:0:
216,143,53702,1,8,0:0:0:0:
280,149,53813,1,0,0:0:0:0:
194,149,53869,1,0,0:0:0:0:
194,149,53925,1,8,0:0:0:0:
431,304,53980,1,8,0:0:0:0:
194,149,54036,1,0,0:0:0:0:
194,149,54147,1,0,0:0:0:0:
219,158,54258,1,8,0:0:0:0:
280,149,54313,1,0,0:0:0:0:
217,156,54369,1,8,0:0:0:0:
212,155,54480,1,0,0:0:0:0:
213,155,54591,1,8,0:0:0:0:
213,155,54702,1,8,0:0:0:0:
336,199,54813,1,0,0:0:0:0:
336,199,54869,1,0,0:0:0:0:
336,199,54924,1,0,0:0:0:0:
336,199,54980,1,0,0:0:0:0:
336,199,55036,1,8,0:0:0:0:
336,199,55091,1,8,0:0:0:0:
336,199,55147,1,0,0:0:0:0:
336,199,55202,1,8,0:0:0:0:
336,199,55258,1,0,0:0:0:0:
158,146,55369,1,8,0:0:0:0:
168,158,55480,1,0,0:0:0:0:
165,158,55535,1,0,0:0:0:0:
165,158,55591,1,8,0:0:0:0:
161,159,55647,1,8,0:0:0:0:
165,158,55702,1,0,0:0:0:0:
164,158,55813,1,8,0:0:0:0:
158,146,55924,1,0,0:0:0:0:
158,146,55980,1,8,0:0:0:0:
158,146,56035,1,0,0:0:0:0:
158,146,56091,1,0,0:0:0:0:
158,146,56146,1,8,0:0:0:0:
154,142,56258,1,0,0:0:0:0:
170,68,56369,1,8,0:0:0:0:
313,67,56480,1,0,0:0:0:0:
313,67,56535,1,0,0:0:0:0:
313,67,56591,1,8,0:0:0:0:
313,67,56702,1,0,0:0:0:0:
313,67,56813,1,8,0:0:0:0:
313,67,56869,1,8,0:0:0:0:
313,67,56924,1,0,0:0:0:0:
313,67,56980,1,8,0:0:0:0:
313,67,57035,1,0,0:0:0:0:
313,67,57146,1,0,0:0:0:0:
313,67,57257,1,8,0:0:0:0:
288,129,57369,1,0,0:0:0:0:
288,129,57480,1,8,0:0:0:0:
288,129,57535,1,8,0:0:0:0:
288,129,57591,1,0,0:0:0:0:
288,129,57702,1,0,0:0:0:0:
363,175,57757,1,8,0:0:0:0:
288,129,57813,1,0,0:0:0:0:
318,169,57924,5,12,0:0:0:0:
276,126,58146,1,4,0:0:0:0:
137,113,58368,1,4,0:0:0:0:
365,182,58591,1,12,0:0:0:0:
256,192,58813,5,4,0:0:0:0:
256,192,59035,1,0,0:0:0:0:
256,192,59257,1,8,0:0:0:0:
256,192,59479,1,0,0:0:0:0:
256,192,59590,1,8,0:0:0:0:
256,192,59813,1,0,0:0:0:0:
256,192,60146,1,0,0:0:0:0:
256,192,60368,1,8,0:0:0:0:
256,192,60590,1,0,0:0:0:0:
256,192,60812,1,0,0:0:0:0:
256,192,61035,1,8,0:0:0:0:
256,192,61257,1,0,0:0:0:0:
256,192,61368,1,8,0:0:0:0:
256,192,61590,1,0,0:0:0:0:
256,192,61923,1,0,0:0:0:0:
256,192,62146,1,0,0:0:0:0:
256,192,62368,1,8,0:0:0:0:
256,192,62590,1,0,0:0:0:0:
256,192,62812,1,8,0:0:0:0:
256,192,63034,1,0,0:0:0:0:
256,192,63145,1,8,0:0:0:0:
256,192,63368,1,0,0:0:0:0:
256,192,63479,1,8,0:0:0:0:
256,192,63590,1,8,0:0:0:0:
256,192,63701,1,0,0:0:0:0:
256,192,63923,1,8,0:0:0:0:
256,192,64145,1,0,0:0:0:0:
256,192,64367,1,0,0:0:0:0:
256,192,64590,1,8,0:0:0:0:
256,192,64812,1,0,0:0:0:0:
256,192,64923,1,8,0:0:0:0:
256,192,65145,1,8,0:0:0:0:
256,192,65256,1,0,0:0:0:0:
256,192,65367,1,8,0:0:0:0:
256,192,65478,1,0,0:0:0:0:
256,192,65701,1,0,0:0:0:0:
256,192,65923,1,8,0:0:0:0:
256,192,66145,1,0,0:0:0:0:
256,192,66367,1,8,0:0:0:0:
256,192,66589,1,0,0:0:0:0:
256,192,66700,1,8,0:0:0:0:
256,192,66923,1,8,0:0:0:0:
256,192,67034,1,0,0:0:0:0:
256,192,67145,1,0,0:0:0:0:
256,192,67256,1,8,0:0:0:0:
256,192,67478,1,8,0:0:0:0:
256,192,67700,1,0,0:0:0:0:
256,192,67922,1,0,0:0:0:0:
256,192,68145,1,8,0:0:0:0:
256,192,68367,1,0,0:0:0:0:
256,192,68478,1,8,0:0:0:0:
256,192,68700,1,8,0:0:0:0:
256,192,68811,1,8,0:0:0:0:
256,192,68922,1,0,0:0:0:0:
256,192,69033,1,0,0:0:0:0:
256,192,69256,1,8,0:0:0:0:
256,192,69478,1,0,0:0:0:0:
256,192,69700,1,0,0:0:0:0:
256,192,69922,1,8,0:0:0:0:
256,192,70144,1,0,0:0:0:0:
256,192,70255,1,8,0:0:0:0:
256,192,70478,1,8,0:0:0:0:
256,192,70589,1,0,0:0:0:0:
256,192,70700,1,0,0:0:0:0:
256,192,70811,1,8,0:0:0:0:
256,192,71033,1,8,0:0:0:0:
256,192,71255,1,0,0:0:0:0:
256,192,71478,1,0,0:0:0:0:
256,192,71700,1,8,0:0:0:0:
256,192,71922,1,0,0:0:0:0:
256,192,72033,1,8,0:0:0:0:
256,192,72255,1,8,0:0:0:0:
256,192,72366,1,0,0:0:0:0:
256,192,72477,1,8,0:0:0:0:
256,192,72588,1,0,0:0:0:0:
256,192,72700,1,8,0:0:0:0:
256,192,72811,1,8,0:0:0:0:
256,192,72922,1,8,0:0:0:0:
256,192,73033,1,4,0:0:0:0:
256,192,73255,1,0,0:0:0:0:
256,192,73477,1,8,0:0:0:0:
256,192,73699,1,0,0:0:0:0:
256,192,73811,1,8,0:0:0:0:
256,192,74033,1,0,0:0:0:0:
256,192,74144,1,8,0:0:0:0:
256,192,74255,1,0,0:0:0:0:
256,192,74366,1,8,0:0:0:0:
256,192,74477,1,0,0:0:0:0:
256,192,74588,1,0,0:0:0:0:
256,192,74699,1,8,0:0:0:0:
256,192,74810,1,0,0:0:0:0:
256,192,75033,1,0,0:0:0:0:
256,192,75255,1,8,0:0:0:0:
256,192,75477,1,8,0:0:0:0:
256,192,75588,1,0,0:0:0:0:
256,192,75810,1,8,0:0:0:0:
256,192,75921,1,0,0:0:0:0:
256,192,76032,1,0,0:0:0:0:
256,192,76143,1,8,0:0:0:0:
256,192,76255,1,8,0:0:0:0:
256,192,76366,1,0,0:0:0:0:
256,192,76477,1,8,0:0:0:0:
256,192,76588,1,0,0:0:0:0:
256,192,76810,1,0,0:0:0:0:
256,192,77032,1,8,0:0:0:0:
256,192,77254,1,0,0:0:0:0:
256,192,77366,1,8,0:0:0:0:
256,192,77588,1,0,0:0:0:0:
256,192,77699,1,8,0:0:0:0:
256,192,77810,1,8,0:0:0:0:
256,192,77921,1,0,0:0:0:0:
256,192,78032,1,0,0:0:0:0:
256,192,78143,1,8,0:0:0:0:
256,192,78254,1,8,0:0:0:0:
256,192,78365,1,0,0:0:0:0:
256,192,78588,1,0,0:0:0:0:
256,192,78810,1,8,0:0:0:0:
256,192,79032,1,8,0:0:0:0:
256,192,79143,1,0,0:0:0:0:
256,192,79365,1,8,0:0:0:0:
256,192,79476,1,8,0:0:0:0:
256,192,79587,1,0,0:0:0:0:
256,192,79699,1,8,0:0:0:0:
256,192,79810,1,0,0:0:0:0:
256,192,79921,1,8,0:0:0:0:
256,192,80032,1,8,0:0:0:0:
256,192,80143,1,0,0:0:0:0:
256,192,80365,1,0,0:0:0:0:
256,192,80587,1,0,0:0:0:0:
256,192,80809,1,0,0:0:0:0:
256,192,81032,1,0,0:0:0:0:
256,192,81254,1,0,0:0:0:0:
256,192,81476,1,0,0:0:0:0:
256,192,81698,1,0,0:0:0:0:
256,192,81809,1,8,0:0:0:0:
256,192,81920,1,0,0:0:0:0:
256,192,82143,1,0,0:0:0:0:
256,192,82365,1,0,0:0:0:0:
256,192,82587,1,0,0:0:0:0:
256,192,82809,1,0,0:0:0:0:
256,192,83031,1,0,0:0:0:0:
256,192,83254,1,0,0:0:0:0:
256,192,83365,1,8,0:0:0:0:
256,192,83420,1,8,0:0:0:0:
256,192,83476,1,0,0:0:0:0:
256,192,83587,1,8,0:0:0:0:
256,192,83698,1,0,0:0:0:0:
256,192,83920,1,0,0:0:0:0:
256,192,84142,1,0,0:0:0:0:
256,192,84365,1,0,0:0:0:0:
256,192,84587,1,0,0:0:0:0:
256,192,84809,1,0,0:0:0:0:
256,192,85031,1,0,0:0:0:0:
256,192,85253,1,0,0:0:0:0:
256,192,85364,1,8,0:0:0:0:
256,192,85475,1,0,0:0:0:0:
256,192,85698,1,0,0:0:0:0:
256,192,85920,1,0,0:0:0:0:
256,192,86031,1,0,0:0:0:0:
256,192,86142,1,0,0:0:0:0:
256,192,86253,1,8,0:0:0:0:
256,192,86475,1,8,0:0:0:0:
256,192,86586,1,8,0:0:0:0:
256,192,86697,1,8,0:0:0:0:
256,192,86809,1,0,0:0:0:0:
256,192,86920,1,8,0:0:0:0:
256,192,87031,1,0,0:0:0:0:
256,192,87142,1,8,0:0:0:0:
256,192,87253,1,4,0:0:0:0:
256,192,87364,5,8,0:0:0:0:
256,192,87420,1,8,0:0:0:0:
256,192,87475,1,0,0:0:0:0:
256,192,87586,1,8,0:0:0:0:
256,192,87697,1,0,0:0:0:0:
256,192,87753,1,0,0:0:0:0:
256,192,87808,1,8,0:0:0:0:
256,192,87920,1,8,0:0:0:0:
256,192,87975,1,8,0:0:0:0:
256,192,88031,1,0,0:0:0:0:
256,192,88142,1,8,0:0:0:0:
256,192,88253,1,0,0:0:0:0:
256,192,88364,1,8,0:0:0:0:
256,192,88419,1,8,0:0:0:0:
256,192,88475,1,0,0:0:0:0:
256,192,88531,1,0,0:0:0:0:
256,192,88586,1,8,0:0:0:0:
256,192,88697,1,0,0:0:0:0:
256,192,88808,1,8,0:0:0:0:
256,192,88864,1,8,0:0:0:0:
256,192,88919,1,0,0:0:0:0:
256,192,89030,1,0,0:0:0:0:
256,192,89142,1,8,0:0:0:0:
256,192,89197,1,0,0:0:0:0:
256,192,89253,1,8,0:0:0:0:
256,192,89308,1,8,0:0:0:0:
256,192,89364,1,0,0:0:0:0:
256,192,89475,1,8,0:0:0:0:
256,192,89586,1,0,0:0:0:0:
256,192,89697,1,8,0:0:0:0:
256,192,89808,1,0,0:0:0:0:
256,192,90030,1,0,0:0:0:0:
256,192,90141,1,8,0:0:0:0:
256,192,90253,1,0,0:0:0:0:
256,192,90364,1,8,0:0:0:0:
256,192,90419,1,8,0:0:0:0:
256,192,90475,1,0,0:0:0:0:
256,192,90530,1,0,0:0:0:0:
256,192,90586,1,8,0:0:0:0:
256,192,90697,1,8,0:0:0:0:
256,192,90752,1,8,0:0:0:0:
256,192,90808,1,0,0:0:0:0:
256,192,90919,1,0,0:0:0:0:
256,192,90975,1,0,0:0:0:0:
256,192,91030,1,8,0:0:0:0:
256,192,91141,1,0,0:0:0:0:
256,192,91252,1,8,0:0:0:0:
256,192,91363,1,0,0:0:0:0:
256,192,91419,1,0,0:0:0:0:
256,192,91475,1,8,0:0:0:0:
256,192,91586,1,0,0:0:0:0:
256,192,91697,1,8,0:0:0:0:
256,192,91752,1,8,0:0:0:0:
256,192,91808,1,0,0:0:0:0:
256,192,91863,1,0,0:0:0:0:
256,192,91919,1,8,0:0:0:0:
256,192,92030,1,8,0:0:0:0:
256,192,92141,1,0,0:0:0:0:
256,192,92252,1,8,0:0:0:0:
256,192,92308,1,8,0:0:0:0:
256,192,92363,1,0,0:0:0:0:
256,192,92474,1,8,0:0:0:0:
256,192,92586,1,0,0:0:0:0:
256,192,92641,1,0,0:0:0:0:
256,192,92697,1,8,0:0:0:0:
256,192,92808,1,8,0:0:0:0:
256,192,92863,1,8,0:0:0:0:
256,192,92919,1,0,0:0:0:0:
256,192,93030,1,8,0:0:0:0:
256,192,93141,1,0,0:0:0:0:
256,192,93252,1,8,0:0:0:0:
256,192,93363,1,0,0:0:0:0:
256,192,93419,1,0,0:0:0:0:
256,192,93474,1,8,0:0:0:0:
256,192,93530,1,8,0:0:0:0:
256,192,93585,1,0,0:0:0:0:
256,192,93696,1,0,0:0:0:0:
256,192,93808,1,8,0:0:0:0:
256,192,93863,1,0,0:0:0:0:
256,192,93919,1,8,0:0:0:0:
256,192,93974,1,8,0:0:0:0:
256,192,94030,1,0,0:0:0:0:
256,192,94085,1,0,0:0:0:0:
256,192,94141,1,8,0:0:0:0:
256,192,94252,1,8,0:0:0:0:
256,192,94307,1,8,0:0:0:0:
256,192,94363,1,0,0:0:0:0:
256,192,94474,1,0,0:0:0:0:
256,192,94530,1,0,0:0:0:0:
256,192,94585,1,8,0:0:0:0:
256,192,94696,1,0,0:0:0:0:
256,192,94807,1,8,0:0:0:0:
256,192,94918,1,8,0:0:0:0:
256,192,94974,1,8,0:0:0:0:
256,192,95030,1,0,0:0:0:0:
256,192,95141,1,0,0:0:0:0:
256,192,95252,1,8,0:0:0:0:
256,192,95363,1,0,0:0:0:0:
256,192,95418,1,0,0:0:0:0:
256,192,95474,1,8,0:0:0:0:
256,192,95585,1,0,0:0:0:0:
256,192,95696,1,8,0:0:0:0:
256,192,95752,1,8,0:0:0:0:
256,192,95807,1,8,0:0:0:0:
256,192,95863,1,8,0:0:0:0:
256,192,95918,1,0,0:0:0:0:
256,192,96029,1,8,0:0:0:0:
256,192,96141,1,0,0:0:0:0:
256,192,96252,1,8,0:0:0:0:
256,192,96307,1,8,0:0:0:0:
256,192,96363,1,0,0:0:0:0:
256,192,96474,1,0,0:0:0:0:
256,192,96585,1,8,0:0:0:0:
256,192,96696,1,0,0:0:0:0:
256,192,96752,1,0,0:0:0:0:
256,192,96807,1,8,0:0:0:0:
256,192,96918,1,0,0:0:0:0:
256,192,97140,1,0,0:0:0:0:
256,192,97196,1,0,0:0:0:0:
256,192,97251,1,8,0:0:0:0:
256,192,97363,1,0,0:0:0:0:
256,192,97418,1,8,0:0:0:0:
256,192,97474,1,0,0:0:0:0:
256,192,97585,1,8,0:0:0:0:
256,192,97640,1,0,0:0:0:0:
256,192,97696,1,8,0:0:0:0:
256,192,97751,1,8,0:0:0:0:
256,192,97807,1,0,0:0:0:0:
256,192,97918,1,8,0:0:0:0:
256,192,98029,1,0,0:0:0:0:
256,192,98140,1,8,0:0:0:0:
256,192,98196,1,8,0:0:0:0:
256,192,98251,1,0,0:0:0:0:
256,192,98362,1,0,0:0:0:0:
256,192,98474,1,8,0:0:0:0:
256,192,98585,1,0,0:0:0:0:
256,192,98640,1,0,0:0:0:0:
256,192,98696,1,8,0:0:0:0:
256,192,98807,1,0,0:0:0:0:
256,192,98918,1,8,0:0:0:0:
256,192,98973,1,8,0:0:0:0:
256,192,99029,1,0,0:0:0:0:
256,192,99085,1,0,0:0:0:0:
256,192,99140,1,8,0:0:0:0:
256,192,99196,1,0,0:0:0:0:
256,192,99251,1,8,0:0:0:0:
256,192,99362,1,0,0:0:0:0:
256,192,99473,1,8,0:0:0:0:
256,192,99529,1,8,0:0:0:0:
256,192,99584,1,0,0:0:0:0:
256,192,99696,1,8,0:0:0:0:
256,192,99807,1,0,0:0:0:0:
256,192,99862,1,0,0:0:0:0:
256,192,99918,1,8,0:0:0:0:
256,192,100029,1,0,0:0:0:0:
256,192,100140,1,8,0:0:0:0:
256,192,100251,1,0,0:0:0:0:
256,192,100307,1,0,0:0:0:0:
256,192,100362,1,8,0:0:0:0:
256,192,100418,1,8,0:0:0:0:
256,192,100473,1,0,0:0:0:0:
256,192,100584,1,12,0:0:0:0:
256,192,100695,1,0,0:0:0:0:
256,192,100751,1,0,0:0:0:0:
256,192,100807,1,8,0:0:0:0:
256,192,100918,1,8,0:0:0:0:
256,192,101029,1,4,0:0:0:0:
256,192,101251,1,12,0:0:0:0:
256,192,101473,1,8,0:0:0:0:
256,192,101584,1,0,0:0:0:0:
256,192,101695,1,8,0:0:0:0:
256,192,101751,1,8,0:0:0:0:
256,192,101806,1,0,0:0:0:0:
256,192,101917,1,8,0:0:0:0:
256,192,102029,1,0,0:0:0:0:
256,192,102140,1,8,0:0:0:0:
256,192,102251,1,0,0:0:0:0:
256,192,102306,1,0,0:0:0:0:
256,192,102362,1,8,0:0:0:0:
256,192,102417,1,8,0:0:0:0:
256,192,102473,1,0,0:0:0:0:
256,192,102584,1,8,0:0:0:0:
256,192,102695,1,0,0:0:0:0:
256,192,102806,1,8,0:0:0:0:
256,192,102862,1,8,0:0:0:0:
256,192,102917,1,8,0:0:0:0:
256,192,102973,1,8,0:0:0:0:
256,192,103028,1,0,0:0:0:0:
256,192,103139,1,8,0:0:0:0:
256,192,103251,1,0,0:0:0:0:
256,192,103306,1,0,0:0:0:0:
256,192,103362,1,8,0:0:0:0:
256,192,103473,1,0,0:0:0:0:
256,192,103584,1,0,0:0:0:0:
256,192,103695,1,8,0:0:0:0:
256,192,103751,1,8,0:0:0:0:
256,192,103806,1,0,0:0:0:0:
256,192,103917,1,0,0:0:0:0:
256,192,104028,1,8,0:0:0:0:
256,192,104084,1,8,0:0:0:0:
256,192,104139,1,8,0:0:0:0:
256,192,104250,1,0,0:0:0:0:
256,192,104362,1,8,0:0:0:0:
256,192,104417,1,0,0:0:0:0:
256,192,104473,1,8,0:0:0:0:
256,192,104528,1,0,0:0:0:0:
256,192,104584,1,8,0:0:0:0:
256,192,104639,1,0,0:0:0:0:
256,192,104695,1,0,0:0:0:0:
256,192,104806,1,8,0:0:0:0:
256,192,104861,1,8,0:0:0:0:
256,192,104917,1,8,0:0:0:0:
256,192,104973,1,8,0:0:0:0:
256,192,105028,1,0,0:0:0:0:
256,192,105139,1,8,0:0:0:0:
256,192,105250,1,0,0:0:0:0:
256,192,105306,1,0,0:0:0:0:
256,192,105361,1,8,0:0:0:0:
256,192,105417,1,0,0:0:0:0:
256,192,105472,1,8,0:0:0:0:
256,192,105584,1,8,0:0:0:0:
256,192,105695,1,0,0:0:0:0:
256,192,105750,1,0,0:0:0:0:
256,192,105806,1,8,0:0:0:0:
256,192,105861,1,8,0:0:0:0:
256,192,105917,1,0,0:0:0:0:
256,192,106028,1,8,0:0:0:0:
256,192,106139,1,0,0:0:0:0:
256,192,106195,1,0,0:0:0:0:
256,192,106250,1,8,0:0:0:0:
256,192,106306,1,0,0:0:0:0:
256,192,106361,1,8,0:0:0:0:
256,192,106417,1,8,0:0:0:0:
256,192,106472,1,8,0:0:0:0:
256,192,106528,1,8,0:0:0:0:
256,192,106583,1,0,0:0:0:0:
256,192,106695,1,8,0:0:0:0:
256,192,106750,1,8,0:0:0:0:
256,192,106806,1,0,0:0:0:0:
256,192,106917,1,0,0:0:0:0:
256,192,107028,1,8,0:0:0:0:
256,192,107139,1,0,0:0:0:0:
256,192,107250,1,8,0:0:0:0:
256,192,107306,1,8,0:0:0:0:
256,192,107361,1,0,0:0:0:0:
256,192,107472,1,8,0:0:0:0:
256,192,107583,1,0,0:0:0:0:
256,192,107694,1,8,0:0:0:0:
256,192,107750,1,8,0:0:0:0:
256,192,107805,1,0,0:0:0:0:
256,192,107861,1,0,0:0:0:0:
256,192,107917,1,8,0:0:0:0:
256,192,107972,1,0,0:0:0:0:
256,192,108028,1,8,0:0:0:0:
256,192,108083,1,8,0:0:0:0:
256,192,108139,1,0,0:0:0:0:
256,192,108194,1,0,0:0:0:0:
256,192,108250,1,0,0:0:0:0:
256,192,108305,1,0,0:0:0:0:
256,192,108361,1,8,0:0:0:0:
256,192,108416,1,8,0:0:0:0:
256,192,108472,1,0,0:0:0:0:
143,158,108528,1,0,0:0:0:0:
143,158,108583,1,8,0:0:0:0:
304,80,108694,1,0,0:0:0:0:
304,80,108805,1,8,0:0:0:0:
304,80,108861,1,8,0:0:0:0:
304,80,108916,1,0,0:0:0:0:
217,58,108972,1,0,0:0:0:0:
217,58,109028,1,8,0:0:0:0:
217,58,109139,1,0,0:0:0:0:
227,102,109250,1,8,0:0:0:0:
227,102,109305,1,8,0:0:0:0:
227,102,109361,1,0,0:0:0:0:
227,102,109416,1,0,0:0:0:0:
227,102,109472,1,0,0:0:0:0:
228,74,109583,1,8,0:0:0:0:
230,68,109694,1,0,0:0:0:0:
208,80,109750,1,0,0:0:0:0:
233,62,109805,1,0,0:0:0:0:
233,62,109861,1,0,0:0:0:0:
234,62,109916,1,8,0:0:0:0:
181,75,109972,1,8,0:0:0:0:
181,75,110027,1,0,0:0:0:0:
181,75,110138,1,8,0:0:0:0:
181,75,110250,1,0,0:0:0:0:
181,76,110305,1,0,0:0:0:0:
295,96,110361,1,8,0:0:0:0:
262,84,110472,1,0,0:0:0:0:
262,84,110583,1,8,0:0:0:0:
259,130,110694,1,0,0:0:0:0:
259,130,110805,1,8,0:0:0:0:
362,265,110861,1,8,0:0:0:0:
259,130,110916,1,0,0:0:0:0:
223,38,110972,1,8,0:0:0:0:
259,130,111027,1,0,0:0:0:0:
228,61,111083,1,0,0:0:0:0:
188,33,111138,1,8,0:0:0:0:
223,38,111249,1,0,0:0:0:0:
223,38,111361,1,8,0:0:0:0:
223,38,111416,1,8,0:0:0:0:
193,82,111472,1,0,0:0:0:0:
193,82,111583,1,8,0:0:0:0:
239,77,111694,1,8,0:0:0:0:
266,72,111749,1,8,0:0:0:0:
266,72,111805,1,0,0:0:0:0:
283,104,111916,1,8,0:0:0:0:
163,29,111972,1,8,0:0:0:0:
163,29,112027,1,0,0:0:0:0:
163,29,112083,1,0,0:0:0:0:
163,29,112138,1,8,0:0:0:0:
218,50,112249,1,0,0:0:0:0:
161,48,112360,1,8,0:0:0:0:
161,48,112416,1,8,0:0:0:0:
162,47,112471,1,0,0:0:0:0:
162,47,112583,1,8,0:0:0:0:
162,47,112694,1,0,0:0:0:0:
163,46,112805,1,8,0:0:0:0:
166,46,112860,1,8,0:0:0:0:
166,46,112916,1,0,0:0:0:0:
161,48,112971,1,8,0:0:0:0:
161,48,113027,1,0,0:0:0:0:
161,48,113138,1,0,0:0:0:0:
162,47,113249,1,8,0:0:0:0:
162,47,113305,1,0,0:0:0:0:
162,47,113360,1,8,0:0:0:0:
162,47,113416,1,8,0:0:0:0:
162,47,113471,1,0,0:0:0:0:
163,46,113582,1,0,0:0:0:0:
166,46,113693,1,8,0:0:0:0:
306,244,113805,1,0,0:0:0:0:
306,244,113860,1,0,0:0:0:0:
306,244,113916,1,8,0:0:0:0:
308,236,113971,1,0,0:0:0:0:
308,236,114027,1,8,0:0:0:0:
288,73,114082,1,0,0:0:0:0:
308,236,114138,1,8,0:0:0:0:
309,234,114193,1,8,0:0:0:0:
311,232,114249,1,0,0:0:0:0:
207,78,114305,1,0,0:0:0:0:
191,31,114360,1,8,0:0:0:0:
311,231,114416,1,0,0:0:0:0:
207,78,114471,1,8,0:0:0:0:
207,78,114527,1,0,0:0:0:0:
207,78,114582,1,8,0:0:0:0:
207,78,114638,1,8,0:0:0:0:
194,43,114693,1,0,0:0:0:0:
194,43,114749,1,0,0:0:0:0:
212,118,114804,1,8,0:0:0:0:
212,118,114860,1,8,0:0:0:0:
212,118,114916,1,8,0:0:0:0:
212,118,114971,1,8,0:0:0:0:
212,118,115027,1,0,0:0:0:0:
212,118,115082,1,0,0:0:0:0:
212,118,115138,1,0,0:0:0:0:
212,118,115193,1,0,0:0:0:0:
212,118,115249,1,8,0:0:0:0:
212,118,115304,1,8,0:0:0:0:
212,118,115360,1,8,0:0:0:0:
212,118,115415,1,8,0:0:0:0:
212,118,115471,1,0,0:0:0:0:
212,118,115527,1,0,0:0:0:0:
212,118,115582,1,0,0:0:0:0:
212,118,115638,1,0,0:0:0:0:
365,154,115693,1,12,0:0:0:0:
251,97,121914,5,8,0:0:0:0:
232,81,122803,1,8,0:0:0:0:
250,55,123692,1,0,0:0:0:0:
162,146,124581,1,8,0:0:0:0:
214,63,125470,1,0,0:0:0:0:
153,60,126358,1,8,0:0:0:0:
154,62,127247,1,8,0:0:0:0:
154,62,128136,1,0,0:0:0:0:
203,62,129025,1,8,0:0:0:0:
319,152,129913,1,8,0:0:0:0:
319,152,130135,1,0,0:0:0:0:
319,152,130358,1,8,0:0:0:0:
319,152,130580,1,0,0:0:0:0:
319,152,130802,1,8,0:0:0:0:
319,152,131024,1,0,0:0:0:0:
393,198,131246,1,8,0:0:0:0:
374,188,131469,1,8,0:0:0:0:
296,161,131691,1,0,0:0:0:0:
172,111,132135,1,8,0:0:0:0:
172,111,132357,1,0,0:0:0:0:
172,111,132580,1,8,0:0:0:0:
223,75,132802,1,8,0:0:0:0:
227,69,133024,1,0,0:0:0:0:
176,41,133246,1,8,0:0:0:0:
176,41,133468,1,0,0:0:0:0:
241,89,133913,1,0,0:0:0:0:
241,89,134135,1,8,0:0:0:0:
241,89,134357,1,0,0:0:0:0:
319,89,134801,1,8,0:0:0:0:
272,120,135024,1,0,0:0:0:0:
272,120,135246,1,8,0:0:0:0:
316,220,135690,1,0,0:0:0:0:
208,80,135912,1,0,0:0:0:0:
245,149,136135,5,8,0:0:0:0:
410,82,136283,1,0,0:0:0:0:
205,44,136357,1,8,0:0:0:0:
410,82,136431,1,0,0:0:0:0:
214,32,136505,1,8,0:0:0:0:
410,82,136579,1,0,0:0:0:0:
410,82,136653,1,8,0:0:0:0:
198,84,136801,5,0,0:0:0:0:
441,233,137023,1,8,0:0:0:0:
283,184,137246,1,0,0:0:0:0:
194,138,137468,1,8,0:0:0:0:
194,138,137690,1,0,0:0:0:0:
194,138,137912,1,8,0:0:0:0:
194,138,138134,1,0,0:0:0:0:
159,84,138357,1,0,0:0:0:0:
242,102,138579,1,8,0:0:0:0:
210,157,138801,1,8,0:0:0:0:
286,151,139245,1,0,0:0:0:0:
286,151,139467,1,8,0:0:0:0:
286,151,139690,1,8,0:0:0:0:
210,193,139912,1,0,0:0:0:0:
210,193,140134,1,8,0:0:0:0:
235,182,140356,1,0,0:0:0:0:
190,150,140578,1,8,0:0:0:0:
370,247,141023,1,0,0:0:0:0:
370,247,141245,1,0,0:0:0:0:
370,247,141467,1,8,0:0:0:0:
228,211,141912,1,8,0:0:0:0:
228,211,142134,1,0,0:0:0:0:
228,211,142356,1,8,0:0:0:0:
228,211,142839,1,0,0:0:0:0:
186,118,143081,1,0,0:0:0:0:
201,130,143331,1,8,0:0:0:0:
201,130,143638,1,0,0:0:0:0:
186,100,143971,1,0,0:0:0:0:
186,100,144346,1,8,0:0:0:0:
250,118,144846,1,12,0:0:0:0:
350,253,145068,1,0,0:0:0:0:
350,253,145290,1,8,0:0:0:0:
101,168,145512,1,0,0:0:0:0:
335,233,145734,1,8,0:0:0:0:
335,233,145957,1,0,0:0:0:0:
335,233,146179,1,8,0:0:0:0:
335,233,146401,1,8,0:0:0:0:
335,233,146623,1,8,0:0:0:0:
183,113,147068,1,8,0:0:0:0:
312,111,147290,1,8,0:0:0:0:
259,103,147512,1,0,0:0:0:0:
259,103,147734,1,8,0:0:0:0:
228,46,147957,1,0,0:0:0:0:
228,46,148179,1,0,0:0:0:0:
208,103,148401,1,0,0:0:0:0:
257,115,148846,1,0,0:0:0:0:
377,209,149068,1,8,0:0:0:0:
377,209,149290,1,0,0:0:0:0:
371,195,149734,1,8,0:0:0:0:
265,131,149957,1,0,0:0:0:0:
265,131,150179,1,8,0:0:0:0:
271,137,150623,1,0,0:0:0:0:
271,137,150846,1,0,0:0:0:0:
203,112,151068,1,8,0:0:0:0:
239,82,151216,1,0,0:0:0:0:
236,38,151290,1,8,0:0:0:0:
236,38,151364,1,0,0:0:0:0:
236,38,151438,1,8,0:0:0:0:
236,38,151512,1,0,0:0:0:0:
236,38,151586,1,8,0:0:0:0:
183,39,151734,1,0,0:0:0:0:
203,88,151957,1,8,0:0:0:0:
264,88,152179,1,0,0:0:0:0:
264,88,152401,1,8,0:0:0:0:
264,88,152623,1,0,0:0:0:0:
264,88,152846,1,8,0:0:0:0:
264,88,153068,1,0,0:0:0:0:
264,88,153290,1,8,0:0:0:0:
265,63,153512,1,8,0:0:0:0:
263,64,153734,1,8,0:0:0:0:
181,88,154179,1,8,0:0:0:0:
206,47,154401,1,8,0:0:0:0:
206,47,154623,1,0,0:0:0:0:
206,47,154846,1,8,0:0:0:0:
206,47,155068,1,8,0:0:0:0:
243,69,155290,1,0,0:0:0:0:
377,117,155512,1,8,0:0:0:0:
349,127,155957,1,0,0:0:0:0:
350,127,156179,1,0,0:0:0:0:
349,127,156401,1,8,0:0:0:0:
187,58,156846,1,8,0:0:0:0:
187,58,157068,1,0,0:0:0:0:
187,58,157290,1,8,0:0:0:0:
319,109,157734,1,0,0:0:0:0:
319,109,157957,1,8,0:0:0:0:
175,97,158179,1,0,0:0:0:0:
175,97,158401,1,8,0:0:0:0:
289,85,158623,1,0,0:0:0:0:
289,85,158846,1,8,0:0:0:0:
239,53,159068,1,8,0:0:0:0:
239,53,159290,1,0,0:0:0:0:
239,53,159512,1,8,0:0:0:0:
239,53,159734,1,0,0:0:0:0:
239,53,159957,1,8,0:0:0:0:
239,53,160179,1,0,0:0:0:0:
239,53,160401,1,0,0:0:0:0:
239,53,160623,1,8,0:0:0:0:
245,61,160846,1,8,0:0:0:0:
245,64,161068,1,0,0:0:0:0:
244,64,161290,1,8,0:0:0:0:
245,61,161512,1,0,0:0:0:0:
245,64,161734,1,8,0:0:0:0:
136,75,161957,1,0,0:0:0:0:
136,75,162179,1,0,0:0:0:0:
136,75,162401,1,0,0:0:0:0:
136,75,162623,1,8,0:0:0:0:
398,120,163068,1,0,0:0:0:0:
179,131,163290,1,0,0:0:0:0:
186,129,163512,1,8,0:0:0:0:
185,127,163957,1,8,0:0:0:0:
186,129,164179,1,0,0:0:0:0:
185,127,164401,1,8,0:0:0:0:
181,122,164845,1,0,0:0:0:0:
185,127,165068,1,0,0:0:0:0:
181,122,165290,1,8,0:0:0:0:
323,75,165438,1,0,0:0:0:0:
323,75,165512,1,8,0:0:0:0:
279,106,165586,1,0,0:0:0:0:
279,106,165660,1,8,0:0:0:0:
279,106,165734,1,0,0:0:0:0:
234,80,165808,1,8,0:0:0:0:
272,87,165957,1,0,0:0:0:0:
290,100,166179,1,8,0:0:0:0:
266,84,166401,1,0,0:0:0:0:
272,87,166623,1,8,0:0:0:0:
266,84,166845,1,0,0:0:0:0:
266,84,167068,1,8,0:0:0:0:
272,87,167290,1,0,0:0:0:0:
255,184,167401,1,0,0:0:0:0:
266,84,167512,1,8,0:0:0:0:
266,84,167734,1,8,0:0:0:0:
272,87,167957,1,8,0:0:0:0:
266,84,168179,1,0,0:0:0:0:
266,84,168401,1,8,0:0:0:0:
242,74,168623,1,8,0:0:0:0:
239,73,168845,1,0,0:0:0:0:
239,73,169068,1,8,0:0:0:0:
371,220,169179,1,8,0:0:0:0:
242,74,169290,1,8,0:0:0:0:
239,73,169512,1,0,0:0:0:0:
389,237,169734,1,8,0:0:0:0:
216,118,169957,1,8,0:0:0:0:
216,118,170068,1,8,0:0:0:0:
216,118,170179,1,0,0:0:0:0:
409,116,170290,1,0,0:0:0:0:
244,117,170401,1,8,0:0:0:0:
275,89,170623,1,8,0:0:0:0:
201,93,170845,1,0,0:0:0:0:
281,48,170957,1,0,0:0:0:0:
211,97,171068,1,8,0:0:0:0:
236,91,171290,1,8,0:0:0:0:
235,91,171512,1,8,0:0:0:0:
235,91,171734,1,0,0:0:0:0:
351,78,171845,1,0,0:0:0:0:
236,91,171957,1,8,0:0:0:0:
235,91,172179,1,0,0:0:0:0:
235,91,172401,1,8,0:0:0:0:
236,91,172623,1,8,0:0:0:0:
235,91,172845,1,8,0:0:0:0:
235,91,172957,1,8,0:0:0:0:
209,82,173068,1,8,0:0:0:0:
209,82,173123,1,8,0:0:0:0:
210,80,173179,1,8,0:0:0:0:
235,91,173234,1,8,0:0:0:0:
256,192,173290,12,0,175364,0:0:0:0:
329,152,175927,5,12,0:0:0:0:
254,187,177482,5,4,0:0:0:0:
254,187,177704,1,4,0:0:0:0:
254,187,177927,1,4,0:0:0:0:
254,187,179260,1,0,0:0:0:0:
254,187,179482,1,4,0:0:0:0:
234,80,181038,1,4,0:0:0:0:
234,80,181260,1,4,0:0:0:0:
234,80,181482,1,4,0:0:0:0:
234,80,182815,1,0,0:0:0:0:
234,80,183038,1,4,0:0:0:0:
234,80,183260,1,8,0:0:0:0:
234,80,183704,1,8,0:0:0:0:
234,80,184149,1,8,0:0:0:0:
234,80,184593,1,4,0:0:0:0:
234,80,184815,1,4,0:0:0:0:
234,80,185038,1,4,0:0:0:0:
234,80,185482,1,8,0:0:0:0:
234,80,185927,1,8,0:0:0:0:
234,80,186371,1,0,0:0:0:0:
234,80,186593,1,4,0:0:0:0:
234,80,186815,1,8,0:0:0:0:
234,80,187260,1,8,0:0:0:0:
234,80,187704,1,8,0:0:0:0:
234,80,188149,1,4,0:0:0:0:
234,80,188371,1,4,0:0:0:0:
234,80,188593,1,4,0:0:0:0:
234,80,189038,1,8,0:0:0:0:
234,80,189482,1,8,0:0:0:0:
234,80,189927,1,0,0:0:0:0:
234,80,190149,1,4,0:0:0:0:
234,80,190371,1,0,0:0:0:0:
234,80,190482,1,8,0:0:0:0:
234,80,190704,1,8,0:0:0:0:
234,80,190815,1,8,0:0:0:0:
234,80,190927,1,0,0:0:0:0:
234,80,191149,1,0,0:0:0:0:
234,80,191260,1,0,0:0:0:0:
234,80,191371,1,8,0:0:0:0:
234,80,191482,1,8,0:0:0:0:
234,80,191593,1,0,0:0:0:0:
234,80,191704,1,8,0:0:0:0:
234,80,191815,1,8,0:0:0:0:
234,80,191927,1,4,0:0:0:0:
234,80,192149,1,0,0:0:0:0:
234,80,192260,1,8,0:0:0:0:
234,80,192482,1,8,0:0:0:0:
234,80,192593,1,0,0:0:0:0:
234,80,192704,1,0,0:0:0:0:
234,80,192927,1,8,0:0:0:0:
234,80,193038,1,8,0:0:0:0:
234,80,193149,1,0,0:0:0:0:
234,80,193260,1,8,0:0:0:0:
234,80,193371,1,0,0:0:0:0:
234,80,193482,1,0,0:0:0:0:
234,80,193593,1,8,0:0:0:0:
234,80,193704,1,4,0:0:0:0:
234,80,193926,1,0,0:0:0:0:
234,80,194038,1,8,0:0:0:0:
234,80,194260,1,8,0:0:0:0:
234,80,194371,1,8,0:0:0:0:
234,80,194482,1,0,0:0:0:0:
234,80,194704,1,0,0:0:0:0:
234,80,194815,1,0,0:0:0:0:
234,80,194926,1,8,0:0:0:0:
234,80,195038,1,8,0:0:0:0:
234,80,195149,1,0,0:0:0:0:
234,80,195260,1,8,0:0:0:0:
234,80,195371,1,8,0:0:0:0:
234,80,195482,1,4,0:0:0:0:
234,80,195704,1,0,0:0:0:0:
234,80,195815,1,8,0:0:0:0:
234,80,196038,1,8,0:0:0:0:
234,80,196149,1,0,0:0:0:0:
234,80,196260,1,0,0:0:0:0:
234,80,196482,1,8,0:0:0:0:
234,80,196593,1,8,0:0:0:0:
234,80,196704,1,0,0:0:0:0:
234,80,196815,1,8,0:0:0:0:
234,80,196926,1,0,0:0:0:0:
234,80,197038,1,8,0:0:0:0:
234,80,197149,1,8,0:0:0:0:
234,80,197260,1,4,0:0:0:0:
234,80,197482,1,8,0:0:0:0:
234,80,197593,1,0,0:0:0:0:
234,80,197815,1,8,0:0:0:0:
234,80,197926,1,0,0:0:0:0:
234,80,198038,1,0,0:0:0:0:
234,80,198260,1,0,0:0:0:0:
234,80,198371,1,8,0:0:0:0:
234,80,198482,1,0,0:0:0:0:
234,80,198593,1,8,0:0:0:0:
234,80,198704,1,0,0:0:0:0:
234,80,198815,1,0,0:0:0:0:
234,80,198926,1,8,0:0:0:0:
234,80,199038,1,4,0:0:0:0:
234,80,199260,1,8,0:0:0:0:
234,80,199371,1,0,0:0:0:0:
234,80,199593,1,8,0:0:0:0:
234,80,199704,1,0,0:0:0:0:
234,80,199815,1,0,0:0:0:0:
234,80,200038,1,8,0:0:0:0:
234,80,200149,1,8,0:0:0:0:
234,80,200260,1,0,0:0:0:0:
234,80,200371,1,8,0:0:0:0:
234,80,200482,1,8,0:0:0:0:
234,80,200593,1,0,0:0:0:0:
234,80,200704,1,8,0:0:0:0:
234,80,200815,1,4,0:0:0:0:
234,80,201038,1,8,0:0:0:0:
234,80,201149,1,0,0:0:0:0:
234,80,201371,1,8,0:0:0:0:
234,80,201482,1,8,0:0:0:0:
234,80,201593,1,0,0:0:0:0:
234,80,201815,1,0,0:0:0:0:
234,80,201926,1,8,0:0:0:0:
234,80,202038,1,8,0:0:0:0:
234,80,202149,1,0,0:0:0:0:
234,80,202260,1,8,0:0:0:0:
234,80,202371,1,0,0:0:0:0:
234,80,202482,1,8,0:0:0:0:
234,80,202593,1,4,0:0:0:0:
234,80,202815,1,8,0:0:0:0:
234,80,202926,1,0,0:0:0:0:
234,80,203149,1,8,0:0:0:0:
234,80,203260,1,0,0:0:0:0:
234,80,203371,1,0,0:0:0:0:
234,80,203593,1,8,0:0:0:0:
234,80,203704,1,0,0:0:0:0:
234,80,203815,1,8,0:0:0:0:
234,80,203926,1,0,0:0:0:0:
234,80,204038,1,8,0:0:0:0:
234,80,204149,1,0,0:0:0:0:
234,80,204260,1,0,0:0:0:0:
256,192,204371,12,0,206038,0:0:0:0:
234,80,206149,5,8,0:0:0:0:
234,80,206260,1,0,0:0:0:0:
234,80,206371,1,8,0:0:0:0:
234,80,206482,1,0,0:0:0:0:
234,80,206593,1,8,0:0:0:0:
234,80,206649,1,8,0:0:0:0:
234,80,206704,1,0,0:0:0:0:
234,80,206815,1,8,0:0:0:0:
234,80,206926,1,0,0:0:0:0:
234,80,206982,1,0,0:0:0:0:
234,80,207038,1,8,0:0:0:0:
234,80,207260,1,8,0:0:0:0:
234,80,207482,1,0,0:0:0:0:
234,80,207593,1,0,0:0:0:0:
234,80,207649,1,0,0:0:0:0:
234,80,207704,1,8,0:0:0:0:
257,178,207926,1,0,0:0:0:0:
234,80,208038,1,8,0:0:0:0:
234,80,208093,1,8,0:0:0:0:
234,80,208149,1,0,0:0:0:0:
234,80,208260,1,0,0:0:0:0:
234,80,208315,1,0,0:0:0:0:
234,80,208371,1,8,0:0:0:0:
234,80,208482,1,0,0:0:0:0:
234,80,208538,1,0,0:0:0:0:
234,80,208593,1,8,0:0:0:0:
234,80,208649,1,0,0:0:0:0:
234,80,208704,1,8,0:0:0:0:
234,80,208760,1,8,0:0:0:0:
234,80,208815,1,0,0:0:0:0:
234,80,208926,1,8,0:0:0:0:
234,80,208982,1,8,0:0:0:0:
234,80,209038,1,0,0:0:0:0:
234,80,209149,1,8,0:0:0:0:
234,80,209260,1,0,0:0:0:0:
234,80,209371,1,8,0:0:0:0:
234,80,209426,1,8,0:0:0:0:
234,80,209482,1,0,0:0:0:0:
234,80,209538,1,0,0:0:0:0:
234,80,209593,1,8,0:0:0:0:
234,80,209704,1,0,0:0:0:0:
234,80,209815,1,8,0:0:0:0:
234,80,209871,1,8,0:0:0:0:
234,80,209926,1,0,0:0:0:0:
234,80,210038,1,0,0:0:0:0:
234,80,210093,1,0,0:0:0:0:
234,80,210149,1,8,0:0:0:0:
234,80,210260,1,0,0:0:0:0:
234,80,210371,1,8,0:0:0:0:
234,80,210426,1,0,0:0:0:0:
234,80,210482,1,8,0:0:0:0:
234,80,210593,1,0,0:0:0:0:
234,80,210704,1,8,0:0:0:0:
234,80,210760,1,8,0:0:0:0:
234,80,210815,1,0,0:0:0:0:
234,80,210871,1,8,0:0:0:0:
234,80,210926,1,0,0:0:0:0:
234,80,210982,1,0,0:0:0:0:
234,80,211038,1,8,0:0:0:0:
234,80,211149,1,8,0:0:0:0:
234,80,211204,1,8,0:0:0:0:
234,80,211260,1,0,0:0:0:0:
234,80,211315,1,0,0:0:0:0:
234,80,211371,1,8,0:0:0:0:
234,80,211482,1,0,0:0:0:0:
234,80,211593,1,8,0:0:0:0:
234,80,211649,1,8,0:0:0:0:
234,80,211704,1,0,0:0:0:0:
234,80,211815,1,8,0:0:0:0:
234,80,211926,1,0,0:0:0:0:
234,80,211982,1,8,0:0:0:0:
234,80,212038,1,8,0:0:0:0:
234,80,212149,1,8,0:0:0:0:
234,80,212260,1,0,0:0:0:0:
234,80,212371,1,8,0:0:0:0:
234,80,212426,1,8,0:0:0:0:
234,80,212482,1,0,0:0:0:0:
234,80,212593,1,8,0:0:0:0:
234,80,212649,1,0,0:0:0:0:
234,80,212704,1,8,0:0:0:0:
234,80,212760,1,8,0:0:0:0:
234,80,212815,1,0,0:0:0:0:
234,80,212871,1,0,0:0:0:0:
234,80,212926,1,8,0:0:0:0:
234,80,213038,1,8,0:0:0:0:
234,80,213149,1,0,0:0:0:0:
234,80,213260,1,8,0:0:0:0:
234,80,213315,1,8,0:0:0:0:
234,80,213371,1,0,0:0:0:0:
234,80,213482,1,0,0:0:0:0:
234,80,213538,1,0,0:0:0:0:
234,80,213593,1,8,0:0:0:0:
234,80,213649,1,0,0:0:0:0:
234,80,213704,1,8,0:0:0:0:
234,80,213760,1,8,0:0:0:0:
234,80,213815,1,0,0:0:0:0:
234,80,213926,1,0,0:0:0:0:
234,80,213982,1,0,0:0:0:0:
234,80,214038,1,8,0:0:0:0:
234,80,214149,1,8,0:0:0:0:
234,80,214204,1,0,0:0:0:0:
234,80,214260,1,0,0:0:0:0:
234,80,214315,1,0,0:0:0:0:
234,80,214371,1,8,0:0:0:0:
234,80,214482,1,0,0:0:0:0:
234,80,214538,1,0,0:0:0:0:
234,80,214593,1,8,0:0:0:0:
234,80,214649,1,8,0:0:0:0:
234,80,214704,1,0,0:0:0:0:
234,80,214815,1,0,0:0:0:0:
234,80,214926,1,8,0:0:0:0:
234,80,215038,1,0,0:0:0:0:
234,80,215149,1,8,0:0:0:0:
234,80,215204,1,0,0:0:0:0:
234,80,215260,1,8,0:0:0:0:
234,80,215371,1,0,0:0:0:0:
234,80,215482,1,8,0:0:0:0:
234,80,215538,1,8,0:0:0:0:
234,80,215593,1,0,0:0:0:0:
234,80,215704,1,8,0:0:0:0:
234,80,215760,1,8,0:0:0:0:
234,80,215815,1,0,0:0:0:0:
234,80,215871,1,0,0:0:0:0:
234,80,215926,1,0,0:0:0:0:
234,80,216038,1,8,0:0:0:0:
234,80,216093,1,0,0:0:0:0:
234,80,216149,1,8,0:0:0:0:
234,80,216204,1,8,0:0:0:0:
234,80,216260,1,0,0:0:0:0:
234,80,216315,1,0,0:0:0:0:
234,80,216371,1,8,0:0:0:0:
234,80,216482,1,8,0:0:0:0:
234,80,216593,1,0,0:0:0:0:
234,80,216649,1,0,0:0:0:0:
234,80,216704,1,8,0:0:0:0:
234,80,216815,1,0,0:0:0:0:
234,80,216926,1,8,0:0:0:0:
234,80,216982,1,8,0:0:0:0:
234,80,217038,1,0,0:0:0:0:
234,80,217149,1,8,0:0:0:0:
234,80,217204,1,0,0:0:0:0:
234,80,217260,1,8,0:0:0:0:
234,80,217371,1,0,0:0:0:0:
234,80,217426,1,8,0:0:0:0:
234,80,217482,1,8,0:0:0:0:
234,80,217538,1,8,0:0:0:0:
234,80,217593,1,0,0:0:0:0:
234,80,217704,1,8,0:0:0:0:
234,80,217815,1,0,0:0:0:0:
234,80,217926,1,8,0:0:0:0:
234,80,217982,1,8,0:0:0:0:
234,80,218038,1,8,0:0:0:0:
234,80,218093,1,8,0:0:0:0:
234,80,218149,1,0,0:0:0:0:
234,80,218260,1,8,0:0:0:0:
234,80,218371,1,0,0:0:0:0:
234,80,218426,1,0,0:0:0:0:
234,80,218482,1,8,0:0:0:0:
234,80,218593,1,0,0:0:0:0:
234,80,218704,1,8,0:0:0:0:
234,80,218760,1,8,0:0:0:0:
234,80,218815,1,0,0:0:0:0:
234,80,218926,1,8,0:0:0:0:
234,80,219038,1,0,0:0:0:0:
234,80,219093,1,8,0:0:0:0:
234,80,219149,1,8,0:0:0:0:
234,80,219260,1,0,0:0:0:0:
234,80,219371,1,8,0:0:0:0:
234,80,219482,1,0,0:0:0:0:
234,80,219593,1,8,0:0:0:0:
234,80,219649,1,0,0:0:0:0:
234,80,219704,1,8,0:0:0:0:
234,80,219760,1,8,0:0:0:0:
234,80,219815,1,0,0:0:0:0:
234,80,219926,1,8,0:0:0:0:
234,80,219982,1,0,0:0:0:0:
234,80,220038,1,0,0:0:0:0:
234,80,220093,1,0,0:0:0:0:
234,80,220149,1,8,0:0:0:0:
234,80,220260,1,0,0:0:0:0:
234,80,220315,1,0,0:0:0:0:
234,80,220371,1,8,0:0:0:0:
234,80,220482,1,0,0:0:0:0:
234,80,220593,1,8,0:0:0:0:
234,80,220704,1,8,0:0:0:0:
234,80,220760,1,0,0:0:0:0:
234,80,220815,1,8,0:0:0:0:
234,80,220871,1,8,0:0:0:0:
234,80,220926,1,0,0:0:0:0:
234,80,220982,1,0,0:0:0:0:
234,80,221038,1,8,0:0:0:0:
234,80,221149,1,0,0:0:0:0:
234,80,221204,1,0,0:0:0:0:
234,80,221260,1,8,0:0:0:0:
234,80,221315,1,8,0:0:0:0:
234,80,221371,1,0,0:0:0:0:
234,80,221482,1,8,0:0:0:0:
234,80,221538,1,8,0:0:0:0:
234,80,221593,1,8,0:0:0:0:
234,80,221649,1,8,0:0:0:0:
234,80,221704,1,0,0:0:0:0:
234,80,221815,1,8,0:0:0:0:
234,80,221871,1,8,0:0:0:0:
234,80,221926,1,0,0:0:0:0:
234,80,222038,1,8,0:0:0:0:
234,80,222149,1,0,0:0:0:0:
234,80,222260,1,8,0:0:0:0:
234,80,222315,1,8,0:0:0:0:
234,80,222371,1,0,0:0:0:0:
234,80,222482,1,8,0:0:0:0:
234,80,222593,1,0,0:0:0:0:
234,80,222649,1,8,0:0:0:0:
234,80,222704,1,0,0:0:0:0:
234,80,222760,1,0,0:0:0:0:
234,80,222815,1,8,0:0:0:0:
234,80,222926,1,0,0:0:0:0:
234,80,223038,1,8,0:0:0:0:
234,80,223149,1,0,0:0:0:0:
234,80,223204,1,0,0:0:0:0:
234,80,223260,1,8,0:0:0:0:
234,80,223315,1,8,0:0:0:0:
234,80,223371,1,8,0:0:0:0:
234,80,223482,1,8,0:0:0:0:
234,80,223538,1,8,0:0:0:0:
234,80,223593,1,0,0:0:0:0:
234,80,223704,1,8,0:0:0:0:
234,80,223815,1,0,0:0:0:0:
234,80,223926,1,8,0:0:0:0:
234,80,223982,1,0,0:0:0:0:
234,80,224038,1,8,0:0:0:0:
234,80,224093,1,0,0:0:0:0:
234,80,224149,1,0,0:0:0:0:
234,80,224204,1,0,0:0:0:0:
234,80,224260,1,8,0:0:0:0:
234,80,224371,1,0,0:0:0:0:
234,80,224482,1,8,0:0:0:0:
234,80,224538,1,8,0:0:0:0:
234,80,224593,1,0,0:0:0:0:
234,80,224704,1,8,0:0:0:0:
234,80,224815,1,0,0:0:0:0:
234,80,224926,1,8,0:0:0:0:
234,80,224982,1,0,0:0:0:0:
234,80,225038,1,0,0:0:0:0:
234,80,225149,1,8,0:0:0:0:
234,80,225260,1,0,0:0:0:0:
234,80,225315,1,8,0:0:0:0:
234,80,225371,1,8,0:0:0:0:
234,80,225426,1,8,0:0:0:0:
234,80,225482,1,0,0:0:0:0:
234,80,225593,1,8,0:0:0:0:
234,80,225704,1,0,0:0:0:0:
234,80,225815,1,8,0:0:0:0:
234,80,225871,1,8,0:0:0:0:
234,80,225926,1,0,0:0:0:0:
234,80,226038,1,8,0:0:0:0:
234,80,226149,1,0,0:0:0:0:
234,80,226204,1,8,0:0:0:0:
234,80,226260,1,8,0:0:0:0:
234,80,226371,1,0,0:0:0:0:
234,80,226482,1,8,0:0:0:0:
234,80,226538,1,8,0:0:0:0:
234,80,226593,1,0,0:0:0:0:
234,80,226704,1,8,0:0:0:0:
234,80,226815,1,8,0:0:0:0:
234,80,226871,1,0,0:0:0:0:
234,80,226926,1,8,0:0:0:0:
234,80,226982,1,8,0:0:0:0:
234,80,227038,1,0,0:0:0:0:
234,80,227149,1,0,0:0:0:0:
234,80,227204,1,0,0:0:0:0:
234,80,227260,1,8,0:0:0:0:
234,80,227371,1,0,0:0:0:0:
234,80,227482,1,8,0:0:0:0:
234,80,227538,1,0,0:0:0:0:
234,80,227593,1,8,0:0:0:0:
234,80,227649,1,8,0:0:0:0:
234,80,227704,1,0,0:0:0:0:
234,80,227760,1,0,0:0:0:0:
234,80,227815,1,8,0:0:0:0:
234,80,227926,1,8,0:0:0:0:
234,80,228038,1,0,0:0:0:0:
234,80,228093,1,0,0:0:0:0:
234,80,228149,1,8,0:0:0:0:
234,80,228260,1,0,0:0:0:0:
234,80,228315,1,0,0:0:0:0:
234,80,228371,1,8,0:0:0:0:
234,80,228426,1,0,0:0:0:0:
234,80,228482,1,8,0:0:0:0:
234,80,228538,1,8,0:0:0:0:
234,80,228593,1,0,0:0:0:0:
234,80,228704,1,0,0:0:0:0:
234,80,228760,1,0,0:0:0:0:
234,80,228815,1,8,0:0:0:0:
234,80,228871,1,8,0:0:0:0:
234,80,228926,1,8,0:0:0:0:
234,80,228982,1,8,0:0:0:0:
234,80,229038,1,0,0:0:0:0:
234,80,229093,1,0,0:0:0:0:
234,80,229149,1,8,0:0:0:0:
234,80,229260,1,0,0:0:0:0:
234,80,229371,1,8,0:0:0:0:
234,80,229426,1,8,0:0:0:0:
234,80,229482,1,0,0:0:0:0:
234,80,229593,1,8,0:0:0:0:
234,80,229704,1,0,0:0:0:0:
234,80,229760,1,8,0:0:0:0:
234,80,229815,1,8,0:0:0:0:
234,80,229871,1,0,0:0:0:0:
234,80,229926,1,8,0:0:0:0:
234,80,230038,1,0,0:0:0:0:
234,80,230149,1,8,0:0:0:0:
234,80,230204,1,0,0:0:0:0:
234,80,230260,1,8,0:0:0:0:
234,80,230315,1,8,0:0:0:0:
234,80,230371,1,0,0:0:0:0:
234,80,230426,1,8,0:0:0:0:
234,80,230482,1,0,0:0:0:0:
234,80,230593,1,8,0:0:0:0:
234,80,230649,1,0,0:0:0:0:
234,80,230704,1,0,0:0:0:0:
234,80,230815,1,8,0:0:0:0:
234,80,230871,1,0,0:0:0:0:
234,80,230926,1,8,0:0:0:0:
234,80,231038,1,0,0:0:0:0:
234,80,231149,1,8,0:0:0:0:
234,80,231204,1,0,0:0:0:0:
234,80,231260,1,8,0:0:0:0:
234,80,231315,1,8,0:0:0:0:
234,80,231371,1,0,0:0:0:0:
234,80,231482,1,8,0:0:0:0:
234,80,231538,1,8,0:0:0:0:
234,80,231593,1,0,0:0:0:0:
234,80,231704,1,8,0:0:0:0:
234,80,231815,1,0,0:0:0:0:
234,80,231926,1,8,0:0:0:0:
234,80,232038,1,0,0:0:0:0:
234,80,232093,1,0,0:0:0:0:
234,80,232149,1,8,0:0:0:0:
234,80,232204,1,8,0:0:0:0:
234,80,232260,1,8,0:0:0:0:
234,80,232315,1,0,0:0:0:0:
234,80,232371,1,8,0:0:0:0:
234,80,232482,1,0,0:0:0:0:
234,80,232538,1,0,0:0:0:0:
234,80,232593,1,8,0:0:0:0:
234,80,232649,1,8,0:0:0:0:
234,80,232704,1,0,0:0:0:0:
234,80,232815,1,8,0:0:0:0:
234,80,232926,1,0,0:0:0:0:
234,80,232982,1,8,0:0:0:0:
234,80,233038,1,8,0:0:0:0:
234,80,233149,1,0,0:0:0:0:
234,80,233260,1,8,0:0:0:0:
234,80,233315,1,8,0:0:0:0:
234,80,233371,1,8,0:0:0:0:
234,80,233482,1,0,0:0:0:0:
234,80,233593,1,8,0:0:0:0:
234,80,233704,1,0,0:0:0:0:
234,80,233815,1,8,0:0:0:0:
234,80,233871,1,8,0:0:0:0:
234,80,233926,1,0,0:0:0:0:
234,80,233982,1,0,0:0:0:0:
234,80,234038,1,8,0:0:0:0:
234,80,234093,1,0,0:0:0:0:
234,80,234149,1,8,0:0:0:0:
234,80,234204,1,8,0:0:0:0:
234,80,234260,1,0,0:0:0:0:
234,80,234371,1,8,0:0:0:0:
234,80,234426,1,8,0:0:0:0:
234,80,234482,1,0,0:0:0:0:
234,80,234593,5,8,0:0:0:0:
234,80,234704,1,0,0:0:0:0:
234,80,234760,1,8,0:0:0:0:
234,80,234815,1,0,0:0:0:0:
234,80,234871,1,0,0:0:0:0:
234,80,234926,1,8,0:0:0:0:
234,80,235038,1,8,0:0:0:0:
234,80,235093,1,8,0:0:0:0:
234,80,235149,1,0,0:0:0:0:
234,80,235204,1,0,0:0:0:0:
234,80,235260,1,8,0:0:0:0:
234,80,235315,1,0,0:0:0:0:
234,80,235371,1,8,0:0:0:0:
234,80,235482,1,0,0:0:0:0:
234,80,235538,1,0,0:0:0:0:
234,80,235593,1,0,0:0:0:0:
234,80,235649,1,0,0:0:0:0:
234,80,235704,1,8,0:0:0:0:
234,80,235760,1,8,0:0:0:0:
234,80,235815,1,0,0:0:0:0:
234,80,235926,1,8,0:0:0:0:
234,80,235982,1,8,0:0:0:0:
234,80,236038,1,0,0:0:0:0:
234,80,236093,1,8,0:0:0:0:
234,80,236149,1,0,0:0:0:0:
234,80,236204,1,0,0:0:0:0:
234,80,236260,1,8,0:0:0:0:
294,161,236371,1,0,0:0:0:0:
221,74,236426,1,0,0:0:0:0:
221,74,236482,1,0,0:0:0:0:
212,60,236538,1,0,0:0:0:0:
298,152,236593,1,8,0:0:0:0:
298,152,236649,1,0,0:0:0:0:
234,80,236704,1,8,0:0:0:0:
298,152,236760,1,8,0:0:0:0:
234,80,236815,1,8,0:0:0:0:
234,80,236871,1,8,0:0:0:0:
234,80,236926,1,0,0:0:0:0:
290,92,237038,1,8,0:0:0:0:
246,92,237093,1,8,0:0:0:0:
290,92,237149,1,0,0:0:0:0:
199,47,237204,1,8,0:0:0:0:
199,45,237260,1,0,0:0:0:0:
306,135,237371,1,8,0:0:0:0:
306,135,237482,1,0,0:0:0:0:
201,25,237538,1,0,0:0:0:0:
306,135,237593,1,8,0:0:0:0:
306,135,237649,1,0,0:0:0:0:
306,135,237704,1,8,0:0:0:0:
209,31,237760,1,8,0:0:0:0:
209,31,237815,1,8,0:0:0:0:
209,31,237871,1,0,0:0:0:0:
209,31,237926,1,8,0:0:0:0:
209,31,237982,1,8,0:0:0:0:
209,31,238038,1,0,0:0:0:0:
209,31,238093,1,0,0:0:0:0:
286,113,238149,1,8,0:0:0:0:
286,112,238260,1,0,0:0:0:0:
286,112,238371,1,8,0:0:0:0:
246,147,238482,1,8,0:0:0:0:
246,147,238538,1,8,0:0:0:0:
425,220,238593,1,8,0:0:0:0:
198,69,238649,1,8,0:0:0:0:
425,220,238704,1,0,0:0:0:0:
425,220,238815,1,8,0:0:0:0:
425,220,238871,1,8,0:0:0:0:
425,220,238926,1,0,0:0:0:0:
425,220,238982,1,8,0:0:0:0:
425,220,239038,1,0,0:0:0:0:
356,193,239093,1,0,0:0:0:0:
239,93,239149,1,8,0:0:0:0:
406,201,239260,1,8,0:0:0:0:
239,93,239371,1,0,0:0:0:0:
239,93,239482,1,8,0:0:0:0:
239,93,239538,1,8,0:0:0:0:
239,93,239593,1,0,0:0:0:0:
239,93,239649,1,8,0:0:0:0:
239,93,239704,1,0,0:0:0:0:
239,93,239760,1,0,0:0:0:0:
239,93,239815,1,8,0:0:0:0:
235,42,239871,1,0,0:0:0:0:
235,42,239926,1,8,0:0:0:0:
257,98,240038,1,0,0:0:0:0:
368,172,240149,1,8,0:0:0:0:
368,172,240204,1,0,0:0:0:0:
368,172,240260,1,8,0:0:0:0:
368,172,240315,1,8,0:0:0:0:
281,102,240371,1,0,0:0:0:0:
338,125,240482,1,0,0:0:0:0:
175,64,240593,1,8,0:0:0:0:
338,125,240649,1,8,0:0:0:0:
175,64,240704,1,0,0:0:0:0:
170,59,240760,1,8,0:0:0:0:
199,45,240815,1,0,0:0:0:0:
287,118,240926,1,0,0:0:0:0:
287,118,241038,1,8,0:0:0:0:
335,178,241093,1,8,0:0:0:0:
335,178,241149,1,0,0:0:0:0:
335,178,241204,1,8,0:0:0:0:
335,178,241260,1,0,0:0:0:0:
335,178,241315,1,0,0:0:0:0:
335,178,241371,1,8,0:0:0:0:
335,178,241426,1,8,0:0:0:0:
335,178,241482,1,0,0:0:0:0:
335,178,241538,1,8,0:0:0:0:
333,171,241593,1,0,0:0:0:0:
333,171,241649,1,0,0:0:0:0:
333,171,241704,1,8,0:0:0:0:
399,183,241815,1,0,0:0:0:0:
267,94,241926,1,0,0:0:0:0:
234,82,241982,1,8,0:0:0:0:
267,94,242038,1,0,0:0:0:0:
267,94,242093,1,0,0:0:0:0:
267,94,242149,1,8,0:0:0:0:
267,94,242260,1,0,0:0:0:0:
267,94,242371,1,8,0:0:0:0:
257,70,242482,1,0,0:0:0:0:
267,94,242538,1,0,0:0:0:0:
361,51,242593,1,8,0:0:0:0:
361,51,242649,1,8,0:0:0:0:
310,60,242704,1,0,0:0:0:0:
310,60,242760,1,0,0:0:0:0:
258,56,242815,1,8,0:0:0:0:
258,56,242871,1,0,0:0:0:0:
258,55,242926,1,8,0:0:0:0:
274,101,242982,1,8,0:0:0:0:
307,131,243038,1,0,0:0:0:0:
182,34,243149,1,8,0:0:0:0:
209,55,243204,1,8,0:0:0:0:
183,31,243260,1,0,0:0:0:0:
206,115,243371,1,0,0:0:0:0:
206,115,243426,1,0,0:0:0:0:
206,115,243482,1,8,0:0:0:0:
396,264,243593,1,0,0:0:0:0:
396,264,243704,1,8,0:0:0:0:
265,182,243760,1,0,0:0:0:0:
239,148,243815,1,8,0:0:0:0:
270,178,243871,1,8,0:0:0:0:
270,178,243926,1,0,0:0:0:0:
270,178,243982,1,8,0:0:0:0:
270,178,244038,1,0,0:0:0:0:
270,178,244093,1,0,0:0:0:0:
270,178,244149,1,8,0:0:0:0:
270,178,244204,1,8,0:0:0:0:
261,115,244260,1,0,0:0:0:0:
261,115,244371,1,0,0:0:0:0:
243,83,244482,1,8,0:0:0:0:
244,83,244593,1,0,0:0:0:0:
283,130,244649,1,0,0:0:0:0:
244,83,244704,1,8,0:0:0:0:
244,83,244760,1,0,0:0:0:0:
244,83,244815,1,8,0:0:0:0:
244,83,244871,1,8,0:0:0:0:
244,83,244926,1,0,0:0:0:0:
244,83,244982,1,0,0:0:0:0:
359,276,245038,1,8,0:0:0:0:
244,83,245093,1,0,0:0:0:0:
243,83,245149,1,8,0:0:0:0:
208,148,245204,1,8,0:0:0:0:
208,148,245260,1,0,0:0:0:0:
356,251,245371,1,0,0:0:0:0:
356,251,245482,1,8,0:0:0:0:
329,189,245538,1,0,0:0:0:0:
329,189,245593,1,8,0:0:0:0:
474,364,245649,1,0,0:0:0:0:
246,61,245704,1,8,0:0:0:0:
246,61,245760,1,8,0:0:0:0:
246,61,245815,1,0,0:0:0:0:
246,61,245926,1,8,0:0:0:0:
274,132,246038,1,0,0:0:0:0:
321,202,246093,1,0,0:0:0:0:
297,171,246149,1,8,0:0:0:0:
297,171,246204,1,0,0:0:0:0:
297,171,246260,1,8,0:0:0:0:
162,138,246371,1,0,0:0:0:0:
162,138,246482,1,8,0:0:0:0:
162,138,246593,1,0,0:0:0:0:
162,138,246649,1,0,0:0:0:0:
162,138,246704,1,8,0:0:0:0:
272,80,246760,1,0,0:0:0:0:
246,115,246815,1,8,0:0:0:0:
409,164,246871,1,8,0:0:0:0:
246,92,246926,1,0,0:0:0:0:
246,92,246982,1,0,0:0:0:0:
246,92,247038,1,8,0:0:0:0:
184,115,247149,1,8,0:0:0:0:
185,101,247260,1,0,0:0:0:0:
185,101,247315,1,0,0:0:0:0:
185,101,247371,1,8,0:0:0:0:
185,101,247426,1,8,0:0:0:0:
157,57,247482,1,0,0:0:0:0:
206,97,247593,1,0,0:0:0:0:
200,82,247704,1,8,0:0:0:0:
200,82,247760,1,8,0:0:0:0:
203,83,247815,1,0,0:0:0:0:
203,83,247871,1,8,0:0:0:0:
203,83,247926,1,0,0:0:0:0:
207,24,248038,1,8,0:0:0:0:
207,24,248149,1,0,0:0:0:0:
207,24,248204,1,0,0:0:0:0:
207,24,248260,1,8,0:0:0:0:
183,61,248315,1,8,0:0:0:0:
207,24,248371,1,0,0:0:0:0:
168,27,248426,1,0,0:0:0:0:
270,134,248482,1,8,0:0:0:0:
283,68,248538,1,0,0:0:0:0:
283,68,248593,1,8,0:0:0:0:
270,134,248649,1,8,0:0:0:0:
213,167,248704,1,0,0:0:0:0:
270,134,248760,1,0,0:0:0:0:
270,134,248815,1,8,0:0:0:0:
270,134,248926,1,8,0:0:0:0:
235,69,249038,1,0,0:0:0:0:
235,69,249149,1,8,0:0:0:0:
235,69,249204,1,8,0:0:0:0:
248,89,249260,1,8,0:0:0:0:
248,89,249371,1,0,0:0:0:0:
248,89,249482,1,8,0:0:0:0:
248,89,249538,1,8,0:0:0:0:
248,89,249593,1,0,0:0:0:0:
263,109,249649,1,0,0:0:0:0:
276,121,249704,5,12,0:0:0:0:
200,13,249926,1,4,0:0:0:0:
287,117,250149,1,4,0:0:0:0:
359,160,250371,1,12,0:0:0:0:
270,145,250593,1,0,0:0:0:0:
270,145,250649,1,0,0:0:0:0:
270,143,250704,1,8,0:0:0:0:
270,143,250760,1,0,0:0:0:0:
267,97,250815,1,8,0:0:0:0:
267,97,250871,1,8,0:0:0:0:
267,97,250926,1,0,0:0:0:0:
267,97,250982,1,8,0:0:0:0:
175,47,251038,1,0,0:0:0:0:
175,47,251093,1,8,0:0:0:0:
364,91,251149,1,0,0:0:0:0:
345,97,251260,1,8,0:0:0:0:
134,176,251371,1,8,0:0:0:0:
225,78,251426,1,8,0:0:0:0:
225,78,251482,1,0,0:0:0:0:
227,135,251593,1,0,0:0:0:0:
225,78,251704,1,8,0:0:0:0:
225,78,251760,1,8,0:0:0:0:
225,78,251815,1,0,0:0:0:0:
225,78,251871,1,0,0:0:0:0:
225,78,251926,1,8,0:0:0:0:
225,78,251982,1,8,0:0:0:0:
225,78,252038,1,0,0:0:0:0:
225,78,252093,1,0,0:0:0:0:
225,78,252149,1,8,0:0:0:0:
225,78,252204,1,8,0:0:0:0:
225,78,252260,1,0,0:0:0:0:
225,78,252315,1,8,0:0:0:0:
225,78,252371,1,0,0:0:0:0:
225,78,252482,1,0,0:0:0:0:
226,127,252593,1,8,0:0:0:0:
173,111,252649,1,8,0:0:0:0:
173,111,252704,1,0,0:0:0:0:
172,133,252760,1,0,0:0:0:0:
172,133,252815,1,8,0:0:0:0:
226,127,252926,1,0,0:0:0:0:
226,127,253038,1,8,0:0:0:0:
225,78,253093,1,0,0:0:0:0:
155,82,253149,1,8,0:0:0:0:
267,84,253260,1,0,0:0:0:0:
267,84,253371,1,8,0:0:0:0:
267,84,253426,1,0,0:0:0:0:
267,84,253482,1,8,0:0:0:0:
267,84,253538,1,0,0:0:0:0:
267,84,253593,1,0,0:0:0:0:
267,84,253649,1,0,0:0:0:0:
267,84,253704,1,8,0:0:0:0:
267,84,253760,1,0,0:0:0:0:
267,84,253815,1,8,0:0:0:0:
267,84,253871,1,8,0:0:0:0:
267,84,253926,1,0,0:0:0:0:
267,84,254038,1,0,0:0:0:0:
297,201,254093,1,0,0:0:0:0:
267,84,254149,1,8,0:0:0:0:
277,138,254260,1,0,0:0:0:0:
285,127,254371,1,8,0:0:0:0:
217,64,254426,1,0,0:0:0:0:
285,127,254482,1,8,0:0:0:0:
286,127,254538,1,8,0:0:0:0:
217,64,254593,1,0,0:0:0:0:
288,126,254649,1,8,0:0:0:0:
289,125,254704,1,0,0:0:0:0:
289,125,254760,1,0,0:0:0:0:
289,125,254815,1,8,0:0:0:0:
217,64,254871,1,0,0:0:0:0:
289,125,254926,1,8,0:0:0:0:
233,83,254982,1,8,0:0:0:0:
233,83,255038,1,0,0:0:0:0:
188,63,255149,1,0,0:0:0:0:
200,57,255260,1,8,0:0:0:0:
391,261,255315,1,0,0:0:0:0:
200,57,255371,1,8,0:0:0:0:
200,57,255482,1,0,0:0:0:0:
200,57,255538,1,8,0:0:0:0:
200,57,255593,1,0,0:0:0:0:
200,57,255649,1,0,0:0:0:0:
200,57,255704,1,8,0:0:0:0:
200,57,255760,1,8,0:0:0:0:
211,58,255815,1,0,0:0:0:0:
211,58,255871,1,0,0:0:0:0:
211,58,255926,1,8,0:0:0:0:
308,162,256038,1,8,0:0:0:0:
308,162,256149,1,0,0:0:0:0:
230,55,256204,1,0,0:0:0:0:
240,118,256260,1,8,0:0:0:0:
240,118,256315,1,8,0:0:0:0:
240,118,256371,1,0,0:0:0:0:
240,118,256482,1,8,0:0:0:0:
190,64,256593,1,0,0:0:0:0:
190,64,256649,1,0,0:0:0:0:
190,64,256704,1,8,0:0:0:0:
258,102,256760,1,0,0:0:0:0:
190,64,256815,1,8,0:0:0:0:
161,122,256852,1,8,0:0:0:0:
301,41,256889,1,8,0:0:0:0:
301,41,256926,1,0,0:0:0:0:
221,191,256982,1,0,0:0:0:0:
252,47,257038,1,8,0:0:0:0:
354,45,257093,1,0,0:0:0:0:
252,47,257149,1,8,0:0:0:0:
252,47,257204,1,8,0:0:0:0:
252,47,257260,1,0,0:0:0:0:
319,68,257371,1,8,0:0:0:0:
319,68,257426,1,8,0:0:0:0:
319,68,257482,1,0,0:0:0:0:
145,143,257538,1,0,0:0:0:0:
381,69,257593,1,8,0:0:0:0:
381,69,257649,1,8,0:0:0:0:
195,54,257704,1,0,0:0:0:0:
213,86,257815,1,8,0:0:0:0:
306,142,257871,1,0,0:0:0:0:
226,94,257926,1,8,0:0:0:0:
226,90,257982,1,0,0:0:0:0:
226,89,258038,1,8,0:0:0:0:
226,89,258093,1,8,0:0:0:0:
309,180,258149,1,0,0:0:0:0:
214,77,258204,1,8,0:0:0:0:
235,113,258260,1,0,0:0:0:0:
214,77,258371,1,8,0:0:0:0:
234,115,258482,1,8,0:0:0:0:
256,133,258538,1,0,0:0:0:0:
256,133,258593,1,0,0:0:0:0:
186,63,258704,1,8,0:0:0:0:
186,63,258760,1,8,0:0:0:0:
186,63,258815,1,0,0:0:0:0:
186,63,258871,1,0,0:0:0:0:
246,63,258926,1,8,0:0:0:0:
186,63,258982,1,0,0:0:0:0:
186,63,259038,1,8,0:0:0:0:
186,63,259093,1,0,0:0:0:0:
186,63,259149,1,8,0:0:0:0:
243,44,259204,1,8,0:0:0:0:
243,44,259260,1,0,0:0:0:0:
243,44,259315,1,0,0:0:0:0:
243,44,259371,1,8,0:0:0:0:
291,148,259426,1,8,0:0:0:0:
291,148,259482,1,0,0:0:0:0:
323,146,259593,1,0,0:0:0:0:
299,117,259704,1,8,0:0:0:0:
215,184,259815,1,0,0:0:0:0:
272,62,259871,1,0,0:0:0:0:
299,117,259926,1,8,0:0:0:0:
299,117,259982,1,8,0:0:0:0:
299,117,260038,1,0,0:0:0:0:
299,117,260093,1,0,0:0:0:0:
299,117,260149,1,8,0:0:0:0:
299,117,260204,1,8,0:0:0:0:
299,117,260260,1,0,0:0:0:0:
245,78,260315,1,0,0:0:0:0:
245,78,260371,1,8,0:0:0:0:
245,78,260482,1,0,0:0:0:0:
245,78,260593,1,8,0:0:0:0:
226,48,260649,1,8,0:0:0:0:
157,136,260704,1,0,0:0:0:0:
157,136,260760,1,0,0:0:0:0:
157,136,260815,1,8,0:0:0:0:
291,86,260871,1,8,0:0:0:0:
291,86,260926,1,0,0:0:0:0:
291,86,260982,1,0,0:0:0:0:
186,166,261038,1,8,0:0:0:0:
291,86,261093,1,0,0:0:0:0:
291,86,261149,1,8,0:0:0:0:
219,37,261204,1,8,0:0:0:0:
133,166,261260,1,0,0:0:0:0:
147,141,261371,1,0,0:0:0:0:
255,73,261482,1,8,0:0:0:0:
223,128,261538,1,0,0:0:0:0:
223,128,261593,1,8,0:0:0:0:
223,128,261649,1,8,0:0:0:0:
223,128,261704,1,0,0:0:0:0:
179,26,261760,1,0,0:0:0:0:
179,26,261815,1,8,0:0:0:0:
179,26,261871,1,0,0:0:0:0:
179,26,261926,1,8,0:0:0:0:
179,26,261982,1,8,0:0:0:0:
179,26,262038,1,0,0:0:0:0:
179,26,262093,1,8,0:0:0:0:
179,26,262149,1,0,0:0:0:0:
294,166,262260,1,8,0:0:0:0:
179,26,262315,1,8,0:0:0:0:
179,26,262371,1,0,0:0:0:0:
179,26,262426,1,0,0:0:0:0:
179,26,262482,1,8,0:0:0:0:
255,70,262538,1,0,0:0:0:0:
255,70,262593,1,8,0:0:0:0:
255,70,262649,1,8,0:0:0:0:
188,28,262704,1,0,0:0:0:0:
198,29,262760,1,8,0:0:0:0:
242,62,262815,1,0,0:0:0:0:
199,29,262871,1,0,0:0:0:0:
199,29,262926,1,8,0:0:0:0:
294,166,262982,1,0,0:0:0:0:
294,166,263038,1,8,0:0:0:0:
221,97,263149,1,0,0:0:0:0:
221,97,263204,1,0,0:0:0:0:
221,97,263260,1,8,0:0:0:0:
265,72,263315,1,0,0:0:0:0:
265,72,263371,1,8,0:0:0:0:
265,72,263426,1,8,0:0:0:0:
265,72,263482,1,0,0:0:0:0:
265,72,263538,1,8,0:0:0:0:
186,42,263593,1,0,0:0:0:0:
173,103,263649,1,0,0:0:0:0:
264,86,263704,1,8,0:0:0:0:
80,182,263760,1,8,0:0:0:0:
264,86,263815,1,0,0:0:0:0:
264,86,263926,1,8,0:0:0:0:
164,184,263982,1,8,0:0:0:0:
164,184,264038,1,8,0:0:0:0:
300,200,264093,1,8,0:0:0:0:
300,200,264149,1,0,0:0:0:0:
300,200,264204,1,0,0:0:0:0:
300,200,264260,1,0,0:0:0:0:
213,73,264315,1,0,0:0:0:0:
310,152,264371,5,8,0:0:0:0:
310,152,264408,1,8,0:0:0:0:
310,152,264445,1,8,0:0:0:0:
310,152,264482,1,8,0:0:0:0:
310,152,264593,1,0,0:0:0:0:
310,152,264630,1,0,0:0:0:0:
310,152,264667,1,0,0:0:0:0:
310,152,264704,1,0,0:0:0:0:
208,46,264815,1,12,0:0:0:0:
154,238,265704,2,0,L|110:234,6,35
232,223,266149,1,0,0:0:0:0:
207,28,266371,1,8,0:0:0:0:
254,74,266482,1,8,0:0:0:0:
279,163,266593,1,4,0:0:0:0:
279,163,266704,1,0,0:0:0:0:
146,91,266760,1,0,0:0:0:0:
279,163,266815,1,8,0:0:0:0:
279,163,266926,1,8,0:0:0:0:
279,163,267038,1,0,0:0:0:0:
156,168,267093,1,0,0:0:0:0:
279,163,267149,1,0,0:0:0:0:
176,90,267204,1,0,0:0:0:0:
191,182,267260,1,8,0:0:0:0:
279,163,267371,1,8,0:0:0:0:
279,163,267482,1,0,0:0:0:0:
279,163,267593,1,0,0:0:0:0:
156,124,267649,1,0,0:0:0:0:
279,163,267704,1,8,0:0:0:0:
279,163,267815,1,0,0:0:0:0:
279,163,267926,1,8,0:0:0:0:
259,245,267982,1,8,0:0:0:0:
279,163,268038,1,0,0:0:0:0:
279,163,268149,1,8,0:0:0:0:
259,245,268204,1,8,0:0:0:0:
190,159,268260,1,8,0:0:0:0:
259,245,268315,1,8,0:0:0:0:
279,163,268371,1,0,0:0:0:0:
279,163,268482,1,8,0:0:0:0:
279,163,268593,1,0,0:0:0:0:
186,180,268649,1,8,0:0:0:0:
190,159,268704,1,0,0:0:0:0:
162,165,268815,1,8,0:0:0:0:
190,159,268871,1,8,0:0:0:0:
279,163,268926,1,8,0:0:0:0:
182,179,268982,1,8,0:0:0:0:
279,163,269038,1,0,0:0:0:0:
279,163,269149,1,8,0:0:0:0:
279,163,269260,1,0,0:0:0:0:
279,163,269371,1,0,0:0:0:0:
229,172,269426,1,0,0:0:0:0:
279,163,269482,1,8,0:0:0:0:
279,163,269593,1,0,0:0:0:0:
279,163,269704,1,8,0:0:0:0:
122,109,269760,1,0,0:0:0:0:
279,163,269815,1,0,0:0:0:0:
279,163,269926,1,8,0:0:0:0:
102,108,269982,1,8,0:0:0:0:
279,163,270038,1,8,0:0:0:0:
102,108,270093,1,8,0:0:0:0:
279,163,270149,1,0,0:0:0:0:
279,163,270260,1,0,0:0:0:0:
135,132,270315,1,0,0:0:0:0:
279,163,270371,1,8,0:0:0:0:
279,163,270482,1,0,0:0:0:0:
279,163,270593,1,8,0:0:0:0:
201,146,270649,1,8,0:0:0:0:
279,163,270704,1,0,0:0:0:0:
171,148,270760,1,0,0:0:0:0:
279,163,270815,1,8,0:0:0:0:
279,163,270926,1,8,0:0:0:0:
279,163,271038,1,0,0:0:0:0:
279,163,271149,1,8,0:0:0:0:
213,259,271204,1,0,0:0:0:0:
279,163,271260,1,8,0:0:0:0:
279,163,271371,1,0,0:0:0:0:
208,210,271482,1,0,0:0:0:0:
208,210,271538,1,0,0:0:0:0:
279,163,271593,1,8,0:0:0:0:
208,210,271649,1,8,0:0:0:0:
279,163,271704,1,0,0:0:0:0:
279,163,271815,1,8,0:0:0:0:
279,163,271926,1,0,0:0:0:0:
179,123,271982,1,0,0:0:0:0:
279,163,272038,1,0,0:0:0:0:
131,121,272093,1,0,0:0:0:0:
279,163,272149,1,8,0:0:0:0:
279,163,272260,1,8,0:0:0:0:
279,163,272371,1,0,0:0:0:0:
279,163,272482,1,0,0:0:0:0:
250,185,272538,1,0,0:0:0:0:
279,163,272593,1,8,0:0:0:0:
279,163,272704,1,0,0:0:0:0:
279,163,272815,1,8,0:0:0:0:
279,163,272926,1,0,0:0:0:0:
127,119,272982,1,0,0:0:0:0:
279,163,273038,1,8,0:0:0:0:
279,163,273149,1,0,0:0:0:0:
279,163,273260,1,8,0:0:0:0:
182,162,273297,1,8,0:0:0:0:
182,162,273334,1,8,0:0:0:0:
279,163,273371,1,0,0:0:0:0:
182,162,273426,1,0,0:0:0:0:
279,163,273482,1,8,0:0:0:0:
225,183,273538,1,8,0:0:0:0:
279,163,273593,1,0,0:0:0:0:
242,215,273649,1,8,0:0:0:0:
203,133,273704,1,0,0:0:0:0:
270,88,273815,1,0,0:0:0:0:
261,70,273926,1,8,0:0:0:0:
249,50,273982,1,8,0:0:0:0:
263,66,274038,1,0,0:0:0:0:
263,66,274093,1,0,0:0:0:0:
263,65,274149,1,8,0:0:0:0:
263,65,274204,1,0,0:0:0:0:
263,65,274260,1,8,0:0:0:0:
270,66,274371,1,0,0:0:0:0:
270,66,274482,1,8,0:0:0:0:
243,109,274538,1,8,0:0:0:0:
266,65,274593,1,8,0:0:0:0:
217,50,274649,1,8,0:0:0:0:
266,65,274704,1,0,0:0:0:0:
263,66,274815,1,8,0:0:0:0:
283,138,274926,1,0,0:0:0:0:
283,138,274982,1,0,0:0:0:0:
203,56,275038,1,8,0:0:0:0:
203,56,275149,1,0,0:0:0:0:
203,56,275260,1,8,0:0:0:0:
203,56,275371,1,0,0:0:0:0:
246,103,275482,1,8,0:0:0:0:
165,64,275538,1,8,0:0:0:0:
279,163,275593,1,0,0:0:0:0:
183,55,275649,1,0,0:0:0:0:
183,55,275704,1,8,0:0:0:0:
279,163,275815,1,0,0:0:0:0:
279,163,275926,1,8,0:0:0:0:
254,96,275964,1,8,0:0:0:0:
225,63,276001,1,8,0:0:0:0:
279,163,276038,1,0,0:0:0:0:
258,148,276093,1,0,0:0:0:0:
279,163,276149,1,8,0:0:0:0:
279,163,276260,1,0,0:0:0:0:
183,65,276371,1,8,0:0:0:0:
279,163,276426,1,8,0:0:0:0:
279,163,276482,1,8,0:0:0:0:
271,166,276538,1,8,0:0:0:0:
279,163,276593,1,0,0:0:0:0:
139,53,276704,1,8,0:0:0:0:
293,131,276815,1,0,0:0:0:0:
292,131,276871,1,0,0:0:0:0:
192,66,276926,1,8,0:0:0:0:
192,66,276982,1,8,0:0:0:0:
292,131,277038,1,0,0:0:0:0:
292,131,277093,1,0,0:0:0:0:
192,66,277149,1,8,0:0:0:0:
192,66,277204,1,8,0:0:0:0:
192,66,277260,1,0,0:0:0:0:
192,66,277371,1,8,0:0:0:0:
192,66,277482,1,0,0:0:0:0:
192,66,277538,1,0,0:0:0:0:
192,66,277593,1,8,0:0:0:0:
192,66,277704,1,0,0:0:0:0:
192,66,277815,1,8,0:0:0:0:
192,66,277871,1,0,0:0:0:0:
192,66,277926,1,8,0:0:0:0:
192,66,277982,1,8,0:0:0:0:
192,66,278038,1,0,0:0:0:0:
192,66,278149,1,8,0:0:0:0:
192,66,278260,1,0,0:0:0:0:
192,66,278371,1,8,0:0:0:0:
192,66,278426,1,8,0:0:0:0:
192,66,278482,1,0,0:0:0:0:
192,66,278538,1,0,0:0:0:0:
192,66,278593,1,8,0:0:0:0:
192,66,278649,1,0,0:0:0:0:
192,66,278704,1,8,0:0:0:0:
192,66,278815,1,8,0:0:0:0:
192,66,278926,1,0,0:0:0:0:
260,103,279038,1,8,0:0:0:0:
192,66,279093,1,8,0:0:0:0:
192,66,279149,1,0,0:0:0:0:
192,66,279260,1,8,0:0:0:0:
192,66,279371,1,0,0:0:0:0:
192,66,279482,1,8,0:0:0:0:
192,66,279538,1,0,0:0:0:0:
192,66,279593,1,0,0:0:0:0:
192,66,279704,1,8,0:0:0:0:
192,66,279815,1,0,0:0:0:0:
192,66,279926,1,8,0:0:0:0:
192,66,279982,1,0,0:0:0:0:
192,66,280038,1,8,0:0:0:0:
192,66,280093,1,8,0:0:0:0:
192,66,280149,1,0,0:0:0:0:
192,66,280204,1,0,0:0:0:0:
192,66,280260,1,8,0:0:0:0:
192,66,280371,1,0,0:0:0:0:
192,66,280408,1,8,0:0:0:0:
192,66,280445,1,8,0:0:0:0:
192,66,280482,1,0,0:0:0:0:
192,66,280538,1,0,0:0:0:0:
192,66,280593,1,8,0:0:0:0:
192,66,280704,1,0,0:0:0:0:
192,66,280815,1,8,0:0:0:0:
192,66,280871,1,8,0:0:0:0:
192,66,280926,1,0,0:0:0:0:
192,66,281038,1,8,0:0:0:0:
192,66,281149,1,0,0:0:0:0:
192,66,281204,1,0,0:0:0:0:
192,66,281260,1,8,0:0:0:0:
192,66,281315,1,8,0:0:0:0:
192,66,281371,1,0,0:0:0:0:
192,66,281482,1,8,0:0:0:0:
192,66,281593,1,0,0:0:0:0:
192,66,281649,1,8,0:0:0:0:
192,66,281704,1,0,0:0:0:0:
192,66,281760,1,0,0:0:0:0:
192,66,281815,1,8,0:0:0:0:
192,66,281871,1,8,0:0:0:0:
192,66,281926,1,0,0:0:0:0:
192,66,282038,1,8,0:0:0:0:
192,66,282149,1,0,0:0:0:0:
192,66,282204,1,0,0:0:0:0:
192,66,282260,1,8,0:0:0:0:
192,66,282315,1,0,0:0:0:0:
192,66,282371,1,8,0:0:0:0:
192,66,282482,1,0,0:0:0:0:
192,66,282593,1,8,0:0:0:0:
192,66,282649,1,8,0:0:0:0:
192,66,282704,1,0,0:0:0:0:
192,66,282815,1,8,0:0:0:0:
192,66,282926,1,0,0:0:0:0:
192,66,283038,1,8,0:0:0:0:
192,66,283093,1,0,0:0:0:0:
192,66,283149,1,8,0:0:0:0:
192,66,283260,1,0,0:0:0:0:
192,66,283371,1,8,0:0:0:0:
192,66,283482,1,8,0:0:0:0:
192,66,283538,1,0,0:0:0:0:
192,66,283593,1,0,0:0:0:0:
192,66,283649,1,0,0:0:0:0:
192,66,283704,1,8,0:0:0:0:
192,66,283815,1,0,0:0:0:0:
192,66,283926,1,8,0:0:0:0:
192,66,283982,1,0,0:0:0:0:
192,66,284038,1,8,0:0:0:0:
192,66,284093,1,8,0:0:0:0:
192,66,284149,1,0,0:0:0:0:
192,66,284260,1,8,0:0:0:0:
192,66,284371,1,0,0:0:0:0:
192,66,284426,1,0,0:0:0:0:
192,66,284482,1,8,0:0:0:0:
192,66,284593,1,0,0:0:0:0:
192,66,284704,1,8,0:0:0:0:
192,66,284815,1,0,0:0:0:0:
192,66,284871,1,0,0:0:0:0:
192,66,284926,1,8,0:0:0:0:
192,66,284982,1,8,0:0:0:0:
192,66,285038,1,0,0:0:0:0:
192,66,285149,1,8,0:0:0:0:
192,66,285260,1,8,0:0:0:0:
192,66,285315,1,0,0:0:0:0:
192,66,285371,1,0,0:0:0:0:
192,66,285426,1,0,0:0:0:0:
192,66,285482,1,8,0:0:0:0:
192,66,285538,1,8,0:0:0:0:
192,66,285593,1,0,0:0:0:0:
192,66,285704,1,8,0:0:0:0:
192,66,285760,1,0,0:0:0:0:
192,66,285815,1,8,0:0:0:0:
192,66,285871,1,8,0:0:0:0:
192,66,285926,1,0,0:0:0:0:
192,66,286038,1,8,0:0:0:0:
192,66,286149,1,0,0:0:0:0:
192,66,286260,1,0,0:0:0:0:
192,66,286315,1,8,0:0:0:0:
192,66,286371,1,0,0:0:0:0:
192,66,286482,1,8,0:0:0:0:
192,66,286593,1,0,0:0:0:0:
192,66,286704,1,8,0:0:0:0:
192,66,286760,1,0,0:0:0:0:
192,66,286815,1,8,0:0:0:0:
192,66,286926,1,0,0:0:0:0:
192,66,287038,1,8,0:0:0:0:
192,66,287093,1,8,0:0:0:0:
192,66,287149,1,8,0:0:0:0:
192,66,287204,1,8,0:0:0:0:
192,66,287260,1,0,0:0:0:0:
192,66,287371,1,0,0:0:0:0:
192,66,287482,1,8,0:0:0:0:
192,66,287519,1,8,0:0:0:0:
192,66,287556,1,8,0:0:0:0:
192,66,287593,1,0,0:0:0:0:
192,66,287649,1,0,0:0:0:0:
192,66,287704,1,8,0:0:0:0:
192,66,287815,1,0,0:0:0:0:
192,66,287926,1,8,0:0:0:0:
192,66,288038,1,0,0:0:0:0:
192,66,288093,1,0,0:0:0:0:
192,66,288149,1,8,0:0:0:0:
192,66,288260,1,0,0:0:0:0:
192,66,288371,1,8,0:0:0:0:
192,66,288426,1,8,0:0:0:0:
192,66,288482,1,0,0:0:0:0:
192,66,288593,1,8,0:0:0:0:
192,66,288704,1,0,0:0:0:0:
192,66,288815,1,8,0:0:0:0:
192,66,288871,1,0,0:0:0:0:
192,66,288926,1,8,0:0:0:0:
192,66,288982,1,8,0:0:0:0:
192,66,289038,1,0,0:0:0:0:
192,66,289093,1,0,0:0:0:0:
192,66,289149,1,8,0:0:0:0:
192,66,289260,1,0,0:0:0:0:
192,66,289371,1,8,0:0:0:0:
192,66,289426,1,8,0:0:0:0:
192,66,289482,1,0,0:0:0:0:
192,66,289593,1,8,0:0:0:0:
192,66,289704,1,0,0:0:0:0:
192,66,289815,1,8,0:0:0:0:
192,66,289871,1,0,0:0:0:0:
192,66,289926,1,0,0:0:0:0:
192,66,290038,1,8,0:0:0:0:
192,66,290149,1,0,0:0:0:0:
192,66,290186,1,0,0:0:0:0:
192,66,290223,1,0,0:0:0:0:
192,66,290260,1,8,0:0:0:0:
192,66,290371,1,0,0:0:0:0:
192,66,290482,1,8,0:0:0:0:
192,66,290593,1,0,0:0:0:0:
192,66,290649,1,0,0:0:0:0:
192,66,290704,1,8,0:0:0:0:
192,66,290760,1,8,0:0:0:0:
192,66,290815,1,8,0:0:0:0:
192,66,290926,1,0,0:0:0:0:
192,66,291038,1,8,0:0:0:0:
325,175,291093,1,8,0:0:0:0:
192,66,291149,1,0,0:0:0:0:
317,193,291204,1,0,0:0:0:0:
192,66,291260,1,8,0:0:0:0:
192,66,291315,1,8,0:0:0:0:
339,198,291371,1,8,0:0:0:0:
339,196,291426,1,8,0:0:0:0:
192,66,291482,1,0,0:0:0:0:
311,125,291593,1,8,0:0:0:0:
192,66,291649,1,8,0:0:0:0:
192,66,291704,1,0,0:0:0:0:
192,66,291815,1,8,0:0:0:0:
192,66,291926,1,0,0:0:0:0:
192,66,292038,1,8,0:0:0:0:
192,66,292093,1,8,0:0:0:0:
192,66,292149,1,0,0:0:0:0:
237,141,292260,1,8,0:0:0:0:
192,66,292315,1,0,0:0:0:0:
192,66,292371,1,8,0:0:0:0:
192,66,292426,1,8,0:0:0:0:
192,66,292482,1,0,0:0:0:0:
263,120,292538,1,0,0:0:0:0:
263,120,292593,1,8,0:0:0:0:
266,126,292704,1,0,0:0:0:0:
192,66,292760,1,0,0:0:0:0:
192,66,292815,1,8,0:0:0:0:
192,66,292871,1,8,0:0:0:0:
192,66,292926,1,0,0:0:0:0:
192,66,293038,1,8,0:0:0:0:
192,66,293093,1,8,0:0:0:0:
192,66,293149,1,0,0:0:0:0:
192,66,293260,1,0,0:0:0:0:
192,66,293371,1,8,0:0:0:0:
192,66,293482,1,0,0:0:0:0:
192,66,293538,1,8,0:0:0:0:
192,66,293593,1,0,0:0:0:0:
192,66,293649,1,0,0:0:0:0:
192,66,293704,5,8,0:0:0:0:
192,66,293760,1,8,0:0:0:0:
192,66,293815,1,0,0:0:0:0:
192,66,293926,1,8,0:0:0:0:
192,66,293982,1,0,0:0:0:0:
192,66,294038,1,0,0:0:0:0:
192,66,294093,5,8,0:0:0:0:
192,66,294149,1,8,0:0:0:0:
192,66,294204,1,0,0:0:0:0:
192,66,294260,1,8,0:0:0:0:
279,163,294371,5,0,0:0:0:0:
279,163,294593,1,8,0:0:0:0:
276,192,294630,1,8,0:0:0:0:
276,192,294667,1,0,0:0:0:0:
276,192,294704,1,0,0:0:0:0:
303,75,294760,1,0,0:0:0:0:
232,81,294815,1,8,0:0:0:0:
246,73,294926,1,8,0:0:0:0:
279,163,295038,1,0,0:0:0:0:
196,145,295260,1,8,0:0:0:0:
196,145,295482,1,0,0:0:0:0:
196,145,295704,1,8,0:0:0:0:
196,145,295926,1,0,0:0:0:0:
196,145,296149,1,8,0:0:0:0:
196,145,296371,1,0,0:0:0:0:
189,148,296593,1,8,0:0:0:0:
186,213,296704,1,8,0:0:0:0:
189,148,296815,1,0,0:0:0:0:
189,148,297038,1,8,0:0:0:0:
220,166,297149,1,0,0:0:0:0:
232,46,297260,5,8,0:0:0:0:
232,46,297315,1,8,0:0:0:0:
232,46,297371,1,8,0:0:0:0:
232,46,297426,1,8,0:0:0:0:
232,46,297482,1,0,0:0:0:0:
319,171,297593,1,0,0:0:0:0:
319,171,297704,1,8,0:0:0:0:
319,171,297815,1,8,0:0:0:0:
319,171,297926,1,0,0:0:0:0:
251,57,297982,1,0,0:0:0:0:
251,57,298038,1,8,0:0:0:0:
251,57,298093,1,0,0:0:0:0:
292,138,298149,1,0,0:0:0:0:
292,138,298260,1,8,0:0:0:0:
292,138,298371,1,0,0:0:0:0:
292,138,298482,1,8,0:0:0:0:
292,138,298593,1,0,0:0:0:0:
189,148,298815,1,8,0:0:0:0:
189,148,299038,1,0,0:0:0:0:
189,148,299260,1,8,0:0:0:0:
189,148,299482,1,0,0:0:0:0:
189,148,299704,1,8,0:0:0:0:
189,148,299926,1,0,0:0:0:0:
189,148,300149,1,8,0:0:0:0:
211,222,300260,1,0,0:0:0:0:
189,148,300371,1,8,0:0:0:0:
211,222,300482,1,0,0:0:0:0:
189,148,300593,1,8,0:0:0:0:
189,148,300815,1,0,0:0:0:0:
189,148,301038,1,8,0:0:0:0:
271,93,301149,1,0,0:0:0:0:
189,148,301260,1,8,0:0:0:0:
125,134,301371,1,0,0:0:0:0:
125,134,301426,1,0,0:0:0:0:
189,148,301482,1,8,0:0:0:0:
125,134,301593,1,8,0:0:0:0:
189,148,301704,1,0,0:0:0:0:
153,163,301741,1,0,0:0:0:0:
153,163,301778,1,0,0:0:0:0:
153,163,301815,1,8,0:0:0:0:
189,148,301926,1,0,0:0:0:0:
113,102,301982,1,0,0:0:0:0:
113,102,302038,1,8,0:0:0:0:
189,148,302149,1,0,0:0:0:0:
189,148,302371,1,8,0:0:0:0:
180,163,302482,1,0,0:0:0:0:
189,148,302593,1,0,0:0:0:0:
180,163,302704,1,0,0:0:0:0:
189,148,302815,1,8,0:0:0:0:
189,148,303038,1,0,0:0:0:0:
180,163,303149,1,0,0:0:0:0:
189,148,303260,1,8,0:0:0:0:
181,149,303482,1,0,0:0:0:0:
181,149,303704,1,8,0:0:0:0:
180,163,303815,1,0,0:0:0:0:
181,149,303926,1,0,0:0:0:0:
181,149,304149,1,8,0:0:0:0:
181,149,304371,1,8,0:0:0:0:
334,101,304408,1,8,0:0:0:0:
181,149,304445,1,8,0:0:0:0:
334,101,304482,1,0,0:0:0:0:
193,159,304538,1,0,0:0:0:0:
181,149,304593,1,8,0:0:0:0:
244,108,304704,1,0,0:0:0:0:
181,149,304815,1,8,0:0:0:0:
248,95,304871,1,8,0:0:0:0:
247,95,304926,1,8,0:0:0:0:
110,164,304982,1,8,0:0:0:0:
154,190,305038,1,0,0:0:0:0:
244,95,305149,1,0,0:0:0:0:
181,149,305260,1,8,0:0:0:0:
244,95,305315,1,8,0:0:0:0:
244,95,305371,1,8,0:0:0:0:
202,78,305426,1,8,0:0:0:0:
244,95,305482,1,0,0:0:0:0:
244,95,305538,1,0,0:0:0:0:
202,78,305593,1,8,0:0:0:0:
202,78,305649,1,8,0:0:0:0:
181,149,305704,1,4,0:0:0:0:
181,149,305926,1,8,0:0:0:0:
181,149,306149,1,0,0:0:0:0:
181,149,306371,1,8,0:0:0:0:
181,149,306593,1,4,0:0:0:0:
181,149,306815,1,8,0:0:0:0:
181,149,307038,1,0,0:0:0:0:
184,220,307149,1,0,0:0:0:0:
181,149,307260,1,8,0:0:0:0:
180,68,307371,1,8,0:0:0:0:
181,149,307482,1,4,0:0:0:0:
160,169,307593,1,8,0:0:0:0:
154,149,307649,1,0,0:0:0:0:
181,149,307704,1,8,0:0:0:0:
191,102,307815,1,8,0:0:0:0:
181,149,307926,1,4,0:0:0:0:
181,149,308149,1,8,0:0:0:0:
191,102,308260,1,0,0:0:0:0:
181,149,308371,1,4,0:0:0:0:
163,106,308482,1,8,0:0:0:0:
163,106,308538,1,8,0:0:0:0:
181,149,308593,1,0,0:0:0:0:
186,114,308704,1,0,0:0:0:0:
181,149,308815,1,8,0:0:0:0:
188,152,308852,1,8,0:0:0:0:
188,152,308889,1,8,0:0:0:0:
188,152,308926,1,0,0:0:0:0:
181,149,309038,1,8,0:0:0:0:
171,142,309093,1,8,0:0:0:0:
171,142,309149,1,0,0:0:0:0:
181,149,309260,1,4,0:0:0:0:
181,149,309482,1,8,0:0:0:0:
181,149,309704,1,0,0:0:0:0:
181,149,309926,1,8,0:0:0:0:
181,149,310149,1,0,0:0:0:0:
181,149,310371,1,8,0:0:0:0:
181,149,310593,1,0,0:0:0:0:
181,149,310815,1,8,0:0:0:0:
181,149,310926,1,0,0:0:0:0:
181,149,311038,1,0,0:0:0:0:
181,149,311260,1,8,0:0:0:0:
181,149,311482,1,0,0:0:0:0:
181,149,311704,1,8,0:0:0:0:
181,149,311926,1,0,0:0:0:0:
181,149,312149,1,8,0:0:0:0:
181,149,312371,1,8,0:0:0:0:
171,164,312482,1,0,0:0:0:0:
181,149,312593,1,8,0:0:0:0:
170,165,312704,1,0,0:0:0:0:
181,149,312815,1,0,0:0:0:0:
181,149,313038,1,8,0:0:0:0:
181,149,313260,1,0,0:0:0:0:
181,149,313482,1,8,0:0:0:0:
181,149,313704,1,0,0:0:0:0:
181,149,313926,1,8,0:0:0:0:
181,149,314149,1,0,0:0:0:0:
181,149,314371,1,8,0:0:0:0:
164,160,314482,1,0,0:0:0:0:
181,149,314593,1,0,0:0:0:0:
171,149,314704,1,0,0:0:0:0:
181,149,314815,1,8,0:0:0:0:
181,149,315038,1,0,0:0:0:0:
181,149,315260,1,8,0:0:0:0:
172,130,315371,1,0,0:0:0:0:
181,149,315482,1,0,0:0:0:0:
171,130,315593,1,0,0:0:0:0:
171,130,315649,1,0,0:0:0:0:
181,149,315704,1,8,0:0:0:0:
163,139,315815,1,0,0:0:0:0:
181,149,315926,1,8,0:0:0:0:
246,131,315964,1,8,0:0:0:0:
246,131,316001,1,8,0:0:0:0:
246,131,316038,1,0,0:0:0:0:
181,149,316149,1,8,0:0:0:0:
168,86,316204,1,8,0:0:0:0:
168,86,316260,1,0,0:0:0:0:
181,149,316371,1,0,0:0:0:0:
181,149,316593,1,8,0:0:0:0:
269,225,316704,1,0,0:0:0:0:
181,149,316815,1,0,0:0:0:0:
269,225,316926,1,0,0:0:0:0:
181,149,317038,1,8,0:0:0:0:
181,149,317260,1,0,0:0:0:0:
269,225,317371,1,0,0:0:0:0:
181,149,317482,1,8,0:0:0:0:
181,149,317704,1,0,0:0:0:0:
181,149,317926,1,8,0:0:0:0:
269,225,318038,1,0,0:0:0:0:
181,149,318149,1,0,0:0:0:0:
181,149,318371,1,0,0:0:0:0:
199,164,318593,1,8,0:0:0:0:
199,164,318630,1,8,0:0:0:0:
199,164,318667,1,8,0:0:0:0:
199,164,318704,1,0,0:0:0:0:
345,110,318760,1,0,0:0:0:0:
181,149,318815,1,8,0:0:0:0:
261,99,318926,1,0,0:0:0:0:
181,149,319038,1,0,0:0:0:0:
171,149,319260,1,8,0:0:0:0:
171,149,319482,1,0,0:0:0:0:
171,149,319704,1,0,0:0:0:0:
225,86,319926,1,8,0:0:0:0:
233,80,320038,1,8,0:0:0:0:
251,70,320149,1,8,0:0:0:0:
257,68,320260,1,8,0:0:0:0:
257,68,320371,1,0,0:0:0:0:
263,68,320482,1,0,0:0:0:0:
268,67,320593,1,0,0:0:0:0:
268,66,320704,1,0,0:0:0:0:
269,66,320815,1,8,0:0:0:0:
274,65,320926,1,8,0:0:0:0:
277,65,321038,1,8,0:0:0:0:
277,64,321149,1,8,0:0:0:0:
278,64,321260,1,0,0:0:0:0:
279,64,321371,1,0,0:0:0:0:
279,64,321482,1,0,0:0:0:0:
279,64,321593,1,0,0:0:0:0:
373,46,321704,1,8,0:0:0:0:
373,46,321760,1,8,0:0:0:0:
373,46,321815,1,8,0:0:0:0:
373,46,321871,1,8,0:0:0:0:
373,46,321926,1,0,0:0:0:0:
373,46,321982,1,0,0:0:0:0:
373,46,322038,1,0,0:0:0:0:
373,46,322093,1,0,0:0:0:0:
373,46,322149,1,8,0:0:0:0:
373,46,322204,1,8,0:0:0:0:
373,46,322260,1,8,0:0:0:0:
373,46,322315,1,8,0:0:0:0:
373,46,322371,1,0,0:0:0:0:
373,46,322426,1,0,0:0:0:0:
373,46,322482,1,0,0:0:0:0:
373,46,322538,1,0,0:0:0:0:
315,73,322593,1,8,0:0:0:0:
315,73,322649,1,8,0:0:0:0:
183,42,322704,1,0,0:0:0:0:
183,42,322760,1,0,0:0:0:0:
183,42,322815,1,8,0:0:0:0:
183,42,322871,1,8,0:0:0:0:
315,73,322926,1,0,0:0:0:0:
315,73,322982,1,0,0:0:0:0:
183,42,323038,1,8,0:0:0:0:
183,42,323093,1,8,0:0:0:0:
183,42,323149,1,0,0:0:0:0:
183,42,323204,1,0,0:0:0:0:
183,42,323260,1,8,0:0:0:0:
183,42,323315,1,8,0:0:0:0:
183,42,323371,1,0,0:0:0:0:
183,42,323426,1,0,0:0:0:0:
183,42,323482,1,12,0:0:0:0:
