osu file format v14

[General]
AudioFilename: No-elements I wish I do nothing.mp3
AudioLeadIn: 0
PreviewTime: -1
Countdown: 0
SampleSet: Normal
StackLeniency: 0.7
Mode: 1
LetterboxInBreaks: 0
WidescreenStoryboard: 0

[Editor]
Bookmarks: 17910,25908,30360,44578,57907,58796,73014,86232,87232,100561,101450,108559,115668,119222,172410,175855,190073,207926,222123,236281,250499,264717,266494,294930,309148,323366
DistanceSpacing: 0.8
BeatDivisor: 6
GridSize: 32
TimelineZoom: 1

[Metadata]
Title:I wish I do nothing
TitleUnicode:I wish I do nothing
Artist:No-elements
ArtistUnicode:No-elements
Creator:Firce777
Version:Firce Force
Source:
Tags:
BeatmapID:889595
BeatmapSetID:409876

[Difficulty]
HPDrainRate:5
CircleSize:5
OverallDifficulty:7.5
ApproachRate:5
SliderMultiplier:1.4
SliderTickRate:1

[Events]
//Background and Video events
0,0,"TBG.png",0,0
//Break Periods
//Storyboard Layer 0 (Background)
//Storyboard Layer 1 (Fail)
//Storyboard Layer 2 (Pass)
//Storyboard Layer 3 (Foreground)
//Storyboard Sound Samples

[TimingPoints]
7269,222.164623986374,6,1,0,70,1,0
28596,222.189305288105,4,1,0,70,1,0
87253,-100,4,1,0,70,0,1
115694,-100,4,1,0,70,0,0
142356,241.935483870968,4,1,0,70,1,0
143081,250,6,1,0,70,1,0
143331,307.692307692308,4,1,0,70,1,0
143638,333.333333333333,6,1,0,70,1,0
143971,375,6,1,0,70,1,0
144346,500,4,1,0,70,1,0
144846,444.444444444444,4,1,0,70,1,0
175927,222.222222222222,4,1,0,70,1,0
207926,-100,4,1,0,70,0,1
266593,-100,4,1,0,70,0,0

[HitObjects]
256,192,7268,5,0,0:0:0:0:
256,192,7380,1,0,0:0:0:0:
256,192,7491,1,2,0:0:0:0:
256,192,7602,1,0,0:0:0:0:
256,192,7713,1,2,0:0:0:0:
256,192,7824,1,0,0:0:0:0:
256,192,7935,1,0,0:0:0:0:
256,192,8046,1,2,0:0:0:0:
256,192,8157,1,2,0:0:0:0:
256,192,8268,1,0,0:0:0:0:
256,192,8379,1,0,0:0:0:0:
256,192,8490,1,2,0:0:0:0:
256,192,8601,1,0,0:0:0:0:
256,192,8713,1,0,0:0:0:0:
256,192,8824,1,2,0:0:0:0:
256,192,8935,1,0,0:0:0:0:
256,192,9046,1,2,0:0:0:0:
256,192,9157,1,0,0:0:0:0:
256,192,9268,1,0,0:0:0:0:
256,192,9379,1,2,0:0:0:0:
256,192,9490,1,2,0:0:0:0:
256,192,9601,1,0,0:0:0:0:
256,192,9712,1,2,0:0:0:0:
256,192,9823,1,0,0:0:0:0:
256,192,9934,1,0,0:0:0:0:
256,192,10046,1,0,0:0:0:0:
256,192,10157,1,2,0:0:0:0:
256,192,10268,1,0,0:0:0:0:
256,192,10379,1,2,0:0:0:0:
256,192,10490,1,0,0:0:0:0:
256,192,10601,1,0,0:0:0:0:
256,192,10712,1,2,0:0:0:0:
256,192,10823,1,2,0:0:0:0:
256,192,10934,1,0,0:0:0:0:
256,192,11045,1,0,0:0:0:0:
256,192,11156,1,2,0:0:0:0:
256,192,11267,1,0,0:0:0:0:
256,192,11379,1,0,0:0:0:0:
256,192,11490,1,2,0:0:0:0:
256,192,11601,1,0,0:0:0:0:
256,192,11712,1,2,0:0:0:0:
256,192,11823,1,0,0:0:0:0:
256,192,11934,1,0,0:0:0:0:
256,192,12045,1,2,0:0:0:0:
256,192,12156,1,2,0:0:0:0:
256,192,12267,1,0,0:0:0:0:
256,192,12378,1,0,0:0:0:0:
256,192,12489,1,0,0:0:0:0:
256,192,12600,1,0,0:0:0:0:
256,192,12712,1,0,0:0:0:0:
256,192,12823,1,2,0:0:0:0:
256,192,12934,1,0,0:0:0:0:
256,192,13045,1,2,0:0:0:0:
256,192,13156,1,0,0:0:0:0:
256,192,13267,1,0,0:0:0:0:
256,192,13378,1,2,0:0:0:0:
256,192,13489,1,2,0:0:0:0:
256,192,13600,1,0,0:0:0:0:
256,192,13711,1,0,0:0:0:0:
256,192,13822,1,2,0:0:0:0:
256,192,13933,1,0,0:0:0:0:
256,192,14045,1,0,0:0:0:0:
256,192,14156,1,2,0:0:0:0:
256,192,14267,1,0,0:0:0:0:
256,192,14378,1,2,0:0:0:0:
256,192,14489,1,0,0:0:0:0:
256,192,14600,1,0,0:0:0:0:
256,192,14711,1,2,0:0:0:0:
256,192,14822,1,2,0:0:0:0:
256,192,14933,1,0,0:0:0:0:
256,192,15044,1,2,0:0:0:0:
256,192,15155,1,0,0:0:0:0:
256,192,15266,1,0,0:0:0:0:
256,192,15378,1,0,0:0:0:0:
256,192,15489,1,2,0:0:0:0:
256,192,15600,1,0,0:0:0:0:
256,192,15711,1,2,0:0:0:0:
256,192,15822,1,0,0:0:0:0:
256,192,15933,1,0,0:0:0:0:
256,192,16044,1,2,0:0:0:0:
256,192,16155,1,2,0:0:0:0:
256,192,16266,1,0,0:0:0:0:
256,192,16377,1,0,0:0:0:0:
256,192,16488,1,2,0:0:0:0:
256,192,16599,1,0,0:0:0:0:
256,192,16710,1,0,0:0:0:0:
256,192,16822,1,2,0:0:0:0:
256,192,16933,1,0,0:0:0:0:
256,192,17044,1,2,0:0:0:0:
256,192,17155,1,0,0:0:0:0:
256,192,17266,1,0,0:0:0:0:
256,192,17377,1,2,0:0:0:0:
256,192,17488,1,2,0:0:0:0:
256,192,17599,1,0,0:0:0:0:
256,192,17710,1,0,0:0:0:0:
256,192,17821,1,0,0:0:0:0:
256,192,17932,1,0,0:0:0:0:
256,192,18266,1,0,0:0:0:0:
256,192,18488,1,0,0:0:0:0:
256,192,18710,1,0,0:0:0:0:
256,192,18821,1,2,0:0:0:0:
256,192,18932,1,0,0:0:0:0:
256,192,19043,1,0,0:0:0:0:
256,192,19154,1,2,0:0:0:0:
256,192,19265,1,0,0:0:0:0:
256,192,19599,1,0,0:0:0:0:
256,192,19821,1,0,0:0:0:0:
256,192,20043,1,0,0:0:0:0:
256,192,20154,1,2,0:0:0:0:
256,192,20265,1,2,0:0:0:0:
256,192,20376,1,0,0:0:0:0:
256,192,20487,1,0,0:0:0:0:
256,192,20598,1,0,0:0:0:0:
256,192,20932,1,0,0:0:0:0:
256,192,21154,1,0,0:0:0:0:
256,192,21376,1,0,0:0:0:0:
256,192,21487,1,2,0:0:0:0:
256,192,21598,1,0,0:0:0:0:
256,192,21709,1,0,0:0:0:0:
256,192,21820,1,2,0:0:0:0:
256,192,21931,1,0,0:0:0:0:
256,192,22265,1,0,0:0:0:0:
256,192,22487,1,0,0:0:0:0:
256,192,22709,1,0,0:0:0:0:
256,192,22820,1,2,0:0:0:0:
256,192,22931,1,0,0:0:0:0:
256,192,23042,1,0,0:0:0:0:
256,192,23098,1,0,0:0:0:0:
256,192,23153,1,0,0:0:0:0:
256,192,23209,1,0,0:0:0:0:
256,192,23264,1,0,0:0:0:0:
256,192,23598,1,0,0:0:0:0:
256,192,23820,1,0,0:0:0:0:
256,192,24042,1,0,0:0:0:0:
256,192,24153,1,2,0:0:0:0:
256,192,24264,1,0,0:0:0:0:
256,192,24375,1,0,0:0:0:0:
256,192,24486,1,2,0:0:0:0:
256,192,24597,1,0,0:0:0:0:
256,192,24931,1,0,0:0:0:0:
256,192,25153,1,0,0:0:0:0:
256,192,25375,1,0,0:0:0:0:
256,192,25486,1,2,0:0:0:0:
256,192,25597,1,2,0:0:0:0:
256,192,25708,1,0,0:0:0:0:
256,192,25819,1,0,0:0:0:0:
256,192,25930,1,0,0:0:0:0:
256,192,26041,1,2,0:0:0:0:
256,192,26152,1,2,0:0:0:0:
256,192,26264,1,0,0:0:0:0:
256,192,26375,1,2,0:0:0:0:
256,192,26486,1,0,0:0:0:0:
256,192,26597,1,0,0:0:0:0:
256,192,26708,1,2,0:0:0:0:
256,192,26819,1,2,0:0:0:0:
256,192,26930,1,0,0:0:0:0:
256,192,27041,1,2,0:0:0:0:
256,192,27152,1,2,0:0:0:0:
256,192,27263,1,0,0:0:0:0:
256,192,27374,1,2,0:0:0:0:
256,192,27485,1,2,0:0:0:0:
256,192,27597,1,0,0:0:0:0:
256,192,27708,1,0,0:0:0:0:
256,192,27819,1,0,0:0:0:0:
256,192,27874,1,0,0:0:0:0:
256,192,27930,1,0,0:0:0:0:
256,192,27985,1,0,0:0:0:0:
256,192,28041,1,0,0:0:0:0:
256,192,28096,1,0,0:0:0:0:
256,192,28152,1,0,0:0:0:0:
256,192,28208,1,0,0:0:0:0:
256,192,28263,1,0,0:0:0:0:
256,192,28319,1,0,0:0:0:0:
256,192,28374,1,2,0:0:0:0:
256,192,28430,1,2,0:0:0:0:
256,192,28485,1,2,0:0:0:0:
256,192,28596,1,2,0:0:0:0:
256,192,28707,1,2,0:0:0:0:
256,192,28818,1,2,0:0:0:0:
256,192,28929,1,2,0:0:0:0:
256,192,29040,1,0,0:0:0:0:
256,192,29151,1,2,0:0:0:0:
256,192,29262,1,2,0:0:0:0:
256,192,29484,1,2,0:0:0:0:
256,192,29540,1,2,0:0:0:0:
256,192,29595,1,2,0:0:0:0:
256,192,29651,1,2,0:0:0:0:
256,192,29706,1,0,0:0:0:0:
256,192,29762,1,0,0:0:0:0:
256,192,29818,1,0,0:0:0:0:
256,192,29873,1,0,0:0:0:0:
256,192,29929,1,2,0:0:0:0:
256,192,29984,1,2,0:0:0:0:
256,192,30040,1,0,0:0:0:0:
256,192,30095,1,0,0:0:0:0:
256,192,30151,1,2,0:0:0:0:
256,192,30373,1,0,0:0:0:0:
256,192,30484,1,2,0:0:0:0:
256,192,30540,1,2,0:0:0:0:
256,192,30595,1,0,0:0:0:0:
256,192,30706,1,2,0:0:0:0:
256,192,30762,1,2,0:0:0:0:
256,192,30817,1,0,0:0:0:0:
256,192,30928,1,2,0:0:0:0:
256,192,30984,1,2,0:0:0:0:
256,192,31040,1,0,0:0:0:0:
256,192,31151,1,2,0:0:0:0:
256,192,31206,1,2,0:0:0:0:
256,192,31262,1,0,0:0:0:0:
256,192,31373,1,2,0:0:0:0:
256,192,31428,1,2,0:0:0:0:
256,192,31484,1,0,0:0:0:0:
256,192,31595,1,2,0:0:0:0:
256,192,31651,1,2,0:0:0:0:
256,192,31706,1,0,0:0:0:0:
256,192,31817,1,2,0:0:0:0:
256,192,31873,1,2,0:0:0:0:
256,192,31928,1,0,0:0:0:0:
256,192,31984,1,2,0:0:0:0:
256,192,32039,1,0,0:0:0:0:
256,192,32095,1,2,0:0:0:0:
256,192,32151,1,0,0:0:0:0:
256,192,32262,1,2,0:0:0:0:
256,192,32317,1,2,0:0:0:0:
256,192,32373,1,0,0:0:0:0:
256,192,32484,1,2,0:0:0:0:
256,192,32539,1,2,0:0:0:0:
256,192,32595,1,0,0:0:0:0:
256,192,32706,1,2,0:0:0:0:
256,192,32762,1,2,0:0:0:0:
256,192,32817,1,0,0:0:0:0:
256,192,32928,1,2,0:0:0:0:
256,192,32984,1,2,0:0:0:0:
256,192,33039,1,0,0:0:0:0:
256,192,33150,1,0,0:0:0:0:
256,192,33261,1,2,0:0:0:0:
256,192,33317,1,2,0:0:0:0:
256,192,33373,1,2,0:0:0:0:
256,192,33484,1,0,0:0:0:0:
256,192,33595,1,2,0:0:0:0:
256,192,33650,1,2,0:0:0:0:
256,192,33706,1,0,0:0:0:0:
256,192,33761,1,0,0:0:0:0:
256,192,33817,1,0,0:0:0:0:
256,192,33928,1,0,0:0:0:0:
256,192,34039,1,2,0:0:0:0:
256,192,34095,1,2,0:0:0:0:
256,192,34150,1,0,0:0:0:0:
256,192,34261,1,2,0:0:0:0:
256,192,34317,1,2,0:0:0:0:
256,192,34372,1,0,0:0:0:0:
256,192,34484,1,2,0:0:0:0:
256,192,34539,1,2,0:0:0:0:
256,192,34595,1,0,0:0:0:0:
256,192,34706,1,2,0:0:0:0:
256,192,34761,1,2,0:0:0:0:
256,192,34817,1,0,0:0:0:0:
256,192,34928,1,2,0:0:0:0:
256,192,34983,1,2,0:0:0:0:
256,192,35039,1,0,0:0:0:0:
256,192,35150,1,2,0:0:0:0:
256,192,35206,1,2,0:0:0:0:
256,192,35261,1,0,0:0:0:0:
256,192,35372,1,2,0:0:0:0:
256,192,35428,1,2,0:0:0:0:
256,192,35483,1,0,0:0:0:0:
256,192,35539,1,2,0:0:0:0:
256,192,35594,1,0,0:0:0:0:
256,192,35650,1,2,0:0:0:0:
256,192,35706,1,0,0:0:0:0:
256,192,35817,1,0,0:0:0:0:
256,192,35872,1,0,0:0:0:0:
256,192,35928,1,2,0:0:0:0:
256,192,36039,1,0,0:0:0:0:
256,192,36150,1,0,0:0:0:0:
256,192,36261,1,2,0:0:0:0:
256,192,36317,1,2,0:0:0:0:
256,192,36372,1,0,0:0:0:0:
256,192,36428,1,0,0:0:0:0:
256,192,36483,1,2,0:0:0:0:
256,192,36594,1,0,0:0:0:0:
256,192,36705,1,2,0:0:0:0:
256,192,36817,1,2,0:0:0:0:
256,192,36928,1,0,0:0:0:0:
256,192,37039,1,2,0:0:0:0:
256,192,37094,1,2,0:0:0:0:
256,192,37150,1,2,0:0:0:0:
256,192,37205,1,2,0:0:0:0:
256,192,37261,1,0,0:0:0:0:
256,192,37372,1,0,0:0:0:0:
256,192,37483,1,0,0:0:0:0:
256,192,37594,1,2,0:0:0:0:
256,192,37650,1,2,0:0:0:0:
256,192,37705,1,0,0:0:0:0:
256,192,37816,1,2,0:0:0:0:
256,192,37872,1,2,0:0:0:0:
256,192,37927,1,0,0:0:0:0:
256,192,38039,1,2,0:0:0:0:
256,192,38094,1,2,0:0:0:0:
256,192,38150,1,0,0:0:0:0:
256,192,38261,1,2,0:0:0:0:
256,192,38316,1,2,0:0:0:0:
256,192,38372,1,0,0:0:0:0:
256,192,38483,1,2,0:0:0:0:
256,192,38538,1,2,0:0:0:0:
256,192,38594,1,0,0:0:0:0:
256,192,38705,1,2,0:0:0:0:
256,192,38761,1,2,0:0:0:0:
256,192,38816,1,0,0:0:0:0:
256,192,38927,1,2,0:0:0:0:
256,192,38983,1,2,0:0:0:0:
256,192,39038,1,0,0:0:0:0:
256,192,39094,1,2,0:0:0:0:
256,192,39149,1,0,0:0:0:0:
256,192,39205,1,2,0:0:0:0:
256,192,39261,1,0,0:0:0:0:
256,192,39372,1,2,0:0:0:0:
256,192,39427,1,2,0:0:0:0:
256,192,39483,1,0,0:0:0:0:
256,192,39594,1,2,0:0:0:0:
256,192,39649,1,2,0:0:0:0:
256,192,39705,1,0,0:0:0:0:
256,192,39816,1,2,0:0:0:0:
256,192,39872,1,2,0:0:0:0:
256,192,39927,1,0,0:0:0:0:
256,192,40038,1,2,0:0:0:0:
256,192,40094,1,2,0:0:0:0:
256,192,40149,1,0,0:0:0:0:
256,192,40260,1,0,0:0:0:0:
256,192,40372,1,2,0:0:0:0:
256,192,40427,1,2,0:0:0:0:
256,192,40483,1,2,0:0:0:0:
256,192,40594,1,0,0:0:0:0:
256,192,40705,1,2,0:0:0:0:
256,192,40760,1,2,0:0:0:0:
256,192,40816,1,0,0:0:0:0:
256,192,40871,1,0,0:0:0:0:
256,192,40927,1,0,0:0:0:0:
256,192,41038,1,0,0:0:0:0:
256,192,41149,1,2,0:0:0:0:
256,192,41205,1,2,0:0:0:0:
256,192,41260,1,0,0:0:0:0:
256,192,41371,1,2,0:0:0:0:
256,192,41427,1,2,0:0:0:0:
256,192,41482,1,0,0:0:0:0:
256,192,41594,1,2,0:0:0:0:
256,192,41649,1,2,0:0:0:0:
256,192,41705,1,0,0:0:0:0:
256,192,41816,1,2,0:0:0:0:
256,192,41871,1,2,0:0:0:0:
256,192,41927,1,0,0:0:0:0:
256,192,42038,1,2,0:0:0:0:
256,192,42094,1,2,0:0:0:0:
256,192,42149,1,0,0:0:0:0:
256,192,42260,1,2,0:0:0:0:
256,192,42316,1,2,0:0:0:0:
256,192,42371,1,0,0:0:0:0:
256,192,42482,1,2,0:0:0:0:
256,192,42538,1,2,0:0:0:0:
256,192,42593,1,0,0:0:0:0:
256,192,42649,1,2,0:0:0:0:
256,192,42705,1,0,0:0:0:0:
256,192,42760,1,2,0:0:0:0:
256,192,42816,1,0,0:0:0:0:
256,192,42927,1,0,0:0:0:0:
256,192,42982,1,0,0:0:0:0:
256,192,43038,1,2,0:0:0:0:
256,192,43149,1,0,0:0:0:0:
256,192,43204,1,0,0:0:0:0:
256,192,43260,1,0,0:0:0:0:
256,192,43371,1,0,0:0:0:0:
256,192,43427,1,0,0:0:0:0:
256,192,43482,1,2,0:0:0:0:
256,192,43593,1,2,0:0:0:0:
256,192,43704,1,4,0:0:0:0:
256,192,43815,1,6,0:0:0:0:
256,192,43927,1,6,0:0:0:0:
256,192,44149,1,2,0:0:0:0:
256,192,44204,1,2,0:0:0:0:
256,192,44260,1,2,0:0:0:0:
256,192,44315,1,2,0:0:0:0:
256,192,44371,1,0,0:0:0:0:
256,192,44426,1,0,0:0:0:0:
256,192,44482,1,0,0:0:0:0:
256,192,44593,1,0,0:0:0:0:
256,192,44704,1,0,0:0:0:0:
256,192,44815,1,2,0:0:0:0:
256,192,44871,1,2,0:0:0:0:
256,192,44926,1,2,0:0:0:0:
256,192,45038,1,0,0:0:0:0:
256,192,45149,1,0,0:0:0:0:
256,192,45260,1,2,0:0:0:0:
256,192,45315,1,2,0:0:0:0:
256,192,45371,1,2,0:0:0:0:
256,192,45482,1,0,0:0:0:0:
256,192,45593,1,0,0:0:0:0:
256,192,45704,1,2,0:0:0:0:
256,192,45760,1,2,0:0:0:0:
256,192,45815,1,2,0:0:0:0:
256,192,45926,1,2,0:0:0:0:
256,192,45982,1,2,0:0:0:0:
256,192,46037,1,0,0:0:0:0:
256,192,46093,1,0,0:0:0:0:
256,192,46148,1,0,0:0:0:0:
256,192,46260,1,2,0:0:0:0:
256,192,46371,1,0,0:0:0:0:
256,192,46482,1,0,0:0:0:0:
256,192,46593,1,2,0:0:0:0:
256,192,46648,1,2,0:0:0:0:
256,192,46704,1,2,0:0:0:0:
256,192,46815,1,0,0:0:0:0:
256,192,46926,1,0,0:0:0:0:
256,192,47037,1,2,0:0:0:0:
256,192,47093,1,2,0:0:0:0:
256,192,47148,1,2,0:0:0:0:
256,192,47259,1,0,0:0:0:0:
256,192,47370,1,0,0:0:0:0:
256,192,47482,1,2,0:0:0:0:
256,192,47537,1,2,0:0:0:0:
256,192,47593,1,2,0:0:0:0:
256,192,47704,1,2,0:0:0:0:
256,192,47759,1,2,0:0:0:0:
256,192,47815,1,0,0:0:0:0:
256,192,47926,1,2,0:0:0:0:
256,192,48037,1,0,0:0:0:0:
256,192,48148,1,0,0:0:0:0:
256,192,48259,1,0,0:0:0:0:
256,192,48370,1,2,0:0:0:0:
256,192,48426,1,2,0:0:0:0:
256,192,48481,1,2,0:0:0:0:
256,192,48593,1,0,0:0:0:0:
256,192,48704,1,0,0:0:0:0:
256,192,48815,1,2,0:0:0:0:
256,192,48870,1,2,0:0:0:0:
256,192,48926,1,2,0:0:0:0:
256,192,49037,1,0,0:0:0:0:
256,192,49148,1,0,0:0:0:0:
256,192,49259,1,2,0:0:0:0:
256,192,49315,1,2,0:0:0:0:
256,192,49370,1,2,0:0:0:0:
256,192,49481,1,2,0:0:0:0:
256,192,49537,1,2,0:0:0:0:
256,192,49592,1,0,0:0:0:0:
256,192,49648,1,0,0:0:0:0:
256,192,49703,1,0,0:0:0:0:
256,192,49815,1,2,0:0:0:0:
256,192,49926,1,0,0:0:0:0:
256,192,49981,1,0,0:0:0:0:
256,192,50037,1,0,0:0:0:0:
256,192,50092,1,0,0:0:0:0:
256,192,50148,1,2,0:0:0:0:
256,192,50259,1,0,0:0:0:0:
256,192,50370,1,2,0:0:0:0:
256,192,50426,1,2,0:0:0:0:
256,192,50481,1,2,0:0:0:0:
256,192,50537,1,2,0:0:0:0:
256,192,50592,1,0,0:0:0:0:
256,192,50703,1,2,0:0:0:0:
256,192,50814,1,0,0:0:0:0:
256,192,50851,1,0,0:0:0:0:
256,192,50888,1,0,0:0:0:0:
256,192,50926,1,0,0:0:0:0:
256,192,50963,1,0,0:0:0:0:
256,192,51000,1,0,0:0:0:0:
256,192,51037,1,2,0:0:0:0:
256,192,51092,1,0,0:0:0:0:
256,192,51148,1,0,0:0:0:0:
256,192,51203,1,0,0:0:0:0:
256,192,51259,1,2,0:0:0:0:
256,192,51370,1,2,0:0:0:0:
256,192,51481,1,0,0:0:0:0:
256,192,51592,1,2,0:0:0:0:
256,192,51703,1,0,0:0:0:0:
256,192,51814,1,0,0:0:0:0:
256,192,51925,1,2,0:0:0:0:
256,192,51981,1,2,0:0:0:0:
256,192,52036,1,2,0:0:0:0:
256,192,52148,1,0,0:0:0:0:
256,192,52259,1,0,0:0:0:0:
256,192,52370,1,2,0:0:0:0:
256,192,52425,1,2,0:0:0:0:
256,192,52481,1,2,0:0:0:0:
256,192,52592,1,0,0:0:0:0:
256,192,52703,1,0,0:0:0:0:
256,192,52814,1,2,0:0:0:0:
256,192,52870,1,2,0:0:0:0:
256,192,52925,1,2,0:0:0:0:
256,192,53036,1,2,0:0:0:0:
256,192,53092,1,2,0:0:0:0:
256,192,53147,1,0,0:0:0:0:
256,192,53203,1,0,0:0:0:0:
256,192,53259,1,0,0:0:0:0:
256,192,53370,1,2,0:0:0:0:
256,192,53481,1,0,0:0:0:0:
256,192,53592,1,0,0:0:0:0:
256,192,53703,1,2,0:0:0:0:
256,192,53758,1,2,0:0:0:0:
256,192,53814,1,2,0:0:0:0:
256,192,53925,1,0,0:0:0:0:
256,192,54036,1,0,0:0:0:0:
256,192,54147,1,2,0:0:0:0:
256,192,54203,1,2,0:0:0:0:
256,192,54258,1,2,0:0:0:0:
256,192,54369,1,0,0:0:0:0:
256,192,54481,1,0,0:0:0:0:
256,192,54592,1,2,0:0:0:0:
256,192,54647,1,2,0:0:0:0:
256,192,54703,1,2,0:0:0:0:
256,192,54814,1,2,0:0:0:0:
256,192,54869,1,2,0:0:0:0:
256,192,54925,1,0,0:0:0:0:
256,192,54980,1,0,0:0:0:0:
256,192,55036,1,2,0:0:0:0:
256,192,55092,1,2,0:0:0:0:
256,192,55147,1,0,0:0:0:0:
256,192,55203,1,0,0:0:0:0:
256,192,55258,1,0,0:0:0:0:
256,192,55369,1,0,0:0:0:0:
256,192,55480,1,2,0:0:0:0:
256,192,55536,1,2,0:0:0:0:
256,192,55592,1,2,0:0:0:0:
256,192,55703,1,0,0:0:0:0:
256,192,55814,1,0,0:0:0:0:
256,192,55925,1,2,0:0:0:0:
256,192,55980,1,2,0:0:0:0:
256,192,56036,1,2,0:0:0:0:
256,192,56147,1,0,0:0:0:0:
256,192,56258,1,0,0:0:0:0:
256,192,56369,1,2,0:0:0:0:
256,192,56425,1,2,0:0:0:0:
256,192,56480,1,2,0:0:0:0:
256,192,56591,1,2,0:0:0:0:
256,192,56647,1,2,0:0:0:0:
256,192,56702,1,0,0:0:0:0:
256,192,56758,1,0,0:0:0:0:
256,192,56814,1,0,0:0:0:0:
256,192,56925,1,2,0:0:0:0:
256,192,57036,1,0,0:0:0:0:
256,192,57147,1,0,0:0:0:0:
256,192,57258,1,2,0:0:0:0:
256,192,57313,1,2,0:0:0:0:
256,192,57369,1,2,0:0:0:0:
256,192,57480,1,0,0:0:0:0:
256,192,57591,1,0,0:0:0:0:
256,192,57702,1,2,0:0:0:0:
256,192,57758,1,2,0:0:0:0:
256,192,57813,1,2,0:0:0:0:
256,192,57924,1,6,0:0:0:0:
256,192,58036,1,2,0:0:0:0:
256,192,58147,1,6,0:0:0:0:
256,192,58258,1,2,0:0:0:0:
256,192,58369,1,0,0:0:0:0:
256,192,58424,1,0,0:0:0:0:
256,192,58480,1,0,0:0:0:0:
256,192,58536,1,0,0:0:0:0:
256,192,58591,1,2,0:0:0:0:
256,192,58813,1,0,0:0:0:0:
256,192,59035,1,0,0:0:0:0:
256,192,59258,1,2,0:0:0:0:
256,192,59480,1,0,0:0:0:0:
256,192,59591,1,0,0:0:0:0:
256,192,59813,1,0,0:0:0:0:
256,192,59924,1,0,0:0:0:0:
256,192,60035,1,0,0:0:0:0:
256,192,60146,1,2,0:0:0:0:
256,192,60369,1,2,0:0:0:0:
256,192,60591,1,2,0:0:0:0:
256,192,60702,1,2,0:0:0:0:
256,192,60924,1,2,0:0:0:0:
256,192,61035,1,2,0:0:0:0:
256,192,61146,1,0,0:0:0:0:
256,192,61257,1,0,0:0:0:0:
256,192,61368,1,2,0:0:0:0:
256,192,61591,1,0,0:0:0:0:
256,192,61702,1,2,0:0:0:0:
256,192,61813,1,0,0:0:0:0:
256,192,61924,1,2,0:0:0:0:
256,192,62146,1,0,0:0:0:0:
256,192,62368,1,2,0:0:0:0:
256,192,62479,1,2,0:0:0:0:
256,192,62702,1,0,0:0:0:0:
256,192,62813,1,2,0:0:0:0:
256,192,62924,1,2,0:0:0:0:
256,192,63035,1,2,0:0:0:0:
256,192,63257,1,0,0:0:0:0:
256,192,63368,1,2,0:0:0:0:
256,192,63479,1,0,0:0:0:0:
256,192,63701,1,2,0:0:0:0:
256,192,63924,1,2,0:0:0:0:
256,192,64146,1,2,0:0:0:0:
256,192,64257,1,2,0:0:0:0:
256,192,64479,1,0,0:0:0:0:
256,192,64590,1,2,0:0:0:0:
256,192,64812,1,2,0:0:0:0:
256,192,65035,1,2,0:0:0:0:
256,192,65146,1,2,0:0:0:0:
256,192,65368,1,0,0:0:0:0:
256,192,65423,1,0,0:0:0:0:
256,192,65479,1,2,0:0:0:0:
256,192,65701,1,2,0:0:0:0:
256,192,65812,1,2,0:0:0:0:
256,192,65923,1,0,0:0:0:0:
256,192,65979,1,0,0:0:0:0:
256,192,66034,1,0,0:0:0:0:
256,192,66090,1,0,0:0:0:0:
256,192,66145,1,0,0:0:0:0:
256,192,66257,1,0,0:0:0:0:
256,192,66368,1,2,0:0:0:0:
256,192,66590,1,2,0:0:0:0:
256,192,66812,1,0,0:0:0:0:
256,192,66868,1,0,0:0:0:0:
256,192,66923,1,0,0:0:0:0:
256,192,67145,1,2,0:0:0:0:
256,192,67256,1,2,0:0:0:0:
256,192,67479,1,0,0:0:0:0:
256,192,67534,1,0,0:0:0:0:
256,192,67590,1,0,0:0:0:0:
256,192,67701,1,0,0:0:0:0:
256,192,67812,1,0,0:0:0:0:
256,192,68145,1,2,0:0:0:0:
256,192,68256,1,2,0:0:0:0:
256,192,68367,1,0,0:0:0:0:
256,192,68423,1,0,0:0:0:0:
256,192,68478,1,2,0:0:0:0:
256,192,68590,1,2,0:0:0:0:
256,192,68701,1,2,0:0:0:0:
256,192,68812,1,0,0:0:0:0:
256,192,68923,1,2,0:0:0:0:
256,192,69034,1,0,0:0:0:0:
256,192,69090,1,0,0:0:0:0:
256,192,69145,1,0,0:0:0:0:
256,192,69201,1,0,0:0:0:0:
256,192,69256,1,2,0:0:0:0:
256,192,69367,1,0,0:0:0:0:
256,192,69478,1,2,0:0:0:0:
256,192,69701,1,0,0:0:0:0:
256,192,69812,1,2,0:0:0:0:
256,192,70145,1,2,0:0:0:0:
256,192,70367,1,2,0:0:0:0:
256,192,70478,1,2,0:0:0:0:
256,192,70589,1,0,0:0:0:0:
256,192,70645,1,0,0:0:0:0:
256,192,70700,1,0,0:0:0:0:
256,192,70756,1,0,0:0:0:0:
256,192,70811,1,2,0:0:0:0:
256,192,71034,1,2,0:0:0:0:
256,192,71145,1,2,0:0:0:0:
256,192,71256,1,0,0:0:0:0:
256,192,71367,1,2,0:0:0:0:
256,192,71478,1,0,0:0:0:0:
256,192,71589,1,2,0:0:0:0:
256,192,71700,1,0,0:0:0:0:
256,192,71811,1,2,0:0:0:0:
256,192,71922,1,0,0:0:0:0:
256,192,72034,1,2,0:0:0:0:
256,192,72145,1,0,0:0:0:0:
256,192,72256,1,0,0:0:0:0:
256,192,72367,1,0,0:0:0:0:
256,192,72478,1,0,0:0:0:0:
256,192,72589,1,2,0:0:0:0:
256,192,72645,1,2,0:0:0:0:
256,192,72700,1,2,0:0:0:0:
256,192,72756,1,2,0:0:0:0:
256,192,72811,1,0,0:0:0:0:
256,192,72922,1,0,0:0:0:0:
256,192,73033,1,6,0:0:0:0:
256,192,73144,1,2,0:0:0:0:
256,192,73367,1,0,0:0:0:0:
256,192,73478,1,2,0:0:0:0:
256,192,73589,1,0,0:0:0:0:
256,192,73700,1,0,0:0:0:0:
256,192,73755,1,0,0:0:0:0:
256,192,73811,1,0,0:0:0:0:
256,192,73867,1,0,0:0:0:0:
256,192,73922,1,2,0:0:0:0:
256,192,74144,1,0,0:0:0:0:
256,192,74255,1,0,0:0:0:0:
256,192,74366,1,2,0:0:0:0:
256,192,74589,1,2,0:0:0:0:
256,192,74811,1,2,0:0:0:0:
256,192,74922,1,2,0:0:0:0:
256,192,75144,1,0,0:0:0:0:
256,192,75255,1,2,0:0:0:0:
256,192,75477,1,2,0:0:0:0:
256,192,75700,1,2,0:0:0:0:
256,192,75922,1,0,0:0:0:0:
256,192,76033,1,2,0:0:0:0:
256,192,76144,1,0,0:0:0:0:
256,192,76255,1,0,0:0:0:0:
256,192,76366,1,2,0:0:0:0:
256,192,76477,1,2,0:0:0:0:
256,192,76588,1,0,0:0:0:0:
256,192,76755,1,2,0:0:0:0:
256,192,76922,1,2,0:0:0:0:
256,192,77033,1,0,0:0:0:0:
256,192,77255,1,2,0:0:0:0:
256,192,77477,1,2,0:0:0:0:
256,192,77588,1,2,0:0:0:0:
256,192,77699,1,0,0:0:0:0:
256,192,77810,1,2,0:0:0:0:
256,192,77922,1,2,0:0:0:0:
256,192,78033,1,2,0:0:0:0:
256,192,78144,1,2,0:0:0:0:
256,192,78366,1,2,0:0:0:0:
256,192,78588,1,0,0:0:0:0:
256,192,78699,1,0,0:0:0:0:
256,192,78810,1,2,0:0:0:0:
256,192,78866,1,2,0:0:0:0:
256,192,78921,1,2,0:0:0:0:
256,192,78977,1,2,0:0:0:0:
256,192,79032,1,0,0:0:0:0:
256,192,79255,1,2,0:0:0:0:
256,192,79366,1,2,0:0:0:0:
256,192,79588,1,0,0:0:0:0:
256,192,79699,1,2,0:0:0:0:
256,192,79755,1,2,0:0:0:0:
256,192,79810,1,2,0:0:0:0:
256,192,79921,1,0,0:0:0:0:
256,192,80032,1,0,0:0:0:0:
256,192,80143,1,0,0:0:0:0:
256,192,80366,1,2,0:0:0:0:
256,192,80588,1,2,0:0:0:0:
256,192,80810,1,2,0:0:0:0:
256,192,81032,1,2,0:0:0:0:
256,192,81254,1,0,0:0:0:0:
256,192,81365,1,0,0:0:0:0:
256,192,81477,1,2,0:0:0:0:
256,192,81699,1,2,0:0:0:0:
256,192,81921,1,2,0:0:0:0:
256,192,82032,1,2,0:0:0:0:
256,192,82254,1,0,0:0:0:0:
256,192,82310,1,0,0:0:0:0:
256,192,82365,1,2,0:0:0:0:
256,192,82588,1,2,0:0:0:0:
256,192,82699,1,2,0:0:0:0:
256,192,82810,1,0,0:0:0:0:
256,192,82865,1,0,0:0:0:0:
256,192,82921,1,0,0:0:0:0:
256,192,83143,1,0,0:0:0:0:
256,192,83199,1,0,0:0:0:0:
256,192,83254,1,2,0:0:0:0:
256,192,83476,1,2,0:0:0:0:
256,192,83698,1,0,0:0:0:0:
256,192,83921,1,0,0:0:0:0:
256,192,84032,1,2,0:0:0:0:
256,192,84143,1,2,0:0:0:0:
256,192,84365,1,0,0:0:0:0:
256,192,84476,1,0,0:0:0:0:
256,192,84698,1,0,0:0:0:0:
256,192,84809,1,0,0:0:0:0:
256,192,84920,1,0,0:0:0:0:
256,192,85032,1,2,0:0:0:0:
256,192,85254,1,0,0:0:0:0:
256,192,85365,1,0,0:0:0:0:
256,192,85476,1,0,0:0:0:0:
256,192,85698,1,0,0:0:0:0:
256,192,85920,1,0,0:0:0:0:
256,192,86031,1,0,0:0:0:0:
256,192,86254,1,2,0:0:0:0:
256,192,86476,1,2,0:0:0:0:
256,192,86587,1,2,0:0:0:0:
256,192,86698,1,2,0:0:0:0:
256,192,86809,1,2,0:0:0:0:
256,192,86920,1,2,0:0:0:0:
256,192,87031,1,2,0:0:0:0:
256,192,87142,1,2,0:0:0:0:
256,192,87253,1,0,0:0:0:0:
256,192,87365,1,0,0:0:0:0:
256,192,87420,1,0,0:0:0:0:
256,192,87476,1,2,0:0:0:0:
256,192,87587,1,0,0:0:0:0:
256,192,87642,1,0,0:0:0:0:
256,192,87698,1,0,0:0:0:0:
256,192,87809,1,0,0:0:0:0:
256,192,87864,1,0,0:0:0:0:
256,192,87920,1,2,0:0:0:0:
256,192,88031,1,0,0:0:0:0:
256,192,88142,1,0,0:0:0:0:
256,192,88253,1,0,0:0:0:0:
256,192,88309,1,0,0:0:0:0:
256,192,88364,1,2,0:0:0:0:
256,192,88476,1,0,0:0:0:0:
256,192,88531,1,0,0:0:0:0:
256,192,88587,1,0,0:0:0:0:
256,192,88698,1,0,0:0:0:0:
256,192,88753,1,0,0:0:0:0:
256,192,88809,1,2,0:0:0:0:
256,192,88920,1,2,0:0:0:0:
256,192,89031,1,0,0:0:0:0:
256,192,89142,1,0,0:0:0:0:
256,192,89198,1,0,0:0:0:0:
256,192,89253,1,2,0:0:0:0:
256,192,89364,1,0,0:0:0:0:
256,192,89420,1,0,0:0:0:0:
256,192,89475,1,0,0:0:0:0:
256,192,89586,1,0,0:0:0:0:
256,192,89642,1,0,0:0:0:0:
256,192,89698,1,2,0:0:0:0:
256,192,89809,1,0,0:0:0:0:
256,192,89920,1,0,0:0:0:0:
256,192,90031,1,0,0:0:0:0:
256,192,90086,1,0,0:0:0:0:
256,192,90142,1,2,0:0:0:0:
256,192,90253,1,2,0:0:0:0:
256,192,90364,1,0,0:0:0:0:
256,192,90475,1,2,0:0:0:0:
256,192,90586,1,0,0:0:0:0:
256,192,90642,1,0,0:0:0:0:
256,192,90697,1,2,0:0:0:0:
256,192,90809,1,0,0:0:0:0:
256,192,90920,1,0,0:0:0:0:
256,192,90975,1,0,0:0:0:0:
256,192,91031,1,2,0:0:0:0:
256,192,91142,1,0,0:0:0:0:
256,192,91197,1,0,0:0:0:0:
256,192,91253,1,0,0:0:0:0:
256,192,91364,1,0,0:0:0:0:
256,192,91420,1,0,0:0:0:0:
256,192,91475,1,2,0:0:0:0:
256,192,91586,1,0,0:0:0:0:
256,192,91697,1,0,0:0:0:0:
256,192,91808,1,0,0:0:0:0:
256,192,91864,1,0,0:0:0:0:
256,192,91919,1,2,0:0:0:0:
256,192,92031,1,0,0:0:0:0:
256,192,92086,1,0,0:0:0:0:
256,192,92142,1,0,0:0:0:0:
256,192,92253,1,0,0:0:0:0:
256,192,92308,1,0,0:0:0:0:
256,192,92364,1,2,0:0:0:0:
256,192,92475,1,2,0:0:0:0:
256,192,92586,1,0,0:0:0:0:
256,192,92697,1,0,0:0:0:0:
256,192,92753,1,0,0:0:0:0:
256,192,92808,1,2,0:0:0:0:
256,192,92919,1,0,0:0:0:0:
256,192,92975,1,0,0:0:0:0:
256,192,93030,1,0,0:0:0:0:
256,192,93141,1,0,0:0:0:0:
256,192,93197,1,0,0:0:0:0:
256,192,93253,1,2,0:0:0:0:
256,192,93364,1,0,0:0:0:0:
256,192,93475,1,0,0:0:0:0:
256,192,93586,1,0,0:0:0:0:
256,192,93641,1,0,0:0:0:0:
256,192,93697,1,2,0:0:0:0:
256,192,93808,1,0,0:0:0:0:
256,192,93919,1,0,0:0:0:0:
256,192,94030,1,2,0:0:0:0:
256,192,94141,1,0,0:0:0:0:
256,192,94252,1,2,0:0:0:0:
256,192,94364,1,0,0:0:0:0:
256,192,94475,1,0,0:0:0:0:
256,192,94530,1,0,0:0:0:0:
256,192,94586,1,2,0:0:0:0:
256,192,94697,1,0,0:0:0:0:
256,192,94752,1,0,0:0:0:0:
256,192,94808,1,0,0:0:0:0:
256,192,94919,1,0,0:0:0:0:
256,192,94975,1,0,0:0:0:0:
256,192,95030,1,2,0:0:0:0:
256,192,95141,1,0,0:0:0:0:
256,192,95252,1,0,0:0:0:0:
256,192,95363,1,0,0:0:0:0:
256,192,95419,1,0,0:0:0:0:
256,192,95474,1,2,0:0:0:0:
256,192,95586,1,0,0:0:0:0:
256,192,95641,1,0,0:0:0:0:
256,192,95697,1,0,0:0:0:0:
256,192,95808,1,0,0:0:0:0:
256,192,95863,1,0,0:0:0:0:
256,192,95919,1,2,0:0:0:0:
256,192,96030,1,2,0:0:0:0:
256,192,96141,1,0,0:0:0:0:
256,192,96252,1,0,0:0:0:0:
256,192,96308,1,0,0:0:0:0:
256,192,96363,1,2,0:0:0:0:
256,192,96474,1,0,0:0:0:0:
256,192,96530,1,0,0:0:0:0:
256,192,96585,1,0,0:0:0:0:
256,192,96697,1,0,0:0:0:0:
256,192,96752,1,0,0:0:0:0:
256,192,96808,1,2,0:0:0:0:
256,192,96919,1,0,0:0:0:0:
256,192,97030,1,0,0:0:0:0:
256,192,97141,1,0,0:0:0:0:
256,192,97196,1,0,0:0:0:0:
256,192,97252,1,2,0:0:0:0:
256,192,97363,1,2,0:0:0:0:
256,192,97474,1,0,0:0:0:0:
256,192,97585,1,2,0:0:0:0:
256,192,97696,1,0,0:0:0:0:
256,192,97752,1,0,0:0:0:0:
256,192,97807,1,2,0:0:0:0:
256,192,97919,1,0,0:0:0:0:
256,192,98030,1,0,0:0:0:0:
256,192,98085,1,0,0:0:0:0:
256,192,98141,1,2,0:0:0:0:
256,192,98252,1,0,0:0:0:0:
256,192,98307,1,0,0:0:0:0:
256,192,98363,1,0,0:0:0:0:
256,192,98474,1,0,0:0:0:0:
256,192,98530,1,0,0:0:0:0:
256,192,98585,1,2,0:0:0:0:
256,192,98696,1,0,0:0:0:0:
256,192,98807,1,0,0:0:0:0:
256,192,98918,1,0,0:0:0:0:
256,192,98974,1,0,0:0:0:0:
256,192,99030,1,2,0:0:0:0:
256,192,99141,1,0,0:0:0:0:
256,192,99196,1,0,0:0:0:0:
256,192,99252,1,0,0:0:0:0:
256,192,99363,1,0,0:0:0:0:
256,192,99418,1,0,0:0:0:0:
256,192,99474,1,2,0:0:0:0:
256,192,99585,1,2,0:0:0:0:
256,192,99696,1,0,0:0:0:0:
256,192,99807,1,0,0:0:0:0:
256,192,99863,1,0,0:0:0:0:
256,192,99918,1,2,0:0:0:0:
256,192,100029,1,0,0:0:0:0:
256,192,100085,1,0,0:0:0:0:
256,192,100140,1,0,0:0:0:0:
256,192,100252,1,0,0:0:0:0:
256,192,100307,1,0,0:0:0:0:
256,192,100363,1,2,0:0:0:0:
256,192,100474,1,2,0:0:0:0:
256,192,100696,1,2,0:0:0:0:
256,192,100807,1,2,0:0:0:0:
256,192,100918,1,0,0:0:0:0:
256,192,101029,1,0,0:0:0:0:
256,192,101085,1,0,0:0:0:0:
256,192,101140,1,0,0:0:0:0:
256,192,101196,1,0,0:0:0:0:
256,192,101251,1,2,0:0:0:0:
256,192,101307,1,2,0:0:0:0:
256,192,101362,1,2,0:0:0:0:
256,192,101474,1,0,0:0:0:0:
256,192,101585,1,0,0:0:0:0:
256,192,101696,1,2,0:0:0:0:
256,192,101751,1,2,0:0:0:0:
256,192,101807,1,0,0:0:0:0:
256,192,101918,1,0,0:0:0:0:
256,192,102029,1,0,0:0:0:0:
256,192,102085,1,0,0:0:0:0:
256,192,102140,1,0,0:0:0:0:
256,192,102251,1,2,0:0:0:0:
256,192,102362,1,0,0:0:0:0:
256,192,102473,1,0,0:0:0:0:
256,192,102585,1,2,0:0:0:0:
256,192,102640,1,2,0:0:0:0:
256,192,102696,1,0,0:0:0:0:
256,192,102807,1,0,0:0:0:0:
256,192,102918,1,0,0:0:0:0:
256,192,103029,1,2,0:0:0:0:
256,192,103140,1,2,0:0:0:0:
256,192,103196,1,2,0:0:0:0:
256,192,103251,1,0,0:0:0:0:
256,192,103362,1,0,0:0:0:0:
256,192,103473,1,2,0:0:0:0:
256,192,103529,1,2,0:0:0:0:
256,192,103584,1,0,0:0:0:0:
256,192,103695,1,0,0:0:0:0:
256,192,103807,1,0,0:0:0:0:
256,192,103862,1,0,0:0:0:0:
256,192,103918,1,0,0:0:0:0:
256,192,104029,1,2,0:0:0:0:
256,192,104140,1,0,0:0:0:0:
256,192,104251,1,0,0:0:0:0:
256,192,104362,1,2,0:0:0:0:
256,192,104418,1,2,0:0:0:0:
256,192,104473,1,0,0:0:0:0:
256,192,104584,1,0,0:0:0:0:
256,192,104695,1,0,0:0:0:0:
256,192,104806,1,2,0:0:0:0:
256,192,104862,1,2,0:0:0:0:
256,192,104918,1,2,0:0:0:0:
256,192,104973,1,2,0:0:0:0:
256,192,105029,1,0,0:0:0:0:
256,192,105140,1,0,0:0:0:0:
256,192,105251,1,2,0:0:0:0:
256,192,105306,1,2,0:0:0:0:
256,192,105362,1,0,0:0:0:0:
256,192,105473,1,0,0:0:0:0:
256,192,105584,1,0,0:0:0:0:
256,192,105640,1,0,0:0:0:0:
256,192,105695,1,0,0:0:0:0:
256,192,105806,1,2,0:0:0:0:
256,192,105917,1,0,0:0:0:0:
256,192,106028,1,0,0:0:0:0:
256,192,106140,1,2,0:0:0:0:
256,192,106195,1,2,0:0:0:0:
256,192,106251,1,0,0:0:0:0:
256,192,106362,1,0,0:0:0:0:
256,192,106473,1,0,0:0:0:0:
256,192,106584,1,2,0:0:0:0:
256,192,106695,1,2,0:0:0:0:
256,192,106751,1,2,0:0:0:0:
256,192,106806,1,0,0:0:0:0:
256,192,106917,1,0,0:0:0:0:
256,192,107028,1,2,0:0:0:0:
256,192,107084,1,2,0:0:0:0:
256,192,107139,1,0,0:0:0:0:
256,192,107251,1,0,0:0:0:0:
256,192,107362,1,0,0:0:0:0:
256,192,107417,1,0,0:0:0:0:
256,192,107473,1,0,0:0:0:0:
256,192,107584,1,2,0:0:0:0:
256,192,107695,1,0,0:0:0:0:
256,192,107750,1,0,0:0:0:0:
256,192,107806,1,2,0:0:0:0:
256,192,107862,1,2,0:0:0:0:
256,192,107917,1,2,0:0:0:0:
256,192,107973,1,2,0:0:0:0:
256,192,108028,1,0,0:0:0:0:
256,192,108084,1,0,0:0:0:0:
256,192,108139,1,0,0:0:0:0:
256,192,108195,1,0,0:0:0:0:
256,192,108250,1,2,0:0:0:0:
256,192,108306,1,2,0:0:0:0:
256,192,108361,1,2,0:0:0:0:
256,192,108417,1,2,0:0:0:0:
256,192,108473,1,2,0:0:0:0:
256,192,108528,1,2,0:0:0:0:
256,192,108584,1,0,0:0:0:0:
256,192,108695,1,0,0:0:0:0:
256,192,108806,1,2,0:0:0:0:
256,192,108861,1,2,0:0:0:0:
256,192,108917,1,2,0:0:0:0:
256,192,109028,1,0,0:0:0:0:
256,192,109139,1,0,0:0:0:0:
256,192,109195,1,0,0:0:0:0:
256,192,109250,1,2,0:0:0:0:
256,192,109361,1,2,0:0:0:0:
256,192,109472,1,0,0:0:0:0:
256,192,109584,1,0,0:0:0:0:
256,192,109695,1,2,0:0:0:0:
256,192,109750,1,2,0:0:0:0:
256,192,109806,1,2,0:0:0:0:
256,192,109917,1,0,0:0:0:0:
256,192,110028,1,0,0:0:0:0:
256,192,110083,1,0,0:0:0:0:
256,192,110139,1,2,0:0:0:0:
256,192,110250,1,2,0:0:0:0:
256,192,110306,1,2,0:0:0:0:
256,192,110361,1,0,0:0:0:0:
256,192,110472,1,0,0:0:0:0:
256,192,110583,1,2,0:0:0:0:
256,192,110639,1,2,0:0:0:0:
256,192,110694,1,2,0:0:0:0:
256,192,110806,1,0,0:0:0:0:
256,192,110917,1,0,0:0:0:0:
256,192,110972,1,0,0:0:0:0:
256,192,111028,1,2,0:0:0:0:
256,192,111139,1,2,0:0:0:0:
256,192,111250,1,0,0:0:0:0:
256,192,111361,1,0,0:0:0:0:
256,192,111472,1,2,0:0:0:0:
256,192,111528,1,2,0:0:0:0:
256,192,111583,1,2,0:0:0:0:
256,192,111694,1,0,0:0:0:0:
256,192,111805,1,0,0:0:0:0:
256,192,111861,1,0,0:0:0:0:
256,192,111916,1,2,0:0:0:0:
256,192,111972,1,2,0:0:0:0:
256,192,112028,1,2,0:0:0:0:
256,192,112083,1,2,0:0:0:0:
256,192,112139,1,0,0:0:0:0:
256,192,112250,1,0,0:0:0:0:
256,192,112361,1,2,0:0:0:0:
256,192,112416,1,2,0:0:0:0:
256,192,112472,1,2,0:0:0:0:
256,192,112583,1,0,0:0:0:0:
256,192,112694,1,0,0:0:0:0:
256,192,112750,1,0,0:0:0:0:
256,192,112805,1,2,0:0:0:0:
256,192,112916,1,2,0:0:0:0:
256,192,113027,1,0,0:0:0:0:
256,192,113139,1,0,0:0:0:0:
256,192,113250,1,2,0:0:0:0:
256,192,113305,1,2,0:0:0:0:
256,192,113361,1,2,0:0:0:0:
256,192,113472,1,0,0:0:0:0:
256,192,113583,1,0,0:0:0:0:
256,192,113638,1,0,0:0:0:0:
256,192,113694,1,2,0:0:0:0:
256,192,113750,1,2,0:0:0:0:
256,192,113805,1,2,0:0:0:0:
256,192,113916,1,0,0:0:0:0:
256,192,113972,1,0,0:0:0:0:
256,192,114027,1,0,0:0:0:0:
256,192,114083,1,0,0:0:0:0:
256,192,114138,1,2,0:0:0:0:
256,192,114194,1,2,0:0:0:0:
256,192,114249,1,2,0:0:0:0:
256,192,114361,1,0,0:0:0:0:
256,192,114416,1,0,0:0:0:0:
256,192,114472,1,0,0:0:0:0:
256,192,114527,1,0,0:0:0:0:
256,192,114583,1,2,0:0:0:0:
256,192,114638,1,2,0:0:0:0:
256,192,114694,1,2,0:0:0:0:
256,192,114805,1,0,0:0:0:0:
256,192,114860,1,0,0:0:0:0:
256,192,114916,1,0,0:0:0:0:
256,192,114972,1,0,0:0:0:0:
256,192,115027,1,2,0:0:0:0:
256,192,115083,1,2,0:0:0:0:
256,192,115138,1,2,0:0:0:0:
256,192,115194,1,2,0:0:0:0:
256,192,115249,1,0,0:0:0:0:
256,192,115305,1,0,0:0:0:0:
256,192,115360,1,0,0:0:0:0:
256,192,115416,1,0,0:0:0:0:
256,192,115472,1,2,0:0:0:0:
256,192,115527,1,2,0:0:0:0:
256,192,115583,1,2,0:0:0:0:
256,192,115638,1,2,0:0:0:0:
256,192,115694,12,0,129692,0:0:0:0:
256,192,129914,5,0,0:0:0:0:
256,192,130358,1,2,0:0:0:0:
256,192,130803,1,0,0:0:0:0:
256,192,131247,1,0,0:0:0:0:
256,192,131469,1,2,0:0:0:0:
256,192,131691,1,0,0:0:0:0:
256,192,132136,1,2,0:0:0:0:
256,192,132358,1,0,0:0:0:0:
256,192,132580,1,0,0:0:0:0:
256,192,132802,1,0,0:0:0:0:
256,192,133024,1,2,0:0:0:0:
256,192,133469,1,0,0:0:0:0:
256,192,133913,1,0,0:0:0:0:
256,192,134135,1,2,0:0:0:0:
256,192,134358,1,0,0:0:0:0:
256,192,134580,1,0,0:0:0:0:
256,192,134802,1,0,0:0:0:0:
256,192,135246,1,2,0:0:0:0:
256,192,135469,1,0,0:0:0:0:
256,192,135691,1,0,0:0:0:0:
256,192,135913,1,2,0:0:0:0:
256,192,136135,1,0,0:0:0:0:
256,192,136246,1,2,0:0:0:0:
256,192,136357,1,0,0:0:0:0:
256,192,136468,1,2,0:0:0:0:
256,192,136580,1,0,0:0:0:0:
256,192,136635,1,2,0:0:0:0:
256,192,136691,1,0,0:0:0:0:
256,192,136802,1,0,0:0:0:0:
256,192,137024,1,2,0:0:0:0:
256,192,137246,1,0,0:0:0:0:
256,192,137357,1,0,0:0:0:0:
256,192,137468,1,2,0:0:0:0:
256,192,137690,1,0,0:0:0:0:
256,192,137802,1,2,0:0:0:0:
256,192,137913,1,0,0:0:0:0:
256,192,138024,1,0,0:0:0:0:
256,192,138135,1,2,0:0:0:0:
256,192,138357,1,2,0:0:0:0:
256,192,138468,1,2,0:0:0:0:
256,192,138579,1,0,0:0:0:0:
256,192,138801,1,2,0:0:0:0:
256,192,139024,1,0,0:0:0:0:
256,192,139135,1,0,0:0:0:0:
256,192,139246,1,2,0:0:0:0:
256,192,139468,1,0,0:0:0:0:
256,192,139579,1,2,0:0:0:0:
256,192,139690,1,0,0:0:0:0:
256,192,139801,1,2,0:0:0:0:
256,192,139912,1,0,0:0:0:0:
256,192,140023,1,0,0:0:0:0:
256,192,140135,1,2,0:0:0:0:
256,192,140357,1,0,0:0:0:0:
256,192,140468,1,2,0:0:0:0:
256,192,140579,1,0,0:0:0:0:
256,192,140801,1,0,0:0:0:0:
256,192,140912,1,0,0:0:0:0:
256,192,141023,1,2,0:0:0:0:
256,192,141357,1,0,0:0:0:0:
256,192,141468,1,0,0:0:0:0:
256,192,141579,1,2,0:0:0:0:
256,192,141690,1,2,0:0:0:0:
256,192,141912,1,0,0:0:0:0:
256,192,142134,1,2,0:0:0:0:
256,192,142356,1,0,0:0:0:0:
256,192,142839,1,2,0:0:0:0:
256,192,143081,1,2,0:0:0:0:
256,192,143331,1,2,0:0:0:0:
256,192,143638,1,2,0:0:0:0:
256,192,143971,1,0,0:0:0:0:
256,192,144346,1,0,0:0:0:0:
256,192,144846,1,6,0:0:0:0:
256,192,145068,1,0,0:0:0:0:
256,192,145290,1,2,0:0:0:0:
256,192,145512,1,0,0:0:0:0:
256,192,145734,1,2,0:0:0:0:
256,192,146179,1,0,0:0:0:0:
256,192,146401,1,2,0:0:0:0:
256,192,146623,1,2,0:0:0:0:
256,192,146846,1,0,0:0:0:0:
256,192,147068,1,2,0:0:0:0:
256,192,147290,1,0,0:0:0:0:
256,192,147512,1,2,0:0:0:0:
256,192,147734,1,0,0:0:0:0:
256,192,147957,1,0,0:0:0:0:
256,192,148179,1,0,0:0:0:0:
256,192,148401,1,2,0:0:0:0:
256,192,148846,1,0,0:0:0:0:
256,192,149068,1,0,0:0:0:0:
256,192,149290,1,2,0:0:0:0:
256,192,149734,1,0,0:0:0:0:
256,192,149957,1,2,0:0:0:0:
256,192,150179,1,2,0:0:0:0:
256,192,150623,1,0,0:0:0:0:
256,192,150846,1,2,0:0:0:0:
256,192,151068,1,0,0:0:0:0:
256,192,151179,1,2,0:0:0:0:
256,192,151290,1,0,0:0:0:0:
256,192,151364,1,2,0:0:0:0:
256,192,151438,1,0,0:0:0:0:
256,192,151512,1,2,0:0:0:0:
256,192,151734,1,0,0:0:0:0:
256,192,151957,1,2,0:0:0:0:
256,192,152401,1,0,0:0:0:0:
256,192,152846,1,2,0:0:0:0:
256,192,153290,1,0,0:0:0:0:
256,192,153512,1,2,0:0:0:0:
256,192,153734,1,2,0:0:0:0:
256,192,154179,1,0,0:0:0:0:
256,192,154401,1,2,0:0:0:0:
256,192,154623,1,2,0:0:0:0:
256,192,154846,1,0,0:0:0:0:
256,192,155068,1,2,0:0:0:0:
256,192,155290,1,0,0:0:0:0:
256,192,155512,1,2,0:0:0:0:
256,192,155734,1,0,0:0:0:0:
256,192,155957,1,0,0:0:0:0:
256,192,156179,1,2,0:0:0:0:
256,192,156401,1,2,0:0:0:0:
256,192,156623,1,0,0:0:0:0:
256,192,156846,1,2,0:0:0:0:
256,192,157068,1,2,0:0:0:0:
256,192,157290,1,2,0:0:0:0:
256,192,157512,1,0,0:0:0:0:
256,192,157734,1,2,0:0:0:0:
256,192,157957,1,2,0:0:0:0:
256,192,158179,1,2,0:0:0:0:
256,192,158401,1,2,0:0:0:0:
256,192,158623,1,0,0:0:0:0:
256,192,158846,1,0,0:0:0:0:
256,192,159068,1,2,0:0:0:0:
256,192,159290,1,0,0:0:0:0:
256,192,159512,1,2,0:0:0:0:
256,192,159734,1,0,0:0:0:0:
256,192,159957,1,2,0:0:0:0:
256,192,160401,1,0,0:0:0:0:
256,192,160623,1,2,0:0:0:0:
256,192,160845,1,2,0:0:0:0:
256,192,161068,1,0,0:0:0:0:
256,192,161290,1,2,0:0:0:0:
256,192,161512,1,0,0:0:0:0:
256,192,161734,1,2,0:0:0:0:
256,192,161957,1,0,0:0:0:0:
256,192,162179,1,0,0:0:0:0:
256,192,162401,1,0,0:0:0:0:
256,192,162623,1,2,0:0:0:0:
256,192,163068,1,0,0:0:0:0:
256,192,163290,1,0,0:0:0:0:
256,192,163512,1,2,0:0:0:0:
256,192,163957,1,0,0:0:0:0:
256,192,164179,1,2,0:0:0:0:
256,192,164401,1,2,0:0:0:0:
256,192,164845,1,0,0:0:0:0:
256,192,165068,1,2,0:0:0:0:
256,192,165290,1,0,0:0:0:0:
256,192,165401,1,2,0:0:0:0:
256,192,165512,1,0,0:0:0:0:
256,192,165586,1,2,0:0:0:0:
256,192,165660,1,0,0:0:0:0:
256,192,165734,1,2,0:0:0:0:
256,192,165957,1,0,0:0:0:0:
256,192,166179,1,2,0:0:0:0:
256,192,166623,1,0,0:0:0:0:
256,192,167068,1,2,0:0:0:0:
256,192,167512,1,0,0:0:0:0:
256,192,167734,1,2,0:0:0:0:
256,192,167957,1,2,0:0:0:0:
256,192,168401,1,0,0:0:0:0:
256,192,168623,1,2,0:0:0:0:
256,192,168845,1,2,0:0:0:0:
256,192,169068,1,0,0:0:0:0:
256,192,169290,1,2,0:0:0:0:
256,192,169512,1,0,0:0:0:0:
256,192,169734,1,2,0:0:0:0:
256,192,169957,1,0,0:0:0:0:
256,192,170179,1,0,0:0:0:0:
256,192,170401,1,2,0:0:0:0:
256,192,170623,1,2,0:0:0:0:
256,192,170845,1,0,0:0:0:0:
256,192,171068,1,0,0:0:0:0:
256,192,171290,1,2,0:0:0:0:
256,192,171512,1,2,0:0:0:0:
256,192,171957,1,0,0:0:0:0:
256,192,172179,1,2,0:0:0:0:
256,192,172401,1,2,0:0:0:0:
256,192,172623,1,2,0:0:0:0:
256,192,172845,1,2,0:0:0:0:
256,192,172957,1,2,0:0:0:0:
256,192,173068,1,2,0:0:0:0:
256,192,173123,1,2,0:0:0:0:
256,192,173179,1,2,0:0:0:0:
256,192,173234,1,2,0:0:0:0:
256,192,173290,1,0,0:0:0:0:
256,192,173364,1,0,0:0:0:0:
256,192,173438,1,0,0:0:0:0:
256,192,173512,1,2,0:0:0:0:
256,192,173586,1,2,0:0:0:0:
256,192,173660,1,2,0:0:0:0:
256,192,173734,1,0,0:0:0:0:
256,192,173808,1,0,0:0:0:0:
256,192,173883,1,0,0:0:0:0:
256,192,173957,1,0,0:0:0:0:
256,192,174031,1,2,0:0:0:0:
256,192,174105,1,2,0:0:0:0:
256,192,174179,1,2,0:0:0:0:
256,192,174262,1,0,0:0:0:0:
256,192,174373,1,0,0:0:0:0:
256,192,174484,1,0,0:0:0:0:
256,192,174595,1,2,0:0:0:0:
256,192,174707,1,2,0:0:0:0:
256,192,174818,1,2,0:0:0:0:
256,192,174957,1,0,0:0:0:0:
256,192,175179,1,2,0:0:0:0:
256,192,175457,1,0,0:0:0:0:
256,192,175927,1,4,0:0:0:0:
256,192,177482,1,4,0:0:0:0:
256,192,177704,1,4,0:0:0:0:
256,192,177927,1,4,0:0:0:0:
256,192,179260,1,4,0:0:0:0:
256,192,179482,1,4,0:0:0:0:
256,192,181038,1,4,0:0:0:0:
256,192,181260,1,4,0:0:0:0:
256,192,181482,1,4,0:0:0:0:
256,192,182815,1,4,0:0:0:0:
256,192,183038,1,4,0:0:0:0:
256,192,183260,1,2,0:0:0:0:
256,192,183704,1,2,0:0:0:0:
256,192,184149,1,2,0:0:0:0:
256,192,184593,1,4,0:0:0:0:
256,192,184815,1,4,0:0:0:0:
256,192,185038,1,4,0:0:0:0:
256,192,185482,1,2,0:0:0:0:
256,192,185927,1,2,0:0:0:0:
256,192,186371,1,4,0:0:0:0:
256,192,186593,1,4,0:0:0:0:
256,192,186815,1,2,0:0:0:0:
256,192,187260,1,2,0:0:0:0:
256,192,187704,1,2,0:0:0:0:
256,192,188149,1,4,0:0:0:0:
256,192,188371,1,4,0:0:0:0:
256,192,188593,1,4,0:0:0:0:
256,192,189038,1,2,0:0:0:0:
256,192,189482,1,2,0:0:0:0:
256,192,189927,1,4,0:0:0:0:
256,192,190149,1,4,0:0:0:0:
256,192,190371,1,2,0:0:0:0:
256,192,190593,1,2,0:0:0:0:
256,192,190815,1,2,0:0:0:0:
256,192,191038,1,2,0:0:0:0:
256,192,191260,1,2,0:0:0:0:
256,192,191482,1,2,0:0:0:0:
256,192,191593,1,0,0:0:0:0:
256,192,191704,1,2,0:0:0:0:
256,192,191815,1,0,0:0:0:0:
256,192,191926,1,4,0:0:0:0:
256,192,192149,1,2,0:0:0:0:
256,192,192371,1,2,0:0:0:0:
256,192,192593,1,2,0:0:0:0:
256,192,192815,1,2,0:0:0:0:
256,192,193038,1,2,0:0:0:0:
256,192,193260,1,2,0:0:0:0:
256,192,193371,1,0,0:0:0:0:
256,192,193482,1,0,0:0:0:0:
256,192,193593,1,2,0:0:0:0:
256,192,193704,1,4,0:0:0:0:
256,192,193926,1,2,0:0:0:0:
256,192,194149,1,2,0:0:0:0:
256,192,194371,1,2,0:0:0:0:
256,192,194593,1,2,0:0:0:0:
256,192,194815,1,2,0:0:0:0:
256,192,195038,1,2,0:0:0:0:
256,192,195149,1,0,0:0:0:0:
256,192,195260,1,2,0:0:0:0:
256,192,195371,1,0,0:0:0:0:
256,192,195482,1,4,0:0:0:0:
256,192,195704,1,2,0:0:0:0:
256,192,195926,1,2,0:0:0:0:
256,192,196149,1,2,0:0:0:0:
256,192,196371,1,2,0:0:0:0:
256,192,196593,1,2,0:0:0:0:
256,192,196815,1,2,0:0:0:0:
256,192,196926,1,0,0:0:0:0:
256,192,197038,1,0,0:0:0:0:
256,192,197149,1,2,0:0:0:0:
256,192,197260,1,4,0:0:0:0:
256,192,197371,1,0,0:0:0:0:
256,192,197482,1,2,0:0:0:0:
256,192,197593,1,2,0:0:0:0:
256,192,197815,1,0,0:0:0:0:
256,192,197926,1,2,0:0:0:0:
256,192,198038,1,0,0:0:0:0:
256,192,198260,1,0,0:0:0:0:
256,192,198371,1,2,0:0:0:0:
256,192,198482,1,2,0:0:0:0:
256,192,198593,1,2,0:0:0:0:
256,192,198704,1,0,0:0:0:0:
256,192,198815,1,2,0:0:0:0:
256,192,198926,1,0,0:0:0:0:
256,192,199038,1,4,0:0:0:0:
256,192,199149,1,0,0:0:0:0:
256,192,199260,1,0,0:0:0:0:
256,192,199371,1,2,0:0:0:0:
256,192,199593,1,0,0:0:0:0:
256,192,199704,1,2,0:0:0:0:
256,192,199815,1,0,0:0:0:0:
256,192,200038,1,0,0:0:0:0:
256,192,200149,1,2,0:0:0:0:
256,192,200260,1,2,0:0:0:0:
256,192,200371,1,2,0:0:0:0:
256,192,200482,1,0,0:0:0:0:
256,192,200593,1,0,0:0:0:0:
256,192,200704,1,2,0:0:0:0:
256,192,200815,1,4,0:0:0:0:
256,192,200926,1,0,0:0:0:0:
256,192,201038,1,2,0:0:0:0:
256,192,201149,1,2,0:0:0:0:
256,192,201371,1,0,0:0:0:0:
256,192,201482,1,2,0:0:0:0:
256,192,201593,1,0,0:0:0:0:
256,192,201815,1,0,0:0:0:0:
256,192,201926,1,2,0:0:0:0:
256,192,202038,1,2,0:0:0:0:
256,192,202149,1,2,0:0:0:0:
256,192,202260,1,0,0:0:0:0:
256,192,202371,1,2,0:0:0:0:
256,192,202482,1,2,0:0:0:0:
256,192,202593,1,4,0:0:0:0:
256,192,202704,1,0,0:0:0:0:
256,192,202815,1,0,0:0:0:0:
256,192,202926,1,2,0:0:0:0:
256,192,203149,1,2,0:0:0:0:
256,192,203260,1,0,0:0:0:0:
256,192,203371,1,0,0:0:0:0:
256,192,203593,1,0,0:0:0:0:
256,192,203704,1,2,0:0:0:0:
256,192,203815,1,2,0:0:0:0:
256,192,203926,1,2,0:0:0:0:
256,192,204038,1,0,0:0:0:0:
256,192,204149,1,2,0:0:0:0:
256,192,204260,1,0,0:0:0:0:
256,192,204371,1,0,0:0:0:0:
256,192,204426,1,0,0:0:0:0:
256,192,204482,1,0,0:0:0:0:
256,192,204593,1,2,0:0:0:0:
256,192,204704,1,2,0:0:0:0:
256,192,204815,1,0,0:0:0:0:
256,192,204926,1,0,0:0:0:0:
256,192,205038,1,2,0:0:0:0:
256,192,205149,1,2,0:0:0:0:
256,192,205260,1,0,0:0:0:0:
256,192,205315,1,0,0:0:0:0:
256,192,205371,1,0,0:0:0:0:
256,192,205482,1,2,0:0:0:0:
256,192,205593,1,2,0:0:0:0:
256,192,205704,1,0,0:0:0:0:
256,192,205815,1,0,0:0:0:0:
256,192,205926,1,2,0:0:0:0:
256,192,206038,1,2,0:0:0:0:
256,192,206149,1,6,0:0:0:0:
256,192,206260,1,6,0:0:0:0:
256,192,206371,1,6,0:0:0:0:
256,192,206482,1,6,0:0:0:0:
256,192,206593,1,0,0:0:0:0:
256,192,206704,1,0,0:0:0:0:
256,192,206815,1,6,0:0:0:0:
256,192,206926,1,0,0:0:0:0:
256,192,206982,1,0,0:0:0:0:
256,192,207038,1,2,0:0:0:0:
256,192,207093,1,2,0:0:0:0:
256,192,207149,1,2,0:0:0:0:
256,192,207204,1,2,0:0:0:0:
256,192,207260,1,2,0:0:0:0:
256,192,207371,1,2,0:0:0:0:
256,192,207482,1,0,0:0:0:0:
256,192,207538,1,0,0:0:0:0:
256,192,207593,1,0,0:0:0:0:
256,192,207649,1,0,0:0:0:0:
256,192,207704,1,2,0:0:0:0:
256,192,207760,1,2,0:0:0:0:
256,192,207815,1,2,0:0:0:0:
256,192,207871,1,2,0:0:0:0:
256,192,207926,1,0,0:0:0:0:
256,192,208038,1,0,0:0:0:0:
256,192,208093,1,0,0:0:0:0:
256,192,208149,1,2,0:0:0:0:
256,192,208260,1,0,0:0:0:0:
256,192,208315,1,0,0:0:0:0:
256,192,208371,1,0,0:0:0:0:
256,192,208482,1,0,0:0:0:0:
256,192,208538,1,0,0:0:0:0:
256,192,208593,1,2,0:0:0:0:
256,192,208649,1,2,0:0:0:0:
256,192,208704,1,0,0:0:0:0:
256,192,208815,1,0,0:0:0:0:
256,192,208926,1,0,0:0:0:0:
256,192,208982,1,0,0:0:0:0:
256,192,209038,1,2,0:0:0:0:
256,192,209149,1,0,0:0:0:0:
256,192,209204,1,0,0:0:0:0:
256,192,209260,1,0,0:0:0:0:
256,192,209371,1,0,0:0:0:0:
256,192,209426,1,0,0:0:0:0:
256,192,209482,1,2,0:0:0:0:
256,192,209593,1,2,0:0:0:0:
256,192,209704,1,0,0:0:0:0:
256,192,209815,1,0,0:0:0:0:
256,192,209871,1,0,0:0:0:0:
256,192,209926,1,2,0:0:0:0:
256,192,210038,1,0,0:0:0:0:
256,192,210093,1,0,0:0:0:0:
256,192,210149,1,0,0:0:0:0:
256,192,210260,1,0,0:0:0:0:
256,192,210315,1,0,0:0:0:0:
256,192,210371,1,2,0:0:0:0:
256,192,210426,1,2,0:0:0:0:
256,192,210482,1,0,0:0:0:0:
256,192,210593,1,0,0:0:0:0:
256,192,210704,1,0,0:0:0:0:
256,192,210760,1,0,0:0:0:0:
256,192,210815,1,2,0:0:0:0:
256,192,210926,1,2,0:0:0:0:
256,192,211038,1,2,0:0:0:0:
256,192,211149,1,2,0:0:0:0:
256,192,211204,1,2,0:0:0:0:
256,192,211260,1,0,0:0:0:0:
256,192,211315,1,0,0:0:0:0:
256,192,211371,1,2,0:0:0:0:
256,192,211482,1,0,0:0:0:0:
256,192,211593,1,0,0:0:0:0:
256,192,211649,1,0,0:0:0:0:
256,192,211704,1,2,0:0:0:0:
256,192,211815,1,0,0:0:0:0:
256,192,211871,1,0,0:0:0:0:
256,192,211926,1,0,0:0:0:0:
256,192,212038,1,0,0:0:0:0:
256,192,212093,1,0,0:0:0:0:
256,192,212149,1,2,0:0:0:0:
256,192,212204,1,2,0:0:0:0:
256,192,212260,1,0,0:0:0:0:
256,192,212371,1,0,0:0:0:0:
256,192,212482,1,0,0:0:0:0:
256,192,212538,1,0,0:0:0:0:
256,192,212593,1,2,0:0:0:0:
256,192,212704,1,0,0:0:0:0:
256,192,212760,1,0,0:0:0:0:
256,192,212815,1,0,0:0:0:0:
256,192,212926,1,0,0:0:0:0:
256,192,212982,1,0,0:0:0:0:
256,192,213038,1,2,0:0:0:0:
256,192,213149,1,2,0:0:0:0:
256,192,213260,1,0,0:0:0:0:
256,192,213371,1,0,0:0:0:0:
256,192,213426,1,0,0:0:0:0:
256,192,213482,1,2,0:0:0:0:
256,192,213593,1,0,0:0:0:0:
256,192,213649,1,0,0:0:0:0:
256,192,213704,1,0,0:0:0:0:
256,192,213815,1,0,0:0:0:0:
256,192,213871,1,0,0:0:0:0:
256,192,213926,1,2,0:0:0:0:
256,192,213982,1,2,0:0:0:0:
256,192,214038,1,0,0:0:0:0:
256,192,214149,1,0,0:0:0:0:
256,192,214260,1,0,0:0:0:0:
256,192,214315,1,0,0:0:0:0:
256,192,214371,1,2,0:0:0:0:
256,192,214482,1,0,0:0:0:0:
256,192,214593,1,2,0:0:0:0:
256,192,214649,1,2,0:0:0:0:
256,192,214704,1,0,0:0:0:0:
256,192,214760,1,0,0:0:0:0:
256,192,214815,1,2,0:0:0:0:
256,192,214871,1,2,0:0:0:0:
256,192,214926,1,0,0:0:0:0:
256,192,215038,1,4,0:0:0:0:
256,192,215149,1,0,0:0:0:0:
256,192,215204,1,0,0:0:0:0:
256,192,215260,1,2,0:0:0:0:
256,192,215371,1,0,0:0:0:0:
256,192,215426,1,0,0:0:0:0:
256,192,215482,1,0,0:0:0:0:
256,192,215593,1,0,0:0:0:0:
256,192,215649,1,0,0:0:0:0:
256,192,215704,1,2,0:0:0:0:
256,192,215760,1,2,0:0:0:0:
256,192,215815,1,0,0:0:0:0:
256,192,215926,1,0,0:0:0:0:
256,192,216038,1,0,0:0:0:0:
256,192,216093,1,0,0:0:0:0:
256,192,216149,1,2,0:0:0:0:
256,192,216260,1,0,0:0:0:0:
256,192,216315,1,0,0:0:0:0:
256,192,216371,1,0,0:0:0:0:
256,192,216482,1,0,0:0:0:0:
256,192,216538,1,0,0:0:0:0:
256,192,216593,1,2,0:0:0:0:
256,192,216704,1,2,0:0:0:0:
256,192,216815,1,0,0:0:0:0:
256,192,216926,1,0,0:0:0:0:
256,192,216982,1,0,0:0:0:0:
256,192,217038,1,2,0:0:0:0:
256,192,217149,1,0,0:0:0:0:
256,192,217204,1,0,0:0:0:0:
256,192,217260,1,0,0:0:0:0:
256,192,217371,1,0,0:0:0:0:
256,192,217426,1,0,0:0:0:0:
256,192,217482,1,2,0:0:0:0:
256,192,217538,1,2,0:0:0:0:
256,192,217593,1,0,0:0:0:0:
256,192,217704,1,0,0:0:0:0:
256,192,217815,1,0,0:0:0:0:
256,192,217871,1,0,0:0:0:0:
256,192,217926,1,2,0:0:0:0:
256,192,218038,1,2,0:0:0:0:
256,192,218149,1,2,0:0:0:0:
256,192,218260,1,2,0:0:0:0:
256,192,218315,1,2,0:0:0:0:
256,192,218371,1,0,0:0:0:0:
256,192,218426,1,0,0:0:0:0:
256,192,218482,1,2,0:0:0:0:
256,192,218593,1,0,0:0:0:0:
256,192,218704,1,0,0:0:0:0:
256,192,218760,1,0,0:0:0:0:
256,192,218815,1,2,0:0:0:0:
256,192,218926,1,0,0:0:0:0:
256,192,218982,1,0,0:0:0:0:
256,192,219038,1,0,0:0:0:0:
256,192,219149,1,0,0:0:0:0:
256,192,219204,1,0,0:0:0:0:
256,192,219260,1,2,0:0:0:0:
256,192,219315,1,2,0:0:0:0:
256,192,219371,1,0,0:0:0:0:
256,192,219482,1,0,0:0:0:0:
256,192,219593,1,0,0:0:0:0:
256,192,219649,1,0,0:0:0:0:
256,192,219704,1,2,0:0:0:0:
256,192,219815,1,0,0:0:0:0:
256,192,219871,1,0,0:0:0:0:
256,192,219926,1,0,0:0:0:0:
256,192,220038,1,0,0:0:0:0:
256,192,220093,1,0,0:0:0:0:
256,192,220149,1,2,0:0:0:0:
256,192,220260,1,2,0:0:0:0:
256,192,220371,1,0,0:0:0:0:
256,192,220482,1,0,0:0:0:0:
256,192,220538,1,0,0:0:0:0:
256,192,220593,1,2,0:0:0:0:
256,192,220704,1,0,0:0:0:0:
256,192,220760,1,0,0:0:0:0:
256,192,220815,1,0,0:0:0:0:
256,192,220926,1,0,0:0:0:0:
256,192,220982,1,0,0:0:0:0:
256,192,221038,1,2,0:0:0:0:
256,192,221093,1,2,0:0:0:0:
256,192,221149,1,0,0:0:0:0:
256,192,221260,1,0,0:0:0:0:
256,192,221315,1,0,0:0:0:0:
256,192,221371,1,0,0:0:0:0:
256,192,221426,1,0,0:0:0:0:
256,192,221482,1,2,0:0:0:0:
256,192,221538,1,2,0:0:0:0:
256,192,221593,1,2,0:0:0:0:
256,192,221649,1,2,0:0:0:0:
256,192,221704,1,0,0:0:0:0:
256,192,221760,1,0,0:0:0:0:
256,192,221815,1,2,0:0:0:0:
256,192,221871,1,2,0:0:0:0:
256,192,221926,1,0,0:0:0:0:
256,192,221982,1,0,0:0:0:0:
256,192,222038,1,2,0:0:0:0:
256,192,222149,1,4,0:0:0:0:
256,192,222260,1,0,0:0:0:0:
256,192,222315,1,0,0:0:0:0:
256,192,222371,1,2,0:0:0:0:
256,192,222426,1,2,0:0:0:0:
256,192,222482,1,0,0:0:0:0:
256,192,222593,1,0,0:0:0:0:
256,192,222704,1,0,0:0:0:0:
256,192,222815,1,2,0:0:0:0:
256,192,222871,1,2,0:0:0:0:
256,192,222926,1,0,0:0:0:0:
256,192,223038,1,0,0:0:0:0:
256,192,223149,1,0,0:0:0:0:
256,192,223204,1,0,0:0:0:0:
256,192,223260,1,2,0:0:0:0:
256,192,223315,1,2,0:0:0:0:
256,192,223371,1,0,0:0:0:0:
256,192,223482,1,0,0:0:0:0:
256,192,223593,1,2,0:0:0:0:
256,192,223704,1,2,0:0:0:0:
256,192,223760,1,2,0:0:0:0:
256,192,223815,1,2,0:0:0:0:
256,192,223871,1,2,0:0:0:0:
256,192,223926,1,0,0:0:0:0:
256,192,224038,1,0,0:0:0:0:
256,192,224093,1,0,0:0:0:0:
256,192,224149,1,2,0:0:0:0:
256,192,224204,1,2,0:0:0:0:
256,192,224260,1,0,0:0:0:0:
256,192,224371,1,0,0:0:0:0:
256,192,224482,1,0,0:0:0:0:
256,192,224538,1,0,0:0:0:0:
256,192,224593,1,2,0:0:0:0:
256,192,224704,1,0,0:0:0:0:
256,192,224815,1,0,0:0:0:0:
256,192,224926,1,0,0:0:0:0:
256,192,224982,1,0,0:0:0:0:
256,192,225038,1,2,0:0:0:0:
256,192,225093,1,2,0:0:0:0:
256,192,225149,1,0,0:0:0:0:
256,192,225260,1,0,0:0:0:0:
256,192,225371,1,2,0:0:0:0:
256,192,225426,1,2,0:0:0:0:
256,192,225482,1,0,0:0:0:0:
256,192,225538,1,0,0:0:0:0:
256,192,225593,1,2,0:0:0:0:
256,192,225704,1,0,0:0:0:0:
256,192,225815,1,0,0:0:0:0:
256,192,225871,1,0,0:0:0:0:
256,192,225926,1,2,0:0:0:0:
256,192,225982,1,2,0:0:0:0:
256,192,226038,1,0,0:0:0:0:
256,192,226149,1,0,0:0:0:0:
256,192,226260,1,0,0:0:0:0:
256,192,226315,1,0,0:0:0:0:
256,192,226371,1,2,0:0:0:0:
256,192,226482,1,0,0:0:0:0:
256,192,226593,1,0,0:0:0:0:
256,192,226704,1,0,0:0:0:0:
256,192,226760,1,0,0:0:0:0:
256,192,226815,1,2,0:0:0:0:
256,192,226871,1,2,0:0:0:0:
256,192,226926,1,0,0:0:0:0:
256,192,227038,1,0,0:0:0:0:
256,192,227149,1,2,0:0:0:0:
256,192,227260,1,2,0:0:0:0:
256,160,227315,1,2,0:0:0:0:
256,192,227371,1,2,0:0:0:0:
256,192,227426,1,2,0:0:0:0:
256,192,227482,1,0,0:0:0:0:
256,192,227593,1,0,0:0:0:0:
256,160,227649,1,0,0:0:0:0:
256,192,227704,1,2,0:0:0:0:
256,192,227760,1,2,0:0:0:0:
256,192,227815,1,0,0:0:0:0:
256,192,227926,1,0,0:0:0:0:
256,192,228038,1,0,0:0:0:0:
256,192,228093,1,0,0:0:0:0:
256,192,228149,1,2,0:0:0:0:
256,192,228260,1,2,0:0:0:0:
256,192,228371,1,0,0:0:0:0:
256,192,228426,1,0,0:0:0:0:
256,192,228482,1,0,0:0:0:0:
256,192,228538,1,0,0:0:0:0:
256,192,228593,1,2,0:0:0:0:
256,192,228704,1,2,0:0:0:0:
256,192,228815,1,0,0:0:0:0:
256,192,228871,1,0,0:0:0:0:
256,192,228926,1,2,0:0:0:0:
256,192,228982,1,2,0:0:0:0:
256,192,229038,1,0,0:0:0:0:
256,192,229093,1,0,0:0:0:0:
256,192,229149,1,2,0:0:0:0:
256,192,229260,1,4,0:0:0:0:
256,192,229371,1,0,0:0:0:0:
256,192,229426,1,0,0:0:0:0:
256,192,229482,1,2,0:0:0:0:
256,192,229538,1,2,0:0:0:0:
256,192,229593,1,0,0:0:0:0:
256,192,229704,1,0,0:0:0:0:
256,192,229815,1,0,0:0:0:0:
256,192,229871,1,0,0:0:0:0:
256,192,229926,1,2,0:0:0:0:
256,192,230038,1,0,0:0:0:0:
256,192,230149,1,0,0:0:0:0:
256,192,230260,1,0,0:0:0:0:
256,192,230315,1,0,0:0:0:0:
256,192,230371,1,2,0:0:0:0:
256,192,230426,1,2,0:0:0:0:
256,192,230482,1,0,0:0:0:0:
256,192,230593,1,0,0:0:0:0:
256,192,230704,1,2,0:0:0:0:
256,192,230815,1,2,0:0:0:0:
256,192,230871,1,2,0:0:0:0:
256,192,230926,1,2,0:0:0:0:
256,192,230982,1,2,0:0:0:0:
256,192,231038,1,0,0:0:0:0:
256,192,231149,1,0,0:0:0:0:
256,192,231204,1,0,0:0:0:0:
256,192,231260,1,2,0:0:0:0:
256,192,231315,1,2,0:0:0:0:
256,192,231371,1,0,0:0:0:0:
256,192,231482,1,0,0:0:0:0:
256,192,231593,1,0,0:0:0:0:
256,192,231649,1,0,0:0:0:0:
256,192,231704,1,2,0:0:0:0:
256,192,231815,1,0,0:0:0:0:
256,192,231926,1,0,0:0:0:0:
256,192,232038,1,0,0:0:0:0:
256,192,232093,1,0,0:0:0:0:
256,192,232149,1,2,0:0:0:0:
256,192,232204,1,2,0:0:0:0:
256,192,232260,1,0,0:0:0:0:
256,192,232371,1,0,0:0:0:0:
256,192,232482,1,2,0:0:0:0:
256,192,232538,1,2,0:0:0:0:
256,192,232593,1,0,0:0:0:0:
256,192,232649,1,0,0:0:0:0:
256,192,232704,1,2,0:0:0:0:
256,192,232815,1,4,0:0:0:0:
256,192,232926,1,0,0:0:0:0:
256,192,232982,1,0,0:0:0:0:
256,192,233038,1,2,0:0:0:0:
256,192,233093,1,2,0:0:0:0:
256,192,233149,1,0,0:0:0:0:
256,192,233260,1,0,0:0:0:0:
256,192,233371,1,0,0:0:0:0:
256,192,233426,1,0,0:0:0:0:
256,192,233482,1,2,0:0:0:0:
256,192,233593,1,0,0:0:0:0:
256,192,233704,1,4,0:0:0:0:
256,192,233815,1,0,0:0:0:0:
256,192,233871,1,0,0:0:0:0:
256,192,233926,1,2,0:0:0:0:
256,192,233982,1,2,0:0:0:0:
256,192,234038,1,0,0:0:0:0:
256,192,234149,1,0,0:0:0:0:
256,192,234260,1,2,0:0:0:0:
256,192,234315,1,2,0:0:0:0:
256,192,234371,1,2,0:0:0:0:
256,192,234426,1,2,0:0:0:0:
256,192,234482,1,2,0:0:0:0:
256,192,234593,1,4,0:0:0:0:
256,192,234704,1,0,0:0:0:0:
256,192,234815,1,2,0:0:0:0:
256,192,234871,1,2,0:0:0:0:
256,192,234926,1,0,0:0:0:0:
256,192,235038,1,4,0:0:0:0:
256,192,235149,1,0,0:0:0:0:
256,192,235204,1,0,0:0:0:0:
256,192,235260,1,2,0:0:0:0:
256,192,235371,1,2,0:0:0:0:
256,192,235482,1,2,0:0:0:0:
256,192,235538,1,0,0:0:0:0:
256,192,235593,1,0,0:0:0:0:
256,192,235649,1,0,0:0:0:0:
256,192,235704,1,2,0:0:0:0:
256,192,235760,1,0,0:0:0:0:
256,192,235815,1,0,0:0:0:0:
256,192,235871,1,0,0:0:0:0:
256,192,235926,1,2,0:0:0:0:
256,192,235982,1,2,0:0:0:0:
256,192,236038,1,2,0:0:0:0:
256,192,236093,1,2,0:0:0:0:
256,192,236149,1,0,0:0:0:0:
256,192,236204,1,0,0:0:0:0:
256,192,236260,1,2,0:0:0:0:
256,192,236371,1,4,0:0:0:0:
256,192,236482,1,0,0:0:0:0:
256,192,236538,1,0,0:0:0:0:
256,192,236593,1,2,0:0:0:0:
256,192,236649,1,2,0:0:0:0:
256,192,236704,1,2,0:0:0:0:
256,192,236815,1,0,0:0:0:0:
256,192,236926,1,0,0:0:0:0:
256,192,236982,1,0,0:0:0:0:
256,192,237038,1,2,0:0:0:0:
256,192,237093,1,2,0:0:0:0:
256,192,237149,1,2,0:0:0:0:
256,192,237260,1,0,0:0:0:0:
256,192,237371,1,0,0:0:0:0:
256,192,237426,1,0,0:0:0:0:
256,192,237482,1,2,0:0:0:0:
256,192,237538,1,2,0:0:0:0:
256,192,237593,1,2,0:0:0:0:
256,192,237704,1,0,0:0:0:0:
256,192,237815,1,0,0:0:0:0:
256,192,237871,1,0,0:0:0:0:
256,192,237926,1,2,0:0:0:0:
256,192,237982,1,2,0:0:0:0:
256,192,238038,1,2,0:0:0:0:
256,192,238093,1,2,0:0:0:0:
256,192,238149,1,0,0:0:0:0:
256,192,238260,1,0,0:0:0:0:
256,192,238315,1,0,0:0:0:0:
256,192,238371,1,2,0:0:0:0:
256,192,238426,1,2,0:0:0:0:
256,192,238482,1,2,0:0:0:0:
256,192,238593,1,0,0:0:0:0:
256,192,238704,1,0,0:0:0:0:
256,192,238760,1,0,0:0:0:0:
256,192,238815,1,2,0:0:0:0:
256,192,238871,1,2,0:0:0:0:
256,192,238926,1,2,0:0:0:0:
256,192,239038,1,0,0:0:0:0:
256,192,239149,1,0,0:0:0:0:
256,192,239204,1,0,0:0:0:0:
256,192,239260,1,2,0:0:0:0:
256,192,239315,1,2,0:0:0:0:
256,192,239371,1,2,0:0:0:0:
256,192,239482,1,0,0:0:0:0:
256,192,239538,1,0,0:0:0:0:
256,192,239593,1,0,0:0:0:0:
256,192,239649,1,0,0:0:0:0:
256,192,239704,1,2,0:0:0:0:
256,192,239760,1,2,0:0:0:0:
256,192,239815,1,0,0:0:0:0:
256,192,239871,1,2,0:0:0:0:
256,192,239926,1,0,0:0:0:0:
256,192,240038,1,0,0:0:0:0:
256,192,240093,1,0,0:0:0:0:
256,192,240149,1,2,0:0:0:0:
256,192,240204,1,2,0:0:0:0:
256,192,240260,1,2,0:0:0:0:
256,192,240371,1,0,0:0:0:0:
256,192,240482,1,0,0:0:0:0:
256,192,240538,1,0,0:0:0:0:
256,192,240593,1,2,0:0:0:0:
256,192,240649,1,2,0:0:0:0:
256,192,240704,1,2,0:0:0:0:
256,192,240815,1,0,0:0:0:0:
256,192,240926,1,0,0:0:0:0:
256,192,240982,1,0,0:0:0:0:
256,192,241038,1,2,0:0:0:0:
256,192,241093,1,2,0:0:0:0:
256,192,241149,1,2,0:0:0:0:
256,192,241260,1,0,0:0:0:0:
256,192,241371,1,0,0:0:0:0:
256,192,241426,1,0,0:0:0:0:
256,192,241482,1,2,0:0:0:0:
256,192,241538,1,2,0:0:0:0:
256,192,241593,1,2,0:0:0:0:
256,192,241649,1,2,0:0:0:0:
256,192,241704,1,0,0:0:0:0:
256,192,241815,1,0,0:0:0:0:
256,192,241871,1,0,0:0:0:0:
256,192,241926,1,2,0:0:0:0:
256,192,241982,1,2,0:0:0:0:
256,192,242038,1,2,0:0:0:0:
256,192,242149,1,0,0:0:0:0:
256,192,242260,1,0,0:0:0:0:
256,192,242315,1,0,0:0:0:0:
256,192,242371,1,2,0:0:0:0:
256,192,242426,1,2,0:0:0:0:
256,192,242482,1,2,0:0:0:0:
256,192,242593,1,0,0:0:0:0:
256,192,242649,1,0,0:0:0:0:
256,192,242704,1,0,0:0:0:0:
256,192,242760,1,0,0:0:0:0:
256,192,242815,1,2,0:0:0:0:
256,192,242871,1,2,0:0:0:0:
256,192,242926,1,2,0:0:0:0:
256,192,243038,1,0,0:0:0:0:
256,192,243093,1,0,0:0:0:0:
256,192,243149,1,0,0:0:0:0:
256,192,243204,1,0,0:0:0:0:
256,192,243260,1,2,0:0:0:0:
256,192,243315,1,2,0:0:0:0:
256,192,243371,1,0,0:0:0:0:
256,192,243426,1,2,0:0:0:0:
256,192,243482,1,0,0:0:0:0:
256,192,243593,1,0,0:0:0:0:
256,192,243649,1,0,0:0:0:0:
256,192,243704,1,2,0:0:0:0:
256,192,243760,1,2,0:0:0:0:
256,192,243815,1,2,0:0:0:0:
256,192,243926,1,0,0:0:0:0:
256,192,244038,1,0,0:0:0:0:
256,192,244093,1,0,0:0:0:0:
256,192,244149,1,2,0:0:0:0:
256,192,244204,1,2,0:0:0:0:
256,192,244260,1,0,0:0:0:0:
256,192,244315,1,2,0:0:0:0:
256,192,244371,1,0,0:0:0:0:
256,192,244482,1,0,0:0:0:0:
256,192,244538,1,0,0:0:0:0:
256,192,244593,1,2,0:0:0:0:
256,192,244649,1,2,0:0:0:0:
256,192,244704,1,2,0:0:0:0:
256,192,244815,1,0,0:0:0:0:
256,192,244926,1,0,0:0:0:0:
256,192,244982,1,0,0:0:0:0:
256,192,245038,1,2,0:0:0:0:
256,192,245093,1,2,0:0:0:0:
256,192,245149,1,2,0:0:0:0:
256,192,245204,1,2,0:0:0:0:
256,192,245260,1,0,0:0:0:0:
256,192,245371,1,0,0:0:0:0:
256,192,245426,1,0,0:0:0:0:
256,192,245482,1,2,0:0:0:0:
256,192,245538,1,2,0:0:0:0:
256,192,245593,1,2,0:0:0:0:
256,192,245704,1,0,0:0:0:0:
256,192,245815,1,0,0:0:0:0:
256,192,245871,1,0,0:0:0:0:
256,192,245926,1,2,0:0:0:0:
256,192,245982,1,2,0:0:0:0:
256,192,246038,1,0,0:0:0:0:
256,192,246093,1,2,0:0:0:0:
256,192,246149,1,0,0:0:0:0:
256,192,246260,1,0,0:0:0:0:
256,192,246315,1,0,0:0:0:0:
256,192,246371,1,2,0:0:0:0:
256,192,246426,1,2,0:0:0:0:
256,192,246482,1,2,0:0:0:0:
256,192,246593,1,0,0:0:0:0:
256,192,246704,1,0,0:0:0:0:
256,192,246760,1,0,0:0:0:0:
256,192,246815,1,2,0:0:0:0:
256,192,246871,1,2,0:0:0:0:
256,192,246926,1,2,0:0:0:0:
256,192,247038,1,4,0:0:0:0:
256,192,247149,1,0,0:0:0:0:
256,192,247204,1,0,0:0:0:0:
256,192,247260,1,2,0:0:0:0:
256,192,247315,1,2,0:0:0:0:
256,192,247371,1,2,0:0:0:0:
256,192,247482,1,0,0:0:0:0:
256,192,247593,1,0,0:0:0:0:
256,192,247649,1,0,0:0:0:0:
256,192,247704,1,2,0:0:0:0:
256,192,247760,1,2,0:0:0:0:
256,192,247815,1,2,0:0:0:0:
256,192,247926,1,4,0:0:0:0:
256,192,248038,1,0,0:0:0:0:
256,192,248093,1,0,0:0:0:0:
256,192,248149,1,2,0:0:0:0:
256,192,248204,1,2,0:0:0:0:
256,192,248260,1,2,0:0:0:0:
256,192,248371,1,0,0:0:0:0:
256,192,248482,1,0,0:0:0:0:
256,192,248538,1,0,0:0:0:0:
256,192,248593,1,2,0:0:0:0:
256,192,248649,1,2,0:0:0:0:
256,192,248704,1,2,0:0:0:0:
256,192,248815,1,4,0:0:0:0:
256,192,248926,1,0,0:0:0:0:
256,192,248982,1,0,0:0:0:0:
256,192,249038,1,2,0:0:0:0:
256,192,249093,1,2,0:0:0:0:
256,192,249149,1,2,0:0:0:0:
256,192,249260,1,4,0:0:0:0:
256,192,249371,1,0,0:0:0:0:
256,192,249426,1,0,0:0:0:0:
256,192,249482,1,2,0:0:0:0:
256,192,249538,1,2,0:0:0:0:
256,192,249593,1,2,0:0:0:0:
256,192,249704,1,0,0:0:0:0:
256,192,249760,1,0,0:0:0:0:
256,192,249815,1,0,0:0:0:0:
256,192,249871,1,0,0:0:0:0:
256,192,249926,1,2,0:0:0:0:
256,192,249982,1,2,0:0:0:0:
256,192,250038,1,2,0:0:0:0:
256,192,250093,1,2,0:0:0:0:
256,192,250149,1,0,0:0:0:0:
256,192,250204,1,0,0:0:0:0:
256,192,250260,1,0,0:0:0:0:
256,192,250315,1,0,0:0:0:0:
256,192,250371,1,2,0:0:0:0:
256,192,250426,1,2,0:0:0:0:
256,192,250482,1,2,0:0:0:0:
256,192,250538,1,2,0:0:0:0:
256,192,250593,1,0,0:0:0:0:
256,192,250704,1,0,0:0:0:0:
256,192,250760,1,0,0:0:0:0:
256,192,250815,1,2,0:0:0:0:
256,192,250926,1,2,0:0:0:0:
256,192,250982,1,2,0:0:0:0:
256,192,251038,1,0,0:0:0:0:
256,192,251149,1,2,0:0:0:0:
256,192,251204,1,2,0:0:0:0:
256,192,251260,1,2,0:0:0:0:
256,192,251315,1,2,0:0:0:0:
256,192,251371,1,0,0:0:0:0:
256,192,251482,1,0,0:0:0:0:
256,192,251593,1,0,0:0:0:0:
256,192,251649,1,0,0:0:0:0:
256,192,251704,1,2,0:0:0:0:
256,192,251815,1,2,0:0:0:0:
256,192,251871,1,2,0:0:0:0:
256,192,251926,1,0,0:0:0:0:
256,192,252038,1,2,0:0:0:0:
256,192,252093,1,2,0:0:0:0:
256,192,252149,1,2,0:0:0:0:
256,192,252260,1,2,0:0:0:0:
256,192,252315,1,2,0:0:0:0:
256,192,252371,1,0,0:0:0:0:
256,192,252482,1,0,0:0:0:0:
256,192,252538,1,0,0:0:0:0:
256,192,252593,1,2,0:0:0:0:
256,192,252704,1,2,0:0:0:0:
256,192,252760,1,2,0:0:0:0:
256,192,252815,1,0,0:0:0:0:
256,192,252926,1,2,0:0:0:0:
256,192,252982,1,2,0:0:0:0:
256,192,253038,1,2,0:0:0:0:
256,192,253093,1,2,0:0:0:0:
256,192,253149,1,0,0:0:0:0:
256,192,253260,1,0,0:0:0:0:
256,192,253371,1,0,0:0:0:0:
256,192,253426,1,0,0:0:0:0:
256,192,253482,1,2,0:0:0:0:
256,192,253593,1,2,0:0:0:0:
256,192,253649,1,2,0:0:0:0:
256,192,253704,1,0,0:0:0:0:
256,192,253760,1,0,0:0:0:0:
256,192,253815,1,2,0:0:0:0:
256,192,253871,1,2,0:0:0:0:
256,192,253926,1,2,0:0:0:0:
256,192,254038,1,2,0:0:0:0:
256,192,254093,1,2,0:0:0:0:
256,192,254149,1,0,0:0:0:0:
256,192,254260,1,0,0:0:0:0:
256,192,254315,1,0,0:0:0:0:
256,192,254371,1,2,0:0:0:0:
256,192,254482,1,2,0:0:0:0:
256,192,254538,1,2,0:0:0:0:
256,192,254593,1,0,0:0:0:0:
256,192,254704,1,2,0:0:0:0:
256,192,254760,1,2,0:0:0:0:
256,192,254815,1,2,0:0:0:0:
256,192,254871,1,2,0:0:0:0:
256,192,254926,1,0,0:0:0:0:
256,192,255038,1,0,0:0:0:0:
256,192,255149,1,0,0:0:0:0:
256,192,255204,1,0,0:0:0:0:
256,192,255260,1,2,0:0:0:0:
256,192,255371,1,2,0:0:0:0:
256,192,255426,1,2,0:0:0:0:
256,192,255482,1,0,0:0:0:0:
256,192,255593,1,2,0:0:0:0:
256,192,255649,1,2,0:0:0:0:
256,192,255704,1,2,0:0:0:0:
256,192,255815,1,2,0:0:0:0:
256,192,255871,1,2,0:0:0:0:
256,192,255926,1,0,0:0:0:0:
256,192,256038,1,0,0:0:0:0:
256,192,256093,1,0,0:0:0:0:
256,192,256149,1,2,0:0:0:0:
256,192,256260,1,2,0:0:0:0:
256,192,256315,1,2,0:0:0:0:
256,192,256371,1,0,0:0:0:0:
256,192,256482,1,2,0:0:0:0:
256,192,256538,1,2,0:0:0:0:
256,192,256593,1,2,0:0:0:0:
256,192,256649,1,2,0:0:0:0:
256,192,256704,1,0,0:0:0:0:
256,192,256815,1,0,0:0:0:0:
256,192,256871,1,0,0:0:0:0:
256,192,256926,1,2,0:0:0:0:
256,192,256982,1,2,0:0:0:0:
256,192,257038,1,0,0:0:0:0:
256,192,257093,1,0,0:0:0:0:
256,192,257149,1,2,0:0:0:0:
256,192,257260,1,0,0:0:0:0:
256,192,257315,1,0,0:0:0:0:
256,192,257371,1,2,0:0:0:0:
256,192,257426,1,2,0:0:0:0:
256,192,257482,1,0,0:0:0:0:
256,192,257538,1,2,0:0:0:0:
256,192,257593,1,2,0:0:0:0:
256,192,257649,1,2,0:0:0:0:
256,192,257704,1,0,0:0:0:0:
256,192,257815,1,0,0:0:0:0:
256,192,257871,1,0,0:0:0:0:
256,192,257926,1,2,0:0:0:0:
256,192,257982,1,2,0:0:0:0:
256,192,258038,1,2,0:0:0:0:
256,192,258093,1,2,0:0:0:0:
256,192,258149,1,0,0:0:0:0:
256,192,258260,1,0,0:0:0:0:
256,192,258315,1,0,0:0:0:0:
256,192,258371,1,2,0:0:0:0:
256,192,258426,1,2,0:0:0:0:
256,192,258482,1,0,0:0:0:0:
256,192,258538,1,2,0:0:0:0:
256,192,258593,1,0,0:0:0:0:
256,192,258704,1,0,0:0:0:0:
256,192,258760,1,0,0:0:0:0:
256,192,258815,1,2,0:0:0:0:
256,192,258871,1,2,0:0:0:0:
256,192,258926,1,2,0:0:0:0:
256,192,258982,1,2,0:0:0:0:
256,192,259038,1,0,0:0:0:0:
256,192,259149,1,0,0:0:0:0:
256,192,259204,1,0,0:0:0:0:
256,192,259260,1,2,0:0:0:0:
256,192,259315,1,2,0:0:0:0:
256,192,259371,1,0,0:0:0:0:
256,192,259426,1,2,0:0:0:0:
256,192,259482,1,0,0:0:0:0:
256,192,259593,1,0,0:0:0:0:
256,192,259649,1,0,0:0:0:0:
256,192,259704,1,2,0:0:0:0:
256,192,259760,1,2,0:0:0:0:
256,192,259815,1,2,0:0:0:0:
256,192,259871,1,2,0:0:0:0:
256,192,259926,1,0,0:0:0:0:
256,192,260038,1,0,0:0:0:0:
256,192,260093,1,0,0:0:0:0:
256,192,260149,1,2,0:0:0:0:
256,192,260204,1,2,0:0:0:0:
256,192,260260,1,0,0:0:0:0:
256,192,260315,1,2,0:0:0:0:
256,192,260371,1,0,0:0:0:0:
256,192,260482,1,0,0:0:0:0:
256,192,260538,1,0,0:0:0:0:
256,192,260593,1,2,0:0:0:0:
256,192,260649,1,2,0:0:0:0:
256,192,260704,1,2,0:0:0:0:
256,192,260760,1,2,0:0:0:0:
256,192,260815,1,0,0:0:0:0:
256,192,260926,1,2,0:0:0:0:
256,192,260982,1,2,0:0:0:0:
256,192,261038,1,0,0:0:0:0:
256,192,261093,1,2,0:0:0:0:
256,192,261149,1,0,0:0:0:0:
256,192,261204,1,2,0:0:0:0:
256,192,261260,1,0,0:0:0:0:
256,192,261371,1,0,0:0:0:0:
256,192,261426,1,0,0:0:0:0:
256,192,261482,1,2,0:0:0:0:
256,192,261538,1,2,0:0:0:0:
256,192,261593,1,2,0:0:0:0:
256,192,261649,1,2,0:0:0:0:
256,192,261704,1,0,0:0:0:0:
256,192,261815,1,0,0:0:0:0:
256,192,261871,1,0,0:0:0:0:
256,192,261926,1,2,0:0:0:0:
256,192,261982,1,2,0:0:0:0:
256,192,262038,1,0,0:0:0:0:
256,192,262093,1,2,0:0:0:0:
256,192,262149,1,0,0:0:0:0:
256,192,262260,1,0,0:0:0:0:
256,192,262315,1,0,0:0:0:0:
256,192,262371,1,2,0:0:0:0:
256,192,262426,1,2,0:0:0:0:
256,192,262482,1,2,0:0:0:0:
256,192,262538,1,2,0:0:0:0:
256,192,262593,1,0,0:0:0:0:
256,192,262704,1,0,0:0:0:0:
256,192,262760,1,0,0:0:0:0:
256,192,262815,1,2,0:0:0:0:
256,192,262871,1,2,0:0:0:0:
256,192,262926,1,0,0:0:0:0:
256,192,262982,1,2,0:0:0:0:
256,192,263038,1,0,0:0:0:0:
256,192,263149,1,0,0:0:0:0:
256,192,263204,1,0,0:0:0:0:
256,192,263260,1,2,0:0:0:0:
256,192,263315,1,2,0:0:0:0:
256,192,263371,1,2,0:0:0:0:
256,192,263426,1,2,0:0:0:0:
256,192,263482,1,0,0:0:0:0:
256,192,263538,1,0,0:0:0:0:
256,192,263593,1,0,0:0:0:0:
256,192,263649,1,0,0:0:0:0:
256,192,263704,1,2,0:0:0:0:
256,192,263760,1,2,0:0:0:0:
256,192,263815,1,2,0:0:0:0:
256,192,263871,1,2,0:0:0:0:
256,192,263926,1,0,0:0:0:0:
256,192,263982,1,0,0:0:0:0:
256,192,264038,1,0,0:0:0:0:
256,192,264093,1,0,0:0:0:0:
256,192,264149,1,2,0:0:0:0:
256,192,264204,1,2,0:0:0:0:
256,192,264260,1,0,0:0:0:0:
256,192,264315,1,0,0:0:0:0:
256,192,264371,1,0,0:0:0:0:
256,192,264426,1,0,0:0:0:0:
256,192,264482,1,0,0:0:0:0:
256,192,264538,1,0,0:0:0:0:
256,192,264593,1,2,0:0:0:0:
256,192,264649,1,2,0:0:0:0:
256,192,264704,1,2,0:0:0:0:
256,192,264760,1,2,0:0:0:0:
256,192,264815,2,0,B|512:192|512:192|320:192,1,420
256,192,265704,1,2,0:0:0:0:
256,192,265741,1,2,0:0:0:0:
256,192,265778,1,2,0:0:0:0:
256,192,265815,1,0,0:0:0:0:
256,192,265852,1,0,0:0:0:0:
256,192,265889,1,0,0:0:0:0:
256,192,265926,1,2,0:0:0:0:
256,192,266038,1,2,0:0:0:0:
256,192,266149,1,0,0:0:0:0:
256,192,266204,1,0,0:0:0:0:
256,192,266260,1,2,0:0:0:0:
256,192,266315,1,2,0:0:0:0:
256,192,266371,1,0,0:0:0:0:
256,192,266426,1,0,0:0:0:0:
256,192,266482,1,2,0:0:0:0:
256,192,266538,1,2,0:0:0:0:
256,192,266593,1,0,0:0:0:0:
256,192,266704,1,0,0:0:0:0:
256,192,266760,1,0,0:0:0:0:
256,192,266815,1,2,0:0:0:0:
256,192,266926,1,0,0:0:0:0:
256,192,266982,1,0,0:0:0:0:
256,192,267038,1,0,0:0:0:0:
256,192,267149,1,0,0:0:0:0:
256,192,267204,1,0,0:0:0:0:
256,192,267260,1,2,0:0:0:0:
256,192,267371,1,0,0:0:0:0:
256,192,267482,1,0,0:0:0:0:
256,192,267593,1,0,0:0:0:0:
256,192,267649,1,0,0:0:0:0:
256,192,267704,1,2,0:0:0:0:
256,192,267815,1,0,0:0:0:0:
256,192,267871,1,0,0:0:0:0:
256,192,267926,1,0,0:0:0:0:
256,192,268038,1,0,0:0:0:0:
256,192,268093,1,0,0:0:0:0:
256,192,268149,1,2,0:0:0:0:
256,192,268260,1,2,0:0:0:0:
256,192,268371,1,0,0:0:0:0:
256,192,268482,1,0,0:0:0:0:
256,192,268538,1,0,0:0:0:0:
256,192,268593,1,2,0:0:0:0:
256,192,268704,1,0,0:0:0:0:
256,192,268760,1,0,0:0:0:0:
256,192,268815,1,2,0:0:0:0:
256,192,268871,1,2,0:0:0:0:
256,192,268926,1,2,0:0:0:0:
256,192,268982,1,2,0:0:0:0:
256,192,269038,1,2,0:0:0:0:
256,192,269149,1,0,0:0:0:0:
256,192,269260,1,0,0:0:0:0:
256,192,269371,1,0,0:0:0:0:
256,192,269426,1,0,0:0:0:0:
256,192,269482,1,2,0:0:0:0:
256,192,269593,1,2,0:0:0:0:
256,192,269704,1,0,0:0:0:0:
256,192,269815,1,2,0:0:0:0:
256,192,269871,1,2,0:0:0:0:
256,192,269926,1,0,0:0:0:0:
256,192,269982,1,0,0:0:0:0:
256,192,270038,1,2,0:0:0:0:
256,192,270149,1,0,0:0:0:0:
256,192,270260,1,0,0:0:0:0:
256,192,270315,1,0,0:0:0:0:
256,192,270371,1,2,0:0:0:0:
256,192,270482,1,0,0:0:0:0:
256,192,270538,1,0,0:0:0:0:
256,192,270593,1,0,0:0:0:0:
256,192,270704,1,0,0:0:0:0:
256,192,270760,1,0,0:0:0:0:
256,192,270815,1,2,0:0:0:0:
256,192,270926,1,0,0:0:0:0:
256,192,271038,1,0,0:0:0:0:
256,192,271149,1,0,0:0:0:0:
256,192,271204,1,0,0:0:0:0:
256,192,271260,1,2,0:0:0:0:
256,192,271371,1,0,0:0:0:0:
256,192,271426,1,0,0:0:0:0:
256,192,271482,1,0,0:0:0:0:
256,192,271593,1,0,0:0:0:0:
256,192,271649,1,0,0:0:0:0:
256,192,271704,1,2,0:0:0:0:
256,192,271815,1,2,0:0:0:0:
256,192,271926,1,0,0:0:0:0:
256,192,272038,1,0,0:0:0:0:
256,192,272093,1,0,0:0:0:0:
256,192,272149,1,2,0:0:0:0:
256,192,272260,1,0,0:0:0:0:
256,192,272315,1,0,0:0:0:0:
256,192,272371,1,0,0:0:0:0:
256,192,272482,1,0,0:0:0:0:
256,192,272538,1,0,0:0:0:0:
256,192,272593,1,2,0:0:0:0:
256,192,272704,1,0,0:0:0:0:
256,192,272815,1,0,0:0:0:0:
256,192,272926,1,0,0:0:0:0:
256,192,272982,1,0,0:0:0:0:
256,192,273038,1,2,0:0:0:0:
256,192,273149,1,2,0:0:0:0:
256,192,273260,1,2,0:0:0:0:
256,192,273297,1,2,0:0:0:0:
256,192,273334,1,2,0:0:0:0:
256,192,273371,1,0,0:0:0:0:
256,192,273426,1,0,0:0:0:0:
256,192,273482,1,0,0:0:0:0:
256,192,273538,1,0,0:0:0:0:
256,192,273593,1,2,0:0:0:0:
256,192,273704,1,0,0:0:0:0:
256,192,273815,1,0,0:0:0:0:
256,192,273871,1,0,0:0:0:0:
256,192,273926,1,2,0:0:0:0:
256,192,274038,1,0,0:0:0:0:
256,192,274093,1,0,0:0:0:0:
256,192,274149,1,0,0:0:0:0:
256,192,274260,1,0,0:0:0:0:
256,192,274315,1,0,0:0:0:0:
256,192,274371,1,2,0:0:0:0:
256,192,274482,1,0,0:0:0:0:
256,192,274593,1,0,0:0:0:0:
256,192,274704,1,0,0:0:0:0:
256,192,274760,1,0,0:0:0:0:
256,192,274815,1,2,0:0:0:0:
256,192,274926,1,0,0:0:0:0:
256,192,274982,1,0,0:0:0:0:
256,192,275038,1,0,0:0:0:0:
256,192,275149,1,0,0:0:0:0:
256,192,275204,1,0,0:0:0:0:
256,192,275260,1,2,0:0:0:0:
256,192,275371,1,2,0:0:0:0:
256,192,275482,1,0,0:0:0:0:
256,192,275593,1,0,0:0:0:0:
256,192,275649,1,0,0:0:0:0:
256,192,275704,1,2,0:0:0:0:
256,192,275815,1,0,0:0:0:0:
256,192,275871,1,0,0:0:0:0:
256,192,275926,1,2,0:0:0:0:
256,192,275982,1,2,0:0:0:0:
256,192,276038,1,0,0:0:0:0:
256,192,276093,1,0,0:0:0:0:
256,192,276149,1,0,0:0:0:0:
256,192,276260,1,0,0:0:0:0:
256,192,276371,1,2,0:0:0:0:
256,192,276426,1,2,0:0:0:0:
256,192,276482,1,2,0:0:0:0:
256,192,276537,1,2,0:0:0:0:
256,192,276593,1,0,0:0:0:0:
256,192,276704,1,0,0:0:0:0:
256,192,276815,1,2,0:0:0:0:
256,192,276870,1,2,0:0:0:0:
256,192,276926,1,2,0:0:0:0:
256,192,276982,1,2,0:0:0:0:
256,192,277038,1,2,0:0:0:0:
256,192,277094,1,2,0:0:0:0:
256,192,277149,1,2,0:0:0:0:
256,192,277260,1,0,0:0:0:0:
256,192,277371,1,0,0:0:0:0:
256,192,277426,1,0,0:0:0:0:
256,192,277482,1,2,0:0:0:0:
256,192,277593,1,0,0:0:0:0:
256,192,277649,1,0,0:0:0:0:
256,192,277704,1,0,0:0:0:0:
256,192,277815,1,0,0:0:0:0:
256,192,277871,1,0,0:0:0:0:
256,192,277926,1,2,0:0:0:0:
256,192,278038,1,0,0:0:0:0:
256,192,278149,1,0,0:0:0:0:
256,192,278260,1,0,0:0:0:0:
256,192,278315,1,0,0:0:0:0:
256,192,278371,1,2,0:0:0:0:
256,192,278482,1,0,0:0:0:0:
256,192,278538,1,0,0:0:0:0:
256,192,278593,1,0,0:0:0:0:
256,192,278704,1,0,0:0:0:0:
256,192,278760,1,0,0:0:0:0:
256,192,278815,1,2,0:0:0:0:
256,192,278926,1,2,0:0:0:0:
256,192,279038,1,0,0:0:0:0:
256,192,279149,1,0,0:0:0:0:
256,192,279204,1,0,0:0:0:0:
256,192,279260,1,2,0:0:0:0:
256,192,279371,1,0,0:0:0:0:
256,192,279426,1,0,0:0:0:0:
256,192,279482,1,0,0:0:0:0:
256,192,279593,1,0,0:0:0:0:
256,192,279649,1,0,0:0:0:0:
256,192,279704,1,2,0:0:0:0:
256,192,279815,1,0,0:0:0:0:
256,192,279926,1,0,0:0:0:0:
256,192,280038,1,0,0:0:0:0:
256,192,280093,1,0,0:0:0:0:
256,192,280149,1,2,0:0:0:0:
256,192,280260,1,2,0:0:0:0:
256,192,280371,1,2,0:0:0:0:
256,192,280408,1,2,0:0:0:0:
256,192,280445,1,2,0:0:0:0:
256,192,280482,1,0,0:0:0:0:
256,192,280538,1,0,0:0:0:0:
256,192,280593,1,2,0:0:0:0:
256,192,280649,1,2,0:0:0:0:
256,192,280704,1,0,0:0:0:0:
256,192,280815,1,4,0:0:0:0:
256,192,280926,1,0,0:0:0:0:
256,192,281037,1,2,0:0:0:0:
256,192,281092,1,2,0:0:0:0:
256,192,281148,1,0,0:0:0:0:
256,192,281259,1,0,0:0:0:0:
256,192,281370,1,0,0:0:0:0:
256,192,281426,1,0,0:0:0:0:
256,192,281481,1,2,0:0:0:0:
256,192,281592,1,2,0:0:0:0:
256,192,281704,1,0,0:0:0:0:
256,192,281815,1,0,0:0:0:0:
256,192,281926,1,2,0:0:0:0:
256,192,281981,1,2,0:0:0:0:
256,192,282037,1,0,0:0:0:0:
256,192,282148,1,0,0:0:0:0:
256,192,282259,1,2,0:0:0:0:
256,192,282370,1,2,0:0:0:0:
256,192,282426,1,2,0:0:0:0:
256,192,282482,1,2,0:0:0:0:
256,192,282592,1,0,0:0:0:0:
256,192,282704,1,0,0:0:0:0:
256,192,282815,1,2,0:0:0:0:
256,192,282870,1,2,0:0:0:0:
256,192,282926,1,0,0:0:0:0:
256,192,283037,1,2,0:0:0:0:
256,192,283093,1,2,0:0:0:0:
256,192,283148,1,2,0:0:0:0:
256,192,283204,1,2,0:0:0:0:
256,192,283259,1,2,0:0:0:0:
256,192,283370,1,0,0:0:0:0:
256,192,283481,1,0,0:0:0:0:
256,192,283592,1,0,0:0:0:0:
256,192,283704,1,2,0:0:0:0:
256,192,283759,1,2,0:0:0:0:
256,192,283815,1,0,0:0:0:0:
256,192,283926,1,0,0:0:0:0:
256,192,284037,1,2,0:0:0:0:
256,192,284092,1,2,0:0:0:0:
256,192,284148,1,0,0:0:0:0:
256,192,284204,1,0,0:0:0:0:
256,192,284259,1,2,0:0:0:0:
256,192,284370,1,0,0:0:0:0:
256,192,284481,1,0,0:0:0:0:
256,192,284592,1,2,0:0:0:0:
256,192,284648,1,2,0:0:0:0:
256,192,284704,1,0,0:0:0:0:
256,192,284815,1,0,0:0:0:0:
256,192,284926,1,0,0:0:0:0:
256,192,284981,1,0,0:0:0:0:
256,192,285037,1,2,0:0:0:0:
256,192,285148,1,2,0:0:0:0:
256,192,285259,1,0,0:0:0:0:
256,192,285370,1,0,0:0:0:0:
256,192,285481,1,2,0:0:0:0:
256,192,285537,1,2,0:0:0:0:
256,192,285592,1,0,0:0:0:0:
256,192,285704,1,0,0:0:0:0:
256,192,285815,1,2,0:0:0:0:
256,192,285926,1,2,0:0:0:0:
256,192,285983,1,2,0:0:0:0:
256,192,286038,1,2,0:0:0:0:
256,192,286148,1,0,0:0:0:0:
256,192,286259,1,0,0:0:0:0:
256,192,286370,1,2,0:0:0:0:
256,192,286426,1,2,0:0:0:0:
256,192,286481,1,0,0:0:0:0:
256,192,286592,1,0,0:0:0:0:
256,192,286704,1,0,0:0:0:0:
256,192,286759,1,0,0:0:0:0:
256,192,286815,1,2,0:0:0:0:
256,192,286926,1,2,0:0:0:0:
256,192,287037,1,0,0:0:0:0:
256,192,287092,1,0,0:0:0:0:
256,192,287148,1,0,0:0:0:0:
256,192,287204,1,0,0:0:0:0:
256,192,287259,1,2,0:0:0:0:
256,192,287370,1,2,0:0:0:0:
256,192,287482,1,2,0:0:0:0:
256,192,287519,1,2,0:0:0:0:
256,192,287556,1,2,0:0:0:0:
256,192,287593,1,0,0:0:0:0:
256,192,287649,1,0,0:0:0:0:
256,192,287704,1,0,0:0:0:0:
256,192,287760,1,0,0:0:0:0:
256,192,287815,1,2,0:0:0:0:
256,192,287926,1,0,0:0:0:0:
256,192,288037,1,0,0:0:0:0:
256,192,288148,1,2,0:0:0:0:
256,192,288203,1,2,0:0:0:0:
256,192,288259,1,0,0:0:0:0:
256,192,288370,1,0,0:0:0:0:
256,192,288481,1,0,0:0:0:0:
256,192,288537,1,0,0:0:0:0:
256,192,288592,1,2,0:0:0:0:
256,192,288703,1,2,0:0:0:0:
256,192,288815,1,0,0:0:0:0:
256,192,288926,1,0,0:0:0:0:
256,192,289037,1,2,0:0:0:0:
256,192,289092,1,2,0:0:0:0:
256,192,289148,1,0,0:0:0:0:
256,192,289259,1,0,0:0:0:0:
256,192,289370,1,2,0:0:0:0:
256,192,289481,1,2,0:0:0:0:
256,192,289537,1,2,0:0:0:0:
256,192,289593,1,2,0:0:0:0:
256,192,289703,1,0,0:0:0:0:
256,192,289815,1,0,0:0:0:0:
256,192,289926,1,2,0:0:0:0:
256,192,289981,1,2,0:0:0:0:
256,192,290037,1,0,0:0:0:0:
256,192,290148,1,0,0:0:0:0:
256,192,290186,1,0,0:0:0:0:
256,192,290223,1,0,0:0:0:0:
256,192,290260,1,0,0:0:0:0:
256,192,290297,1,0,0:0:0:0:
256,192,290334,1,0,0:0:0:0:
256,192,290370,1,2,0:0:0:0:
256,192,290482,1,2,0:0:0:0:
256,192,290592,1,2,0:0:0:0:
256,192,290649,1,2,0:0:0:0:
256,192,290703,1,2,0:0:0:0:
256,192,290760,1,2,0:0:0:0:
256,192,290815,1,0,0:0:0:0:
256,192,290926,1,0,0:0:0:0:
256,192,291037,1,2,0:0:0:0:
256,192,291093,1,2,0:0:0:0:
256,192,291148,1,2,0:0:0:0:
256,192,291203,1,2,0:0:0:0:
256,192,291259,1,2,0:0:0:0:
256,192,291315,1,2,0:0:0:0:
256,192,291370,1,2,0:0:0:0:
256,192,291481,1,4,0:0:0:0:
256,192,291592,1,0,0:0:0:0:
256,192,291703,1,2,0:0:0:0:
256,192,291759,1,2,0:0:0:0:
256,192,291815,1,0,0:0:0:0:
256,192,291926,1,0,0:0:0:0:
256,192,292037,1,0,0:0:0:0:
256,192,292092,1,0,0:0:0:0:
256,192,292148,1,2,0:0:0:0:
256,192,292259,1,2,0:0:0:0:
256,192,292370,1,4,0:0:0:0:
256,192,292481,1,0,0:0:0:0:
256,192,292592,1,2,0:0:0:0:
256,192,292648,1,2,0:0:0:0:
256,192,292703,1,0,0:0:0:0:
256,192,292815,1,0,0:0:0:0:
256,192,292926,1,2,0:0:0:0:
256,192,293037,1,2,0:0:0:0:
256,192,293094,1,2,0:0:0:0:
256,192,293149,1,2,0:0:0:0:
256,192,293260,1,4,0:0:0:0:
256,192,293370,1,0,0:0:0:0:
256,192,293481,1,2,0:0:0:0:
256,192,293537,1,2,0:0:0:0:
256,192,293592,1,0,0:0:0:0:
256,192,293703,1,4,0:0:0:0:
256,192,293815,1,0,0:0:0:0:
256,192,293870,1,0,0:0:0:0:
256,192,293926,1,2,0:0:0:0:
256,192,294037,1,2,0:0:0:0:
256,192,294149,1,2,0:0:0:0:
256,192,294204,1,0,0:0:0:0:
256,192,294260,1,0,0:0:0:0:
256,192,294315,1,0,0:0:0:0:
256,192,294371,1,2,0:0:0:0:
256,192,294426,1,0,0:0:0:0:
256,192,294482,1,0,0:0:0:0:
256,192,294538,1,0,0:0:0:0:
256,192,294593,1,2,0:0:0:0:
256,192,294649,1,0,0:0:0:0:
256,192,294704,1,0,0:0:0:0:
256,192,294760,1,2,0:0:0:0:
256,192,294815,1,2,0:0:0:0:
256,192,294871,1,2,0:0:0:0:
256,192,294926,1,2,0:0:0:0:
256,192,294982,1,2,0:0:0:0:
256,192,295038,1,0,0:0:0:0:
256,192,295149,1,2,0:0:0:0:
256,192,295205,1,2,0:0:0:0:
256,192,295260,1,0,0:0:0:0:
256,192,295371,1,2,0:0:0:0:
256,192,295427,1,2,0:0:0:0:
256,192,295482,1,0,0:0:0:0:
256,192,295593,1,2,0:0:0:0:
256,192,295649,1,2,0:0:0:0:
256,192,295705,1,0,0:0:0:0:
256,192,295816,1,2,0:0:0:0:
256,192,295871,1,2,0:0:0:0:
256,192,295927,1,0,0:0:0:0:
256,192,296038,1,2,0:0:0:0:
256,192,296093,1,2,0:0:0:0:
256,192,296149,1,0,0:0:0:0:
256,192,296260,1,2,0:0:0:0:
256,192,296316,1,2,0:0:0:0:
256,192,296371,1,0,0:0:0:0:
256,192,296482,1,2,0:0:0:0:
256,192,296538,1,2,0:0:0:0:
256,192,296593,1,0,0:0:0:0:
256,192,296649,1,2,0:0:0:0:
256,192,296704,1,0,0:0:0:0:
256,192,296760,1,2,0:0:0:0:
256,192,296816,1,0,0:0:0:0:
256,192,296927,1,2,0:0:0:0:
256,192,296982,1,2,0:0:0:0:
256,192,297038,1,0,0:0:0:0:
256,192,297149,1,0,0:0:0:0:
256,192,297260,1,2,0:0:0:0:
256,192,297315,1,2,0:0:0:0:
256,192,297371,1,2,0:0:0:0:
256,192,297427,1,2,0:0:0:0:
256,192,297482,1,0,0:0:0:0:
256,192,297593,1,0,0:0:0:0:
256,192,297704,1,0,0:0:0:0:
256,192,297815,1,0,0:0:0:0:
256,192,297926,1,2,0:0:0:0:
256,192,297982,1,2,0:0:0:0:
256,192,298038,1,2,0:0:0:0:
256,192,298149,1,0,0:0:0:0:
256,192,298260,1,2,0:0:0:0:
256,192,298315,1,2,0:0:0:0:
256,192,298371,1,0,0:0:0:0:
256,192,298426,1,0,0:0:0:0:
256,192,298482,1,0,0:0:0:0:
256,192,298593,1,0,0:0:0:0:
256,192,298704,1,2,0:0:0:0:
256,192,298760,1,2,0:0:0:0:
256,192,298815,1,0,0:0:0:0:
256,192,298926,1,2,0:0:0:0:
256,192,298982,1,2,0:0:0:0:
256,192,299037,1,0,0:0:0:0:
256,192,299149,1,2,0:0:0:0:
256,192,299204,1,2,0:0:0:0:
256,192,299260,1,0,0:0:0:0:
256,192,299371,1,2,0:0:0:0:
256,192,299426,1,2,0:0:0:0:
256,192,299482,1,0,0:0:0:0:
256,192,299593,1,2,0:0:0:0:
256,192,299648,1,2,0:0:0:0:
256,192,299704,1,0,0:0:0:0:
256,192,299815,1,2,0:0:0:0:
256,192,299871,1,2,0:0:0:0:
256,192,299926,1,0,0:0:0:0:
256,192,300037,1,2,0:0:0:0:
256,192,300093,1,2,0:0:0:0:
256,192,300148,1,0,0:0:0:0:
256,192,300204,1,2,0:0:0:0:
256,192,300259,1,0,0:0:0:0:
256,192,300315,1,2,0:0:0:0:
256,192,300371,1,0,0:0:0:0:
256,192,300482,1,0,0:0:0:0:
256,192,300537,1,0,0:0:0:0:
256,192,300593,1,2,0:0:0:0:
256,192,300704,1,0,0:0:0:0:
256,192,300815,1,0,0:0:0:0:
256,192,300926,1,2,0:0:0:0:
256,192,300982,1,2,0:0:0:0:
256,192,301037,1,0,0:0:0:0:
256,192,301093,1,0,0:0:0:0:
256,192,301148,1,2,0:0:0:0:
256,192,301259,1,0,0:0:0:0:
256,192,301370,1,0,0:0:0:0:
256,192,301426,1,0,0:0:0:0:
256,192,301482,1,2,0:0:0:0:
256,192,301593,1,2,0:0:0:0:
256,192,301704,1,2,0:0:0:0:
256,192,301741,1,2,0:0:0:0:
256,192,301778,1,2,0:0:0:0:
256,192,301815,1,2,0:0:0:0:
256,192,301870,1,2,0:0:0:0:
256,192,301926,1,0,0:0:0:0:
256,192,301982,1,0,0:0:0:0:
256,192,302037,1,0,0:0:0:0:
256,192,302148,1,0,0:0:0:0:
256,192,302260,1,2,0:0:0:0:
256,192,302316,1,2,0:0:0:0:
256,192,302371,1,0,0:0:0:0:
256,192,302482,1,2,0:0:0:0:
256,192,302538,1,2,0:0:0:0:
256,192,302593,1,0,0:0:0:0:
256,192,302704,1,2,0:0:0:0:
256,192,302760,1,2,0:0:0:0:
256,192,302816,1,0,0:0:0:0:
256,192,302927,1,2,0:0:0:0:
256,192,302982,1,2,0:0:0:0:
256,192,303038,1,0,0:0:0:0:
256,192,303149,1,2,0:0:0:0:
256,192,303204,1,2,0:0:0:0:
256,192,303260,1,0,0:0:0:0:
256,192,303371,1,2,0:0:0:0:
256,192,303427,1,2,0:0:0:0:
256,192,303482,1,0,0:0:0:0:
256,192,303593,1,2,0:0:0:0:
256,192,303649,1,2,0:0:0:0:
256,192,303704,1,0,0:0:0:0:
256,192,303760,1,2,0:0:0:0:
256,192,303815,1,0,0:0:0:0:
256,192,303871,1,2,0:0:0:0:
256,192,303927,1,0,0:0:0:0:
256,192,304038,1,2,0:0:0:0:
256,192,304093,1,2,0:0:0:0:
256,192,304149,1,0,0:0:0:0:
256,192,304260,1,0,0:0:0:0:
256,192,304371,1,2,0:0:0:0:
256,192,304408,1,2,0:0:0:0:
256,192,304445,1,2,0:0:0:0:
256,192,304482,1,2,0:0:0:0:
256,192,304519,1,2,0:0:0:0:
256,192,304556,1,2,0:0:0:0:
256,192,304593,1,0,0:0:0:0:
256,192,304704,1,0,0:0:0:0:
256,192,304815,1,2,0:0:0:0:
256,192,304870,1,2,0:0:0:0:
256,192,304926,1,2,0:0:0:0:
256,192,304982,1,2,0:0:0:0:
256,192,305038,1,0,0:0:0:0:
256,192,305149,1,0,0:0:0:0:
256,192,305260,1,2,0:0:0:0:
256,192,305315,1,2,0:0:0:0:
256,192,305371,1,2,0:0:0:0:
256,192,305426,1,2,0:0:0:0:
256,192,305482,1,2,0:0:0:0:
256,192,305538,1,2,0:0:0:0:
256,192,305593,1,2,0:0:0:0:
256,192,305704,1,0,0:0:0:0:
256,192,305815,1,2,0:0:0:0:
256,192,305871,1,2,0:0:0:0:
256,192,305926,1,0,0:0:0:0:
256,192,306037,1,2,0:0:0:0:
256,192,306093,1,2,0:0:0:0:
256,192,306148,1,0,0:0:0:0:
256,192,306260,1,2,0:0:0:0:
256,192,306315,1,2,0:0:0:0:
256,192,306371,1,0,0:0:0:0:
256,192,306426,1,2,0:0:0:0:
256,192,306482,1,0,0:0:0:0:
256,192,306537,1,2,0:0:0:0:
256,192,306593,1,0,0:0:0:0:
256,192,306704,1,2,0:0:0:0:
256,192,306759,1,2,0:0:0:0:
256,192,306815,1,0,0:0:0:0:
256,192,306926,1,2,0:0:0:0:
256,192,306982,1,2,0:0:0:0:
256,192,307037,1,0,0:0:0:0:
256,192,307148,1,2,0:0:0:0:
256,192,307204,1,2,0:0:0:0:
256,192,307259,1,0,0:0:0:0:
256,192,307315,1,2,0:0:0:0:
256,192,307370,1,0,0:0:0:0:
256,192,307426,1,2,0:0:0:0:
256,192,307482,1,0,0:0:0:0:
256,192,307593,1,0,0:0:0:0:
256,192,307648,1,0,0:0:0:0:
256,192,307704,1,2,0:0:0:0:
256,192,307815,1,0,0:0:0:0:
256,192,307871,1,0,0:0:0:0:
256,192,307926,1,0,0:0:0:0:
256,192,308037,1,2,0:0:0:0:
256,192,308093,1,2,0:0:0:0:
256,192,308148,1,0,0:0:0:0:
256,192,308204,1,0,0:0:0:0:
256,192,308259,1,2,0:0:0:0:
256,192,308370,1,0,0:0:0:0:
256,192,308481,1,0,0:0:0:0:
256,192,308537,1,0,0:0:0:0:
256,192,308593,1,2,0:0:0:0:
256,192,308704,1,2,0:0:0:0:
256,192,308815,1,2,0:0:0:0:
256,192,308852,1,2,0:0:0:0:
256,192,308889,1,2,0:0:0:0:
256,192,308926,1,0,0:0:0:0:
256,192,308981,1,0,0:0:0:0:
256,192,309037,1,0,0:0:0:0:
256,192,309093,1,0,0:0:0:0:
256,192,309148,1,2,0:0:0:0:
256,192,309259,1,0,0:0:0:0:
256,192,309482,1,2,0:0:0:0:
256,192,309704,1,0,0:0:0:0:
256,192,309926,1,2,0:0:0:0:
256,192,310149,1,0,0:0:0:0:
256,192,310371,1,2,0:0:0:0:
256,192,310593,1,0,0:0:0:0:
256,192,310815,1,2,0:0:0:0:
256,192,310926,1,2,0:0:0:0:
256,192,311038,1,0,0:0:0:0:
256,192,311260,1,2,0:0:0:0:
256,192,311482,1,0,0:0:0:0:
256,192,311704,1,2,0:0:0:0:
256,192,311927,1,0,0:0:0:0:
256,192,312149,1,2,0:0:0:0:
256,192,312371,1,0,0:0:0:0:
256,192,312482,1,2,0:0:0:0:
256,192,312593,1,2,0:0:0:0:
256,192,312704,1,2,0:0:0:0:
256,192,312816,1,0,0:0:0:0:
256,192,313038,1,2,0:0:0:0:
256,192,313260,1,0,0:0:0:0:
256,192,313482,1,2,0:0:0:0:
256,192,313705,1,0,0:0:0:0:
256,192,313927,1,2,0:0:0:0:
256,192,314149,1,0,0:0:0:0:
256,192,314371,1,2,0:0:0:0:
256,192,314482,1,2,0:0:0:0:
256,192,314594,1,0,0:0:0:0:
256,192,314704,1,0,0:0:0:0:
256,192,314815,1,2,0:0:0:0:
256,192,315037,1,0,0:0:0:0:
256,192,315259,1,2,0:0:0:0:
256,192,315371,1,0,0:0:0:0:
256,192,315482,1,0,0:0:0:0:
256,192,315593,1,0,0:0:0:0:
256,192,315649,1,0,0:0:0:0:
256,192,315704,1,2,0:0:0:0:
256,192,315815,1,0,0:0:0:0:
256,192,315926,1,2,0:0:0:0:
256,192,315964,1,2,0:0:0:0:
256,192,316001,1,2,0:0:0:0:
256,192,316038,1,0,0:0:0:0:
256,192,316093,1,0,0:0:0:0:
256,192,316149,1,2,0:0:0:0:
256,192,316204,1,0,0:0:0:0:
256,192,316259,1,2,0:0:0:0:
256,192,316371,1,0,0:0:0:0:
256,192,316593,1,2,0:0:0:0:
256,192,316704,1,2,0:0:0:0:
256,192,316815,1,0,0:0:0:0:
256,192,316926,1,0,0:0:0:0:
256,192,317038,1,2,0:0:0:0:
256,192,317260,1,0,0:0:0:0:
256,192,317371,1,0,0:0:0:0:
256,192,317482,1,2,0:0:0:0:
256,192,317704,1,0,0:0:0:0:
256,192,317926,1,2,0:0:0:0:
256,192,318038,1,0,0:0:0:0:
256,192,318149,1,0,0:0:0:0:
256,192,318371,1,0,0:0:0:0:
256,192,318593,1,2,0:0:0:0:
256,192,318630,1,2,0:0:0:0:
256,192,318667,1,2,0:0:0:0:
256,192,318704,1,0,0:0:0:0:
256,192,318760,1,0,0:0:0:0:
256,192,318815,1,2,0:0:0:0:
256,192,318871,1,0,0:0:0:0:
256,192,318926,1,2,0:0:0:0:
256,192,319038,1,0,0:0:0:0:
256,192,319260,1,2,0:0:0:0:
256,192,319482,1,0,0:0:0:0:
256,192,319704,1,2,0:0:0:0:
256,192,319926,1,6,0:0:0:0:
256,192,320038,1,0,0:0:0:0:
256,192,320149,1,0,0:0:0:0:
256,192,320260,1,0,0:0:0:0:
256,192,320371,1,0,0:0:0:0:
256,192,320482,1,0,0:0:0:0:
256,192,320593,1,0,0:0:0:0:
256,192,320704,1,0,0:0:0:0:
256,192,320815,1,6,0:0:0:0:
256,192,320926,1,0,0:0:0:0:
256,192,321038,1,0,0:0:0:0:
256,192,321149,1,0,0:0:0:0:
256,192,321260,1,0,0:0:0:0:
256,192,321371,1,0,0:0:0:0:
256,192,321482,1,0,0:0:0:0:
256,192,321593,1,0,0:0:0:0:
256,192,321704,1,2,0:0:0:0:
256,192,321760,1,0,0:0:0:0:
256,192,321815,1,0,0:0:0:0:
256,192,321871,1,0,0:0:0:0:
256,192,321926,1,0,0:0:0:0:
256,192,321982,1,0,0:0:0:0:
256,192,322038,1,0,0:0:0:0:
256,192,322093,1,0,0:0:0:0:
256,192,322149,1,2,0:0:0:0:
256,192,322204,1,0,0:0:0:0:
256,192,322259,1,0,0:0:0:0:
256,192,322315,1,0,0:0:0:0:
256,192,322370,1,0,0:0:0:0:
256,192,322426,1,0,0:0:0:0:
256,192,322482,1,0,0:0:0:0:
256,192,322537,1,0,0:0:0:0:
256,192,322593,1,2,0:0:0:0:
256,192,322649,1,0,0:0:0:0:
256,192,322704,1,0,0:0:0:0:
256,192,322760,1,0,0:0:0:0:
256,192,322816,1,2,0:0:0:0:
256,192,322871,1,2,0:0:0:0:
256,192,322927,1,0,0:0:0:0:
256,192,322982,1,0,0:0:0:0:
256,192,323038,1,2,0:0:0:0:
256,192,323093,1,0,0:0:0:0:
256,192,323149,1,0,0:0:0:0:
256,192,323204,1,0,0:0:0:0:
256,192,323260,1,2,0:0:0:0:
256,192,323315,1,2,0:0:0:0:
256,192,323371,1,0,0:0:0:0:
256,192,323426,1,0,0:0:0:0:
256,192,323482,1,2,0:0:0:0:
