osu file format v14

[General]
AudioFilename: audio.mp3
AudioLeadIn: 0
PreviewTime: 156604
Countdown: 0
SampleSet: Normal
StackLeniency: 0.7
Mode: 0
LetterboxInBreaks: 0
WidescreenStoryboard: 0

[Editor]
Bookmarks: 88604
DistanceSpacing: 1
BeatDivisor: 4
GridSize: 32
TimelineZoom: 2.4

[Metadata]
Title:Heisei no Gabbalien - Unknown Medley
TitleUnicode:平成のガバリアン - Unknown Medley
Artist:No-elements
ArtistUnicode:No-elements
Creator:iruidoragon53
Version:Devastated
Source:Touhou
Tags:平安のエイリアン / Heian no Alien Honjuu Nue Undefined Fantastic Object Touhou Seirensen
BeatmapID:1737973
BeatmapSetID:829553

[Difficulty]
HPDrainRate:2
CircleSize:3.8
OverallDifficulty:10
ApproachRate:9.8
SliderMultiplier:2.2
SliderTickRate:1

[Events]
//Background and Video events
0,0,"5d0a4114.png",0,0
//Break Periods
2,59027,67116
2,103470,113337
2,128359,134670
2,190580,194225
2,203025,209336
//Storyboard Layer 0 (Background)
//Storyboard Layer 1 (Fail)
//Storyboard Layer 2 (Pass)
//Storyboard Layer 3 (Foreground)
//Storyboard Layer 4 (Overlay)
//Storyboard Sound Samples

[TimingPoints]
157,-15000,4,2,0,50,1,0
158,444.444444444444,4,2,0,50,1,0
7272,222.222222222222,4,1,0,60,1,0
14383,-90.9090909090909,4,1,0,70,0,0
28605,-66.6666666666667,4,1,0,80,0,1
41938,-133.333333333333,4,1,0,80,0,1
42827,-66.6666666666667,4,1,0,80,0,1
49049,-133.333333333333,4,1,0,80,0,1
49938,-66.6666666666667,4,1,0,80,0,1
53049,-133.333333333333,4,1,0,80,0,1
53494,-66.6666666666667,4,1,0,80,0,1
55271,-133.333333333333,4,1,0,80,0,1
57049,-100,4,2,0,60,0,0
71271,444.444444444444,4,2,0,40,1,0
85493,-100,4,2,0,50,0,0
99715,-100,4,2,0,45,0,0
128159,-133.333333333333,4,2,0,45,0,0
135271,-100,4,2,0,45,0,0
135715,-95.2380952380952,4,2,0,45,0,0
136159,-90.9090909090909,4,2,0,45,0,0
136604,-86.9565217391304,4,2,0,45,0,0
137048,-83.3333333333333,4,2,0,45,0,0
137493,-80,4,2,0,45,0,0
137937,-76.9230769230769,4,2,0,45,0,0
138382,-74.0740740740741,4,2,0,45,0,0
138826,-71.4285714285714,4,2,0,45,0,0
139270,-68.9655172413793,4,2,0,45,0,0
139715,-66.6666666666667,4,2,0,45,0,0
140159,-64.5161290322581,4,2,0,45,0,0
140604,-62.5,4,2,0,45,0,0
141048,-60.6060606060606,4,2,0,45,0,0
141493,-58.8235294117647,4,2,0,45,0,0
141937,1777.77777777778,4,2,0,45,1,0
142382,222.222222222222,4,1,0,60,1,0
156604,1818.18181818182,4,1,0,60,1,0
156604,-1.15292150460685E+21,4,2,0,5,0,0
160159,222.222222222222,4,1,0,80,1,1
160159,-66.6666666666667,4,1,0,80,0,1
172603,-133.333333333333,4,1,0,80,0,1
173492,-133.333333333333,4,1,0,80,0,1
174381,111.111111111111,4,1,0,80,1,1
177492,-133.333333333333,4,1,0,80,0,1
177936,-100,4,1,0,80,0,1
180603,-133.333333333333,4,1,0,80,0,1
181492,-100,4,1,0,80,0,1
184603,-133.333333333333,4,1,0,80,0,1
185047,-100,4,1,0,80,0,1
186825,-133.333333333333,4,1,0,80,0,1
188603,-100,4,2,0,60,0,0
190379,-100,4,2,0,5,0,0
190408,-100,4,2,0,60,0,0
195714,55.5555555555556,4,2,0,60,1,1
195714,-133.333333333333,4,2,0,60,0,1
202825,222.222222222222,4,1,0,60,1,0

[Colours]
Combo1 : 67,48,48
Combo2 : 0,34,96
Combo3 : 89,15,151
Combo4 : 52,87,45

[HitObjects]
256,192,158,5,12,0:0:0:0:
256,192,158,12,0,7046,0:0:0:0:
61,126,7272,6,0,L|172:93,1,110
284,118,7494,2,0,P|342:154|408:165,1,110
305,257,7716,1,0,0:0:0:0:
202,321,7827,2,0,P|123:340|75:329,2,110
305,257,8160,2,0,P|384:238|432:249,1,110
364,132,8383,1,0,0:0:0:0:
268,60,8494,2,0,L|156:48,1,110
72,132,8716,2,0,L|184:144,1,110
181,143,8938,1,0,0:0:0:0:
340,304,9049,6,0,P|396:288|428:248,1,110
416,128,9271,1,0,0:0:0:0:
416,128,9383,1,0,0:0:0:0:
312,68,9494,2,0,P|256:56|196:64,1,110
140,164,9716,2,0,P|196:176|256:168,1,110
360,216,9938,2,0,P|352:296|320:332,1,110
220,288,10160,2,0,P|156:272|96:288,1,110
56,172,10383,1,0,0:0:0:0:
144,88,10494,2,0,L|252:60,1,110
368,96,10716,1,0,0:0:0:0:
432,200,10827,6,0,P|452:276|440:328,1,110
344,368,11049,1,0,0:0:0:0:
108,352,11160,1,0,0:0:0:0:
320,288,11271,1,0,0:0:0:0:
123,156,11382,1,0,0:0:0:0:
360,216,11494,1,0,0:0:0:0:
255,3,11605,1,0,0:0:0:0:
364,56,11716,2,0,P|428:108|440:144,1,110
420,252,11938,2,0,B|420:288|440:312|440:312|400:344,1,110
284,336,12160,1,0,0:0:0:0:
228,48,12271,1,0,0:0:0:0:
352,302,12383,1,0,0:0:0:0:
159,81,12494,1,0,0:0:0:0:
394,239,12605,6,0,P|436:202|438:146,1,110
369,52,12827,2,0,B|330:42|302:75|253:68,1,110
141,60,13049,1,0,0:0:0:0:
141,60,13160,1,0,0:0:0:0:
191,169,13271,2,0,P|191:239|162:284,1,110
59,317,13494,1,0,0:0:0:0:
96,201,13605,1,0,0:0:0:0:
150,308,13716,1,0,0:0:0:0:
239,226,13827,1,0,0:0:0:0:
226,346,13938,1,4,0:0:0:0:
343,317,14049,1,0,0:0:0:0:
416,221,14160,2,0,L|407:105,1,110,4|0,0:0|0:0,0:0:0:0:
133,65,14383,6,0,P|188:94|252:99,1,121.000003692627
376,77,14605,1,0,0:0:0:0:
324,199,14716,1,0,0:0:0:0:
202,254,14827,2,0,P|139:269|80:260,1,121.000003692627
114,131,15049,1,0,0:0:0:0:
114,131,15160,1,0,0:0:0:0:
236,78,15271,2,0,P|295:107|359:92,1,121.000003692627
479,74,15494,2,0,P|494:138|485:192,1,121.000003692627
390,285,15716,1,0,0:0:0:0:
257,271,15827,1,0,0:0:0:0:
338,166,15938,1,0,0:0:0:0:
205,156,16049,1,0,0:0:0:0:
85,97,16160,6,0,P|134:57|190:52,1,121.000003692627
423,41,16383,1,0,0:0:0:0:
301,94,16494,1,0,0:0:0:0:
85,97,16605,2,0,P|147:86|198:110,1,121.000003692627
405,217,16828,1,0,0:0:0:0:
273,202,16939,1,0,0:0:0:0:
85,97,17049,2,0,P|144:119|176:165,1,121.000003692627
302,360,17272,1,0,0:0:0:0:
195,281,17383,1,0,0:0:0:0:
85,97,17494,2,0,P|125:146|130:202,1,121.000003692627
427,287,17716,2,0,P|387:237|382:181,1,121.000003692627
339,55,17938,5,0,0:0:0:0:
339,55,18049,1,0,0:0:0:0:
207,72,18160,2,0,P|145:95|84:95,1,121.000003692627
129,224,18383,1,0,0:0:0:0:
254,268,18494,2,0,P|313:288|373:282,1,121.000003692627
482,210,18716,1,0,0:0:0:0:
455,79,18827,2,0,B|407:33|407:33|348:32,1,121.000003692627
167,184,19049,2,0,B|215:230|215:230|274:231,1,121.000003692627
362,155,19271,2,0,B|314:109|314:109|255:108,1,121.000003692627
74,260,19493,2,0,B|122:306|122:306|181:307,1,121.000003692627
308,331,19716,5,0,0:0:0:0:
308,331,19827,1,0,0:0:0:0:
429,277,19938,2,0,P|444:209|433:160,1,121.000003692627
338,65,20160,1,0,0:0:0:0:
338,65,20271,1,0,0:0:0:0:
217,119,20383,2,0,P|202:187|213:236,1,121.000003692627
128,339,20605,2,0,P|143:271|132:222,1,121.000003692627
61,109,20827,1,0,0:0:0:0:
188,72,20938,1,0,0:0:0:0:
316,104,21049,2,0,L|434:143,1,121.000003692627
460,271,21271,2,0,L|342:232,1,121.000003692627
212,250,21494,5,4,0:0:0:0:
99,320,21605,1,0,0:0:0:0:
91,187,21716,1,0,0:0:0:0:
171,81,21827,2,0,P|241:64|326:76,1,121.000003692627
398,142,22049,1,0,0:0:0:0:
368,271,22160,2,0,B|301:262|301:262|298:300|276:328,1,121.000003692627
166,254,22383,1,0,0:0:0:0:
65,167,22494,1,0,0:0:0:0:
50,34,22605,2,0,P|136:52|176:90,1,121.000003692627
160,71,22827,2,0,P|178:157|216:197,1,121.000003692627
352,313,23049,2,0,P|334:227|296:187,1,121.000003692627
362,78,23271,6,0,B|299:42|299:42|292:103|240:121,1,121.000003692627,4|0,0:0|0:0,0:0:0:0:
166,22,23494,1,0,0:0:0:0:
211,146,23605,1,0,0:0:0:0:
337,185,23716,2,0,L|457:188,1,121.000003692627
175,199,23938,2,0,L|55:196,1,121.000003692627
302,258,24160,2,0,L|359:364,1,121.000003692627
209,125,24382,2,0,L|152:19,1,121.000003692627
221,265,24605,2,0,L|158:368,1,121.000003692627
290,118,24827,2,0,L|353:15,1,121.000003692627
410,135,25049,5,4,0:0:0:0:
410,135,25160,1,0,0:0:0:0:
295,202,25271,2,0,P|335:246|399:267,1,121.000003692627
278,338,25494,2,0,P|238:294|174:273,1,121.000003692627
48,276,25716,1,0,0:0:0:0:
48,276,25827,1,0,0:0:0:0:
97,152,25938,6,0,P|144:107|211:109,1,121.000003692627,4|0,0:0|0:0,0:0:0:0:
302,185,26160,1,0,0:0:0:0:
430,151,26271,1,0,0:0:0:0:
391,279,26383,2,0,L|261:317,1,121.000003692627
150,266,26605,2,0,P|213:253|241:196,1,121.000003692627
166,96,26827,6,0,P|122:108|113:179,1,121.000003692627,4|0,0:0|0:0,0:0:0:0:
346,96,27049,2,0,P|389:108|399:179,1,121.000003692627
111,175,27271,2,0,P|67:187|58:258,1,121.000003692627,4|0,0:0|0:0,0:0:0:0:
401,175,27494,2,0,P|444:187|454:258,1,121.000003692627
256,268,27716,2,0,L|256:144,1,121.000003692627,4|0,0:0|0:0,0:0:0:0:
256,16,27938,2,0,L|256:52,4,30.2500009231568
140,80,28160,6,0,P|152:168|144:216,1,121.000003692627,8|0,0:0|0:0,0:0:0:0:
372,80,28383,2,0,P|360:168|368:216,1,121.000003692627,8|0,0:0|0:0,0:0:0:0:
203,283,28605,6,0,P|125:308|38:273,1,165.000006294251
89,105,28827,1,0,0:0:0:0:
261,48,28938,1,0,0:0:0:0:
437,90,29049,2,0,B|456:142|424:173|424:173|446:214|448:262,1,165.000006294251
287,331,29271,2,0,P|206:308|117:324,1,165.000006294251
162,140,29494,1,0,0:0:0:0:
162,140,29605,1,0,0:0:0:0:
323,57,29716,2,0,B|381:119|381:119|450:161,1,165.000006294251
288,243,29938,2,0,B|230:181|230:181|161:139,1,165.000006294251
164,320,30160,1,0,0:0:0:0:
164,320,30271,1,0,0:0:0:0:
45,180,30383,6,0,P|85:94|146:67,1,165.000006294251
467,204,30605,2,0,P|427:290|366:317,1,165.000006294251
150,186,30827,2,0,P|170:143|201:129,2,82.5000031471254
361,198,31049,2,0,P|341:241|311:254,2,82.5000031471254
444,36,31271,2,0,P|349:65|267:53,1,165.000006294251
101,58,31494,1,0,0:0:0:0:
192,215,31605,1,0,0:0:0:0:
282,58,31716,1,0,0:0:0:0:
192,215,31827,2,0,B|175:302|175:302|225:295|260:344,1,165.000006294251
406,246,32049,1,0,0:0:0:0:
368,68,32160,6,0,B|345:119|345:119|369:177|324:222,1,165.000006294251
148,263,32383,1,0,0:0:0:0:
130,82,32494,2,0,B|103:159|103:159|152:157|152:157|183:187,1,165.000006294251
382,302,32716,2,0,B|409:225|409:225|360:227|360:227|329:197,1,165.000006294251
241,47,32938,1,0,0:0:0:0:
74,117,33049,2,0,P|158:157|238:142,1,165.000006294251
60,218,33271,2,0,P|153:210|215:157,1,165.000006294251
100,312,33494,2,0,P|176:259|203:182,1,165.000006294251
181,374,33716,2,0,P|221:290|206:210,1,165.000006294251
211,221,33938,6,0,P|277:139|212:222,1,330.000012588501
119,62,34271,1,0,0:0:0:0:
283,143,34383,2,0,P|217:225|282:142,1,330.000012588501
380,290,34716,1,0,0:0:0:0:
398,124,34827,2,0,B|394:120|349:47|349:47|273:23,1,165.000006294251
100,242,35049,2,0,B|145:315|145:315|220:338,1,165.000006294251
187,185,35271,1,0,0:0:0:0:
368,185,35383,1,0,0:0:0:0:
277,342,35494,1,0,0:0:0:0:
277,342,35605,1,0,0:0:0:0:
103,289,35716,6,0,P|78:202|128:160,1,165.000006294251
296,225,35938,2,0,P|378:228|436:173,1,165.000006294251
272,95,36160,1,0,0:0:0:0:
91,75,36271,1,0,0:0:0:0:
272,95,36383,1,0,0:0:0:0:
163,240,36494,1,0,0:0:0:0:
319,332,36605,2,0,B|356:287|356:287|330:232|359:181,1,165.000006294251
233,316,36827,2,0,B|270:271|270:271|244:216|273:165,1,165.000006294251
147,301,37049,2,0,B|184:256|184:256|158:201|187:150,1,165.000006294251
61,285,37271,2,0,B|98:240|98:240|72:185|101:134,1,165.000006294251
262,54,37494,5,0,0:0:0:0:
262,54,37605,1,0,0:0:0:0:
431,118,37716,1,0,0:0:0:0:
262,185,37827,2,0,P|145:191|101:169,2,165.000006294251
440,216,38160,2,0,P|410:306|342:339,1,165.000006294251
171,305,38383,2,0,P|132:288|114:255,3,82.5000031471254
108,162,38605,2,0,L|122:78,3,82.5000031471254
207,50,38827,2,0,P|253:69|288:63,3,82.5000031471254
375,75,39049,2,0,B|413:105|413:155,3,82.5000031471254
410,230,39271,5,0,0:0:0:0:
410,230,39383,1,0,0:0:0:0:
280,357,39494,1,0,0:0:0:0:
280,357,39605,1,0,0:0:0:0:
156,224,39716,2,0,B|122:168|122:124|122:124|122:65,1,165.000006294251
300,34,39938,2,0,L|299:199,1,165.000006294251
176,332,40160,1,0,0:0:0:0:
21,237,40271,1,0,0:0:0:0:
60,58,40383,2,0,P|146:83|217:59,1,165.000006294251
396,58,40605,2,0,P|440:144|442:215,1,165.000006294251
325,349,40827,2,0,P|281:263|279:192,1,165.000006294251
154,63,41049,6,0,P|82:126|76:200,1,165.000006294251
117,366,41271,1,0,0:0:0:0:
117,366,41383,1,0,0:0:0:0:
154,63,41494,2,0,P|123:153|154:220,1,165.000006294251
273,343,41716,1,0,0:0:0:0:
273,343,41828,1,0,0:0:0:0:
154,63,41938,2,0,L|174:89,7,20.6250007867813
184,93,42160,2,0,L|214:105,7,20.6250007867813
225,107,42383,2,0,L|257:102,12,20.6250007867813
196,141,42771,1,0,0:0:0:0:
139,212,42827,5,0,0:0:0:0:
365,47,42938,1,0,0:0:0:0:
164,267,43049,1,0,0:0:0:0:
277,11,43160,1,0,0:0:0:0:
214,303,43271,1,0,0:0:0:0:
184,25,43382,1,0,0:0:0:0:
275,309,43494,1,0,0:0:0:0:
110,83,43605,1,0,0:0:0:0:
389,104,43716,5,0,0:0:0:0:
116,167,43827,1,0,0:0:0:0:
327,49,43938,1,0,0:0:0:0:
122,240,44049,1,0,0:0:0:0:
246,32,44160,1,0,0:0:0:0:
164,300,44271,1,0,0:0:0:0:
168,58,44383,1,0,0:0:0:0:
231,332,44494,1,0,0:0:0:0:
510,318,44605,5,0,0:0:0:0:
400,60,44716,1,0,0:0:0:0:
293,319,44827,1,0,0:0:0:0:
183,61,44938,1,0,0:0:0:0:
73,317,45049,1,0,0:0:0:0:
183,59,45160,1,0,0:0:0:0:
290,318,45271,1,0,0:0:0:0:
400,60,45382,1,0,0:0:0:0:
117,47,45494,5,0,0:0:0:0:
249,294,45605,1,0,0:0:0:0:
63,135,45716,1,0,0:0:0:0:
300,283,45827,1,0,0:0:0:0:
60,239,45938,1,0,0:0:0:0:
340,249,46049,1,0,0:0:0:0:
111,331,46160,1,0,0:0:0:0:
358,199,46271,1,0,0:0:0:0:
117,50,46383,6,0,P|203:28|311:51,1,165.000006294251
476,235,46605,1,0,0:0:0:0:
277,37,46716,1,0,0:0:0:0:
468,119,46827,1,0,0:0:0:0:
197,47,46938,1,0,0:0:0:0:
403,22,47049,1,0,0:0:0:0:
133,96,47160,1,0,0:0:0:0:
310,312,47271,5,0,0:0:0:0:
27,308,47383,1,0,0:0:0:0:
355,249,47494,1,0,0:0:0:0:
72,245,47606,1,0,0:0:0:0:
399,186,47716,1,0,0:0:0:0:
116,182,47828,1,0,0:0:0:0:
442,120,47938,1,0,0:0:0:0:
159,116,48050,1,0,0:0:0:0:
427,45,48160,5,0,0:0:0:0:
206,218,48271,1,0,0:0:0:0:
477,150,48383,1,0,0:0:0:0:
199,189,48494,1,0,0:0:0:0:
468,266,48605,1,0,0:0:0:0:
208,161,48716,1,0,0:0:0:0:
403,363,48827,1,0,0:0:0:0:
230,141,48938,1,0,0:0:0:0:
361,190,49049,2,0,L|387:192,14,20.6250007867813
347,242,49494,2,0,L|369:257,14,20.6250007867813
208,269,49938,5,0,0:0:0:0:
366,37,50049,1,0,0:0:0:0:
175,234,50160,1,0,0:0:0:0:
428,112,50271,1,0,0:0:0:0:
165,188,50383,1,0,0:0:0:0:
445,209,50494,1,0,0:0:0:0:
179,144,50605,1,0,0:0:0:0:
410,302,50716,1,0,0:0:0:0:
247,74,50827,5,0,0:0:0:0:
149,336,50938,1,0,0:0:0:0:
307,85,51049,1,0,0:0:0:0:
91,263,51160,1,0,0:0:0:0:
353,125,51271,1,0,0:0:0:0:
77,171,51382,1,0,0:0:0:0:
374,183,51494,1,0,0:0:0:0:
112,84,51605,1,0,0:0:0:0:
231,338,51716,5,0,0:0:0:0:
256,58,51827,1,0,0:0:0:0:
161,305,51938,1,0,0:0:0:0:
323,75,52049,1,0,0:0:0:0:
117,243,52160,1,0,0:0:0:0:
372,125,52271,1,0,0:0:0:0:
110,167,52383,1,0,0:0:0:0:
390,191,52494,1,0,0:0:0:0:
158,34,52605,5,0,0:0:0:0:
294,278,52716,1,0,0:0:0:0:
250,6,52827,1,0,0:0:0:0:
245,285,52938,1,0,0:0:0:0:
344,30,53049,2,0,L|330:49,7,20.6250007867813
314,77,53271,2,0,L|301:92,4,20.6250007867813
277,137,53438,1,0,0:0:0:0:
149,197,53494,6,0,B|100:258|100:258|147:331,1,165.000006294251
251,85,53716,2,0,B|190:36|190:36|117:83,1,165.000006294251
363,187,53938,2,0,B|412:126|412:126|365:53,1,165.000006294251
261,299,54160,2,0,B|322:348|322:348|335:340,3,82.5000031471254
444,265,54383,2,0,B|410:129|410:129|336:170|276:98|276:98|228:98,1,330.000012588501
360,47,54716,1,0,0:0:0:0:
85,105,54827,2,0,L|32:273,1,165.000006294251
427,279,55049,2,0,L|480:111,1,165.000006294251
341,157,55271,6,0,L|321:168,15,20.6250007867813
289,181,55716,6,0,L|266:180,15,20.6250007867813
234,172,56160,6,0,L|214:160,15,20.6250007867813
188,138,56605,6,0,L|177:118,15,20.6250007867813
256,192,57049,12,0,58827,0:0:0:0:
256,192,67716,12,0,71049,0:0:0:0:
321,63,71271,6,0,B|352:161|352:161|292:212|313:277,1,220
419,243,72159,2,0,B|411:321|411:321|261:323,1,220
106,103,73048,2,0,P|127:207|101:323,2,220
207,55,74382,2,0,L|331:100,1,110
310,92,74715,1,0,0:0:0:0:
346,106,74826,6,0,P|312:242|351:321,1,220
188,318,75715,2,0,B|85:257|85:257|149:230|151:170,1,220
203,130,76382,1,0,0:0:0:0:
203,130,76493,1,0,0:0:0:0:
257,76,76604,2,0,B|353:39|377:155|457:142,2,220
294,143,77715,1,0,0:0:0:0:
340,204,77937,2,0,L|369:323,1,110
366,310,78271,1,0,0:0:0:0:
329,322,78382,6,0,B|238:305|185:340|185:340|186:267,1,220
35,300,79270,2,0,B|12:220|66:170|66:170|68:89,1,220
142,70,79937,1,0,0:0:0:0:
218,75,80159,2,0,P|269:127|307:127,2,110
198,228,81048,2,0,B|169:316|169:316|205:274|254:346|287:297,1,220
327,234,81715,1,0,0:0:0:0:
348,201,81826,1,0,0:0:0:0:
367,167,81937,6,0,B|408:88|408:88|342:109|319:46|286:101,1,220
251,166,82604,1,0,0:0:0:0:
230,198,82715,1,0,0:0:0:0:
210,230,82826,2,0,P|113:288|41:215,1,220
69,154,83493,1,0,0:0:0:0:
69,154,83604,1,0,0:0:0:0:
88,121,83715,2,0,P|182:99|262:117,1,165
279,132,84159,2,0,P|373:154|453:136,1,165
472,122,84604,2,0,B|461:47|461:47|365:93|320:59,1,220
209,81,85382,1,0,0:0:0:0:
190,84,85437,1,0,0:0:0:0:
171,90,85493,6,0,P|127:144|143:293,1,220
291,306,86382,2,0,B|421:303|421:303|439:253|428:212,1,220
380,154,87048,1,0,0:0:0:0:
422,89,87270,2,0,B|427:27|427:27|366:50|245:50,1,220
118,30,88159,2,0,L|78:177,1,110
133,199,88604,2,0,L|173:346,1,110
195,323,88937,1,0,0:0:0:0:
232,315,89048,6,0,B|322:279|322:279|347:326|429:325,1,220
431,169,89937,2,0,P|334:87|230:95,1,220
176,119,90604,1,0,0:0:0:0:
128,179,90826,2,0,L|103:298,1,110
160,340,91270,2,0,L|185:221,1,110
230,172,91715,1,0,0:0:0:0:
275,109,91937,1,0,0:0:0:0:
337,155,92159,1,0,0:0:0:0:
292,217,92382,1,0,0:0:0:0:
294,255,92493,1,0,0:0:0:0:
312,288,92604,6,0,B|421:325|421:325|405:240|426:175,1,220
428,66,93493,2,0,P|323:34|217:63,1,220
143,49,94159,1,0,0:0:0:0:
66,59,94382,2,0,P|38:108|63:184,1,110
89,222,94826,2,0,P|117:173|92:97,1,110
182,148,95270,1,0,0:0:0:0:
252,116,95493,2,0,P|306:83|312:40,2,110
269,150,96048,1,0,0:0:0:0:
296,176,96159,6,0,B|248:215|250:289|313:317|313:317|342:278,1,220
381,212,96826,1,0,0:0:0:0:
405,182,96937,1,0,0:0:0:0:
423,147,97048,6,0,B|471:108|469:34|406:6|406:6|377:45,1,220
310,82,97715,1,0,0:0:0:0:
272,91,97826,1,0,0:0:0:0:
233,85,97937,6,0,P|169:79|111:241,1,220
98,233,98493,1,0,0:0:0:0:
111,268,98604,1,0,0:0:0:0:
137,296,98715,1,0,0:0:0:0:
171,312,98826,2,0,P|247:314|289:298,1,110
317,237,99270,2,0,P|308:172|326:128,1,110
366,67,99715,1,0,0:0:0:0:
256,192,99770,12,0,103270,0:0:0:0:
267,77,113937,6,0,P|309:131|371:152,2,110
196,107,114604,1,0,0:0:0:0:
141,161,114826,2,0,P|99:107|37:86,2,110
162,235,115493,1,0,0:0:0:0:
162,235,115604,1,0,0:0:0:0:
181,268,115715,6,0,L|273:331,2,110
255,246,116382,1,0,0:0:0:0:
323,211,116604,1,0,0:0:0:0:
346,180,116715,2,0,P|359:118|334:64,1,110
315,48,117048,1,0,0:0:0:0:
242,73,117270,2,0,P|176:89|111:86,1,110
109,162,117715,5,0,0:0:0:0:
129,236,117937,2,0,P|190:234|243:254,1,110
273,316,118382,2,0,P|308:253|300:212,2,110
345,289,119048,1,0,0:0:0:0:
345,289,119159,1,0,0:0:0:0:
371,261,119270,6,0,P|386:188|371:146,1,110
353,123,119604,1,0,0:0:0:0:
329,92,119715,1,0,0:0:0:0:
298,69,119826,1,0,0:0:0:0:
262,55,119937,1,0,0:0:0:0:
224,51,120048,1,0,0:0:0:0:
186,58,120159,1,0,0:0:0:0:
130,110,120382,1,0,0:0:0:0:
130,110,120493,1,0,0:0:0:0:
137,147,120604,2,0,P|160:201|156:261,1,110
147,288,120937,1,0,0:0:0:0:
167,320,121048,6,0,P|216:359|261:359,1,110
331,327,121493,2,0,P|282:288|237:288,1,110
255,213,121937,2,0,P|281:153|276:108,1,110
304,37,122382,2,0,P|278:97|283:142,1,110
359,141,122826,6,0,P|423:154|468:193,1,110
465,256,123270,2,0,P|401:243|356:204,1,110
299,255,123715,2,0,L|239:289,3,55
214,292,124159,2,0,L|145:291,3,55
256,192,124604,12,4,128159,0:0:0:0:
78,95,135270,5,0,0:0:0:0:
112,117,135381,1,0,0:0:0:0:
151,130,135492,1,0,0:0:0:0:
192,131,135603,1,0,0:0:0:0:
249,119,135715,1,0,0:0:0:0:
304,103,135826,1,0,0:0:0:0:
360,111,135937,1,0,0:0:0:0:
409,141,136048,1,0,0:0:0:0:
446,189,136159,5,0,0:0:0:0:
400,228,136270,1,0,0:0:0:0:
379,284,136381,1,0,0:0:0:0:
386,343,136492,1,0,0:0:0:0:
322,341,136604,1,0,0:0:0:0:
262,321,136715,1,0,0:0:0:0:
199,315,136826,1,0,0:0:0:0:
136,324,136937,1,0,0:0:0:0:
78,356,137048,5,0,0:0:0:0:
40,302,137159,1,0,0:0:0:0:
30,237,137270,1,0,0:0:0:0:
52,176,137381,1,0,0:0:0:0:
96,123,137493,1,0,0:0:0:0:
177,47,137604,1,0,0:0:0:0:
67,61,137715,1,0,0:0:0:0:
164,115,137826,1,0,0:0:0:0:
117,14,137937,6,0,L|121:45,14,17.8749991817475
96,123,138382,1,0,0:0:0:0:
78,194,138493,1,0,0:0:0:0:
85,268,138604,1,0,0:0:0:0:
117,335,138715,1,0,0:0:0:0:
173,283,138826,6,0,P|272:227|309:235,1,153.999995300293
310,310,139159,1,0,0:0:0:0:
374,263,139270,2,0,P|423:187|409:123,1,159.500004867554
432,48,139604,1,0,0:0:0:0:
351,64,139715,6,0,P|256:90|192:73,1,165.000006294251
193,73,140048,1,0,0:0:0:0:
112,49,140159,2,0,L|68:237,1,170.500001300812
53,298,140493,1,0,0:0:0:0:
131,337,140604,6,0,P|176:357|218:352,1,88
271,287,140826,2,0,P|226:267|184:272,1,88
220,185,141048,2,0,B|258:103|236:11|236:11|335:64,1,272.250002596378
409,80,141493,6,0,L|356:172,1,93.500001783371
315,242,141715,2,0,L|368:150,1,93.500001783371
361,160,141937,2,0,B|363:163|363:163|359:160|359:160|363:164|363:164|358:159|358:159|361:162|361:162|364:165|364:165|363:162|363:162|356:160|356:160|361:164|361:164|359:158,1,41.25,4|0,0:0|0:0,0:0:0:0:
292,70,142382,6,0,B|210:32|210:32|160:32,1,110,4|0,0:0|0:0,0:0:0:0:
130,124,142604,2,0,B|212:162|212:162|262:162,1,110
341,152,142826,1,0,0:0:0:0:
390,173,142937,1,0,0:0:0:0:
418,220,143048,1,0,0:0:0:0:
413,274,143159,1,0,0:0:0:0:
115,315,143270,6,0,P|186:335|224:326,1,110
182,223,143493,2,0,P|205:162|198:107,1,110
301,72,143715,1,0,0:0:0:0:
83,102,143826,1,0,0:0:0:0:
234,65,143937,1,0,0:0:0:0:
61,200,144048,1,0,0:0:0:0:
147,268,144159,5,0,0:0:0:0:
199,365,144270,1,0,0:0:0:0:
296,313,144382,1,0,0:0:0:0:
244,216,144493,1,0,0:0:0:0:
290,116,144604,2,0,P|351:150|411:148,1,110
189,60,144826,2,0,P|128:26|68:28,1,110
201,212,145048,6,0,P|167:273|169:333,1,110
257,111,145270,2,0,P|291:50|289:-10,1,110
396,207,145493,1,0,0:0:0:0:
202,311,145604,1,0,0:0:0:0:
369,274,145715,1,0,0:0:0:0:
149,268,145826,1,0,0:0:0:0:
205,173,145937,6,0,L|176:63,1,110
286,58,146159,2,0,P|342:90|390:79,1,110
417,187,146382,2,0,P|434:247|415:300,1,110
319,334,146604,1,0,0:0:0:0:
319,334,146715,1,0,0:0:0:0:
133,216,146826,5,0,0:0:0:0:
55,138,146937,1,0,0:0:0:0:
133,60,147048,1,0,0:0:0:0:
211,138,147159,1,0,0:0:0:0:
379,168,147270,1,0,0:0:0:0:
457,246,147381,1,0,0:0:0:0:
379,324,147492,1,0,0:0:0:0:
301,246,147603,1,0,0:0:0:0:
198,288,147715,6,0,P|133:313|74:304,1,110
96,200,147937,2,0,B|129:142|129:142|129:96,1,110
226,47,148159,1,0,0:0:0:0:
226,47,148270,1,0,0:0:0:0:
334,71,148382,2,0,L|374:179,1,110
353,282,148604,5,0,0:0:0:0:
136,317,148715,1,0,0:0:0:0:
295,318,148826,1,0,0:0:0:0:
89,240,148937,1,0,0:0:0:0:
226,321,149048,1,0,0:0:0:0:
87,150,149159,1,0,0:0:0:0:
165,289,149270,1,4,0:0:0:0:
131,72,149381,1,0,0:0:0:0:
217,141,149493,6,0,P|268:166|324:155,1,110,4|0,0:0|0:0,0:0:0:0:
401,84,149715,2,0,P|433:153|425:192,1,110
111,300,149937,2,0,P|79:231|87:192,1,110
163,124,150159,1,0,0:0:0:0:
163,124,150270,1,0,0:0:0:0:
238,43,150382,6,0,P|299:71|341:69,1,110
431,130,150604,2,0,P|463:191|464:256,1,110
81,254,150826,2,0,P|49:193|48:128,1,110
127,80,151048,1,4,0:0:0:0:
227,124,151159,1,0,0:0:0:0:
320,65,151270,6,0,P|378:88|425:79,1,110,4|0,0:0|0:0,0:0:0:0:
470,180,151493,2,0,P|467:250|442:286,1,110
42,204,151715,2,0,P|45:134|70:98,1,110
148,174,151937,1,0,0:0:0:0:
179,68,152048,1,0,0:0:0:0:
283,33,152159,6,0,L|381:101,1,110
423,194,152382,2,0,P|468:259|467:298,1,110
89,190,152604,2,0,P|44:125|45:86,1,110
148,66,152826,1,4,0:0:0:0:
248,110,152937,1,0,0:0:0:0:
347,63,153048,6,0,B|401:77|401:77|426:126,1,110,4|0,0:0|0:0,0:0:0:0:
432,234,153270,2,0,P|417:292|429:349,1,110
80,150,153493,2,0,P|95:92|83:35,1,110
195,32,153715,1,4,0:0:0:0:
286,93,153826,1,0,0:0:0:0:
394,76,153937,2,0,B|450:118|450:165,1,110,4|0,0:0|0:0,0:0:0:0:
428,273,154159,2,0,P|387:326|383:374,1,110
84,111,154382,2,0,P|125:58|129:10,1,110
234,49,154604,1,4,0:0:0:0:
234,49,154715,1,0,0:0:0:0:
343,55,154826,6,0,P|351:115|407:131,1,110,4|0,0:0|0:0,0:0:0:0:
169,329,155048,2,0,P|161:269|105:253,1,110
456,146,155270,2,0,B|440:73|440:73|396:60,1,110,4|0,0:0|0:0,0:0:0:0:
56,238,155493,2,0,B|72:311|72:311|116:324,1,110
145,22,155715,1,4,0:0:0:0:
425,81,155937,1,4,0:0:0:0:
366,361,156159,1,4,0:0:0:0:
86,302,156382,1,4,0:0:0:0:
256,192,156604,12,0,159937,0:0:0:0:
91,192,160159,5,0,0:0:0:0:
421,192,160270,1,0,0:0:0:0:
96,149,160381,1,0,0:0:0:0:
415,234,160492,1,0,0:0:0:0:
113,109,160603,1,0,0:0:0:0:
398,274,160714,1,0,0:0:0:0:
139,75,160825,1,0,0:0:0:0:
372,308,160936,1,0,0:0:0:0:
91,192,161047,5,0,0:0:0:0:
421,192,161158,1,0,0:0:0:0:
96,234,161269,1,0,0:0:0:0:
415,149,161380,1,0,0:0:0:0:
113,274,161491,1,0,0:0:0:0:
398,109,161602,1,0,0:0:0:0:
139,308,161713,1,0,0:0:0:0:
372,75,161824,1,0,0:0:0:0:
256,357,161936,5,0,0:0:0:0:
256,357,162047,1,0,0:0:0:0:
256,27,162159,1,0,0:0:0:0:
256,27,162270,1,0,0:0:0:0:
91,192,162381,5,0,0:0:0:0:
91,192,162492,1,0,0:0:0:0:
421,192,162604,1,0,0:0:0:0:
421,192,162715,1,0,0:0:0:0:
139,75,162825,5,0,0:0:0:0:
372,308,162936,1,0,0:0:0:0:
139,75,163047,2,0,L|256:192,1,165.000006294251
372,308,163270,2,0,L|256:192,1,165.000006294251
256,192,163492,1,0,0:0:0:0:
256,192,163603,1,0,0:0:0:0:
256,27,163714,5,0,0:0:0:0:
256,357,163825,1,0,0:0:0:0:
298,32,163936,1,0,0:0:0:0:
213,351,164047,1,0,0:0:0:0:
338,49,164159,1,0,0:0:0:0:
173,334,164270,1,0,0:0:0:0:
372,75,164381,1,0,0:0:0:0:
139,308,164492,1,0,0:0:0:0:
398,109,164603,5,0,0:0:0:0:
113,274,164714,1,0,0:0:0:0:
415,149,164825,1,0,0:0:0:0:
96,234,164936,1,0,0:0:0:0:
421,192,165048,1,0,0:0:0:0:
91,192,165159,1,0,0:0:0:0:
415,234,165270,1,0,0:0:0:0:
96,149,165381,1,0,0:0:0:0:
398,274,165492,5,0,0:0:0:0:
113,109,165603,1,0,0:0:0:0:
372,308,165714,1,0,0:0:0:0:
139,75,165825,1,0,0:0:0:0:
338,334,165937,1,0,0:0:0:0:
173,49,166048,1,0,0:0:0:0:
298,351,166159,1,0,0:0:0:0:
213,32,166270,1,0,0:0:0:0:
256,357,166381,6,0,L|256:316,15,41.2500015735627
255,27,166936,1,0,0:0:0:0:
255,27,167047,1,0,0:0:0:0:
255,27,167159,1,0,0:0:0:0:
256,355,167270,5,0,0:0:0:0:
92,191,167381,1,0,0:0:0:0:
256,28,167492,1,0,0:0:0:0:
419,192,167603,1,0,0:0:0:0:
151,317,167714,1,0,0:0:0:0:
130,87,167825,1,0,0:0:0:0:
360,66,167936,1,0,0:0:0:0:
381,296,168047,1,0,0:0:0:0:
95,220,168159,5,0,0:0:0:0:
227,31,168270,1,0,0:0:0:0:
416,163,168381,1,0,0:0:0:0:
284,352,168492,1,0,0:0:0:0:
114,110,168603,1,0,0:0:0:0:
337,50,168714,1,0,0:0:0:0:
397,273,168825,1,0,0:0:0:0:
174,333,168936,1,0,0:0:0:0:
200,38,169047,5,0,0:0:0:0:
409,136,169158,1,0,0:0:0:0:
311,345,169269,1,0,0:0:0:0:
102,247,169380,1,0,0:0:0:0:
311,38,169492,1,0,0:0:0:0:
409,247,169603,1,0,0:0:0:0:
200,345,169714,1,0,0:0:0:0:
102,136,169825,1,0,0:0:0:0:
397,110,169936,5,0,0:0:0:0:
337,333,170047,1,0,0:0:0:0:
114,273,170158,1,0,0:0:0:0:
174,50,170269,1,0,0:0:0:0:
416,220,170381,1,0,0:0:0:0:
227,352,170492,1,0,0:0:0:0:
95,163,170603,1,0,0:0:0:0:
284,31,170714,1,0,0:0:0:0:
416,220,170825,6,0,L|255:191,1,165.000006294251
227,352,171047,2,0,L|257:191,1,165.000006294251
95,163,171270,2,0,L|257:193,1,165.000006294251
284,31,171492,2,0,L|255:193,1,165.000006294251
349,325,171714,6,0,L|256:190,1,165.000006294251
122,285,171936,2,0,L|257:192,1,165.000006294251
162,58,172159,2,0,L|256:193,1,165.000006294251
389,98,172381,2,0,L|254:192,1,165.000006294251
227,352,172603,6,0,L|257:191,1,165.000006294251
227,352,172936,1,0,0:0:0:0:
284,31,173048,2,0,L|255:193,1,165.000006294251
284,31,173381,1,0,0:0:0:0:
227,352,173492,2,0,L|232:333,7,20.6250007867813
248,294,173714,2,0,L|266:263,7,20.6250007867813
284,243,173936,2,0,L|299:227,10,20.6250007867813
334,205,174270,1,0,0:0:0:0:
192,36,174381,6,0,L|212:92,1,55
216,355,174603,2,0,L|232:298,1,55
304,36,174825,6,0,L|324:92,1,55
328,355,175047,2,0,L|344:297,1,55
101,102,175269,6,0,L|121:158,1,55
410,281,175492,2,0,L|390:225,1,55
218,366,175714,2,0,L|265:329,1,55
78,210,175936,2,0,L|127:243,1,55
388,73,176158,6,0,L|329:74,1,55
218,366,176381,2,0,L|265:329,1,55
183,28,176603,2,0,L|167:86,1,55
410,281,176825,2,0,L|390:225,1,55
78,210,177047,2,0,L|127:243,1,55
388,73,177269,2,0,L|329:74,1,55
218,366,177492,2,0,L|265:329,1,41.2500015735627
183,28,177603,2,0,L|167:86,1,41.2500015735627
410,281,177714,2,0,L|390:225,1,41.2500015735627
78,210,177825,2,0,L|127:243,1,41.2500015735627
276,192,177936,5,0,0:0:0:0:
452,60,178158,6,0,L|472:116,1,55
60,324,178381,2,0,L|40:268,1,55
442,337,178603,2,0,L|395:373,1,55
188,48,178825,5,0,0:0:0:0:
408,72,179047,2,0,L|360:100,1,55
80,156,179269,2,0,L|128:184,1,55
508,268,179492,2,0,L|460:296,1,55
180,352,179714,5,0,0:0:0:0:
351,37,179936,2,0,L|371:92,1,55
137,53,180158,2,0,L|196:51,1,55
88,261,180381,2,0,L|104:205,1,55
270,373,180603,2,0,L|221:340,15,41.2500015735627
277,353,181047,2,0,L|218:348,12,41.2500015735627
361,147,181492,6,0,L|374:90,1,55
242,305,181714,2,0,L|285:345,1,55
269,78,181936,2,0,L|226:38,1,55
347,260,182158,2,0,L|403:243,1,55
164,123,182381,2,0,L|108:140,1,55
361,147,182603,2,0,L|374:89,1,55
151,236,182825,2,0,L|138:294,1,55,0|0,0:0|0:0,0:0:0:0:
269,78,183047,2,0,L|226:38,1,55,0|0,0:0|0:0,0:0:0:0:
468,344,183158,1,0,0:0:0:0:
468,344,183214,1,0,0:0:0:0:
468,344,183269,6,0,L|511:379,1,55
134,283,183492,2,0,L|91:248,1,55
512,217,183714,2,0,L|570:226,1,55
195,331,183937,2,0,L|141:322,1,55
493,84,184158,2,0,L|545:64,1,55
273,343,184381,2,0,L|221:362,1,55
43,40,184603,2,0,L|0:4,2,55
95,57,184714,2,0,L|138:91,2,55
166,358,185047,6,0,L|236:333,1,55
346,26,185269,2,0,L|276:51,1,55
422,282,185492,2,0,L|397:212,1,55
90,102,185714,2,0,L|115:172,1,55
151,383,185825,1,0,0:0:0:0:
151,383,185881,1,0,0:0:0:0:
151,383,185936,2,0,L|232:354,1,55
360,0,186158,2,0,L|279:29,1,55
447,296,186381,2,0,L|418:215,1,55
64,87,186603,2,0,L|93:168,1,55
186,269,186714,1,0,0:0:0:0:
342,217,186825,6,0,L|366:181,15,41.2500015735627
317,256,187269,2,0,L|356:237,15,41.2500015735627
277,278,187714,6,0,L|320:281,15,41.2500015735627
231,278,188158,2,0,L|267:302,15,41.2500015735627
256,192,188603,12,0,190380,0:0:0:0:
232,176,194825,6,0,P|180:127|236:172,3,220
235,172,195269,2,0,P|287:221|231:176,3,220
314,72,195714,5,0,0:0:0:0:
335,71,195769,1,0,0:0:0:0:
357,73,195825,1,0,0:0:0:0:
378,80,195880,1,0,0:0:0:0:
397,92,195936,1,0,0:0:0:0:
412,107,195991,1,0,0:0:0:0:
423,126,196047,1,0,0:0:0:0:
431,147,196102,1,0,0:0:0:0:
430,165,196158,1,0,0:0:0:0:
413,179,196214,1,0,0:0:0:0:
398,195,196269,1,0,0:0:0:0:
388,214,196325,1,0,0:0:0:0:
382,236,196380,1,0,0:0:0:0:
380,257,196436,1,0,0:0:0:0:
382,279,196491,1,0,0:0:0:0:
387,301,196547,1,0,0:0:0:0:
224,308,196602,5,0,0:0:0:0:
209,325,196657,1,0,0:0:0:0:
187,335,196713,1,0,0:0:0:0:
164,335,196768,1,0,0:0:0:0:
143,324,196824,1,0,0:0:0:0:
129,306,196879,1,0,0:0:0:0:
124,283,196935,1,0,0:0:0:0:
130,260,196990,1,0,0:0:0:0:
197,104,197047,2,0,P|200:101|276:175,3,165.000006294251
276,174,197269,2,0,P|273:177|197:103,3,165.000006294251
352,44,197491,5,0,0:0:0:0:
371,53,197546,1,0,0:0:0:0:
390,65,197602,1,0,0:0:0:0:
406,80,197657,1,0,0:0:0:0:
420,97,197713,1,0,0:0:0:0:
431,116,197768,1,0,0:0:0:0:
439,136,197824,1,0,0:0:0:0:
444,157,197879,1,0,0:0:0:0:
446,179,197935,1,0,0:0:0:0:
444,201,197991,1,0,0:0:0:0:
439,223,198046,1,0,0:0:0:0:
431,243,198102,1,0,0:0:0:0:
420,262,198157,1,0,0:0:0:0:
406,279,198213,1,0,0:0:0:0:
390,294,198268,1,0,0:0:0:0:
372,306,198324,1,0,0:0:0:0:
257,186,198380,5,0,0:0:0:0:
247,166,198435,1,0,0:0:0:0:
235,147,198491,1,0,0:0:0:0:
221,131,198546,1,0,0:0:0:0:
203,117,198602,1,0,0:0:0:0:
185,106,198657,1,0,0:0:0:0:
164,98,198713,1,0,0:0:0:0:
143,93,198768,1,0,0:0:0:0:
121,91,198824,1,0,0:0:0:0:
99,93,198880,1,0,0:0:0:0:
77,98,198935,1,0,0:0:0:0:
57,106,198991,1,0,0:0:0:0:
38,117,199046,1,0,0:0:0:0:
21,131,199102,1,0,0:0:0:0:
6,147,199157,1,0,0:0:0:0:
0,165,199213,1,0,0:0:0:0:
108,291,199269,6,0,B|179:333|179:333|107:291,3,165.000006294251
271,265,199491,2,0,B|200:223|200:223|272:265,3,165.000006294251
420,344,199714,5,0,0:0:0:0:
411,323,199769,1,0,0:0:0:0:
403,303,199825,1,0,0:0:0:0:
395,282,199880,1,0,0:0:0:0:
390,262,199936,1,0,0:0:0:0:
400,242,199991,1,0,0:0:0:0:
410,223,200047,1,0,0:0:0:0:
421,203,200102,1,0,0:0:0:0:
429,184,200158,1,0,0:0:0:0:
425,162,200214,1,0,0:0:0:0:
418,141,200269,1,0,0:0:0:0:
407,122,200325,1,0,0:0:0:0:
392,106,200380,1,0,0:0:0:0:
373,95,200436,1,0,0:0:0:0:
352,89,200491,1,0,0:0:0:0:
330,87,200547,1,0,0:0:0:0:
169,59,200602,5,0,0:0:0:0:
162,81,200657,1,0,0:0:0:0:
150,101,200713,1,0,0:0:0:0:
133,118,200768,1,0,0:0:0:0:
114,131,200824,1,0,0:0:0:0:
92,139,200879,1,0,0:0:0:0:
68,142,200935,1,0,0:0:0:0:
45,139,200990,1,0,0:0:0:0:
176,248,201047,6,0,B|344:248|344:248|264:248|264:248|344:248|344:248|264:248|264:248|344:248|344:248|264:248|264:248|344:248|344:248|264:248|264:248|344:248|344:248|264:248|264:248|344:248|344:248|264:248|264:248|344:248|344:248|264:248|264:248|344:248|344:248|264:248|264:248|344:248|344:248|264:248|264:248|344:248|344:248|264:248|264:248|344:248|344:248|264:248|264:248|344:248|344:248|264:248|264:248|344:248|344:248|264:248|264:248|344:248|344:248|264:248|264:248|344:248|344:248|264:248|264:248|344:248|344:248|266:248,1,2640.00010070801
256,192,201936,12,0,202825,0:0:0:0:
192,192,209936,5,8,0:0:0:0:
192,192,210158,1,8,0:0:0:0:
192,192,210380,1,8,0:0:0:0:
192,192,210602,1,8,0:0:0:0:
192,192,210825,1,8,0:0:0:0:
192,192,211047,1,8,0:0:0:0:
192,192,211269,1,8,0:0:0:0:
192,192,211491,1,8,0:0:0:0:
192,192,211602,1,8,0:0:0:0:
320,192,211713,5,8,0:0:0:0:
320,192,211936,1,8,0:0:0:0:
320,192,212158,1,8,0:0:0:0:
320,192,212380,1,8,0:0:0:0:
320,192,212602,1,8,0:0:0:0:
320,192,212713,1,8,0:0:0:0:
320,192,212936,1,8,0:0:0:0:
320,192,213047,1,8,0:0:0:0:
320,192,213269,1,8,0:0:0:0:
320,192,213380,1,8,0:0:0:0:
320,192,213436,1,8,0:0:0:0:
192,192,213491,5,8,0:0:0:0:
192,192,213713,1,8,0:0:0:0:
192,192,213936,1,8,0:0:0:0:
192,192,214158,1,8,0:0:0:0:
192,192,214380,1,8,0:0:0:0:
192,192,214602,1,8,0:0:0:0:
192,192,214825,1,8,0:0:0:0:
192,192,214936,1,8,0:0:0:0:
192,192,215047,1,8,0:0:0:0:
192,192,215158,1,8,0:0:0:0:
256,192,215269,12,4,217047,0:0:0:0:
