osu file format v14

[General]
AudioFilename: audio.mp3
AudioLeadIn: 0
PreviewTime: 44011
Countdown: 0
SampleSet: Normal
StackLeniency: 0.2
Mode: 0
LetterboxInBreaks: 0
WidescreenStoryboard: 1

[Editor]
Bookmarks: 9431,16402,30301,44214,72040,85953,99866,127692,153779,181605,197257,211170,225083,238996,252909
DistanceSpacing: 0.7
BeatDivisor: 16
GridSize: 4
TimelineZoom: 1

[Metadata]
Title:Underneath It All
TitleUnicode:Underneath It All
Artist:No Doubt
ArtistUnicode:No Doubt
Creator:ezek
Version:ezek's HardBabe
Source:
Tags:reggae love Lady Saw Gwen Stefani Rock Steady The Singles Boom Box Alternative New Wave 90s BounceBabe CrystilonZ
BeatmapID:1091150
BeatmapSetID:513523

[Difficulty]
HPDrainRate:5
CircleSize:4.5
OverallDifficulty:5.5
ApproachRate:6.5
SliderMultiplier:2.2
SliderTickRate:1

[Events]
//Background and Video events
0,0,"Rawr.jpg",0,0
Video,0,"A Doubt.avi"
//Break Periods
//Storyboard Layer 0 (Background)
//Storyboard Layer 1 (Fail)
//Storyboard Layer 2 (Pass)
//Storyboard Layer 3 (Foreground)
Sprite,Foreground,Centre,"Reggaezek.png",320,240 F,0,7257,8127,0,1 M,0,8127,8996,300,275,695,240 F,0,8127,8996,1 R,0,8127,8996,0,1.57 F,0,8127,9431,1 S,0,8996,,0.7 M,0,8996,253778,695,240 R,0,8996,253778,1.57 F,0,9431,16388,1 F,0,16388,16823,1,0 F,0,29866,30301,0,1 F,0,44214,44649,1,0 F,0,71605,72040,0,1 F,0,85953,86388,1,0 F,0,99431,99866,0,1 F,0,127692,128127,1,0 F,0,153344,153779,0,1 F,0,181605,182039,1,0 F,0,196822,197257,0,1 F,0,211170,211604,1,0 F,0,224648,225083,0,1 F,0,238996,239430,1,0 F,0,252909,253343,0,1 M,0,254648,255083,695,240,300,275 R,0,254648,255083,1.57,0 F,0,257256,,1 F,0,257256,258126,1,0
Sprite,Foreground,Centre,"Reggaezek.png",320,240 L,9431,1 F,35,0,435,0.35,0 S,1,0,435,0.7,0.9 L,30301,1 F,35,0,435,0.35,0 S,1,0,435,0.7,0.9 L,72040,1 F,35,0,435,0.35,0 S,1,0,435,0.7,0.9 L,99866,1 F,35,0,435,0.35,0 S,1,0,435,0.7,0.9 L,153779,1 F,35,0,435,0.35,0 S,1,0,435,0.7,0.9 L,197257,1 F,35,0,435,0.35,0 S,1,0,435,0.7,0.9 L,225083,1 F,35,0,435,0.35,0 S,1,0,435,0.7,0.9 M,0,9431,,695,240 R,0,9431,,1.57
Sprite,Foreground,Centre,"ReggaeBabe.png",320,240 F,0,7257,8127,0,1 M,0,8127,8996,300,200,-45,245 F,0,8127,8996,1 R,0,8127,8996,0,-1.57 F,0,8996,9431,1,0 S,0,15953,,0.6 F,0,15953,16388,0,1 M,0,15953,253778,-45,245 R,0,15953,253778,-1.57 F,0,30301,30736,1,0 F,0,43779,44214,0,1 F,0,72040,72475,1,0 F,0,85518,85953,0,1 F,0,99866,100301,1,0 F,0,100301,127257,0 F,0,127257,127692,0,1 F,0,153779,154213,1,0 F,0,181170,181605,0,1 F,0,197257,197691,1,0 F,0,197691,210735,0 F,0,210735,211170,0,1 F,0,211170,225083,1 F,0,225083,225517,1,0 F,0,238561,238996,0,1 M,0,254648,255083,-45,245,300,200 R,0,254648,255083,-1.57,0 F,0,257256,,1 F,0,257256,258126,1,0
Sprite,Foreground,Centre,"ReggaeBabe.png",320,240 L,16388,1 F,35,0,435,0.35,0 S,1,0,435,0.6,0.7 L,44214,1 F,35,0,435,0.35,0 S,1,0,435,0.6,0.7 L,85953,1 F,35,0,435,0.35,0 S,1,0,435,0.6,0.7 L,127692,1 F,35,0,435,0.35,0 S,1,0,435,0.6,0.7 L,181605,1 F,35,0,435,0.35,0 S,1,0,435,0.6,0.7 L,211170,1 F,35,0,435,0.35,0 S,1,0,435,0.6,0.7 L,238996,1 F,35,0,435,0.35,0 S,1,0,435,0.6,0.7 M,0,16388,,300,200,-45,245 R,0,16388,,0,-1.57
//Storyboard Sound Samples

[TimingPoints]
9446,869.565217391304,4,1,1,45,1,0
15315,-66.6666666666667,4,1,1,45,0,0
16402,-100,4,1,1,45,0,0
127706,-133.333333333333,4,2,1,45,0,0
141619,-114.285714285714,4,1,1,40,0,0
149228,-114.285714285714,4,1,1,45,0,0
150967,-114.285714285714,4,1,1,50,0,0
153779,869.565217391304,4,1,1,45,1,0
156387,-66.6666666666667,4,1,1,45,0,0
157257,-100,4,1,1,45,0,0
197251,869.565217391304,4,1,1,45,1,0
253772,-100,4,1,1,15,0,0

[Colours]
Combo1 : 0,159,0
Combo2 : 255,0,0
Combo3 : 242,242,0

[HitObjects]
143,64,9446,6,0,P|197:51|219:92,1,110,4|0,0:2|2:0,0:0:0:0:
256,168,10098,1,0,2:0:0:0:
293,92,10315,2,0,P|320:48|369:64,1,110,0|0,0:0|2:0,0:0:0:0:
432,116,10967,1,0,2:0:0:0:
432,116,11185,2,0,B|428:156|428:156|440:192|440:192|436:224,1,110,0|0,0:0|2:0,0:0:0:0:
330,351,12054,2,0,L|298:307,1,55,0|0,0:0|2:0,0:0:0:0:
214,307,12489,2,0,L|182:351,1,55,0|0,2:0|2:0,0:0:0:0:
100,340,12924,6,0,P|84:284|100:236,1,110,0|0,0:0|2:0,0:0:0:0:
156,176,13576,1,0,2:0:0:0:
156,176,13793,2,0,P|172:120|156:72,1,110,0|0,0:0|2:0,0:0:0:0:
312,20,14663,2,0,P|296:76|312:124,1,110,0|0,0:0|2:0,0:0:0:0:
388,168,15315,6,0,L|412:188,3,27.5000010490418
316,220,15750,2,0,L|316:248,3,27.5000010490418
256,168,16185,1,4,3:0:0:0:
191,116,16402,6,0,P|145:117|105:70,1,110,0|0,0:0|2:0,0:0:0:0:
21,213,17272,2,0,P|67:212|107:259,1,110,0|0,0:0|2:0,0:0:0:0:
156,323,17924,1,0,2:0:0:0:
156,323,18141,2,0,L|157:204,2,110,0|0|0,0:0|2:0|0:0,0:0:0:0:
232,176,19445,2,0,L|231:285,1,110,0|0,2:0|0:0,0:0:0:0:
230,368,20098,5,0,2:0:0:0:
302,327,20315,2,0,L|360:356,2,55,0|0|0,2:0|2:0|0:0,0:0:0:0:
231,285,20967,1,0,2:0:0:0:
231,285,21402,1,0,2:0:0:0:
231,285,21619,2,0,L|139:227,1,110,0|0,0:0|2:0,0:0:0:0:
207,180,22272,2,0,L|114:121,1,110,0|0,2:0|2:0,1:0:0:0:
47,71,22924,1,0,2:0:0:0:
47,71,23359,6,0,P|31:130|53:179,1,110,0|0,0:0|2:0,0:0:0:0:
206,223,24228,2,0,P|222:171|204:120,1,110,0|0,0:0|2:0,0:0:0:0:
138,71,24880,1,0,2:0:0:0:
204,120,25098,2,0,L|320:62,1,110,0|0,0:0|2:0,0:0:0:0:
365,125,25750,2,0,L|432:90,1,55,0|0,2:0|0:0,0:0:0:0:
414,100,26402,1,0,2:0:0:0:
414,100,26837,6,0,B|404:180|459:202|450:266,1,165,0|0,0:0|2:0,0:0:0:0:
450,340,27706,2,0,P|416:334|400:322,2,55,0|0|0,0:0|2:0|2:0,0:0:0:0:
450,258,28359,2,0,B|459:202|404:180|414:100,1,165,0|0,2:0|2:0,0:0:0:0:
403,18,29228,1,0,2:0:0:0:
338,68,29445,2,0,B|311:105|280:80|245:124,1,110,4|0,0:0|2:0,0:0:0:0:
245,123,30315,6,0,P|193:136|140:123,1,110,0|0,0:0|2:0,0:0:0:0:
40,256,31185,2,0,P|92:243|145:256,1,110,0|0,0:0|2:0,0:0:0:0:
208,312,31837,1,0,2:0:0:0:
208,312,32054,2,0,P|260:325|313:312,1,110,0|0,0:0|2:0,0:0:0:0:
392,280,32706,1,0,2:0:0:0:
392,280,32924,2,0,B|412:228|412:228|392:176,1,110,0|0,0:0|2:0,0:0:0:0:
316,148,33576,1,0,2:0:0:0:
316,148,33793,6,0,B|296:96|296:96|316:44,1,110,0|0,0:0|2:0,0:0:0:0:
184,148,34663,1,0,1:0:0:0:
184,148,34880,2,0,B|204:200|204:200|184:252,1,110,0|0,2:0|2:0,0:0:0:0:
100,252,35532,2,0,P|84:200|100:148,1,110,0|0,0:0|2:0,0:0:0:0:
186,7,36402,2,0,P|196:34|214:52,1,55,0|0,0:0|2:0,0:0:0:0:
297,52,36837,2,0,P|316:32|326:7,1,55,0|0,2:0|2:0,0:0:0:0:
406,22,37272,6,0,P|390:71|350:114,1,110,0|0,0:0|2:0,0:0:0:0:
190,152,38141,1,0,0:0:0:0:
190,152,38359,2,0,P|152:191|134:243,1,110,0|0,2:0|2:0,0:0:0:0:
127,260,38902,1,0,2:0:0:0:
118,277,39011,2,0,P|66:297|18:277,2,110,0|0|0,0:0|2:0|0:0,0:0:0:0:
305,253,40315,1,0,2:0:0:0:
232,217,40532,1,0,2:0:0:0:
300,171,40750,6,0,P|352:151|400:171,1,110,0|0,0:0|2:0,0:0:0:0:
463,223,41402,1,0,2:0:0:0:
463,223,41619,2,0,P|479:175|463:119,1,110,0|0,0:0|2:0,0:0:0:0:
256,76,42489,5,0,0:0:0:0:
256,76,42598,1,0,3:0:0:0:
256,76,42706,1,0,3:0:0:0:
172,20,42924,1,4,3:0:0:0:
88,76,43141,1,0,0:0:0:0:
88,76,43250,1,0,3:0:0:0:
88,76,43359,1,2,3:0:0:0:
120,172,43576,1,0,0:0:0:0:
224,172,43793,1,4,0:0:0:0:
224,172,44228,6,0,P|300:159|326:78,1,165,0|0,0:0|2:0,0:0:0:0:
508,19,45098,2,0,P|430:33|404:107,1,165,0|0,0:0|2:0,0:0:0:0:
469,288,45967,2,0,P|456:211|375:186,1,165,0|0,0:0|2:0,0:0:0:0:
316,4,46837,2,0,P|330:81|404:107,1,165,0|0,0:0|2:0,0:0:0:0:
487,106,47706,5,0,0:0:0:0:
487,106,48359,1,0,2:0:0:0:
487,106,48576,2,0,L|325:175,1,165,0|0,0:0|2:0,0:0:0:0:
259,203,49445,2,0,P|216:196|155:225,1,110,0|0,0:0|2:0,0:0:0:0:
325,249,50098,2,0,P|367:255|429:227,1,110,0|0,2:0|2:0,0:0:0:0:
254,282,50750,1,0,2:0:0:0:
254,282,51185,6,0,L|153:326,2,110,0|0|0,0:0|2:0|0:0,0:0:0:0:
327,243,52272,2,0,P|354:230|385:231,1,55,0|0,2:0|2:0,0:0:0:0:
460,240,52706,1,0,2:0:0:0:
409,304,52924,2,0,L|423:134,1,165,0|0,0:0|2:0,0:0:0:0:
430,57,53793,1,0,0:0:0:0:
430,57,54228,1,0,2:0:0:0:
350,76,54445,1,0,2:0:0:0:
350,76,54554,1,0,2:0:0:0:
350,76,54663,6,0,L|336:240,1,165,0|0,0:0|2:0,0:0:0:0:
254,255,55532,2,0,L|268:91,1,165,0|0,0:0|2:0,0:0:0:0:
193,53,56402,2,0,P|144:73|91:53,1,110,0|0,0:0|2:0,0:0:0:0:
268,90,57054,1,0,2:0:0:0:
365,10,57272,2,0,P|315:-7|265:12,1,110,4|0,2:0|2:0,0:0:0:0:
268,90,57924,1,0,2:0:0:0:
268,90,58141,6,0,B|296:167|296:167|373:198,1,165,0|0,0:0|2:0,0:0:0:0:
446,376,59011,2,0,B|418:299|418:299|341:268,1,165,0|0,0:0|2:0,0:0:0:0:
162,340,59880,2,0,B|239:312|239:312|270:235,1,165,0|0,0:0|2:0,0:0:0:0:
448,162,60750,2,0,B|371:190|371:190|340:267,1,165,0|0,0:0|2:0,0:0:0:0:
309,344,61619,5,0,0:0:0:0:
309,344,62272,1,0,2:0:0:0:
309,344,62489,2,0,B|277:304|341:224|309:184,1,165,0|0,0:0|2:0,0:0:0:0:
304,102,63359,2,0,B|376:61|376:61|408:61,1,110,0|0,0:0|2:0,0:0:0:0:
231,148,64011,2,0,B|159:189|159:189|127:189,1,110,0|0,0:0|2:0,0:0:0:0:
215,67,64663,1,0,2:0:0:0:
215,67,65098,6,0,P|162:68|121:32,2,110,0|0|0,0:0|2:0|0:0,0:0:0:0:
298,67,66185,2,0,L|354:67,1,55,0|0,2:0|2:0,0:0:0:0:
435,68,66619,1,0,2:0:0:0:
435,68,66837,2,0,B|410:124|460:174|438:230,1,165,0|0,0:0|2:0,0:0:0:0:
428,311,67706,1,0,0:0:0:0:
377,376,67924,1,0,2:0:0:0:
377,376,68032,1,0,2:0:0:0:
377,376,68141,1,0,2:0:0:0:
346,301,68359,1,0,2:0:0:0:
346,301,68576,6,0,B|368:245|318:195|343:139,1,165,0|0,0:0|2:0,0:0:0:0:
260,137,69445,2,0,B|235:193|285:243|263:299,1,165,0|0,0:0|2:0,0:0:0:0:
190,337,70315,1,0,0:0:0:0:
107,333,70532,1,0,2:0:0:0:
50,272,70750,1,0,2:0:0:0:
51,189,70967,1,0,2:0:0:0:
51,189,71185,2,0,B|66:150|31:116|48:78,1,110,0|0,0:0|2:0,0:0:0:0:
127,105,71837,1,0,2:0:0:0:
127,105,72054,6,0,P|182:106|214:67,1,110,0|0,0:0|2:0,0:0:0:0:
297,66,72706,2,0,P|331:106|385:105,2,110,0|0|0,2:0|2:0|2:0,0:0:0:0:
214,66,73793,2,0,P|180:106|127:105,1,110,0|0,0:0|2:0,0:0:0:0:
46,81,74445,1,0,2:0:0:0:
60,164,74663,2,0,L|72:220,1,55,0|0,0:0|2:0,0:0:0:0:
152,240,75098,2,0,L|164:296,1,55,0|0,2:0|2:0,0:0:0:0:
204,368,75532,6,0,B|256:348|256:348|308:368,1,110,0|0,0:0|2:0,0:0:0:0:
416,244,76402,2,0,P|432:192|416:140,1,110,0|0,0:0|2:0,0:0:0:0:
332,140,77054,2,0,P|316:192|332:244,1,110,0|0,2:0|2:0,0:0:0:0:
376,312,77706,1,0,3:0:0:0:
301,347,77924,1,0,2:0:0:0:
252,280,78141,1,2,3:0:0:0:
252,280,78250,1,0,3:0:0:0:
252,280,78359,1,0,3:0:0:0:
211,347,78576,1,0,2:0:0:0:
136,312,78793,1,0,2:0:0:0:
69,244,79011,6,0,P|53:192|69:140,1,110,0|0,0:0|2:0,0:0:0:0:
132,192,79663,2,0,L|244:192,1,110,0|0,2:0|2:0,0:0:0:0:
324,192,80315,1,0,2:0:0:0:
392,146,80532,1,0,2:0:0:0:
348,76,80750,2,0,P|296:60|244:76,1,110,0|0,0:0|2:0,0:0:0:0:
204,148,81402,1,0,2:0:0:0:
204,148,81619,2,0,P|152:163|100:147,1,110,0|0,0:0|2:0,0:0:0:0:
40,92,82272,1,0,2:0:0:0:
40,92,82489,6,0,P|55:144|39:196,2,110,0|0|0,0:0|2:0|0:0,0:0:0:0:
4,20,83576,1,0,2:0:0:0:
164,52,84011,1,0,2:0:0:0:
164,52,84228,2,0,L|276:52,1,110,0|0,0:0|2:0,0:0:0:0:
352,84,84880,1,0,2:0:0:0:
352,84,85098,2,0,B|372:132|372:132|352:188,1,110,0|0,0:0|2:0,0:0:0:0:
304,252,85750,1,0,2:0:0:0:
306,334,85967,6,0,P|356:313|384:268,2,110,0|0|0,0:0|2:0|0:0,0:0:0:0:
223,335,87054,2,0,L|163:341,1,55,0|0,2:0|2:0,0:0:0:0:
105,287,87489,1,0,2:0:0:0:
168,340,87706,1,0,0:0:0:0:
98,190,88141,1,0,2:0:0:0:
51,348,88576,1,0,0:0:0:0:
181,247,89011,1,0,2:0:0:0:
181,247,89445,6,0,L|348:230,1,165,0|0,0:0|2:0,0:0:0:0:
372,152,90315,1,0,0:0:0:0:
372,152,90750,2,0,L|315:158,1,55,0|0,2:0|2:0,0:0:0:0:
163,99,91185,2,0,L|327:82,1,165,0|0,0:0|2:0,0:0:0:0:
409,76,92054,2,0,P|437:68|455:48,2,55,0|0|0,0:0|2:0|2:0,0:0:0:0:
409,76,92924,5,0,0:0:0:0:
409,76,93359,2,0,L|400:188,1,110,0|0,2:0|0:0,0:0:0:0:
392,268,94011,1,0,2:0:0:0:
392,268,94228,2,0,P|343:253|308:297,1,110,0|0,2:0|0:0,0:0:0:0:
155,355,95098,2,0,L|79:271,1,110,0|0,2:0|0:0,0:0:0:0:
116,198,95750,1,0,2:0:0:0:
116,198,95967,2,0,P|67:177|56:126,1,110,0|0,2:0|0:0,0:0:0:0:
56,126,96837,5,0,2:0:0:0:
198,43,97272,1,0,0:0:0:0:
201,208,97706,1,0,2:0:0:0:
343,125,98141,1,0,0:0:0:0:
324,222,98359,1,0,3:0:0:0:
324,222,98467,1,0,3:0:0:0:
324,222,98576,1,4,3:0:0:0:
405,277,98793,2,0,L|397:307,2,27.5,0|0|4,3:0|3:0|3:0,3:0:0:0:
479,212,99228,1,2,3:0:0:0:
444,116,99445,1,4,0:2:0:0:
444,116,99880,6,0,L|279:79,1,165,0|0,0:0|2:0,0:0:0:0:
115,175,100750,2,0,L|280:212,1,165,0|0,0:0|2:0,0:0:0:0:
444,116,101619,2,0,L|279:79,1,165,0|0,0:0|2:0,0:0:0:0:
115,175,102489,2,0,L|280:212,1,165,0|0,0:0|2:0,0:0:0:0:
355,231,103359,5,0,0:0:0:0:
355,231,103793,2,0,L|411:243,1,55,0|0,2:0|2:0,2:0:0:0:
476,192,104228,2,0,P|504:116|476:40,1,165,0|0,0:0|2:0,0:0:0:0:
424,104,105098,2,0,P|376:120|320:104,1,110,0|0,0:0|2:0,0:0:0:0:
164,40,105750,2,0,P|212:24|268:40,1,110,0|0,2:0|2:0,0:0:0:0:
320,104,106402,1,0,2:0:0:0:
180,192,106837,6,0,B|124:204|128:180|72:192,2,110,0|0|0,0:0|2:0|0:0,0:0:0:0:
256,164,107924,2,0,P|260:192|256:220,1,55,0|0,2:0|2:0,2:0:0:0:
216,292,108359,1,0,2:0:0:0:
216,292,108576,2,0,B|256:292|292:320|292:320|328:292|368:292,1,165,0|0,0:0|2:0,0:0:0:0:
452,292,109445,1,0,0:0:0:0:
452,292,109880,1,0,2:0:0:0:
408,224,110098,1,0,2:0:0:0:
408,224,110206,1,0,2:0:0:0:
408,224,110315,6,0,P|368:152|408:84,1,165,0|0,0:0|2:0,0:0:0:0:
476,44,111185,2,0,P|404:84|336:44,1,165,0|0,0:0|2:0,0:0:0:0:
268,4,112054,2,0,L|148:16,1,110,0|0,0:0|2:0,2:0:0:0:
64,152,112706,2,0,L|184:140,1,110,0|0,2:0|2:0,2:0:0:0:
256,128,113359,1,0,2:0:0:0:
256,128,113793,6,0,P|288:200|256:276,1,165,0|0,0:0|2:0,0:0:0:0:
76,344,114663,2,0,P|44:272|76:196,1,165,0|0,0:0|2:0,0:0:0:0:
256,128,115532,2,0,L|420:144,1,165,0|0,0:0|2:0,0:0:0:0:
493,323,116402,2,0,L|329:307,1,165,0|0,0:0|2:0,0:0:0:0:
246,300,117272,5,0,0:0:0:0:
246,300,117706,2,0,P|250:328|246:356,1,55,0|0,2:0|2:0,2:0:0:0:
167,328,118141,2,0,P|135:256|167:180,1,165,0|0,0:0|2:0,0:0:0:0:
236,137,119011,2,0,B|288:117|288:117|340:137,1,110,0|0,0:0|2:0,0:0:0:0:
504,176,119663,2,0,B|452:196|452:196|400:176,1,110,0|0,2:0|2:0,0:0:0:0:
452,112,120315,1,0,2:0:0:0:
452,112,120750,6,0,L|452:0,2,110,0|0|0,0:0|2:0|0:0,0:0:0:0:
504,176,121837,2,0,L|504:232,1,55,0|0,2:0|2:0,2:0:0:0:
461,302,122272,1,0,2:0:0:0:
461,302,122489,2,0,P|408:284|359:302,2,110,0|0|0,0:0|2:0|0:0,0:0:0:0:
410,367,123576,1,0,2:0:0:0:
410,367,123685,1,0,2:0:0:0:
410,367,123793,1,0,2:0:0:0:
324,364,124011,1,0,2:0:0:0:
324,364,124119,1,0,2:0:0:0:
324,364,124228,6,0,B|260:364|260:364|216:376|216:376|160:376,1,165,0|0,0:0|2:0,0:0:0:0:
140,296,125098,2,0,B|204:296|204:296|248:284|248:284|304:284,1,165,0|0,0:0|2:0,0:0:0:0:
395,284,125967,1,0,0:0:0:0:
419,196,126185,1,0,2:0:0:0:
347,140,126402,1,0,2:0:0:0:
275,196,126619,1,0,2:0:0:0:
303,284,126837,1,0,0:0:0:0:
160,204,127272,2,0,L|100:204,1,55
22,204,127706,6,0,P|30:138|16:80,1,123.750004720688,2|0,0:0|0:0,0:0:0:0:
84,35,128576,2,0,L|129:110,1,82.5000031471254
201,71,129228,1,0,0:0:0:0:
201,71,129445,2,0,L|246:146,1,82.5000031471254,2|0,0:0|0:0,0:0:0:0:
320,112,130098,2,0,L|365:187,1,82.5000031471254
446,325,130967,1,0,0:0:0:0:
446,325,131185,6,0,B|393:319|374:356|313:348,1,123.750004720688,2|0,0:0|0:0,0:0:0:0:
243,342,132054,2,0,P|257:310|253:275,2,61.875002360344
172,298,132924,2,0,P|178:253|164:212,1,82.5000031471254,2|0,0:0|0:0,0:0:0:0:
104,163,133576,2,0,L|166:99,1,82.5000031471254
161,103,134445,1,0,0:0:0:0:
219,44,134663,6,0,P|272:55|336:29,1,123.750004720688,2|0,0:0|0:0,0:0:0:0:
417,31,135532,2,0,P|448:50|482:51,2,61.875002360344
334,29,136402,2,0,P|326:70|343:109,1,82.5000031471254,2|0,0:0|0:0,0:0:0:0:
429,209,137054,2,0,P|436:168|421:131,2,82.5000031471254
351,179,138141,6,0,B|327:199|327:199|304:299|304:299|279:322,1,165.000006294251,2|0,0:0|0:0,0:0:0:0:
281,320,139445,1,0,0:0:0:0:
205,352,139663,2,0,P|195:311|169:280,1,82.5000031471254,2|2,0:0|0:0,0:0:0:0:
68,150,140532,2,0,P|77:189|103:221,2,82.5000031471254,2|2|2,0:0|0:0|0:0,0:0:0:0:
154,152,141619,6,0,P|164:101|203:79,1,96.2500009179115,2|0,0:2|0:0,0:0:0:0:
371,57,142489,2,0,P|361:108|322:130,1,96.2500009179115
242,153,143141,1,0,0:0:0:0:
242,153,143359,2,0,L|281:57,3,96.2500009179115,2|0|0|0,0:2|0:0|0:0|0:0,0:0:0:0:
450,42,145098,5,2,0:2:0:0:
479,212,145532,1,0,0:0:0:0:
306,232,145967,2,0,L|263:328,1,96.2500009179115
221,221,146619,2,0,L|178:317,3,96.2500009179115,2|2|2|2,0:2|0:2|0:2|0:2,0:2:0:0:
95,296,148141,2,0,L|134:208,1,96.2500009179115,0|2,0:2|0:2,0:2:0:0:
198,47,149011,1,0,0:0:0:0:
198,47,149228,6,0,P|250:63|295:50,1,96.2500009179115,2|0,0:2|0:0,0:0:0:0:
454,91,149880,2,0,P|409:75|362:84,1,96.2500009179115,2|0,0:2|0:0,0:0:0:0:
295,132,150532,1,0,0:0:0:0:
295,132,150967,2,0,P|254:158|238:207,1,96.2500009179115,2|0,0:2|0:0,0:0:0:0:
106,286,151619,2,0,P|146:260|162:216,1,96.2500009179115,2|0,0:2|0:0,0:0:0:0:
256,192,152272,12,0,153359,3:0:0:0:
256,104,153779,6,0,L|256:48,2,55,0|0|0,1:0|2:0|2:0,2:0:0:0:
116,192,154648,1,0,0:0:0:0:
116,192,154865,2,0,P|100:244|116:296,1,110,0|0,2:0|2:0,2:0:0:0:
176,352,155518,2,0,L|288:352,1,110,0|0,0:0|2:0,0:0:0:0:
408,248,156387,6,0,L|436:248,6,27.5000010490418,0|0|0|0|0|0|0,3:0|3:0|3:0|3:0|3:0|3:0|3:0,3:0:0:0:
368,160,157039,1,0,2:0:0:0:
368,160,157257,6,0,P|416:144|472:160,2,110,0|0|0,0:0|2:0|0:0,0:0:0:0:
300,204,158344,1,0,2:0:0:0:
228,160,158561,2,0,L|164:160,1,55,0|0,2:0|2:0,2:0:0:0:
108,212,158996,2,0,P|92:164|108:108,2,110,0|0|0,0:0|2:0|0:0,0:0:0:0:
171,265,160083,2,0,B|215:297|215:297|215:353,1,110,0|0,2:0|2:0,2:0:0:0:
297,353,160735,6,0,B|297:297|297:297|341:265,1,110,0|0,0:0|2:0,2:0:0:0:
404,212,161387,1,0,2:0:0:0:
404,212,161605,2,0,B|404:176|420:160|420:160|404:144|404:108,1,110,0|0,0:0|2:0,0:0:0:0:
340,56,162257,1,0,2:0:0:0:
280,112,162474,2,0,L|224:112,1,55,0|0,0:0|2:0,2:0:0:0:
192,188,162909,2,0,L|248:188,1,55,0|0,2:0|2:0,2:0:0:0:
272,268,163344,2,0,P|220:284|168:268,1,110,0|0,0:0|2:0,0:0:0:0:
98,223,163996,1,0,2:0:0:0:
247,188,164213,6,0,P|299:172|351:188,1,110,0|0,0:0|2:0,0:0:0:0:
420,236,164865,1,0,2:0:0:0:
420,236,165083,2,0,L|476:236,1,55,0|0,0:0|2:0,2:0:0:0:
440,312,165518,2,0,L|384:312,1,55,0|0,2:0|2:0,2:0:0:0:
308,280,165952,2,0,B|332:312|332:312|352:344|340:380,2,110,0|0|0,0:0|2:0|0:0,0:0:0:0:
244,228,167039,1,0,2:0:0:0:
244,228,167257,2,0,L|188:228,1,55,0|0,2:0|2:0,2:0:0:0:
124,180,167692,6,0,B|100:148|100:148|80:116|92:80,2,110,0|0|0,0:0|2:0|0:0,0:0:0:0:
200,148,168779,2,0,L|168:100,2,55,0|0|0,2:0|2:0|2:0,2:0:0:0:
264,96,169431,2,0,B|244:61|244:61|223:29|185:26,2,110,0|0|0,0:0|2:0|0:0,0:0:0:0:
400,192,170735,1,0,2:0:0:0:
400,192,170952,1,0,2:0:0:0:
400,192,171170,6,0,B|400:228|416:244|416:244|400:260|400:296,1,110,0|0,0:0|2:0,0:0:0:0:
332,340,171822,1,0,2:0:0:0:
264,296,172039,2,0,L|208:296,1,55,0|0,0:0|2:0,0:0:0:0:
168,224,172474,2,0,L|228:224,1,55,0|0,2:0|2:0,2:0:0:0:
280,164,172909,2,0,B|300:112|300:112|280:60,1,110,0|0,0:0|2:0,0:0:0:0:
360,32,173561,1,0,2:0:0:0:
360,32,173779,2,0,B|379:84|379:84|429:109,1,110,0|0,0:0|2:0,0:0:0:0:
504,144,174431,1,0,2:0:0:0:
412,208,174648,6,0,B|356:208|356:208|316:244,1,110,0|0,0:0|2:0,0:0:0:0:
256,300,175300,1,0,2:0:0:0:
196,244,175518,2,0,B|156:208|156:208|100:208,1,110,0|0,0:0|2:0,0:0:0:0:
36,260,176170,1,0,2:0:0:0:
36,260,176387,2,0,P|20:208|36:156,2,110,0|0|0,0:0|2:0|0:0,0:0:0:0:
204,336,177692,1,0,2:0:0:0:
204,336,177909,1,0,2:0:0:0:
204,336,178126,6,0,B|256:353|256:353|308:336,1,110,0|0,0:0|2:0,0:0:0:0:
371,281,178779,1,0,2:0:0:0:
308,228,178996,2,0,P|256:243|204:228,1,110,0|0,0:0|2:0,0:0:0:0:
256,144,179648,1,0,2:0:0:0:
256,144,179865,2,0,B|272:88|244:88|256:36,1,110,0|2,0:0|3:0,0:0:0:0:
336,64,180518,1,2,3:0:0:0:
176,64,180735,1,0,1:0:0:0:
256,280,181170,1,2,3:0:0:0:
300,352,181387,1,0,0:0:0:0:
212,352,181605,5,4,0:2:0:0:
212,352,182039,1,0,2:0:0:0:
212,352,182257,2,0,P|164:332|140:280,1,110,2|0,2:0|2:0,2:0:0:0:
8,184,183126,2,0,P|56:164|109:184,1,110,2|0,2:0|2:0,2:0:0:0:
272,212,183996,2,0,P|224:192|199:139,1,110,2|0,2:0|2:0,2:0:0:0:
192,60,184648,1,0,2:0:0:0:
268,97,184865,1,0,2:0:0:0:
268,97,185083,6,0,L|384:89,2,110,2|0|0,0:2|2:2|0:2,0:2:0:0:
200,141,186170,2,0,L|84:149,1,110,0|0,2:0|2:0,2:0:0:0:
24,200,186822,1,2,0:2:0:0:
24,200,187257,1,0,2:2:0:0:
24,200,187474,2,0,L|56:244,1,55,0|2,2:2|0:2,0:2:0:0:
34,324,187909,2,0,L|66:368,1,55,2|0,2:2|2:2,2:2:0:0:
231,372,188561,5,0,0:0:0:0:
231,372,188996,1,0,2:0:0:0:
231,372,189213,2,0,B|277:341|277:341|333:344,1,110,2|0,2:0|2:0,2:0:0:0:
495,323,190083,1,0,2:0:0:0:
495,323,190300,2,0,B|440:312|440:312|403:270,1,110,2|0,0:2|2:0,0:0:0:0:
351,208,190952,1,0,2:0:0:0:
280,159,191170,2,0,B|312:207|312:207|304:263,1,110,0|0,0:0|2:0,0:0:0:0:
256,313,191822,1,0,2:0:0:0:
191,364,192039,6,0,B|160:318|160:318|163:261,1,110,2|0,0:2|2:2,0:2:0:0:
87,228,192692,2,0,B|89:173|89:173|58:127,2,110,2|2|2,2:2|2:2|2:2,2:2:0:0:
76,310,193779,1,4,0:1:0:0:
256,192,193996,12,2,197251,2:2:0:0:
168,300,198120,6,0,P|256:356|344:300,1,220,2|2,2:0|2:0,2:0:0:0:
404,244,199207,2,0,L|392:188,2,55,0|0|0,2:0|2:0|2:0,2:0:0:0:
472,292,199859,2,0,L|484:348,2,55,2|0|0,2:0|2:0|2:0,2:0:0:0:
508,216,200511,1,0,2:0:0:0:
508,216,200729,6,0,B|528:108|528:108|508:0,1,220,2|2,2:0|2:0,2:0:0:0:
428,24,201816,1,0,2:0:0:0:
348,44,202033,1,0,2:0:0:0:
268,64,202251,1,0,2:0:0:0:
268,64,202468,2,0,P|216:51|164:68,1,110,2|0,2:0|2:0,2:0:0:0:
136,146,203120,2,0,P|168:188|220:206,1,110,2|0,2:0|2:0,2:0:0:0:
268,140,203772,1,0,2:0:0:0:
268,140,204207,6,0,L|328:140,2,55,2|0|0,2:0|2:0|2:0,2:0:0:0:
228,212,204859,1,0,2:0:0:0:
228,212,205077,2,0,L|448:212,1,220,2|2,2:0|2:0,2:0:0:0:
464,292,206164,2,0,P|500:276|511:264,2,55,0|0|0,2:0|2:0|2:0,2:0:0:0:
388,328,206816,2,0,L|324:328,1,55,2|0,2:0|2:0,2:0:0:0:
256,356,207251,1,0,2:0:0:0:
256,356,207468,1,0,2:0:0:0:
256,356,207685,6,0,P|220:280|96:280,1,220,2|2,2:0|2:0,2:0:0:0:
236,164,208990,1,0,2:0:0:0:
236,164,209207,1,0,2:0:0:0:
236,164,209424,2,0,B|216:112|216:112|236:60,1,110
332,12,210077,2,0,B|352:64|352:64|332:116,1,110,0|0,0:0|2:0,0:0:0:0:
292,200,210729,1,0,0:0:0:0:
376,242,210946,1,2,3:0:0:0:
275,286,211164,6,0,B|197:277|197:277|146:207,1,165,0|0,0:0|2:0,0:0:0:0:
44,44,212033,2,0,B|122:53|122:53|173:123,1,165,0|0,0:0|2:0,0:0:0:0:
360,166,212903,2,0,B|298:214|298:214|212:201,1,165,0|0,0:0|2:0,0:0:0:0:
26,159,213772,2,0,B|87:110|87:110|173:123,1,165,0|0,0:0|2:0,0:0:0:0:
254,127,214642,5,0,0:0:0:0:
254,127,215294,1,0,2:0:0:0:
254,127,215511,2,0,P|304:169|397:149,1,165,0|0,0:0|2:0,0:0:0:0:
469,112,216381,2,0,B|477:173|477:173|511:207,1,110,0|0,0:0|2:0,0:0:0:0:
511,373,217033,2,0,B|503:312|503:312|469:278,1,110,0|0,2:0|2:0,2:0:0:0:
406,224,217685,1,0,2:0:0:0:
406,224,218120,6,0,P|386:273|401:327,2,110,0|0|0,0:0|2:0|0:0,0:0:0:0:
455,157,219207,2,0,P|468:124|458:88,1,55,0|0,2:0|2:0,2:0:0:0:
447,25,219642,1,0,2:0:0:0:
384,78,219859,2,0,B|388:118|370:147|370:147|329:165|309:222,1,165,0|0,0:0|2:0,0:0:0:0:
277,291,220729,1,0,0:0:0:0:
195,278,220946,1,0,2:0:0:0:
195,278,221055,1,0,2:0:0:0:
195,278,221164,1,0,2:0:0:0:
229,203,221381,1,0,2:0:0:0:
229,203,221598,6,0,B|225:163|243:134|243:134|284:116|304:59,1,165,0|0,0:0|2:0,0:0:0:0:
374,104,222468,2,0,B|378:144|360:173|360:173|319:191|301:242,1,165,0|0,0:0|2:0,0:0:0:0:
228,280,223337,2,0,P|177:293|147:341,1,110,0|0,0:0|2:0,0:0:0:0:
227,363,223990,1,0,2:0:0:0:
379,263,224207,2,0,P|350:309|299:323,1,110,0|0,0:0|2:0,0:0:0:0:
228,280,224859,1,0,2:0:0:0:
364,194,225077,6,0,P|416:201|448:245,2,110,0|0|0,0:0|2:0|0:0,0:0:0:0:
298,245,226164,1,0,2:0:0:0:
256,176,226381,1,0,2:0:0:0:
214,245,226598,1,0,2:0:0:0:
148,194,226816,2,0,P|96:201|64:245,2,110,0|0|0,0:0|2:0|0:0,0:0:0:0:
211,140,227903,1,0,2:0:0:0:
211,140,228011,1,0,2:0:0:0:
211,140,228120,1,0,2:0:0:0:
301,140,228337,1,0,2:0:0:0:
301,140,228446,1,0,2:0:0:0:
301,140,228555,6,0,B|355:151|355:151|408:140,2,110,0|0|0,0:0|2:0|0:0,0:0:0:0:
221,115,229642,1,0,2:0:0:0:
221,115,229859,2,0,P|216:86|221:62,1,55,0|0,2:0|2:0,2:0:0:0:
246,28,230185,1,0,2:0:0:0:
246,28,230294,2,0,L|130:34,1,110,0|0,0:0|2:0,0:0:0:0:
63,73,230946,2,0,L|15:172,1,110,0|0,2:0|2:0,2:0:0:0:
86,213,231598,2,0,P|116:204|156:200,1,68.75,0|0,2:0|2:0,2:0:0:0:
296,232,232033,6,0,P|256:264|216:232,1,110,0|0,0:0|2:0,0:0:0:0:
256,160,232685,1,0,2:0:0:0:
312,96,232903,2,0,L|304:40,1,55,0|0,0:0|2:0,0:0:0:0:
207,41,233337,2,0,L|200:96,1,55,0|0,2:0|2:0,2:0:0:0:
256,160,233772,2,0,L|256:272,2,110,0|0|0,0:0|2:0|0:0,0:0:0:0:
312,96,234859,2,0,L|305:41,2,55,0|0|0,2:0|2:0|2:0,2:0:0:0:
332,176,235511,6,0,P|347:228|332:280,1,110,0|0,0:0|2:0,0:0:0:0:
256,312,236164,1,0,2:0:0:0:
180,280,236381,2,0,P|165:228|180:176,1,110,0|0,0:0|2:0,0:0:0:0:
228,109,237033,1,0,2:0:0:0:
228,109,237142,1,0,2:0:0:0:
228,109,237251,2,0,L|118:90,1,110,0|0,0:0|2:0,2:0:0:0:
71,157,237903,2,0,L|181:176,1,110,0|0,2:0|2:0,2:0:0:0:
261,188,238555,1,0,2:0:0:0:
261,188,238772,1,2,3:0:0:0:
304,258,238990,6,0,P|338:282|439:235,1,165,0|0,0:0|2:0,2:0:0:0:
364,200,239859,2,0,L|396:366,1,165,0|0,0:0|2:0,0:0:0:0:
313,373,240729,2,0,L|281:210,1,165,0|0,1:0|2:0,2:0:0:0:
269,129,241598,2,0,B|221:105|165:153|101:129,1,165,0|0,0:0|2:0,0:0:0:0:
119,213,242468,6,0,B|177:235|233:187|281:211,1,165,0|0,0:0|2:0,2:0:0:0:
340,268,243337,2,0,B|400:324|400:324|479:302,1,165,0|0,0:0|2:0,0:0:0:0:
477,220,244207,2,0,B|424:234|424:234|383:196,1,110
328,135,244859,1,0,2:0:0:0:
408,112,245077,1,0,2:0:0:0:
396,89,245222,1,0,2:0:0:0:
386,65,245366,1,0,2:0:0:0:
378,41,245511,2,0,B|340:50|340:50|307:26,1,73.3333333333333,2|2,3:0|3:0,2:0:0:0:
257,30,245946,6,0,B|130:30|130:30|93:42,1,165,0|0,0:0|2:0,2:0:0:0:
12,52,246816,2,0,P|58:117|141:109,1,165,0|0,0:0|2:0,2:0:0:0:
178,183,247685,2,0,P|256:178|302:243,1,165,0|0,0:0|2:0,2:0:0:0:
233,288,248555,2,0,L|386:194,1,165,0|0,0:0|2:0,2:0:0:0:
442,156,249424,5,0,0:0:0:0:
367,121,249642,1,0,2:0:0:0:
434,73,249859,2,0,P|357:38|296:81,1,165,4|0,0:2|2:0,0:0:0:0:
242,141,250729,2,0,P|198:170|151:146,1,110,4|0,0:2|0:0,0:0:0:0:
29,35,251598,5,0,2:0:0:0:
101,74,251816,2,0,P|68:119|66:172,1,110,0|0,2:0|2:0,0:0:0:0:
94,320,252468,2,0,P|125:276|129:222,1,110,0|4,0:0|2:0,0:0:0:0:
129,222,253337,1,0,2:0:0:0:
256,192,253772,12,0,255511,2:0:0:0:
