osu file format v14

[General]
AudioFilename: audio.mp3
AudioLeadIn: 0
PreviewTime: 19510
Countdown: 0
SampleSet: Soft
StackLeniency: 0.7
Mode: 0
LetterboxInBreaks: 0
WidescreenStoryboard: 0

[Editor]
DistanceSpacing: 1.3
BeatDivisor: 4
GridSize: 16
TimelineZoom: 2.4

[Metadata]
Title:No Account Casino
TitleUnicode:No Account Casino
Artist:No Account Casino
ArtistUnicode:No Account Casino
Creator:Arbane
Version:big meme
Source:
Tags:
BeatmapID:1728297
BeatmapSetID:824744

[Difficulty]
HPDrainRate:6
CircleSize:5
OverallDifficulty:8.5
ApproachRate:9
SliderMultiplier:2.4
SliderTickRate:1

[Events]
//Background and Video events
0,0,"maxresdefault.jpg",0,0
//Break Periods
//Storyboard Layer 0 (Background)
//Storyboard Layer 1 (Fail)
//Storyboard Layer 2 (Pass)
//Storyboard Layer 3 (Foreground)
//Storyboard Sound Samples

[TimingPoints]
124,566.037735849057,4,2,0,5,1,0
1256,-200,4,2,0,40,0,0
6916,-200,4,2,0,60,0,0
8897,-100,4,2,0,60,0,0
9180,-200,4,2,0,60,0,0
13425,-100,4,2,0,60,0,0
14840,-1000,4,2,0,60,0,0
15972,-100,4,2,0,60,0,0
19935,-133.333333333333,4,2,0,60,0,0
20501,-50,4,2,0,60,0,1
20784,-200,4,2,0,60,0,1
21067,-50,4,2,0,60,0,1
21633,-66.6666666666667,4,2,0,60,0,1
22482,-100,4,2,0,60,0,1
22765,-50,4,2,0,60,0,1
23614,-200,4,2,0,60,0,1
23897,-50,4,2,0,60,0,1
24746,-200,4,2,0,60,0,1
25029,-50,4,2,0,60,0,1
26161,-66.6666666666667,4,2,0,60,0,1
27010,-100,4,2,0,60,0,1
27293,-66.6666666666667,4,2,0,50,0,0
27576,-80,4,2,0,50,0,0
27859,-100,4,2,0,50,0,0
28142,-133.333333333333,4,2,0,50,0,0
28425,-200,4,2,0,50,0,0
28991,-200,4,2,0,5,0,0

[HitObjects]
256,192,1256,12,0,4652,0:0:0:0:
29,118,4935,6,0,L|39:199,1,60,2|2,0:0|0:0,0:0:0:0:
126,45,5642,6,0,L|116:152,1,90,2|2,0:0|0:0,0:0:0:0:
117,134,6633,1,0,0:0:0:0:
146,296,6916,6,0,P|181:331|237:314,1,105,4|0,0:3|0:0,0:0:0:0:
247,256,7482,1,10,0:0:0:0:
224,122,7765,5,0,0:0:0:0:
224,122,7906,2,0,L|214:198,1,75,2|0,0:0|0:0,0:0:0:0:
289,144,8331,2,0,L|282:194,1,45,4|0,0:3|0:0,0:0:0:0:
352,176,8614,1,8,0:0:0:0:
457,188,8897,2,0,L|471:189,6,15
401,236,9180,6,0,P|366:271|383:327,1,105,4|0,0:3|0:0,0:0:0:0:
376,321,9746,2,0,P|381:277|366:251,1,75,10|0,0:0|0:0,0:0:0:0:
302,234,10171,6,0,L|225:240,1,75,2|0,0:0|0:0,0:0:0:0:
248,305,10596,2,0,L|293:302,1,45,4|0,0:3|0:0,0:0:0:0:
278,370,10879,1,10,0:0:0:0:
257,170,11161,1,2,0:0:0:0:
27,301,11444,5,4,0:3:0:0:
27,301,12010,1,8,0:0:0:0:
185,278,12435,6,0,B|173:251|173:251|146:276,1,60,2|0,0:0|0:0,0:0:0:0:
156,341,12859,1,4,0:3:0:0:
193,147,13142,1,8,0:0:0:0:
243,244,13425,2,0,L|248:258,6,15,0|0|0|0|4|0|0,0:0|0:0|0:0|0:0|0:3|0:0|0:0,0:0:0:0:
262,173,13708,5,4,0:3:0:0:
330,196,13991,5,2,0:0:0:0:
409,122,14416,5,2,0:0:0:0:
404,228,14840,6,0,P|415:246|414:271,1,45,4|0,0:3|0:0,3:0:0:0:
464,192,15972,5,4,1:0:0:0:
384,192,16538,1,0,1:0:0:0:
304,192,17104,5,0,1:0:0:0:
256,96,17388,1,0,1:0:0:0:
256,288,17671,1,0,1:0:0:0:
208,192,17954,1,0,1:0:0:0:
48,192,18237,5,0,1:0:0:0:
128,192,18378,1,0,1:0:0:0:
184,134,18520,5,0,1:0:0:0:
105,114,18661,1,0,1:0:0:0:
105,270,18803,5,0,1:0:0:0:
184,250,18944,1,0,1:0:0:0:
48,192,19086,6,0,L|18:192,3,30,0|0|0|0,1:0|1:0|1:0|1:0,1:0:0:0:
128,192,19369,5,4,1:3:0:0:
128,192,19935,6,0,P|106:157|186:150,1,157.500006008148,8|0,1:2|0:0,0:0:0:0:
250,185,20501,6,0,P|220:245|219:368,1,180,6|0,1:0|0:0,0:0:0:0:
230,365,20784,1,2,0:0:0:0:
89,132,21067,6,0,P|119:192|120:315,1,180,10|0,1:0|0:0,0:0:0:0:
107,312,21350,1,2,0:0:0:0:
24,272,21491,1,2,0:0:0:0:
205,252,21633,6,0,P|210:150|127:223,1,270.000010299683,0|2,1:0|0:0,0:0:0:0:
193,225,22199,2,0,P|195:173|153:210,1,135.000005149842,8|2,1:0|0:0,0:0:0:0:
147,288,22482,2,0,P|135:298|106:295,3,30,2|0|0|0,0:0|0:0|0:0|0:0,0:0:0:0:
193,225,22765,6,0,P|253:255|376:256,1,180,2|0,1:0|0:0,0:0:0:0:
353,234,23048,6,0,P|297:270|234:376,1,180,2|0,1:0|0:0,0:0:0:0:
265,368,23331,6,0,P|260:301|200:194,1,180,2|0,1:0|0:0,0:0:0:0:
123,186,23614,6,2,P|117:209|135:236,1,45,0|0,1:0|0:0,0:1:0:0:
208,202,23897,6,0,P|238:142|239:19,1,180,2|0,1:0|0:0,0:0:0:0:
223,21,24180,1,2,0:0:0:0:
299,186,24321,6,0,P|330:136|303:60,1,120,0|8,1:0|1:0,1:0:0:0:
319,78,24746,6,0,P|343:92|371:86,1,45,2|0,0:0|0:0,0:0:0:0:
461,32,25029,6,0,P|431:92|430:215,1,180,2|0,1:0|0:0,0:0:0:0:
441,212,25312,1,2,0:0:0:0:
236,125,25595,6,0,P|266:185|267:308,1,180,2|0,1:0|0:0,0:0:0:0:
256,305,25878,1,2,0:0:0:0:
169,264,26020,1,2,0:0:0:0:
343,193,26161,6,0,B|344:260|269:296|269:296|352:291|385:350,1,270.000010299683,0|0,1:0|0:0,0:0:0:0:
346,234,26727,2,0,B|346:267|309:285|309:285|350:283|367:312,1,135.000005149842,8|0,1:0|0:0,0:0:0:0:
415,259,27010,2,0,P|427:249|456:252,3,30
346,234,27293,6,0,P|292:234|186:263,1,135.000005149842,2|0,0:0|0:0,0:0:0:0:
107,214,27576,6,0,P|161:227|212:251,1,112.5,2|0,0:0|0:0,0:0:0:0:
284,304,27859,6,0,P|242:269|199:244,1,90,2|0,0:0|0:0,0:0:0:0:
182,191,28142,6,0,P|199:220|212:251,1,67.5000025749208,2|0,0:0|0:0,0:0:0:0:
175,314,28425,6,0,B|125:296|140:340|88:323,1,90,2|2,0:0|0:0,0:0:0:0:
256,192,28991,12,0,31821,0:0:0:0:
