osu file format v14

[General]
AudioFilename: audio.ogg
AudioLeadIn: 0
PreviewTime: 206687
Countdown: 0
SampleSet: Normal
StackLeniency: 0.7
Mode: 0
LetterboxInBreaks: 1
WidescreenStoryboard: 0

[Editor]
Bookmarks: 20011,33354,40020,46687,47312,53354,60020,73354,86687,93354,100020,106687,113354,126687,140020,166687,173354,180020,186687,193354,206687,210020,213354,216687,220020,221687,223354,225020,226687,228354,230020,230437,230854,231270,231687,232104,232520,232937,233354
DistanceSpacing: 0.1
BeatDivisor: 4
GridSize: 4
TimelineZoom: 2.050003

[Metadata]
Title:Heartbeat (Chase & Status Remix)
TitleUnicode:Heartbeat (Chase & Status Remix)
Artist:Nneka
ArtistUnicode:Nneka
Creator:semaphore
Version:LCNTK's Insane
Source:
Tags:natteke la cataline lc electronic edm dubstep rock english we just bought a guitar
BeatmapID:4000831
BeatmapSetID:1935738

[Difficulty]
HPDrainRate:7
CircleSize:4
OverallDifficulty:7
ApproachRate:9
SliderMultiplier:1.4
SliderTickRate:1

[Events]
//Background and Video events
0,0,"bg.jpg",0,0
//Break Periods
2,140020,161087
//Storyboard Layer 0 (Background)
//Storyboard Layer 1 (Fail)
//Storyboard Layer 2 (Pass)
//Storyboard Layer 3 (Foreground)
//Storyboard Layer 4 (Overlay)
//Storyboard Sound Samples

[TimingPoints]
28,421.052631578948,4,2,1,30,1,0
449,424.778761061947,4,2,1,30,1,0
873,400,4,2,1,30,1,0
1683,402.68456375839,4,2,1,30,1,0
2085,384.615384615385,4,2,1,30,1,0
2469,416.666666666667,4,2,1,30,1,0
3302,431.654676258993,4,2,1,30,1,0
4165,416.666666666667,4,2,1,30,1,0
4581,382.165605095542,4,2,1,30,1,0
4963,419.58041958042,4,2,1,30,1,0
5382,588.235294117647,4,2,1,30,1,0
5676,517.241379310345,4,2,1,30,1,0
5676,-100,4,2,1,30,0,0
5934,405.405405405405,4,2,1,30,1,0
5934,-200,4,2,1,30,0,0
6682,433.526011560694,4,2,1,30,1,0
6682,-200,4,2,1,30,0,0
7549,365.853658536585,4,2,1,30,1,0
7914,434.782608695652,4,2,1,30,1,0
8348,409.276944065484,4,2,1,30,1,0
8348,-200,4,2,1,30,0,0
9575,391.900718484651,4,2,1,30,1,0
9966,419.58041958042,4,2,1,30,1,0
9966,-200,4,2,1,30,0,0
10385,400,4,2,1,30,1,0
10385,-200,4,2,1,30,0,0
10821,387.096774193548,4,2,1,30,1,0
10821,-200,4,2,1,30,0,0
11208,428.571428571429,4,2,1,30,1,0
11636,425.531914893617,4,2,1,30,1,0
11636,-200,4,2,1,30,0,0
12061,550.45871559633,4,2,1,30,1,0
12336,536.193029490617,4,2,1,30,1,0
12336,-200,4,2,1,30,0,0
12604,576.923076923077,4,2,1,30,1,0
12892,802.139037433155,4,2,1,30,1,0
13293,419.287211740042,4,2,2,30,1,0
13293,-200,4,2,2,30,0,0
14131,422.535211267606,4,2,2,30,1,0
14553,402.684563758389,4,2,2,30,1,0
15048,344.827586206897,4,2,2,30,1,0
15048,-200,4,2,2,30,0,0
15392,422.535211267606,4,2,2,30,1,0
15603,-200,4,2,2,30,0,0
16237,405.405405405405,4,2,2,30,1,0
16640,413.793103448276,4,2,2,30,1,0
16640,-200,4,2,2,30,0,0
17467,419.58041958042,4,2,2,30,1,0
18297,461.538461538462,4,2,2,30,1,0
18297,-200,4,2,2,30,0,0
19220,-200,4,2,2,20,0,0
20011,416.666666666667,4,2,2,30,1,0
20011,-133.333333333333,4,2,2,30,0,0
31677,-200,4,2,2,30,0,0
33354,416.666666666667,4,2,2,30,1,0
33770,-100,4,1,2,20,0,0
34187,-100,4,1,2,15,0,0
34395,-200,4,1,2,25,0,0
35020,-200,4,1,2,30,0,0
35437,-200,4,1,2,20,0,0
35854,-200,4,1,2,15,0,0
36062,-200,4,1,2,30,0,0
37104,-200,4,1,2,20,0,0
37520,-200,4,1,2,15,0,0
37729,-200,4,1,2,20,0,0
37937,-200,4,1,2,30,0,0
38354,-100,4,1,2,20,0,0
39395,-100,4,1,2,40,0,0
41062,-100,4,1,3,40,0,0
46687,-100,4,1,1,50,0,0
46895,-100,4,1,3,40,0,0
50854,-100,4,1,3,20,0,0
51166,-100,4,1,3,30,0,0
51687,-100,4,1,3,40,0,0
51999,-100,4,1,3,30,0,0
52104,-100,4,1,3,50,0,0
52416,-100,4,1,3,30,0,0
52520,-100,4,1,3,60,0,0
52729,-100,4,1,3,40,0,0
52937,-100,4,1,3,50,0,0
53354,-100,4,1,1,50,0,0
53562,-100,4,1,3,50,0,0
56687,-100,4,1,3,30,0,0
56895,-100,4,1,3,50,0,0
57104,-100,4,1,3,35,0,0
57312,-100,4,1,3,50,0,0
57520,-100,4,1,3,40,0,0
58354,-100,4,1,3,45,0,0
58562,-100,4,1,3,50,0,0
59187,-133.333333333333,4,1,3,60,0,0
60020,-133.333333333333,4,1,1,70,0,0
60436,-133.333333333333,4,1,0,50,0,0
60645,-133.333333333333,4,1,0,70,0,0
60854,-133.333333333333,4,1,1,80,0,1
61687,-133.333333333333,4,1,1,50,0,0
61895,-100,4,1,0,50,0,0
62103,-100,4,1,0,70,0,0
62520,-133.333333333333,4,1,1,80,0,1
62937,-133.333333333333,4,1,1,70,0,1
63354,-100,4,1,1,70,0,0
63562,-100,4,1,1,50,0,0
63770,-100,4,1,0,50,0,0
63978,-100,4,1,0,70,0,0
64187,-133.333333333333,4,1,1,80,0,1
64604,-133.333333333333,4,1,1,70,0,1
65020,-133.333333333333,4,1,1,70,0,0
65854,-133.333333333333,4,1,1,80,0,1
66270,-133.333333333333,4,1,0,80,0,1
66687,-133.333333333333,4,1,0,70,0,0
67520,-133.333333333333,4,1,1,80,0,1
68354,-133.333333333333,4,1,0,70,0,0
68770,-100,4,1,0,70,0,0
69187,-133.333333333333,4,1,1,80,0,1
69604,-133.333333333333,4,1,1,70,0,1
70020,-100,4,1,1,70,0,0
70437,-100,4,1,0,50,0,0
70645,-100,4,1,1,70,0,0
70854,-133.333333333333,4,1,1,80,0,1
71270,-133.333333333333,4,1,1,70,0,1
71687,-100,4,1,1,70,0,1
72312,-100,4,1,1,40,0,0
73354,-100,4,1,1,70,0,0
73562,-100,4,1,1,50,0,0
73770,-100,4,1,0,50,0,0
73978,-100,4,1,1,50,0,0
74187,-133.333333333333,4,1,1,80,0,1
75020,-133.333333333333,4,1,1,70,0,0
75229,-100,4,1,0,50,0,0
75437,-100,4,1,1,70,0,0
75854,-133.333333333333,4,1,1,80,0,1
76270,-133.333333333333,4,1,1,70,0,1
76687,-133.333333333333,4,1,1,70,0,0
76895,-133.333333333333,4,1,1,40,0,0
77104,-133.333333333333,4,1,0,50,0,0
77520,-100,4,1,1,80,0,1
77937,-100,4,1,1,70,0,1
78145,-100,4,1,1,40,0,1
78354,-100,4,1,1,70,0,0
78562,-100,4,1,0,50,0,0
78979,-100,4,1,0,70,0,0
79187,-133.333333333333,4,1,1,80,0,1
80020,-133.333333333333,4,1,1,70,0,0
80229,-100,4,1,1,70,0,0
80854,-133.333333333333,4,1,1,80,0,1
81479,-133.333333333333,4,1,1,70,0,1
81687,-100,4,1,1,70,0,0
82104,-100,4,1,1,50,0,0
82312,-100,4,1,1,70,0,0
82520,-133.333333333333,4,1,1,80,0,1
82937,-133.333333333333,4,1,1,70,0,1
83354,-100,4,1,1,70,0,0
84187,-133.333333333333,4,1,1,80,0,1
84604,-133.333333333333,4,1,1,70,0,1
85020,-100,4,1,1,70,0,1
85436,-100,4,1,0,70,0,1
85645,-100,4,1,0,40,0,0
86687,-100,4,1,0,50,0,0
87104,-100,4,1,0,70,0,0
87312,-100,4,1,0,60,0,0
87520,-100,4,1,3,60,0,0
88354,-100,4,1,3,40,0,0
88978,-100,4,1,3,60,0,0
89187,-100,4,1,1,60,0,0
89395,-100,4,1,1,50,0,0
90020,-100,4,1,1,60,0,0
90437,-100,4,1,3,50,0,0
90854,-100,4,1,3,60,0,0
91062,-100,4,1,3,50,0,0
91687,-100,4,1,3,70,0,0
91895,-100,4,1,3,60,0,0
92104,-100,4,1,3,50,0,0
92312,-100,4,1,3,60,0,0
92520,-100,4,1,3,40,0,0
92729,-100,4,1,3,50,0,0
93354,-100,4,1,3,60,0,0
93770,-100,4,1,3,50,0,0
94187,-100,4,1,1,60,0,0
94395,-100,4,1,1,50,0,0
94812,-100,4,1,1,60,0,0
95020,-100,4,1,0,40,0,0
95436,-100,4,1,0,60,0,0
95854,-100,4,1,1,60,0,0
96687,-100,4,1,0,50,0,0
97103,-100,4,1,0,40,0,0
97312,-100,4,1,0,60,0,0
97520,-100,4,1,1,60,0,0
97728,-100,4,1,1,40,0,0
97937,-100,4,1,1,60,0,0
98145,-100,4,1,1,40,0,0
98354,-100,4,1,0,60,0,0
98770,-100,4,1,0,60,0,0
99187,-100,4,1,1,60,0,0
100020,-100,4,1,1,80,0,0
100229,-100,4,1,1,60,0,0
100437,-100,4,1,0,40,0,0
100645,-100,4,1,0,60,0,0
100854,-100,4,1,0,50,0,0
101062,-100,4,1,0,60,0,0
102104,-100,4,1,0,60,0,0
102312,-100,4,1,0,60,0,0
102520,-100,4,1,0,50,0,0
102937,-100,4,1,0,60,0,0
103770,-100,4,1,0,40,0,0
104187,-100,4,1,0,50,0,0
104395,-100,4,1,0,60,0,0
105854,-100,4,1,1,60,0,0
106479,-100,4,1,1,40,0,0
106687,-100,4,1,1,60,0,0
107729,-100,4,1,1,40,0,0
108354,-100,4,1,1,60,0,0
108978,-100,4,1,1,40,0,0
109187,-100,4,1,1,60,0,0
109395,-100,4,1,1,40,0,0
110020,-100,4,1,1,60,0,0
111791,-100,4,1,2,60,0,0
113354,-133.333333333333,4,1,2,60,0,0
115020,-133.333333333333,4,1,2,85,0,0
115437,-133.333333333333,4,1,1,60,0,0
115854,-66.6666666666667,4,1,1,80,0,1
116270,-66.6666666666667,4,1,1,70,0,1
116687,-100,4,1,1,70,0,0
117520,-66.6666666666667,4,1,1,80,0,1
117937,-66.6666666666667,4,1,1,70,0,1
118354,-100,4,1,1,70,0,0
119187,-66.6666666666667,4,1,1,80,0,1
119604,-66.6666666666667,4,1,1,70,0,1
120020,-100,4,1,1,70,0,0
120854,-66.6666666666667,4,1,1,80,0,1
121479,-66.6666666666667,4,1,1,70,0,1
121687,-100,4,1,1,70,0,0
122520,-100,4,1,1,70,0,1
123145,-100,4,1,1,40,0,1
123354,-100,4,1,1,70,0,0
123770,-100,4,1,0,50,0,0
123978,-100,4,1,1,70,0,0
124187,-66.6666666666667,4,1,1,80,0,1
124604,-66.6666666666667,4,1,1,70,0,1
125020,-100,4,1,1,70,0,1
125437,-100,4,1,0,70,0,1
125645,-100,4,1,0,40,0,0
126895,-100,4,1,0,70,0,0
127104,-100,4,1,0,50,0,0
127312,-100,4,1,1,70,0,0
127520,-66.6666666666667,4,1,1,80,0,1
127937,-66.6666666666667,4,1,1,70,0,1
128354,-100,4,1,1,70,0,0
128770,-100,4,1,0,60,0,0
128978,-100,4,1,1,70,0,0
129187,-66.6666666666667,4,1,1,80,0,1
129604,-66.6666666666667,4,1,1,70,0,1
130020,-100,4,1,1,70,0,0
130437,-100,4,1,0,50,0,0
130645,-100,4,1,1,70,0,0
130854,-66.6666666666667,4,1,1,80,0,1
131479,-66.6666666666667,4,1,1,70,0,1
131687,-66.6666666666667,4,1,1,70,0,0
132520,-100,4,1,1,70,0,1
133354,-100,4,1,1,70,0,0
134187,-111.111111111111,4,1,1,80,0,1
134812,-111.111111111111,4,1,1,70,0,1
135020,-100,4,1,1,70,0,0
135854,-125,4,1,1,80,0,1
136270,-125,4,1,1,70,0,1
136687,-100,4,1,1,70,0,0
137520,-100,4,1,1,70,0,1
138770,-100,4,1,0,70,0,1
138979,-100,4,1,0,40,0,0
166687,-100,4,1,0,50,0,0
169604,-100,4,1,0,30,0,0
169812,-100,4,1,0,50,0,0
170020,-100,4,1,0,35,0,0
170228,-100,4,1,0,40,0,0
171062,-100,4,1,0,50,0,0
171270,-100,4,1,0,45,0,0
171478,-100,4,1,0,50,0,0
171895,-100,4,1,1,50,0,0
172104,-100,4,1,0,50,0,0
172520,-100,4,1,1,50,0,0
177104,-100,4,1,0,30,0,0
177520,-100,4,1,1,50,0,0
177937,-100,4,1,0,35,0,0
178354,-100,4,1,0,50,0,0
178770,-100,4,1,0,40,0,0
179187,-100,4,1,1,50,0,0
180020,-100,4,1,1,60,0,0
184604,-100,4,1,0,40,0,0
184812,-100,4,1,1,60,0,0
185437,-100,4,1,0,45,0,0
185854,-100,4,1,0,60,0,0
186062,-100,4,1,1,60,0,0
186687,-100,4,1,1,70,0,0
192104,-100,4,1,2,70,0,0
193354,-133.333333333333,4,1,2,70,0,0
194187,-133.333333333333,4,1,2,70,0,1
194604,-133.333333333333,4,1,2,70,0,0
195020,-100,4,1,2,70,0,0
195854,-66.6666666666667,4,1,2,70,0,1
196270,-66.6666666666667,4,1,2,70,0,0
196687,-100,4,1,2,70,0,0
197520,-66.6666666666667,4,1,2,70,0,1
197937,-66.6666666666667,4,1,2,70,0,0
198354,-100,4,1,2,70,0,0
200854,-133.333333333333,4,1,2,70,0,1
201270,-133.333333333333,4,1,2,70,0,0
201687,-100,4,1,2,70,0,0
202520,-66.6666666666667,4,1,2,70,0,1
202937,-66.6666666666667,4,1,2,70,0,0
203354,-133.333333333333,4,1,2,70,0,1
203979,-133.333333333333,4,1,2,70,0,0
204187,-133.333333333333,4,1,1,70,0,1
205229,-133.333333333333,4,1,1,50,0,1
205437,-133.333333333333,4,1,0,70,0,1
205645,-133.333333333333,4,1,0,70,0,0
206687,-133.333333333333,4,1,0,70,0,1
207520,-133.333333333333,4,1,1,70,0,1
208770,-133.333333333333,4,1,0,70,0,1
208978,-133.333333333333,4,1,0,50,0,1
209187,-66.6666666666667,4,1,1,70,0,1
210020,-133.333333333333,4,1,1,70,0,1
212104,-133.333333333333,4,1,0,70,0,1
212312,-133.333333333333,4,1,0,50,0,1
212520,-133.333333333333,4,1,1,70,0,1
213770,-133.333333333333,4,1,0,70,0,1
214187,-66.6666666666667,4,1,1,70,0,1
215020,-133.333333333333,4,1,1,70,0,1
215437,-133.333333333333,4,1,0,70,0,1
215645,-133.333333333333,4,1,0,50,0,1
215854,-50,4,1,1,70,0,1
216270,-50,4,1,1,50,0,1
216687,-133.333333333333,4,1,1,70,0,1
217104,-133.333333333333,4,1,0,70,0,1
217312,-133.333333333333,4,1,0,50,0,1
217520,-133.333333333333,4,1,1,70,0,1
217937,-133.333333333333,4,1,1,50,0,1
218354,-133.333333333333,4,1,1,70,0,1
219812,-133.333333333333,4,1,1,40,0,1
220020,-100,4,1,1,70,0,1
227937,-100,4,1,3,70,0,1
228354,-100,4,1,1,70,0,1
229604,-100,4,1,3,70,0,1
230020,-100,4,1,1,70,0,1
231687,-100,4,1,1,70,0,0
233354,-100,4,1,1,5,0,0

[Colours]
Combo1 : 17,254,176
Combo2 : 173,255,95
Combo3 : 255,88,100
Combo4 : 255,94,55

[HitObjects]
104,136,5676,5,0,0:0:0:0:
104,136,5934,2,0,B|168:144|212:132,1,105,2|0,0:0|0:0,0:0:0:0:
296,88,6682,2,0,B|320:240,1,140,4|2,0:0|0:0,2:0:0:0:
317,226,7914,1,2,0:0:0:0:
317,226,8348,6,0,B|372:228|424:232,2,105,2|0|2,0:0|0:0|0:0,2:0:0:0:
192,304,9966,2,0,B|163:302|136:304,1,46.6666666666667,2|0,0:0|0:0,2:0:0:0:
112,192,10385,2,0,B|140:190|168:192,1,46.6666666666667
262,201,10821,2,0,B|263:180|262:125,1,70,2|2,0:0|0:0,0:0:0:0:
262,131,11636,2,0,B|343:120,1,70,2|0,0:0|0:0,0:0:0:0:
341,35,12336,2,0,B|301:41,1,35,2|2,0:0|0:0,0:0:0:0:
88,88,12892,1,2,0:0:0:0:
88,88,13293,6,0,B|88:160|88:160|104:240,1,140,4|2,0:0|0:0,0:0:0:0:
112,336,14553,1,2,0:0:0:0:
112,336,14754,1,0,0:0:0:0:
112,336,15048,6,0,B|192:336,1,70,2|0,0:0|0:0,0:0:0:0:
232,224,15603,2,0,B|232:248|224:264,1,35,2|0,0:0|0:0,0:0:0:0:
312,184,16025,2,0,B|305:172|304:144,1,35.1656666666667,0|2,0:0|0:0,0:0:0:0:
312,64,16439,1,0,0:0:0:0:
398,187,16640,2,0,B|406:256|399:329,1,140,2|2,0:0|0:0,0:0:0:0:
399,326,17886,1,2,0:0:0:0:
285,331,18096,1,0,0:0:0:0:
171,346,18297,2,0,B|99:362|19:338,1,140,4|4,0:0|0:0,0:0:0:0:
64,176,20011,6,0,B|63:140|65:116,1,52.5000000000001,2|0,0:0|0:0,0:0:0:0:
168,192,20427,2,0,B|169:228|167:252,1,52.5000000000001,0|0,0:0|0:0,0:0:0:0:
168,96,20844,2,0,B|224:72,1,52.5000000000001,2|0,0:0|0:0,0:0:0:0:
336,96,21261,2,0,B|280:120,1,52.5000000000001,0|0,0:0|0:0,0:0:0:0:
392,192,21677,2,0,B|453:181|485:120,1,105,2|0,0:0|0:0,0:0:0:0:
476,134,22302,6,0,B|483:70,1,52.5000000000001,2|0,0:0|0:0,0:0:0:0:
376,136,22719,1,0,0:0:0:0:
376,136,22927,2,0,B|369:200,1,52.5000000000001,2|0,0:0|0:0,0:0:0:0:
448,288,23344,2,0,B|456:260|458:216,1,52.5000000000001,0|0,0:0|0:0,0:0:0:0:
368,280,23761,2,0,B|360:308|358:352,1,52.5000000000001,2|0,0:0|0:0,0:0:0:0:
256,344,24177,1,0,0:0:0:0:
152,320,24386,1,0,0:0:0:0:
152,320,24594,1,2,0:0:0:0:
48,296,24802,1,0,0:0:0:0:
48,296,25011,6,0,B|48:223|50:138,1,157.5,0|2,0:0|0:0,0:0:0:0:
152,64,25844,2,0,B|148:137,1,52.5000000000001,0|0,0:0|0:0,0:0:0:0:
245,55,26261,2,0,B|253:126,1,52.5000000000001,2|0,0:0|0:0,0:0:0:0:
333,30,26677,6,0,B|365:151,1,105,0|0,0:0|0:0,0:0:0:0:
392,231,27302,2,0,B|272:257,1,105,2|0,0:0|0:0,0:0:0:0:
144,288,27927,2,0,B|215:275,1,52.5000000000001,2|0,0:0|0:0,0:0:0:0:
24,200,28344,2,0,B|50:307,1,105,2|0,0:0|0:0,0:0:0:0:
48,302,28969,1,2,0:0:0:0:
144,288,29177,6,0,B|138:255|169:221,1,52.5000000000001,0|0,0:0|0:0,0:0:0:0:
256,224,29594,2,0,B|320:208,1,52.5000000000001,2|0,0:0|0:0,0:0:0:0:
408,184,30011,2,0,B|425:167|419:134,1,52.5000000000001,2|0,0:0|0:0,0:0:0:0:
376,40,30427,2,0,B|320:56,1,52.5000000000001,0|2,0:0|0:0,0:0:0:0:
245,137,30844,2,0,B|296:152,1,52.5000000000001,0|0,0:0|0:0,0:0:0:0:
240,48,31261,2,0,B|200:48|175:74,1,52.5000000000001,2|0,0:0|0:0,0:0:0:0:
80,152,31677,6,2,B|39:240|99:332|200:328,1,245,0|0,0:0|0:0,0:0:0:0:
328,328,33354,5,4,2:0:0:0:
328,328,33770,1,4,2:0:0:0:
328,328,34187,1,4,2:0:0:0:
392,256,34395,2,0,B|400:184,1,70,0|0,1:0|1:0,1:0:0:0:
408,72,35020,5,4,2:0:0:0:
304,80,35229,1,0,2:0:0:0:
192,88,35437,1,4,2:0:0:0:
192,88,35854,1,4,2:0:0:0:
304,80,36062,2,0,B|296:152,1,70,0|0,1:0|1:0,1:0:0:0:
288,256,36687,5,4,2:0:0:0:
256,272,37104,1,4,2:0:0:0:
224,288,37520,1,4,2:0:0:0:
168,360,37729,1,0,1:0:0:0:
104,296,37937,1,0,1:0:0:0:
160,224,38145,1,0,1:0:0:0:
256,272,38354,6,0,B|344:280,1,70,4|0,2:0|2:0,2:0:0:0:
136,200,38770,2,0,B|224:208,1,70,4|0,2:0|2:0,2:0:0:0:
352,144,39187,1,4,2:0:0:0:
448,184,39395,1,0,1:0:0:0:
408,288,39604,1,0,1:0:0:0:
312,248,39812,1,0,1:0:0:0:
448,184,40020,6,0,B|457:215|456:260,1,70,4|2,2:0|2:0,2:0:0:0:
368,360,40437,2,0,B|359:329|360:284,1,70,2|0,2:0|2:0,2:0:0:0:
360,184,40854,1,2,2:0:0:0:
264,128,41062,2,0,B|111:116,1,140,2|2,1:0|1:0,1:0:0:0:
44,196,41687,6,0,B|30:229|38:273,1,70,0|2,2:0|2:0,2:0:0:0:
128,328,42104,2,0,B|142:295|134:251,1,70,2|0,2:0|2:0,2:0:0:0:
208,176,42520,1,2,2:0:0:0:
208,176,42729,2,0,B|227:244|268:313,1,140,2|2,1:0|1:0,1:0:0:0:
376,312,43354,6,0,B|448:296,1,70,0|2,2:0|2:0,2:0:0:0:
262,304,43770,2,0,B|190:320,1,70,2|0,2:0|2:0,2:0:0:0:
336,224,44187,1,2,2:0:0:0:
224,216,44395,2,0,B|148:209|77:200,1,140,2|2,1:0|1:0,1:0:0:0:
256,128,45020,2,0,B|243:92|252:56,1,70,0|2,2:0|2:0,2:0:0:0:
352,8,45437,2,0,B|365:44|356:80,1,70,2|0,2:0|2:0,2:0:0:0:
432,232,45854,1,2,2:0:0:0:
328,304,46062,2,0,B|308:227|339:150,1,140,2|2,1:0|1:0,1:0:0:0:
88,232,46687,6,0,B|97:201|96:156,1,70,4|2,1:0|1:0,1:0:0:0:
176,344,47104,2,0,B|175:305|184:274,1,70,2|0,1:0|1:0,1:0:0:0:
64,72,47520,1,2,1:0:0:0:
192,160,47729,1,0,1:0:0:0:
192,160,47833,1,0,1:0:0:0:
192,160,47937,2,0,B|288:176,1,70,0|2,1:0|1:0,1:0:0:0:
368,192,48354,6,0,B|377:161|376:116,1,70,0|2,1:0|1:0,1:0:0:0:
264,272,48770,2,0,B|255:303|255:341,1,70,2|0,1:0|1:0,1:0:0:0:
432,320,49187,1,2,1:0:0:0:
472,224,49395,1,2,1:0:0:0:
333,260,49604,2,0,B|264:272,1,70,0|2,1:0|1:0,1:0:0:0:
272,72,50020,6,0,B|285:108|276:144,1,70,0|2,1:0|1:0,1:0:0:0:
168,328,50437,2,0,B|155:292|164:256,1,70,2|0,1:0|1:0,1:0:0:0:
424,184,50854,2,4,B|432:240|432:312,1,105,4|2,2:0|2:0,2:0:0:0:
336,360,51270,2,4,B|328:304|330:256,1,105,4|2,2:0|2:0,2:0:0:0:
224,216,51687,2,4,B|232:272|232:344,1,105,4|2,2:0|2:0,2:0:0:0:
128,352,52104,2,4,B|120:296|121:248,1,105,4|0,2:0|2:0,2:0:0:0:
160,168,52520,1,4,2:0:0:0:
256,192,52729,1,0,1:0:0:0:
256,192,52833,1,0,1:0:0:0:
256,192,52937,1,0,1:0:0:0:
160,168,53145,1,0,1:0:0:0:
72,136,53354,5,4,1:0:0:0:
152,40,53562,1,2,1:0:0:0:
248,120,53770,1,2,1:0:0:0:
168,216,53979,1,0,1:0:0:0:
72,136,54187,1,2,1:0:0:0:
248,120,54395,2,4,B|261:200|250:284,1,140,4|4,1:0|1:0,1:0:0:0:
152,352,55020,5,0,1:0:0:0:
104,224,55229,1,2,1:0:0:0:
240,216,55437,1,2,1:0:0:0:
288,336,55645,1,0,1:0:0:0:
152,352,55854,1,2,1:0:0:0:
104,224,56062,2,4,B|106:145|164:74,1,140,4|4,1:0|1:0,1:0:0:0:
280,56,56687,6,4,B|360:40,1,70,4|2,2:0|1:0,2:0:0:0:
448,128,57104,1,6,2:0:0:0:
448,128,57312,2,4,B|362:156,1,70,0|6,1:0|2:0,1:0:0:0:
256,184,57729,2,4,B|220:233|228:340,1,140,4|4,1:0|1:0,1:0:0:0:
360,352,58354,2,0,B|364:275,1,70,4|2,2:0|1:0,2:0:0:0:
96,272,58770,2,4,B|92:349,1,70,6|0,2:0|2:0,2:0:0:0:
232,320,59187,2,6,B|247:222|235:144,1,157.5,0|4,1:0|2:0,1:0:0:0:
232,145,59916,1,4,2:0:0:0:
224,128,60020,6,0,B|278:147|339:120,1,105,4|4,1:0|2:0,1:0:0:0:
430,73,60645,1,0,1:0:0:0:
406,313,60854,2,2,B|366:254|281:238|202:277,1,210.000000000001,8|4,1:0|1:0,1:0:0:0:
216,270,61895,2,0,B|128:280,1,70,4|0,2:0|1:0,2:0:0:0:
296,352,62312,1,0,1:0:0:0:
48,344,62520,2,2,B|16:296|40:224,1,105,8|4,1:0|1:0,1:0:0:0:
112,112,63145,1,0,1:0:0:0:
216,272,63354,6,0,B|224:360,1,70,4|0,1:0|2:0,1:0:0:0:
304,168,63770,2,0,B|296:80,1,70,4|0,2:0|1:0,2:0:0:0:
432,192,64187,2,2,B|456:240|440:312,1,105,8|4,1:0|1:0,1:0:0:0:
320,320,64812,1,4,1:0:0:0:
192,336,65020,1,4,1:0:0:0:
192,336,65437,1,4,1:0:0:0:
136,192,65645,1,0,1:0:0:0:
264,176,65854,2,2,B|368:169,2,105,8|4|4,1:0|2:0|1:0,1:0:0:0:
264,176,67104,5,2,2:0:0:0:
160,184,67312,1,0,2:0:0:0:
56,192,67520,2,2,B|9:305|97:385,1,210.000000000001,8|4,1:0|2:0,1:0:0:0:
95,383,68562,1,0,2:0:0:0:
256,296,68770,2,0,B|186:296,1,70,2|0,2:0|1:0,2:0:0:0:
160,184,69187,2,2,B|184:136|168:80,1,105,8|4,1:0|1:0,1:0:0:0:
48,80,69812,1,0,1:0:0:0:
336,264,70020,6,2,B|406:264,1,70,0|0,1:0|1:0,1:0:0:0:
256,296,70437,2,2,B|240:256|256:224,1,70,4|2,2:0|1:0,2:0:0:0:
464,88,70854,2,2,B|488:136|464:208,1,105,8|6,1:0|1:0,1:0:0:0:
440,344,71479,1,0,1:0:0:0:
256,296,71687,6,2,B|224:224|248:144,1,140,4|6,1:0|1:0,1:0:0:0:
264,72,72312,1,2,1:0:0:0:
264,72,73354,6,0,B|189:83,1,70,4|4,1:0|2:0,1:0:0:0:
256,192,73770,2,0,B|331:203,1,70,4|4,2:0|2:0,2:0:0:0:
325,335,74187,2,2,B|116:320,1,210.000000000001,8|4,1:0|1:0,1:0:0:0:
8,312,75229,6,2,B|16:224,1,70,4|4,2:0|2:0,2:0:0:0:
24,136,75645,1,0,1:0:0:0:
128,144,75854,2,2,B|238:156,1,105,8|4,1:0|1:0,1:0:0:0:
312,320,76479,1,0,1:0:0:0:
408,72,76687,1,4,1:0:0:0:
464,208,76895,5,2,2:0:0:0:
266,163,77104,1,4,2:0:0:0:
464,208,77312,1,0,2:0:0:0:
266,163,77520,2,2,B|250:244|252:328,1,140,8|4,1:0|1:0,1:0:0:0:
136,296,78145,1,0,1:0:0:0:
136,296,78249,1,0,1:0:0:0:
136,296,78354,1,4,1:0:0:0:
152,160,78562,2,2,B|158:107|160:80,1,70,4|0,2:0|2:0,2:0:0:0:
384,128,78979,1,0,1:0:0:0:
384,128,79187,2,2,B|384:186|369:252,2,105,8|0|4,1:0|1:0|1:0,1:0:0:0:
144,72,80229,6,0,B|223:66,1,70,0|2,2:0|2:0,2:0:0:0:
80,176,80645,1,0,1:0:0:0:
16,272,80854,2,2,B|107:285|176:308,1,157.5,8|0,1:0|2:0,1:0:0:0:
256,224,81687,2,0,B|300:221|327:206,1,70,4|0,1:0|2:0,1:0:0:0:
384,304,82104,2,0,B|428:307|457:324,1,70,2|0,2:0|1:0,2:0:0:0:
256,224,82520,2,2,B|251:162|262:97,1,105,8|4,1:0|1:0,1:0:0:0:
368,32,83145,1,0,2:0:0:0:
448,136,83354,6,0,B|461:184|452:221,1,70,4|0,1:0|2:0,1:0:0:0:
344,344,83770,2,2,B|337:322|350:274,1,70,6|0,2:0|2:0,2:0:0:0:
350,275,84187,2,2,B|226:266,1,105,12|2,1:0|2:0,1:0:0:0:
32,248,84812,5,0,1:0:0:0:
32,248,84916,1,0,1:0:0:0:
32,248,85020,2,2,B|26:181|38:108,1,140,4|2,1:0|1:0,1:0:0:0:
256,40,85645,1,6,1:0:0:0:
256,40,86687,6,0,B|264:80|256:112,1,70,0|0,1:0|1:0,1:0:0:0:
232,264,87104,2,0,B|198:241|181:213,1,70,2|0,2:0|1:0,2:0:0:0:
488,192,87520,1,8,1:0:0:0:
408,254,87729,2,0,B|382:270|360:304,1,70,0|0,1:0|1:0,1:0:0:0:
232,264,88145,1,0,1:0:0:0:
152,352,88354,6,0,B|112:360|82:352,1,70,4|2,2:0|1:0,2:0:0:0:
128,104,88770,2,0,B|161:126|178:154,1,70,2|0,2:0|1:0,2:0:0:0:
24,208,89187,1,12,2:0:0:0:
232,264,89395,2,0,B|304:288|384:256,1,140,0|0,1:0|1:0,1:0:0:0:
312,96,90020,6,0,B|304:176,1,70,0|2,1:0|2:0,1:0:0:0:
464,240,90437,2,0,B|470:309,1,70,2|0,1:0|1:0,1:0:0:0:
224,72,90854,1,8,1:0:0:0:
384,168,91062,2,0,B|368:336,1,140,0|0,1:0|1:0,1:0:0:0:
176,216,91687,6,0,B|245:222,1,70,4|0,2:0|2:0,2:0:0:0:
128,328,92104,1,4,1:0:0:0:
128,328,92312,2,0,B|100:332|58:334,1,70,0|12,1:0|0:0,2:0:0:0:
160,208,92729,2,0,B|187:133|155:69,1,140,0|0,1:0|1:0,1:0:0:0:
24,144,93354,6,0,B|36:221,1,70,0|2,1:0|2:0,1:0:0:0:
149,277,93770,2,0,B|160:208,1,70,2|0,1:0|1:0,1:0:0:0:
256,272,94187,2,0,B|329:264,1,70,12|0,2:0|2:0,2:0:0:0:
440,184,94604,2,0,B|370:176,1,70,0|0,1:0|2:0,1:0:0:0:
128,144,95020,2,0,B|226:156|270:163,1,140,4|2,2:0|2:0,2:0:0:0:
440,184,95645,1,0,1:0:0:0:
440,184,95749,1,0,2:0:0:0:
440,184,95854,2,0,B|447:264,1,70,12|0,2:0|2:0,2:0:0:0:
344,80,96270,2,0,B|332:166,1,70,0|0,1:0|2:0,1:0:0:0:
344,304,96687,6,0,B|318:229|222:224,1,140,4|0,2:0|1:0,2:0:0:0:
112,232,97312,1,0,1:0:0:0:
112,232,97416,1,0,2:0:0:0:
112,232,97520,2,0,B|32:240,1,70,12|0,2:0|1:0,2:0:0:0:
208,128,97937,2,0,B|138:121,1,70,0|0,1:0|2:0,1:0:0:0:
376,208,98354,6,0,B|289:213|215:228,1,140,4|2,2:0|2:0,2:0:0:0:
424,72,98979,1,0,1:0:0:0:
424,72,99083,1,0,1:0:0:0:
424,72,99187,2,0,B|376:98|363:116,1,70,12|0,2:0|2:0,2:0:0:0:
344,128,99499,1,0,1:0:0:0:
40,208,99812,1,0,1:0:0:0:
200,192,100020,5,4,1:0:0:0:
40,208,100229,1,2,2:0:0:0:
200,192,100437,2,0,B|280:184,1,70,4|0,2:0|2:0,2:0:0:0:
400,168,100854,1,12,2:0:0:0:
269,185,101062,2,0,B|264:232|288:272,1,70,0|0,2:0|1:0,2:0:0:0:
408,320,101479,1,0,2:0:0:0:
400,168,101687,6,0,B|405:120|381:81,1,70,0|2,1:0|2:0,1:0:0:0:
240,56,102104,1,4,2:0:0:0:
152,176,102312,1,0,1:0:0:0:
64,288,102520,2,0,B|72:376,1,70,12|0,2:0|1:0,2:0:0:0:
128,80,102937,2,0,B|126:148,1,70,0|0,1:0|2:0,1:0:0:0:
248,224,103354,6,0,B|256:312,1,70,4|2,1:0|2:0,1:0:0:0:
352,80,103770,1,4,2:0:0:0:
464,104,103979,1,0,1:0:0:0:
352,80,104187,2,0,B|350:148,1,70,12|0,2:0|2:0,2:0:0:0:
440,320,104604,2,0,B|446:282|438:250,1,70,4|0,2:0|2:0,2:0:0:0:
246,154,105020,6,0,B|240:192|248:224,1,70,4|0,1:0|1:0,1:0:0:0:
438,250,105437,1,4,2:0:0:0:
247,223,105645,1,0,1:0:0:0:
112,336,105854,1,12,2:0:0:0:
112,336,106062,2,0,B|72:344|16:336,1,70,2|4,2:0|1:0,2:0:0:0:
224,320,106479,1,0,1:0:0:0:
336,304,106687,6,4,B|388:300|482:320,2,140,4|2|12,1:0|2:0|2:0,1:0:0:0:
277,210,107729,2,2,B|274:127|282:43,1,140,0|0,1:0|1:0,1:0:0:0:
184,32,108354,6,0,B|116:28,1,70,4|0,1:0|2:0,1:0:0:0:
112,176,108770,2,0,B|181:171,1,70,2|0,2:0|1:0,2:0:0:0:
216,344,109187,1,8,2:0:0:0:
216,344,109395,2,2,B|70:349,1,140,0|0,1:0|1:0,1:0:0:0:
304,232,110020,6,0,B|308:305,1,70,4|0,1:0|2:0,1:0:0:0:
412,186,110437,2,0,B|435:264,1,70,4|0,1:0|2:0,1:0:0:0:
208,120,110854,6,0,B|204:193,1,70,4|0,1:0|2:0,1:0:0:0:
100,74,111270,2,0,B|77:152,1,70,4|0,1:0|2:0,1:0:0:0:
72,272,111687,1,4,1:0:0:0:
108,284,111791,1,8,1:0:0:0:
146,289,111895,1,8,1:0:0:0:
184,286,111999,1,8,1:0:0:0:
219,271,112104,1,0,1:0:0:0:
255,260,112208,1,8,1:0:0:0:
293,260,112312,1,8,1:0:0:0:
330,266,112416,1,8,1:0:0:0:
366,279,112520,1,0,1:0:0:0:
398,299,112624,1,0,1:0:0:0:
425,326,112729,1,8,1:0:0:0:
437,293,112833,1,0,1:0:0:0:
443,255,112937,1,8,1:0:0:0:
444,216,113041,1,8,1:0:0:0:
436,178,113145,1,8,1:0:0:0:
423,141,113249,1,8,1:0:0:0:
406,106,113354,6,2,B|328:120|280:80|192:96,1,210.000000000001,0|0,1:0|1:0,1:0:0:0:
256,192,114291,12,4,115020,1:0:0:0:
64,208,115437,5,4,2:0:0:0:
208,280,115645,1,4,2:0:0:0:
192,96,115854,2,10,B|272:56|344:120|312:200,1,210,8|4,1:0|1:0,1:0:0:0:
464,208,116479,1,0,1:0:0:0:
318,266,116687,6,0,B|313:196,1,70,4|0,1:0|2:0,1:0:0:0:
456,248,117104,2,4,B|461:317,1,70,2|4,2:0|2:0,2:0:0:0:
120,360,117520,2,2,B|104:320|112:280|112:280|120:248|120:248|136:200|112:136,1,210,8|4,1:0|1:0,1:0:0:0:
96,32,118145,1,0,1:0:0:0:
216,112,118354,6,2,B|224:208,1,70,0|2,1:0|2:0,1:0:0:0:
320,344,118770,2,0,B|326:274,1,70,4|4,2:0|2:0,2:0:0:0:
336,120,119187,2,2,B|424:80|424:80|472:104|480:176,1,210,8|4,1:0|1:0,1:0:0:0:
479,173,120020,6,0,B|464:288,1,105,4|2,1:0|2:0,1:0:0:0:
248,280,120437,2,4,B|318:280,1,70,4|2,2:0|2:0,2:0:0:0:
24,160,120854,2,2,B|64:272|64:272|144:336|248:279,1,315,8|2,1:0|2:0,1:0:0:0:
162,213,121687,6,0,B|216:160|168:85,1,140,4|4,1:0|2:0,1:0:0:0:
24,160,122312,1,6,2:0:0:0:
168,86,122520,1,10,1:0:0:0:
304,16,122729,2,2,B|304:64|304:64|312:104,1,70,0|4,1:0|1:0,1:0:0:0:
416,200,123145,1,2,1:0:0:0:
344,336,123354,6,0,B|296:336|296:336|256:328,1,70,4|4,1:0|2:0,1:0:0:0:
40,192,123770,2,0,B|88:192|88:192|128:200,1,70,4|4,2:0|2:0,2:0:0:0:
320,216,124187,2,2,B|396:246|460:174|420:94,1,210,8|4,1:0|1:0,1:0:0:0:
224,120,124812,1,4,1:0:0:0:
40,192,125020,2,2,B|48:280,1,70,4|0,1:0|1:0,1:0:0:0:
8,360,125437,1,2,1:0:0:0:
8,360,125645,1,2,1:0:0:0:
8,360,126687,6,0,B|45:344|104:344,1,70,4|0,1:0|2:0,1:0:0:0:
97,344,126999,1,0,2:0:0:0:
117,345,127104,1,4,2:0:0:0:
256,352,127312,1,4,2:0:0:0:
376,280,127520,2,6,B|411:231|411:231|376:72,1,210,8|2,1:0|2:0,1:0:0:0:
248,24,128145,5,2,2:0:0:0:
248,24,128249,1,0,2:0:0:0:
248,24,128354,2,0,B|243:72|255:110,1,70,4|0,1:0|2:0,1:0:0:0:
296,256,128770,2,0,B|301:208|289:170,1,70,4|4,2:0|2:0,2:0:0:0:
16,312,129187,2,2,B|117:402|227:297,1,210,8|4,1:0|1:0,1:0:0:0:
296,256,129812,5,0,1:0:0:0:
296,256,129916,1,0,1:0:0:0:
296,256,130020,2,0,B|328:240|375:249,1,70,4|4,1:0|2:0,1:0:0:0:
488,336,130437,2,0,B|456:352|409:343,1,70,4|4,2:0|2:0,2:0:0:0:
185,123,130854,2,2,B|137:237|249:343|382:235,1,315,8|4,1:0|1:0,1:0:0:0:
424,128,131687,5,4,1:0:0:0:
312,48,131895,1,0,2:0:0:0:
224,160,132104,1,4,1:0:0:0:
336,240,132312,1,4,1:0:0:0:
424,128,132520,2,2,B|383:147|336:152,1,70,8|0,1:0|2:0,1:0:0:0:
192,280,132937,1,2,1:0:0:0:
192,280,133354,6,4,B|144:297|127:324,1,70,4|0,1:0|2:0,1:0:0:0:
16,184,133770,2,0,B|27:203|75:220,1,70,2|6,2:0|2:0,2:0:0:0:
160,112,134187,2,2,B|169:47|226:-1|316:23,1,189,8|0,1:0|2:0,1:0:0:0:
496,152,135020,6,0,B|417:114,1,70,4|0,1:0|2:0,1:0:0:0:
432,248,135437,2,4,B|351:226,1,70,2|6,2:0|2:0,2:0:0:0:
400,360,135854,2,2,B|347:355|265:352,1,112,8|4,1:0|1:0,1:0:0:0:
24,328,136479,1,0,1:0:0:0:
24,328,136687,6,0,B|113:339,1,70,4|0,1:0|2:0,1:0:0:0:
264,248,137104,2,2,B|175:259,1,70,2|2,2:0|2:0,2:0:0:0:
32,168,137520,2,2,B|121:179,1,70,8|0,1:0|2:0,1:0:0:0:
272,88,137937,2,2,B|183:99,1,70,4|0,1:0|1:0,1:0:0:0:
424,80,138354,2,2,B|464:148|448:234,1,140,4|2,1:0|1:0,1:0:0:0:
256,352,138979,1,2,1:0:0:0:
256,192,161687,12,0,166479,1:0:0:0:
258,195,166687,6,0,B|272:264,1,70,0|2,1:0|2:0,1:0:0:0:
288,56,167104,2,0,B|221:78,1,70,2|0,2:0|2:0,2:0:0:0:
125,227,167520,2,0,B|112:296,1,70,0|0,1:0|2:0,1:0:0:0:
272,264,167937,2,0,B|338:286,1,70,0|2,2:0|2:0,2:0:0:0:
456,312,168354,2,0,B|488:248|480:152,2,140,0|2|0,1:0|2:0|1:0,1:0:0:0:
336,360,169395,1,2,2:0:0:0:
352,224,169604,1,4,2:0:0:0:
456,312,169812,1,2,2:0:0:0:
232,280,170020,6,0,B|144:288,1,70,4|2,2:0|2:0,2:0:0:0:
272,96,170437,2,0,B|256:192,1,70,4|0,2:0|2:0,2:0:0:0:
42,126,170854,2,0,B|76:118|112:120,1,70,4|0,2:0|1:0,2:0:0:0:
80,336,171270,2,0,B|72:304|73:266,1,70,4|0,2:0|1:0,2:0:0:0:
64,256,171583,1,0,1:0:0:0:
56,240,171687,1,4,1:0:0:0:
192,248,171895,1,6,2:0:0:0:
312,256,172104,2,4,B|384:256|456:256,1,140,4|8,2:0|1:0,2:0:0:0:
424,96,172729,1,0,1:0:0:0:
296,112,172937,1,8,1:0:0:0:
424,96,173145,1,0,1:0:0:0:
312,256,173354,6,0,B|227:268,1,70,0|2,1:0|2:0,1:0:0:0:
56,208,173770,1,2,2:0:0:0:
56,208,173979,2,0,B|141:196,1,70,0|8,2:0|1:0,2:0:0:0:
128,336,174395,1,0,2:0:0:0:
256,160,174604,2,0,B|250:87,1,70,4|0,2:0|2:0,2:0:0:0:
356,216,175020,6,0,B|373:149,1,70,0|2,1:0|2:0,1:0:0:0:
152,128,175437,1,2,2:0:0:0:
408,312,175645,2,0,B|458:255,1,70,0|8,2:0|1:0,2:0:0:0:
256,160,176062,1,2,2:0:0:0:
44,136,176270,2,0,B|32:65,1,70,0|2,2:0|2:0,2:0:0:0:
256,160,176687,6,0,B|296:171|301:214,1,70,4|2,1:0|2:0,1:0:0:0:
264,320,177104,2,0,B|234:349|194:331,1,70,4|0,2:0|2:0,2:0:0:0:
120,248,177520,2,0,B|109:207|144:182,1,70,8|2,1:0|2:0,1:0:0:0:
304,128,177937,6,0,B|344:139|349:182,1,70,4|2,2:0|2:0,2:0:0:0:
280,360,178354,2,0,B|250:389|210:371,1,70,0|2,1:0|2:0,1:0:0:0:
56,240,178770,2,0,B|45:199|80:174,1,70,4|2,2:0|2:0,2:0:0:0:
208,224,179187,2,0,B|210:268|223:306,1,70,8|0,1:0|1:0,1:0:0:0:
218,292,179499,1,0,1:0:0:0:
218,292,179604,1,8,1:0:0:0:
352,320,179812,1,0,1:0:0:0:
404,208,180020,6,0,B|500:208,1,70,0|2,1:0|2:0,1:0:0:0:
336,108,180437,1,0,1:0:0:0:
224,156,180645,1,2,2:0:0:0:
218,292,180854,2,0,B|258:292|306:260,1,70,0|2,1:0|2:0,1:0:0:0:
224,156,181270,2,0,B|184:156|144:188,1,70,0|2,1:0|2:0,1:0:0:0:
372,348,181687,6,0,B|380:308|380:279,1,70,0|2,1:0|2:0,1:0:0:0:
144,308,182104,1,0,1:0:0:0:
32,340,182312,1,2,2:0:0:0:
144,308,182520,2,0,B|143:278|151:238,1,70,0|6,1:0|2:0,1:0:0:0:
168,42,182937,2,0,B|176:82|176:112,1,70,2|2,2:0|2:0,2:0:0:0:
24,216,183354,6,0,B|23:186|31:146,1,70,4|0,1:0|2:0,1:0:0:0:
304,200,183770,1,0,1:0:0:0:
424,184,183979,1,2,2:0:0:0:
304,200,184187,2,0,B|312:240|311:269,1,70,0|0,1:0|2:0,1:0:0:0:
168,40,184604,2,0,B|160:80|160:109,1,70,4|4,2:0|2:0,2:0:0:0:
160,128,184916,1,4,2:0:0:0:
160,152,185020,5,4,1:0:0:0:
256,336,185229,1,2,2:0:0:0:
109,288,185437,2,0,B|80:288|40:296,1,70,4|0,2:0|2:0,2:0:0:0:
304,200,185854,2,0,B|333:199|373:207,1,70,0|4,1:0|2:0,1:0:0:0:
469,335,186270,2,0,B|440:336|400:328,1,70,4|0,1:0|2:0,1:0:0:0:
72,320,186687,5,4,1:0:0:0:
48,200,186895,1,0,1:0:0:0:
176,56,187104,5,0,1:0:0:0:
152,176,187312,1,0,1:0:0:0:
248,360,187520,5,0,1:0:0:0:
224,240,187729,1,0,1:0:0:0:
352,96,187937,5,0,1:0:0:0:
328,216,188145,1,0,1:0:0:0:
384,344,188354,6,0,B|316:325,1,70,4|0,1:0|1:0,1:0:0:0:
352,96,188770,2,0,B|420:115,1,70,0|0,1:0|1:0,1:0:0:0:
245,176,189187,2,0,B|176:160,1,70,0|0,1:0|1:0,1:0:0:0:
56,240,189604,2,0,B|125:256,1,70,0|0,1:0|1:0,1:0:0:0:
96,104,190020,6,0,B|77:62,7,35,4|0|0|0|0|0|0|0,1:0|1:0|1:0|1:0|1:0|1:0|1:0|1:0,1:0:0:0:
416,104,190854,2,0,B|435:62,7,35,4|0|0|0|0|0|0|0,1:0|1:0|1:0|1:0|1:0|1:0|1:0|1:0,1:0:0:0:
404,125,191687,1,4,1:0:0:0:
396,148,191791,1,0,1:0:0:0:
392,172,191895,1,0,1:0:0:0:
393,196,191999,1,0,1:0:0:0:
399,219,192104,1,8,1:0:0:0:
408,241,192208,1,8,1:0:0:0:
420,261,192312,1,8,1:0:0:0:
435,280,192416,1,8,1:0:0:0:
410,283,192520,1,8,1:0:0:0:
385,286,192624,1,8,1:0:0:0:
360,289,192729,1,8,1:0:0:0:
335,292,192833,1,8,1:0:0:0:
310,295,192937,1,4,1:0:0:0:
285,298,193041,1,0,1:0:0:0:
260,301,193145,1,0,1:0:0:0:
235,304,193249,1,0,1:0:0:0:
210,307,193354,6,2,B|168:256|104:256,1,105,4|2,1:0|1:0,1:0:0:0:
16,272,193979,1,2,1:0:0:0:
480,176,194187,1,8,1:0:0:0:
480,176,194395,1,8,1:0:0:0:
432,280,194604,1,0,1:0:0:0:
413,251,194708,1,0,1:0:0:0:
389,226,194812,1,0,1:0:0:0:
357,212,194916,1,0,1:0:0:0:
322,208,195020,6,2,B|300:172|301:125,1,70,4|0,1:0|2:0,1:0:0:0:
301,141,195333,2,2,B|244:144|171:137,1,105,2|2,1:0|1:0,1:0:0:0:
80,320,195854,2,2,B|158:226|86:110,1,210,8|6,1:0|1:0,1:0:0:0:
32,40,196479,1,8,1:0:0:0:
216,288,196687,6,2,B|252:310|299:309,1,70,4|0,1:0|2:0,1:0:0:0:
368,312,196999,2,2,B|424:312|424:312|488:320,1,105,2|2,1:0|1:0,1:0:0:0:
504,152,197520,2,2,B|456:176|456:176|288:168,1,210,8|6,1:0|1:0,1:0:0:0:
32,128,198145,1,10,1:0:0:0:
299,168,198354,6,2,B|300:128|300:128|304:80,1,70,0|0,1:0|2:0,1:0:0:0:
200,160,198666,2,2,B|200:208|200:208|192:280,1,105,2|2,1:0|1:0,1:0:0:0:
464,344,199187,1,12,1:0:0:0:
192,264,199395,1,0,1:0:0:0:
172,258,199499,1,8,1:0:0:0:
151,257,199604,1,8,1:0:0:0:
130,260,199708,1,8,1:0:0:0:
110,266,199812,1,8,1:0:0:0:
93,278,199916,1,0,1:0:0:0:
76,291,200020,6,2,B|-7:204|46:77,1,210,6|2,1:0|1:0,1:0:0:0:
304,216,200854,2,2,B|336:256|320:336,1,105,8|6,1:0|1:0,1:0:0:0:
168,160,201479,1,2,2:0:0:0:
288,72,201687,6,0,B|328:72|328:72|376:77,1,70,6|0,1:0|2:0,1:0:0:0:
472,264,202104,2,0,B|432:264|432:264|384:259,1,70,2|2,2:0|1:0,2:0:0:0:
88,312,202520,2,2,B|112:184|264:200,1,210,10|6,1:0|1:0,1:0:0:0:
352,360,203145,1,2,2:0:0:0:
392,224,203354,6,2,B|448:168|416:56,1,157.5,4|0,1:0|2:0,1:0:0:0:
112,200,204187,2,2,B|200:128|312:184,1,210.000000000001,12|6,1:0|1:0,1:0:0:0:
152,336,205229,1,4,2:0:0:0:
24,304,205437,1,2,1:0:0:0:
112,200,205645,1,2,1:0:0:0:
256,192,205749,12,0,206479,2:0:0:0:
112,200,206687,6,0,B|112:168|128:128,1,52.5000000000001,4|0,1:0|2:0,1:0:0:0:
272,16,207104,2,0,B|272:48|288:88,1,52.5000000000001,4|0,2:0|2:0,2:0:0:0:
376,224,207520,2,0,L|440:232,1,52.5000000000001,8|0,1:0|2:0,1:0:0:0:
480,360,207937,1,2,2:0:0:0:
340,362,208145,1,2,2:0:0:0:
288,232,208354,6,0,L|216:224,1,52.5000000000001,4|0,1:0|2:0,1:0:0:0:
428,230,208770,2,0,L|500:238,1,52.5000000000001,4|0,2:0|1:0,2:0:0:0:
144,320,209187,2,2,B|72:304|40:216|104:144,1,210,8|4,1:0|1:0,1:0:0:0:
97,152,209812,1,0,1:0:0:0:
304,32,210020,6,0,B|336:24|400:24,1,78.7500000000002,4|0,1:0|2:0,1:0:0:0:
344,184,210437,2,0,B|369:163|427:136,1,78.7500000000002,0|0,1:0|2:0,1:0:0:0:
456,288,210854,2,0,B|470:258|511:209,1,78.7500000000002,8|0,1:0|2:0,1:0:0:0:
512,208,211270,1,2,2:0:0:0:
344,184,211479,1,2,2:0:0:0:
232,328,211687,6,0,B|208:336|176:336,1,52.5000000000001,4|0,1:0|2:0,1:0:0:0:
400,352,212104,2,0,B|424:360|451:359,1,52.5000000000001,4|0,2:0|1:0,2:0:0:0:
344,184,212520,2,0,B|304:184|248:192,1,78.7500000000002,8|0,1:0|2:0,1:0:0:0:
40,216,212937,1,4,1:0:0:0:
40,216,213354,6,0,L|32:144,1,52.5000000000001,4|2,1:0|2:0,1:0:0:0:
32,32,213770,1,6,2:0:0:0:
32,32,213874,1,0,2:0:0:0:
32,32,213979,1,2,2:0:0:0:
265,189,214187,2,2,B|289:253|265:365,1,157.5,8|0,1:0|2:0,1:0:0:0:
264,376,214604,1,2,2:0:0:0:
128,352,214812,1,2,2:0:0:0:
96,200,215020,6,0,L|40:184,1,52.5000000000001,4|0,1:0|2:0,1:0:0:0:
256,96,215437,2,0,L|276:47,1,52.5000000000001,4|0,2:0|1:0,2:0:0:0:
440,248,215854,2,2,B|408:296|408:296|320:320|256:240,1,210,8|0,1:0|2:0,1:0:0:0:
248,232,216270,1,0,1:0:0:0:
248,232,216479,1,0,1:0:0:0:
136,72,216687,6,0,B|152:96|144:144,1,52.5000000000001,4|0,1:0|2:0,1:0:0:0:
24,288,217104,2,0,L|88:288,1,52.5000000000001,4|0,2:0|1:0,2:0:0:0:
248,232,217520,2,2,B|232:208|240:160,1,52.5000000000001,8|0,1:0|2:0,1:0:0:0:
360,16,217937,2,0,L|296:16,1,52.5000000000001,0|0,1:0|1:0,1:0:0:0:
296,352,218354,2,0,B|352:368|409:344,1,105,4|4,1:0|1:0,1:0:0:0:
504,328,218979,1,0,1:0:0:0:
256,192,219187,12,0,219812,2:0:0:0:
109,142,220020,6,0,B|85:115|76:51,1,70,4|2,1:0|2:0,1:0:0:0:
188,129,220437,1,6,2:0:0:0:
224,202,220645,1,2,2:0:0:0:
165,259,220854,1,6,2:0:0:0:
96,219,221062,1,0,2:0:0:0:
96,219,221270,1,4,2:0:0:0:
224,202,221479,1,0,2:0:0:0:
352,184,221687,6,0,B|379:129|416:104,1,70,4|2,1:0|2:0,1:0:0:0:
406,302,222104,1,6,2:0:0:0:
297,384,222312,1,2,2:0:0:0:
187,321,222520,1,6,2:0:0:0:
224,202,222729,1,0,2:0:0:0:
224,202,222937,2,0,B|242:174|248:136,1,70,4|0,2:0|2:0,2:0:0:0:
384,312,223354,6,0,B|408:280|464:248,1,70,4|2,1:0|2:0,1:0:0:0:
328,88,223770,1,6,2:0:0:0:
126,229,223979,2,0,B|134:197|126:133,1,70,2|6,2:0|2:0,2:0:0:0:
128,16,224395,1,0,2:0:0:0:
128,16,224604,2,0,L|8:24,1,105,4|0,2:0|2:0,2:0:0:0:
0,24,225020,5,4,1:0:0:0:
129,160,225229,2,2,L|209:152,1,70,6|2,2:0|2:0,2:0:0:0:
328,88,225645,1,6,2:0:0:0:
352,272,225854,2,0,L|256:282,1,70,6|0,2:0|2:0,2:0:0:0:
160,368,226270,2,0,B|144:328|160:280,1,70,4|0,2:0|2:0,2:0:0:0:
199,154,226687,5,4,1:0:0:0:
328,88,226895,1,2,2:0:0:0:
411,213,227104,1,6,2:0:0:0:
282,279,227312,1,2,2:0:0:0:
199,154,227520,2,0,B|183:106|199:58,1,70,4|0,1:0|2:0,1:0:0:0:
424,64,227937,1,2,1:0:0:0:
424,64,228145,1,2,1:0:0:0:
282,279,228354,5,4,1:0:0:0:
136,328,228562,1,2,2:0:0:0:
48,200,228770,1,6,2:0:0:0:
199,154,228979,1,2,2:0:0:0:
282,279,229187,2,0,B|298:311|290:367,1,70,4|0,1:0|2:0,1:0:0:0:
48,376,229604,2,0,B|40:336|48:280,1,70,2|2,1:0|1:0,1:0:0:0:
199,154,230020,6,0,B|256:148|319:162,1,105,4|0,1:0|2:0,1:0:0:0:
396,352,230437,6,0,B|339:358|276:344,1,105,4|0,1:0|2:0,1:0:0:0:
80,240,230854,6,0,B|48:176|64:112,1,105,4|0,1:0|2:0,1:0:0:0:
248,0,231270,6,0,B|280:64|264:128,1,105,4|0,1:0|2:0,1:0:0:0:
256,192,231687,12,0,233354,2:0:0:0:
