osu file format v14

[General]
AudioFilename: audio.mp3
AudioLeadIn: 0
PreviewTime: 55059
Countdown: 0
SampleSet: Normal
StackLeniency: 0.7
Mode: 0
LetterboxInBreaks: 0
WidescreenStoryboard: 0

[Editor]
Bookmarks: 20602,51459,52144,75459,78202,79573,80259,80944,81630,82316,83002,83173,83344,83687,86430
DistanceSpacing: 0.8
BeatDivisor: 4
GridSize: 4
TimelineZoom: 1.900004

[Metadata]
Title:Babel
TitleUnicode:Babel
Artist:Nizikawa feat. nayuta
ArtistUnicode:Nizikawa feat. nayuta
Creator:october
Version:Moonlight
Source:BMS/'16
Tags:
BeatmapID:1163606
BeatmapSetID:549514

[Difficulty]
HPDrainRate:7
CircleSize:4
OverallDifficulty:8.5
ApproachRate:9.3
SliderMultiplier:2
SliderTickRate:1

[Events]
//Background and Video events
0,0,"Konachan.com - 232669 sample.jpg",0,0
//Break Periods
//Storyboard Layer 0 (Background)
//Storyboard Layer 1 (Fail)
//Storyboard Layer 2 (Pass)
//Storyboard Layer 3 (Foreground)
//Storyboard Sound Samples

[TimingPoints]
1402,342.857142857143,4,1,0,100,1,0
4144,-100,4,2,0,50,0,0
5516,-166.666666666667,4,1,0,50,0,0
7230,-100,4,1,0,100,0,0
9373,-100,4,1,0,5,0,0
9630,-100,4,1,0,68,0,0
10316,-200,4,1,0,68,0,0
10830,-166.666666666667,4,1,0,68,0,0
11516,-200,4,1,0,68,0,0
12373,-100,4,1,0,68,0,0
13744,-142.857142857143,4,1,0,68,0,0
14430,-100,4,1,0,68,0,0
16316,-142.857142857143,4,1,0,68,0,0
17344,-100,4,1,0,68,0,0
19402,-100,4,1,0,13,0,0
19916,-100,4,1,0,68,0,0
21287,-200,4,1,0,68,0,0
21802,-166.666666666667,4,1,0,68,0,0
22659,-200,4,1,0,68,0,0
23344,-100,4,1,0,68,0,0
24716,-142.857142857143,4,1,0,68,0,0
26087,-100,4,1,0,68,0,0
27287,-142.857142857143,4,1,0,68,0,0
27973,-100,4,1,0,68,0,0
30459,-100,4,1,0,44,0,0
30630,-100,4,1,0,11,0,0
30887,-100,4,1,0,100,0,0
30887,-100,4,1,0,75,0,0
53516,-50,4,1,0,100,0,0
53773,-50,4,1,0,60,0,0
54030,-50,4,1,0,18,0,0
54373,-100,4,1,0,100,0,0
56259,-83.3333333333333,4,1,0,100,0,1
83687,-83.3333333333333,4,1,0,100,0,0

[Colours]
Combo1 : 255,128,192
Combo2 : 0,128,192

[HitObjects]
140,108,4144,5,0,0:0:0:0:
328,188,4487,5,0,0:0:0:0:
328,188,4830,1,0,0:0:0:0:
136,108,5516,2,0,P|96:136|88:176,1,59.9999981689454
160,176,5859,1,0,0:0:0:0:
228,144,6030,2,0,P|216:232|192:248,1,119.999996337891
124,244,6544,2,0,P|196:320|240:308,1,119.999996337891
256,192,7230,12,0,9459,0:0:0:0:
204,92,9630,5,0,0:0:0:0:
100,128,9802,1,0,0:0:0:0:
124,236,9973,1,0,0:0:0:0:
232,232,10144,1,0,0:0:0:0:
320,124,10316,6,0,P|280:140|264:160,1,50
332,196,10659,1,0,0:0:0:0:
276,260,10830,2,0,B|196:220|192:80|88:112|88:112,1,239.999992675781
108,184,11687,5,0,0:0:0:0:
44,220,11859,2,0,P|80:252|100:256,1,50
152,248,12202,1,0,0:0:0:0:
292,304,12373,6,0,P|344:200|312:168,1,100
224,156,12716,1,0,0:0:0:0:
320,88,12887,1,0,0:0:0:0:
420,152,13059,1,0,0:0:0:0:
356,252,13230,1,0,0:0:0:0:
252,308,13402,1,0,0:0:0:0:
164,228,13573,1,0,0:0:0:0:
256,168,13744,2,0,P|332:96|264:32,1,200
164,228,14430,5,0,0:0:0:0:
256,240,14602,1,0,0:0:0:0:
356,216,14773,1,0,0:0:0:0:
436,140,14944,1,0,0:0:0:0:
316,116,15116,6,0,B|260:100|260:100|184:16,1,100
152,112,15459,2,0,B|200:156|200:156|216:224,1,100
132,192,15802,2,0,B|88:152|88:152|-16:76,1,100
192,40,16144,1,0,0:0:0:0:
192,40,16316,2,0,P|268:104|192:220,1,209.999993591309
256,308,17344,5,0,0:0:0:0:
344,264,17516,1,0,0:0:0:0:
388,176,17687,1,0,0:0:0:0:
304,120,17859,2,0,B|276:160|276:160|264:212,1,100
188,148,18202,2,0,B|228:96|228:96|288:40,1,100
352,52,18544,5,0,0:0:0:0:
428,116,18716,1,0,0:0:0:0:
348,176,18887,1,0,0:0:0:0:
432,228,19059,2,0,B|372:284|372:284|300:288,1,150
284,272,19402,2,0,L|252:244,12,25
232,272,20602,5,0,0:3:0:0:
336,236,20774,1,0,0:3:0:0:
312,128,20945,1,0,0:3:0:0:
204,132,21116,1,0,0:3:0:0:
116,240,21288,6,0,P|156:224|172:204,1,50,0|0,0:3|0:3,0:3:0:0:
104,168,21631,1,0,0:3:0:0:
160,104,21802,2,0,B|240:143|244:283|348:252|348:252,1,239.999992675781,0|0,0:3|0:3,0:3:0:0:
328,180,22659,5,0,0:3:0:0:
392,144,22831,2,0,P|356:112|336:108,1,50,0|0,0:3|0:3,0:3:0:0:
284,116,23174,1,0,0:3:0:0:
144,60,23345,6,0,P|92:163|124:196,1,100,0|0,0:3|0:3,0:3:0:0:
212,208,23688,1,0,0:3:0:0:
116,276,23859,1,0,0:3:0:0:
16,212,24031,1,0,0:3:0:0:
80,112,24202,1,0,0:3:0:0:
184,56,24374,1,0,0:3:0:0:
272,136,24545,1,0,0:3:0:0:
180,196,24716,2,0,P|104:267|172:332,1,200,0|0,0:3|0:3,0:3:0:0:
272,136,25402,5,0,0:3:0:0:
180,124,25574,1,0,0:3:0:0:
80,148,25745,1,0,0:3:0:0:
0,224,25916,1,0,0:3:0:0:
120,248,26088,6,0,B|176:264|176:264|252:347,1,100,0|0,0:3|0:3,0:3:0:0:
284,252,26431,2,0,B|236:208|236:208|220:140,1,100,0|0,0:3|0:3,0:3:0:0:
304,172,26774,2,0,B|347:212|347:212|452:288,1,100,0|0,0:3|0:3,0:3:0:0:
244,324,27116,1,0,0:3:0:0:
244,324,27288,2,0,P|168:260|244:143,1,209.999993591309,0|0,0:3|0:3,0:3:0:0:
300,172,27974,6,0,P|280:84|244:60,1,104.999996795654,0|0,0:3|0:3,0:3:0:0:
180,56,28316,1,0,0:3:0:0:
92,100,28488,1,0,0:3:0:0:
48,188,28659,1,0,0:3:0:0:
132,244,28831,2,0,B|160:203|160:203|172:152,1,100,0|0,0:3|0:3,0:3:0:0:
248,216,29174,2,0,B|208:268|208:268|148:324,1,100,0|0,0:3|0:3,0:3:0:0:
84,312,29516,5,0,0:3:0:0:
8,248,29688,1,0,0:3:0:0:
88,188,29859,1,0,0:3:0:0:
4,136,30031,2,0,B|63:80|63:80|135:76,1,150,0|0,0:3|0:3,0:3:0:0:
152,92,30374,2,0,L|184:120,12,25,0|0|0|0|0|0|0|0|0|0|0|0|0,0:3|0:3|0:3|0:3|0:3|0:3|0:3|0:3|0:3|0:3|0:3|0:3|0:3,0:3:0:0:
248,220,31059,5,0,0:0:0:0:
92,244,31230,1,0,0:0:0:0:
232,164,31402,1,0,0:0:0:0:
188,264,31573,6,0,P|316:272|348:236,1,100
344,140,31916,1,0,0:0:0:0:
424,280,32087,1,0,0:0:0:0:
424,280,32173,1,0,0:0:0:0:
424,280,32259,2,0,P|468:192|456:152,1,100
416,44,32602,1,0,0:0:0:0:
280,124,32773,5,0,0:0:0:0:
440,136,32944,1,0,0:0:0:0:
308,228,33116,1,0,0:0:0:0:
308,228,33202,1,0,0:0:0:0:
308,228,33287,2,0,P|192:184|192:104,1,200
340,72,33802,5,0,0:0:0:0:
416,212,33973,1,0,0:0:0:0:
396,16,34144,1,0,0:0:0:0:
320,268,34316,2,0,P|224:224|208:192,1,100
252,72,34659,1,0,0:0:0:0:
360,188,34830,1,0,0:0:0:0:
360,188,34916,1,0,0:0:0:0:
360,188,35002,2,0,P|400:88|328:32,1,200
196,116,35516,5,0,0:0:0:0:
248,268,35687,2,0,P|304:168|288:144,1,100
300,40,36030,1,0,0:0:0:0:
224,184,36202,1,0,0:0:0:0:
224,184,36287,1,0,0:0:0:0:
224,184,36373,2,0,P|132:148|124:112,1,100
240,32,36716,1,0,0:0:0:0:
324,168,36887,1,0,0:0:0:0:
160,44,37059,2,0,P|256:100|324:48,1,200
480,40,37573,5,0,0:3:0:0:
320,156,37744,1,0,0:3:0:0:
480,232,37916,1,0,0:3:0:0:
383,116,38087,6,0,P|255:108|223:143,1,100,0|0,0:3|0:3,0:3:0:0:
227,240,38430,1,0,0:3:0:0:
147,100,38601,1,0,0:3:0:0:
147,100,38687,1,0,0:3:0:0:
147,100,38773,2,0,P|103:188|115:227,1,100,0|0,0:3|0:3,0:3:0:0:
155,336,39116,1,0,0:3:0:0:
291,256,39287,5,0,0:3:0:0:
131,244,39458,1,0,0:3:0:0:
263,151,39630,1,0,0:3:0:0:
263,151,39716,1,0,0:3:0:0:
263,151,39801,2,0,P|379:195|379:275,1,200,0|0,0:3|0:3,0:3:0:0:
231,308,40316,5,0,0:3:0:0:
155,167,40487,1,0,0:3:0:0:
175,364,40658,1,0,0:3:0:0:
251,112,40830,2,0,P|347:156|363:188,1,100,0|0,0:3|0:3,0:3:0:0:
319,308,41173,1,0,0:3:0:0:
211,192,41344,1,0,0:3:0:0:
211,192,41430,1,0,0:3:0:0:
211,192,41516,2,0,P|171:292|243:348,1,200,0|0,0:3|0:3,0:3:0:0:
375,264,42030,5,0,0:3:0:0:
323,112,42201,2,0,P|267:212|283:236,1,100,0|0,0:3|0:3,0:3:0:0:
271,340,42544,1,0,0:3:0:0:
347,195,42716,1,0,0:3:0:0:
347,195,42801,1,0,0:3:0:0:
347,195,42887,2,0,P|439:231|447:267,1,100,0|0,0:3|0:3,0:3:0:0:
331,348,43230,1,0,0:3:0:0:
247,212,43401,1,0,0:3:0:0:
411,336,43573,2,0,P|315:280|247:332,1,200,0|0,0:3|0:3,0:3:0:0:
68,384,44087,5,0,0:3:0:0:
228,268,44258,1,0,0:3:0:0:
68,192,44430,1,0,0:3:0:0:
165,308,44601,6,0,P|293:315|325:280,1,100,0|0,0:3|0:3,0:3:0:0:
321,184,44944,1,0,0:3:0:0:
401,324,45115,1,0,0:3:0:0:
401,324,45201,1,0,0:3:0:0:
401,324,45287,2,0,P|445:236|433:196,1,100,0|0,0:3|0:3,0:3:0:0:
393,88,45630,1,0,0:3:0:0:
257,168,45801,5,0,0:3:0:0:
417,180,45972,1,0,0:3:0:0:
285,273,46144,1,0,0:3:0:0:
285,273,46230,1,0,0:3:0:0:
285,273,46315,2,0,P|169:228|169:148,1,200,0|0,0:3|0:3,0:3:0:0:
317,116,46830,5,0,0:3:0:0:
393,257,47001,1,0,0:3:0:0:
373,60,47172,1,0,0:3:0:0:
297,312,47344,2,0,P|201:268|185:235,1,100,0|0,0:3|0:3,0:3:0:0:
229,116,47687,1,0,0:3:0:0:
337,232,47858,1,0,0:3:0:0:
337,232,47944,1,0,0:3:0:0:
337,232,48030,2,0,P|377:132|305:76,1,200,0|0,0:3|0:3,0:3:0:0:
173,160,48544,5,0,0:3:0:0:
225,312,48715,2,0,P|281:211|265:187,1,100,0|0,0:3|0:3,0:3:0:0:
277,84,49058,1,0,0:3:0:0:
201,229,49230,1,0,0:3:0:0:
201,229,49315,1,0,0:3:0:0:
201,229,49401,2,0,P|109:192|101:156,1,100,0|0,0:3|0:3,0:3:0:0:
217,76,49744,1,0,0:3:0:0:
301,212,49915,1,0,0:3:0:0:
137,88,50087,2,0,P|232:143|301:92,1,200,0|0,0:3|0:3,0:3:0:0:
452,60,50602,5,0,0:0:0:0:
336,184,50773,1,0,0:0:0:0:
336,184,50859,1,0,0:0:0:0:
336,184,50944,1,0,0:0:0:0:
176,92,51116,5,0,0:0:0:0:
104,244,51287,1,0,0:0:0:0:
276,232,51459,1,0,0:0:0:0:
276,232,51544,1,0,0:0:0:0:
276,232,51630,1,0,0:0:0:0:
360,104,51802,5,0,0:0:0:0:
208,152,51973,1,0,0:0:0:0:
444,200,52144,1,0,0:0:0:0:
444,200,52230,1,0,0:0:0:0:
444,200,52316,1,0,0:0:0:0:
360,104,52487,6,0,P|272:56|236:64,1,100
160,84,52830,1,0,0:0:0:0:
140,120,52916,1,0,0:0:0:0:
136,160,53002,1,0,0:0:0:0:
152,196,53088,1,0,0:0:0:0:
180,224,53173,5,0,0:0:0:0:
220,232,53259,1,0,0:0:0:0:
260,220,53345,1,0,0:0:0:0:
296,208,53430,1,0,0:0:0:0:
336,216,53516,2,0,P|364:232|384:260,20,50
216,128,54544,5,0,0:0:0:0:
172,272,54716,1,0,0:0:0:0:
300,80,55573,5,0,0:0:0:0:
300,80,55916,1,0,0:0:0:0:
300,256,56259,6,2,P|232:296|156:252,1,119.999996337891
84,148,56602,1,0,0:0:0:0:
304,152,56773,1,0,0:0:0:0:
304,152,56859,1,0,0:0:0:0:
304,152,56944,2,0,P|360:104|332:24,1,119.999996337891
464,280,57287,6,0,P|364:276|336:308,1,119.999996337891
220,108,57630,1,0,0:0:0:0:
108,320,57802,1,0,0:0:0:0:
108,320,57887,1,0,0:0:0:0:
108,320,57973,2,0,P|44:224|68:184,1,119.999996337891
276,180,58316,6,0,P|244:264|172:272,1,119.999996337891
112,60,58659,2,0,P|184:32|252:40,1,119.999996337891
428,104,59002,2,0,P|440:228|336:300,1,239.999992675781
220,100,59516,1,0,0:0:0:0:
28,244,59687,6,0,P|132:276|192:252,1,119.999996337891
308,104,60030,1,0,0:0:0:0:
76,176,60202,1,0,0:0:0:0:
76,176,60287,1,0,0:0:0:0:
76,176,60373,2,0,P|100:96|140:80,1,119.999996337891
248,60,60716,1,0,0:0:0:0:
296,56,60802,1,0,0:0:0:0:
340,72,60887,1,0,0:0:0:0:
376,104,60973,1,0,0:0:0:0:
400,144,61059,2,0,P|408:224|384:264,1,119.999996337891
112,284,61402,5,0,0:0:0:0:
208,136,61573,1,0,0:0:0:0:
388,284,61744,1,0,0:0:0:0:
280,136,61916,1,0,0:0:0:0:
180,312,62087,1,0,0:0:0:0:
144,112,62259,1,0,0:0:0:0:
268,272,62430,1,0,0:0:0:0:
80,192,62602,5,0,0:0:0:0:
244,72,62773,2,0,P|348:128|360:176,1,119.999996337891
164,216,63116,1,0,0:0:0:0:
368,208,63287,1,0,0:0:0:0:
208,284,63459,2,0,P|80:208|88:172,1,119.999996337891
200,116,63802,5,0,0:0:0:0:
240,92,63887,1,0,0:0:0:0:
288,84,63973,1,0,0:0:0:0:
336,88,64059,1,0,0:0:0:0:
380,104,64144,1,0,0:0:0:0:
416,136,64230,1,0,0:0:0:0:
436,180,64316,1,0,0:0:0:0:
432,228,64402,1,0,0:0:0:0:
396,260,64487,6,0,P|304:224|296:184,1,119.999996337891
140,108,64830,2,0,P|104:228|152:264,1,119.999996337891
276,144,65173,1,0,0:0:0:0:
208,324,65344,1,0,0:0:0:0:
200,132,65516,1,0,0:0:0:0:
288,300,65687,1,0,0:0:0:0:
252,64,65859,5,0,0:0:0:0:
160,260,66030,1,0,0:0:0:0:
176,40,66202,1,0,0:0:0:0:
340,240,66373,1,0,0:0:0:0:
72,40,66544,1,0,0:0:0:0:
256,184,66887,5,0,0:0:0:0:
376,88,67230,6,0,P|384:208|368:220,1,119.999996337891
236,304,67573,1,0,0:0:0:0:
424,280,67744,1,0,0:0:0:0:
248,200,67916,2,0,B|256:128|256:128|288:76,1,119.999996337891
452,172,68259,5,0,0:0:0:0:
288,268,68430,1,0,0:0:0:0:
356,88,68602,2,0,P|240:24|200:40,1,119.999996337891
104,132,68944,1,0,0:0:0:0:
292,180,69116,1,0,0:0:0:0:
292,180,69202,1,0,0:0:0:0:
292,180,69287,2,0,P|272:268|232:288,1,119.999996337891
96,168,69630,2,0,P|184:112|228:128,1,119.999996337891
380,148,69973,5,0,0:0:0:0:
224,260,70144,1,0,0:0:0:0:
328,92,70316,2,0,P|420:88|448:112,1,119.999996337891
296,240,70659,2,0,P|204:192|148:236,1,119.999996337891
24,300,71002,5,0,0:0:0:0:
100,112,71173,1,0,0:0:0:0:
100,112,71259,1,0,0:0:0:0:
100,112,71344,2,0,P|184:112|216:144,1,119.999996337891
304,316,71687,5,0,0:0:0:0:
424,148,71859,1,0,0:0:0:0:
232,216,72030,1,0,0:0:0:0:
352,48,72202,1,0,0:0:0:0:
168,132,72373,1,0,0:0:0:0:
356,208,72544,1,0,0:0:0:0:
356,208,72630,1,0,0:0:0:0:
356,208,72716,6,0,P|272:296|248:296,1,119.999996337891
96,160,73059,2,0,P|144:64|196:60,1,119.999996337891
356,132,73402,2,0,P|432:216|424:260,1,119.999996337891
232,256,73744,2,0,P|232:160|264:136,1,119.999996337891
424,56,74087,2,0,P|488:136|480:164,1,119.999996337891
256,320,74430,2,0,P|180:304|164:240,1,119.999996337891
216,72,74773,2,0,P|328:92|344:116,1,119.999996337891
152,196,75116,6,0,P|272:236|304:220,1,119.999996337891
444,156,75459,1,0,0:0:0:0:
444,156,75544,1,0,0:0:0:0:
444,156,75630,1,0,0:0:0:0:
244,308,75802,5,0,0:0:0:0:
260,68,75973,1,0,0:0:0:0:
400,264,76144,1,0,0:0:0:0:
184,156,76316,1,0,0:0:0:0:
416,92,76487,1,0,0:0:0:0:
264,280,76659,1,0,0:0:0:0:
200,80,76830,6,0,P|104:156|104:180,1,119.999996337891
260,352,77173,1,0,0:0:0:0:
256,132,77344,1,0,0:0:0:0:
260,352,77516,1,0,0:0:0:0:
84,132,77687,1,0,0:0:0:0:
260,352,77859,1,0,0:0:0:0:
424,136,78030,5,0,0:0:0:0:
200,224,78202,1,0,0:0:0:0:
200,224,78287,1,0,0:0:0:0:
200,224,78373,1,0,0:0:0:0:
440,248,78544,1,0,0:0:0:0:
264,84,78716,1,0,0:0:0:0:
368,264,78887,2,0,P|464:320|524:264,1,119.999996337891
140,264,79230,2,0,P|36:344|4:336,1,119.999996337891
216,128,79573,5,0,0:0:0:0:
216,128,79659,1,0,0:0:0:0:
216,128,79744,1,0,0:0:0:0:
400,284,79916,1,0,0:0:0:0:
292,72,80087,1,0,0:0:0:0:
168,280,80259,2,0,B|134:216|134:216|124:144,1,119.999996337891
404,104,80602,2,0,B|376:168|376:168|312:224|308:224,1,119.999996337891
144,60,80944,5,0,0:0:0:0:
144,60,81030,1,0,0:0:0:0:
144,60,81116,1,0,0:0:0:0:
296,244,81287,2,0,P|196:228|176:200,1,119.999996337891
344,36,81630,5,0,0:0:0:0:
344,36,81716,1,0,0:0:0:0:
344,36,81802,1,0,0:0:0:0:
412,264,81973,2,0,P|464:188|440:140,1,119.999996337891
220,156,82316,5,0,0:0:0:0:
220,156,82402,1,0,0:0:0:0:
220,156,82487,1,0,0:0:0:0:
452,88,82659,2,0,P|412:156|368:160,1,119.999996337891
260,40,83002,5,0,0:0:0:0:
220,36,83087,1,0,0:0:0:0:
180,44,83173,1,0,0:0:0:0:
144,64,83259,1,0,0:0:0:0:
112,100,83344,5,0,0:0:0:0:
84,140,83430,1,0,0:0:0:0:
84,188,83516,1,0,0:0:0:0:
100,232,83602,1,0,0:0:0:0:
92,280,83687,1,0,0:0:0:0:
256,192,83773,12,0,86087,0:0:0:0:
